osu file format v14

[General]
AudioFilename: Kimi no tame nara shineru.mp3
AudioLeadIn: 0
PreviewTime: 24776
Countdown: 0
SampleSet: Normal
StackLeniency: 0.7
Mode: 0
LetterboxInBreaks: 0
WidescreenStoryboard: 0

[Editor]
DistanceSpacing: 1.4
BeatDivisor: 4
GridSize: 4
TimelineZoom: 1.45

[Metadata]
Title:Kimi no Tame Nara Shineru
TitleUnicode:きみのためなら死ねる
Artist:Love Rabbits
ArtistUnicode:Love Rabbits
Creator:Evrien
Version:Rabbit!
Source:きみのためなら死ねる
Tags:rhythm weird
BeatmapID:899107
BeatmapSetID:414838

[Difficulty]
HPDrainRate:5
CircleSize:4
OverallDifficulty:7.5
ApproachRate:9
SliderMultiplier:1.2
SliderTickRate:1

[Events]
//Background and Video events
0,0,"Daily+life+of+high+school+boys+ova+1+or+_d5f84ab92bc3b74c6aaadf1104403073.jpg",0,0
//Break Periods
2,13351,18739
2,37350,42739
2,103351,108739
2,169444,174739
2,205351,216739
//Storyboard Layer 0 (Background)
//Storyboard Layer 1 (Fail)
//Storyboard Layer 2 (Pass)
//Storyboard Layer 3 (Foreground)
//Storyboard Sound Samples

[TimingPoints]
1339.38425925926,375,4,1,0,100,1,0
19339,-200,4,1,0,100,0,0
25339,-100,4,1,0,100,0,0
43339,-200,4,1,0,100,0,0
49339,-100,4,1,0,100,0,0
109339,-200,4,1,0,100,0,0
115339,-100,4,1,0,100,0,0
175339,-200,4,1,0,100,0,0
179839,-66.6666666666667,4,1,0,100,0,0
180964,-100,4,1,0,100,0,0
186776,-50,4,1,0,100,0,0
186964,-100,4,1,0,100,0,0
265339,-200,4,1,0,100,0,0
271339,-100,4,1,0,100,0,0

[HitObjects]
108,212,1339,5,0,0:0:0:0:
172,264,1526,1,0,0:0:0:0:
252,292,1714,1,0,0:0:0:0:
336,300,1901,1,0,0:0:0:0:
432,228,2089,6,0,B|464:224|480:248|468:268,1,60
344,220,2464,2,0,B|320:200|340:192|384:200,1,60
472,128,2839,5,0,0:0:0:0:
408,76,3026,1,0,0:0:0:0:
328,48,3214,1,0,0:0:0:0:
244,40,3401,1,0,0:0:0:0:
132,60,3589,6,0,P|100:72|88:96,1,60
176,132,3964,2,0,P|212:120|232:128,1,60
376,124,4339,6,0,L|348:188,3,60
308,252,5089,1,0,0:0:0:0:
244,304,5276,1,0,0:0:0:0:
160,316,5464,1,0,0:0:0:0:
76,304,5651,1,0,0:0:0:0:
112,124,5839,6,0,L|140:188,3,60
180,252,6589,1,0,0:0:0:0:
244,304,6776,1,0,0:0:0:0:
328,316,6964,1,0,0:0:0:0:
412,304,7151,1,0,0:0:0:0:
336,120,7339,5,0,0:0:0:0:
440,304,7526,1,0,0:0:0:0:
240,232,7714,1,0,0:0:0:0:
404,144,7901,1,0,0:0:0:0:
280,312,8089,1,0,0:0:0:0:
288,76,8276,1,0,0:0:0:0:
432,216,8464,1,0,0:0:0:0:
184,160,8651,1,0,0:0:0:0:
376,92,8839,6,0,P|320:88|304:108,2,60
460,192,9401,1,0,0:0:0:0:
296,168,9589,2,0,P|312:200|336:216,1,60
252,240,9964,2,0,P|280:288|300:292,1,60
116,172,10339,5,0,0:0:0:0:
264,36,10526,1,0,0:0:0:0:
388,224,10714,1,0,0:0:0:0:
176,336,10901,1,0,0:0:0:0:
268,124,11089,1,0,0:0:0:0:
156,204,11276,1,0,0:0:0:0:
404,320,11464,1,0,0:0:0:0:
332,68,11651,1,0,0:0:0:0:
96,72,11839,6,0,P|72:104|68:136,1,60
232,124,12214,2,0,P|252:160|256:192,1,60
136,304,12589,2,0,P|172:328|200:336,1,60
376,204,12964,2,0,P|400:256|400:280,1,60
92,120,19339,6,0,B|116:112|120:120|136:132|148:136,1,60
152,288,20089,2,0,B|184:296|196:284|216:288,1,60
316,164,20839,1,0,0:0:0:0:
272,304,21026,1,0,0:0:0:0:
432,232,21214,1,0,0:0:0:0:
240,200,21401,1,0,0:0:0:0:
348,60,21589,1,0,0:0:0:0:
96,152,21964,1,0,0:0:0:0:
440,124,22339,6,0,B|420:140|416:168|416:188,1,60
280,304,23089,2,0,B|260:260|272:244|268:248,1,60
88,144,23839,2,0,L|116:144,1,15
248,264,24214,2,0,L|260:256,1,15
256,68,24589,2,0,L|232:84,1,15
128,64,25339,5,0,0:0:0:0:
76,128,25526,1,0,0:0:0:0:
60,212,25714,1,0,0:0:0:0:
68,296,25901,1,0,0:0:0:0:
340,184,26089,1,0,0:0:0:0:
192,320,26276,1,0,0:0:0:0:
168,120,26464,1,0,0:0:0:0:
336,280,26651,1,0,0:0:0:0:
436,292,26839,5,0,0:0:0:0:
428,208,27026,1,0,0:0:0:0:
396,132,27214,1,0,0:0:0:0:
336,76,27401,1,0,0:0:0:0:
128,172,27589,1,0,0:0:0:0:
300,288,27776,1,0,0:0:0:0:
264,40,27964,1,0,0:0:0:0:
160,248,28151,1,0,0:0:0:0:
232,348,28339,5,0,0:0:0:0:
304,304,28526,1,0,0:0:0:0:
340,228,28714,1,0,0:0:0:0:
356,144,28901,1,0,0:0:0:0:
320,52,29089,1,0,0:0:0:0:
248,96,29276,1,0,0:0:0:0:
212,172,29464,1,0,0:0:0:0:
196,256,29651,1,0,0:0:0:0:
388,196,29839,5,0,0:0:0:0:
180,104,30026,1,0,0:0:0:0:
208,320,30214,1,0,0:0:0:0:
352,112,30401,1,0,0:0:0:0:
148,176,30589,1,0,0:0:0:0:
284,332,30776,1,0,0:0:0:0:
408,172,30964,1,0,0:0:0:0:
176,108,31151,1,0,0:0:0:0:
124,192,31339,6,0,P|112:248|124:264,1,60
264,232,31714,2,0,P|264:272|256:300,2,60
200,136,32276,1,0,0:0:0:0:
152,228,32464,2,0,P|148:260|148:304,1,60
316,308,32839,6,0,P|352:304|368:284,1,60
288,204,33214,1,0,0:0:0:0:
456,128,33401,1,0,0:0:0:0:
280,64,33589,1,0,0:0:0:0:
388,44,33776,2,0,P|364:92|360:112,2,60
177,67,34339,6,0,P|133:104|131:115,1,60
27,176,34714,1,0,0:0:0:0:
122,317,34901,1,0,0:0:0:0:
228,172,35089,1,0,0:0:0:0:
38,271,35276,2,0,P|69:248|96:252,1,60
188,283,35651,2,0,P|214:306|241:299,1,60
336,140,36026,1,0,0:0:0:0:
133,172,36214,1,0,0:0:0:0:
313,293,36401,1,0,0:0:0:0:
231,60,36589,1,0,0:0:0:0:
228,188,36776,6,0,B|250:162|268:184|298:193,2,60
333,109,43339,6,0,B|346:132|346:146|343:156|339:174,1,60
101,258,44089,2,0,B|87:292|87:307|87:307|91:325,1,60
203,122,44839,1,0,0:0:0:0:
284,267,45026,1,0,0:0:0:0:
394,116,45214,1,0,0:0:0:0:
148,166,45401,1,0,0:0:0:0:
352,259,45589,1,0,0:0:0:0:
64,344,45964,1,0,0:0:0:0:
102,91,46339,6,0,B|82:97|73:116|94:116|125:121,1,60
397,203,47089,2,0,B|409:220|385:225|361:216|340:218,1,60
234,144,47839,1,0,0:0:0:0:
240,243,48026,1,0,0:0:0:0:
234,110,48214,1,0,0:0:0:0:
240,264,48401,1,0,0:0:0:0:
233,81,48589,1,0,0:0:0:0:
96,190,48964,5,0,0:0:0:0:
357,56,49339,6,0,P|377:80|388:115,1,60
374,189,49714,1,0,0:0:0:0:
340,265,49901,1,0,0:0:0:0:
273,316,50089,1,0,0:0:0:0:
191,334,50276,1,0,0:0:0:0:
105,285,50464,2,0,L|104:347,1,60
32,272,50839,2,0,L|33:207,1,60
89,149,51214,1,0,0:0:0:0:
162,188,51401,2,0,P|199:208|227:202,1,60
297,188,51776,1,0,0:0:0:0:
371,148,51964,1,0,0:0:0:0:
160,75,52151,5,0,0:0:0:0:
330,282,52339,5,0,0:0:0:0:
253,317,52526,1,0,0:0:0:0:
168,314,52714,1,0,0:0:0:0:
95,272,52901,1,0,0:0:0:0:
134,197,53089,2,0,P|165:172|195:173,1,60
267,163,53464,2,0,P|305:157|327:140,1,60
381,85,53839,1,0,0:0:0:0:
345,241,54026,1,0,0:0:0:0:
225,52,54214,1,0,0:0:0:0:
104,158,54401,2,0,L|139:166,6,30
382,120,55339,5,0,0:0:0:0:
375,143,55433,1,0,0:0:0:0:
367,165,55526,1,0,0:0:0:0:
359,187,55620,1,0,0:0:0:0:
351,209,55714,1,0,0:0:0:0:
265,260,55901,1,0,0:0:0:0:
192,196,56089,1,0,0:0:0:0:
199,173,56183,1,0,0:0:0:0:
207,151,56276,1,0,0:0:0:0:
215,129,56370,1,0,0:0:0:0:
223,107,56464,1,0,0:0:0:0:
319,66,56651,1,0,0:0:0:0:
430,125,56839,6,0,P|441:167|433:196,1,60
330,193,57214,2,0,P|310:237|280:259,1,60
172,244,57589,2,0,L|214:292,3,60
257,126,58339,1,0,0:0:0:0:
372,274,58526,1,0,0:0:0:0:
403,56,58714,1,0,0:0:0:0:
244,255,58901,1,0,0:0:0:0:
407,174,59089,2,0,B|357:154|311:145|298:196|227:185|192:153|159:140,1,240
103,191,60026,5,0,0:0:0:0:
57,261,60214,1,0,0:0:0:0:
82,340,60401,1,0,0:0:0:0:
165,348,60589,1,0,0:0:0:0:
384,258,61339,6,0,L|362:198,1,60
261,140,61714,2,0,L|240:213,1,60
133,216,62089,2,0,B|101:237|108:267|161:275|207:258,1,120
274,246,62651,1,0,0:0:0:0:
339,193,62839,2,0,L|354:251,1,60
430,216,63214,1,0,0:0:0:0:
456,136,63401,1,0,0:0:0:0:
394,77,63589,2,0,B|345:63|317:82|307:107|273:107,1,120
220,204,64339,5,0,0:0:0:0:
328,88,64526,1,0,0:0:0:0:
116,124,64714,1,0,0:0:0:0:
276,268,64901,1,0,0:0:0:0:
224,64,65089,1,0,0:0:0:0:
420,184,65276,1,0,0:0:0:0:
200,208,65464,1,0,0:0:0:0:
336,100,65651,1,0,0:0:0:0:
256,192,65839,12,0,66964,0:0:0:0:
184,116,67339,5,0,0:0:0:0:
184,128,67526,1,0,0:0:0:0:
184,140,67714,1,0,0:0:0:0:
184,152,67901,1,0,0:0:0:0:
184,164,68089,2,0,L|184:224,3,60
272,192,68839,5,0,0:0:0:0:
284,192,69026,1,0,0:0:0:0:
296,192,69214,1,0,0:0:0:0:
312,192,69401,1,0,0:0:0:0:
324,192,69589,2,0,L|388:192,3,60
416,80,70339,6,0,P|440:112|428:152,1,60
348,316,70714,2,0,P|312:284|320:252,1,60
264,132,71089,2,0,L|320:176,2,60
160,56,71651,1,0,0:0:0:0:
104,188,71839,1,0,0:0:0:0:
108,196,71933,1,0,0:0:0:0:
112,204,72026,1,0,0:0:0:0:
208,192,72214,2,0,P|220:224|208:264,1,60
404,68,72776,1,0,0:0:0:0:
300,300,72964,1,0,0:0:0:0:
184,148,73339,6,0,L|160:168,4,30
384,216,73901,1,0,0:0:0:0:
188,340,74089,2,0,L|160:332,4,30
244,112,74651,1,0,0:0:0:0:
324,268,74839,2,0,P|364:260|388:240,1,60
384,72,75214,2,0,P|352:52|316:56,1,60
200,172,75589,5,0,0:0:0:0:
304,172,75776,1,0,0:0:0:0:
188,172,75964,1,0,0:0:0:0:
316,172,76151,1,0,0:0:0:0:
240,72,76339,1,0,0:0:0:0:
188,140,76526,1,0,0:0:0:0:
176,224,76714,1,0,0:0:0:0:
200,304,76901,1,0,0:0:0:0:
304,212,77089,6,0,P|340:248|352:280,3,60
436,244,77839,2,0,B|448:204|424:160|388:140|400:80|328:76|436:164|456:96|332:40|420:140|320:156|408:72|472:112|464:56|392:40|324:40|384:136|324:136|272:112|312:72|284:56|256:76|244:124|232:128|228:128,1,360
100,304,79339,6,0,P|152:328|164:320,1,60
196,260,79714,1,0,0:0:0:0:
276,280,79901,1,0,0:0:0:0:
348,232,80089,1,0,0:0:0:0:
376,152,80276,1,0,0:0:0:0:
304,108,80464,2,0,P|272:96|236:112,1,60
196,168,80839,2,0,L|168:128,2,30
232,244,81214,1,0,0:0:0:0:
312,224,81401,2,0,B|344:204|344:172|336:136|308:100,1,120
319,116,81964,1,0,0:0:0:0:
68,100,82339,6,0,L|68:168,1,60
168,248,82714,2,0,L|168:312,1,60
256,44,83089,2,0,L|256:112,1,60
332,288,83464,2,0,L|332:360,1,60
208,180,83839,1,0,0:0:0:0:
400,112,84026,1,0,0:0:0:0:
324,272,84214,1,0,0:0:0:0:
172,92,84401,1,0,0:0:0:0:
280,124,84589,5,0,0:0:0:0:
280,136,84683,1,0,0:0:0:0:
280,148,84776,1,0,0:0:0:0:
280,160,84870,1,0,0:0:0:0:
280,172,84964,1,0,0:0:0:0:
100,276,85339,6,0,P|128:296|156:304,1,60
296,296,85901,1,0,0:0:0:0:
360,256,86089,1,0,0:0:0:0:
192,68,86839,6,0,P|220:48|248:56,1,60
384,112,87401,1,0,0:0:0:0:
328,160,87589,1,0,0:0:0:0:
136,144,88339,6,0,P|136:188|148:204,1,60
268,156,88714,2,0,P|296:188|304:216,1,60
224,300,89089,2,0,L|288:300,2,60
140,284,89651,1,0,0:0:0:0:
344,164,89839,1,0,0:0:0:0:
384,332,90026,1,0,0:0:0:0:
208,256,90214,1,0,0:0:0:0:
300,60,90401,1,0,0:0:0:0:
104,168,90776,5,0,0:0:0:0:
444,236,90964,1,0,0:0:0:0:
304,52,91339,6,0,P|320:88|316:112,1,60
272,176,91714,2,0,P|256:232|264:256,1,60
300,304,92089,1,0,0:0:0:0:
228,348,92276,1,0,0:0:0:0:
156,308,92464,1,0,0:0:0:0:
128,228,92651,1,0,0:0:0:0:
232,60,92839,6,0,P|204:72|180:96,1,60
204,176,93214,1,0,0:0:0:0:
272,224,93401,2,0,P|292:244|324:248,1,60
372,180,93776,1,0,0:0:0:0:
360,96,93964,1,0,0:0:0:0:
288,56,94151,1,0,0:0:0:0:
104,140,94339,6,0,P|152:136|172:144,1,60
360,264,94714,2,0,P|328:260|312:292,2,60
432,104,95276,2,0,L|432:168,1,60
436,248,95651,1,0,0:0:0:0:
204,132,95839,5,0,0:0:0:0:
308,340,96026,1,0,0:0:0:0:
136,272,96214,1,0,0:0:0:0:
364,188,96401,1,0,0:0:0:0:
264,40,96589,1,0,0:0:0:0:
256,204,96776,1,0,0:0:0:0:
392,288,96964,1,0,0:0:0:0:
384,128,97151,1,0,0:0:0:0:
188,96,97339,6,0,L|208:124,1,30
296,180,97526,2,0,L|276:208,1,30
156,248,97714,2,0,L|184:256,1,30
336,300,97901,2,0,L|344:272,1,30
384,156,98089,2,0,L|344:160,1,30
220,160,98276,2,0,L|228:188,1,30
312,48,98464,2,0,L|280:52,1,30
136,96,98651,2,0,L|168:112,1,30
328,176,98839,5,0,0:0:0:0:
300,256,99026,1,0,0:0:0:0:
224,296,99214,1,0,0:0:0:0:
140,304,99401,1,0,0:0:0:0:
104,228,99589,2,0,P|144:200|164:200,1,60
176,120,99964,2,0,P|224:120|240:144,1,60
392,76,100339,5,0,0:0:0:0:
320,148,100526,2,0,L|320:212,1,60
256,284,100901,1,0,0:0:0:0:
188,216,101089,2,0,L|188:144,1,60
288,88,101464,2,0,L|352:88,1,60
120,76,101839,5,0,0:0:0:0:
192,148,102026,2,0,L|192:212,1,60
256,284,102401,1,0,0:0:0:0:
324,216,102589,2,0,L|324:144,1,60
224,88,102964,2,0,L|160:88,1,60
164,128,109339,6,0,L|204:176,1,60
400,312,110089,2,0,L|356:264,1,60
200,272,110839,1,0,0:0:0:0:
248,128,111026,1,0,0:0:0:0:
312,272,111214,1,0,0:0:0:0:
168,184,111401,1,0,0:0:0:0:
328,180,111589,1,0,0:0:0:0:
248,208,111964,1,0,0:0:0:0:
148,100,112339,6,0,B|128:136|124:152|128:164,1,60
416,192,113089,2,0,P|400:160|372:148,1,60
268,208,113839,2,0,L|272:224,1,15
268,208,114214,2,0,L|272:224,1,15
268,208,114589,2,0,L|272:224,1,15
276,232,114776,1,0,0:0:0:0:
104,60,114964,1,0,0:0:0:0:
384,88,115339,6,0,P|392:120|392:156,1,60
384,232,115714,2,0,P|376:268|344:284,1,60
288,232,116089,1,0,0:0:0:0:
224,288,116276,1,0,0:0:0:0:
160,232,116464,1,0,0:0:0:0:
96,288,116651,1,0,0:0:0:0:
52,216,116839,2,0,B|68:152|104:124|136:96|192:100|228:100|248:104,1,240
364,212,117964,1,0,0:0:0:0:
128,92,118339,5,0,0:0:0:0:
184,152,118526,1,0,0:0:0:0:
128,212,118714,1,0,0:0:0:0:
192,264,118901,1,0,0:0:0:0:
256,212,119089,1,0,0:0:0:0:
192,160,119276,1,0,0:0:0:0:
260,112,119464,1,0,0:0:0:0:
192,60,119651,1,0,0:0:0:0:
256,192,119839,12,0,120964,0:0:0:0:
120,60,121339,5,0,0:0:0:0:
120,324,121526,1,0,0:0:0:0:
176,104,121714,1,0,0:0:0:0:
176,276,121901,1,0,0:0:0:0:
232,156,122089,1,0,0:0:0:0:
232,232,122276,1,0,0:0:0:0:
296,192,122464,1,0,0:0:0:0:
296,192,122651,1,0,0:0:0:0:
296,192,122839,5,0,0:0:0:0:
296,192,123026,1,0,0:0:0:0:
232,232,123214,1,0,0:0:0:0:
232,156,123401,1,0,0:0:0:0:
176,276,123589,1,0,0:0:0:0:
176,104,123776,1,0,0:0:0:0:
120,324,123964,1,0,0:0:0:0:
120,60,124151,1,0,0:0:0:0:
232,200,124339,6,0,B|244:240|276:260|312:256|336:232,1,120
324,88,125089,2,0,B|276:56|296:112|316:120|324:176|216:92|260:80|264:84,1,120
128,140,125839,1,0,0:0:0:0:
92,216,126026,1,0,0:0:0:0:
128,292,126214,1,0,0:0:0:0:
208,320,126401,1,0,0:0:0:0:
292,304,126589,1,0,0:0:0:0:
200,124,126964,1,0,0:0:0:0:
412,212,127339,6,0,P|416:248|412:272,2,60
348,156,127901,1,0,0:0:0:0:
268,128,128089,2,0,P|232:144|228:168,1,60
264,236,128464,2,0,P|268:268|260:296,2,60
184,256,129026,1,0,0:0:0:0:
132,188,129214,1,0,0:0:0:0:
160,108,129401,1,0,0:0:0:0:
232,68,129589,2,0,P|264:76|292:104,3,60
256,192,130339,12,0,132964,0:0:0:0:
100,88,133339,6,0,L|168:88,1,60
124,164,133714,1,0,0:0:0:0:
208,164,133901,2,0,L|292:164,1,60
332,216,134276,1,0,0:0:0:0:
276,280,134464,1,0,0:0:0:0:
192,280,134651,1,0,0:0:0:0:
116,244,134839,2,0,L|72:232,4,30
132,160,135401,1,0,0:0:0:0:
208,128,135589,2,0,L|248:156,4,30
388,280,136339,5,0,0:0:0:0:
304,72,136526,1,0,0:0:0:0:
244,228,136714,1,0,0:0:0:0:
480,180,136901,1,0,0:0:0:0:
396,88,137089,1,0,0:0:0:0:
304,316,137276,1,0,0:0:0:0:
272,64,137464,1,0,0:0:0:0:
464,264,137651,1,0,0:0:0:0:
224,208,137839,1,0,0:0:0:0:
312,148,138026,1,0,0:0:0:0:
176,260,138214,1,0,0:0:0:0:
368,100,138401,1,0,0:0:0:0:
140,76,138776,5,0,0:0:0:0:
360,280,138964,1,0,0:0:0:0:
68,200,139339,6,0,L|88:224,1,30
176,108,139526,2,0,L|188:136,1,30
320,72,139714,2,0,L|312:104,1,30
424,160,139901,2,0,L|408:188,1,30
240,296,140089,6,0,L|264:276,1,30
180,200,140276,2,0,L|216:192,1,30
320,104,140464,2,0,L|304:136,1,30
380,232,140651,2,0,L|408:256,1,30
240,276,140839,6,0,L|288:312,1,60
244,280,141214,1,0,0:0:0:0:
248,284,141308,1,0,0:0:0:0:
252,288,141401,1,0,0:0:0:0:
308,168,141589,1,0,0:0:0:0:
308,168,141683,1,0,0:0:0:0:
308,168,141776,1,0,0:0:0:0:
308,168,141964,2,0,L|352:216,1,60
160,180,142339,6,0,B|184:216|216:240|240:244|288:244|336:236|344:228|296:204|228:192|216:264|272:232|324:304|244:324|144:280|192:224|88:232|104:224,1,360
92,152,143651,1,0,0:0:0:0:
128,76,143839,1,0,0:0:0:0:
208,48,144026,1,0,0:0:0:0:
292,56,144214,1,0,0:0:0:0:
364,96,144401,1,0,0:0:0:0:
420,160,144589,1,0,0:0:0:0:
404,244,144776,2,0,P|372:264|340:272,2,60
204,208,145339,5,0,0:0:0:0:
332,88,145526,1,0,0:0:0:0:
120,96,145714,1,0,0:0:0:0:
300,276,145901,1,0,0:0:0:0:
236,36,146089,1,0,0:0:0:0:
204,260,146276,1,0,0:0:0:0:
64,112,146464,1,0,0:0:0:0:
316,156,146651,1,0,0:0:0:0:
120,268,146839,2,0,L|144:288,4,30
208,148,147401,1,0,0:0:0:0:
328,240,147589,2,0,L|340:272,4,30
120,152,148339,6,0,P|112:188|128:220,1,60
196,176,148714,1,0,0:0:0:0:
172,256,148901,2,0,P|172:288|212:280,1,60
256,240,149276,2,0,B|276:244|280:224|292:232|300:248|312:256,2,60
256,324,149839,1,0,0:0:0:0:
256,240,150026,1,0,0:0:0:0:
256,316,150214,1,0,0:0:0:0:
260,176,150401,1,0,0:0:0:0:
256,308,150589,1,0,0:0:0:0:
260,104,150776,1,0,0:0:0:0:
120,196,150964,1,0,0:0:0:0:
400,196,151151,1,0,0:0:0:0:
160,132,151714,5,0,0:0:0:0:
168,140,151901,1,0,0:0:0:0:
224,320,152464,1,0,0:0:0:0:
160,132,153214,5,0,0:0:0:0:
168,140,153401,1,0,0:0:0:0:
224,320,153964,1,0,0:0:0:0:
160,132,154714,5,0,0:0:0:0:
168,140,154901,1,0,0:0:0:0:
224,320,155464,1,0,0:0:0:0:
128,280,156776,5,0,0:0:0:0:
420,76,156964,1,0,0:0:0:0:
160,72,157339,6,0,P|144:112|148:132,1,60
232,128,157714,2,0,P|240:160|236:200,2,60
304,84,158276,1,0,0:0:0:0:
384,112,158464,2,0,P|420:136|420:168,1,60
420,336,158839,6,0,P|436:296|432:276,1,60
348,280,159214,2,0,P|340:248|344:208,2,60
276,324,159776,1,0,0:0:0:0:
196,296,159964,2,0,P|160:272|160:240,1,60
320,124,160339,5,0,0:0:0:0:
144,268,160526,1,0,0:0:0:0:
368,308,160714,1,0,0:0:0:0:
216,104,160901,1,0,0:0:0:0:
264,332,161089,1,0,0:0:0:0:
392,124,161276,1,0,0:0:0:0:
152,212,161464,1,0,0:0:0:0:
368,272,161651,1,0,0:0:0:0:
228,80,161839,6,0,P|204:124|204:152,1,60
52,280,162214,2,0,P|80:320|112:324,1,60
284,264,162589,2,0,P|276:236|240:232,1,60
84,120,162964,2,0,B|80:168|52:136|76:172|96:168|104:168,1,60
212,176,163339,6,0,L|232:204,2,30
276,120,163714,1,0,0:0:0:0:
360,132,163901,1,0,0:0:0:0:
388,212,164089,2,0,L|348:232,2,30
380,296,164464,1,0,0:0:0:0:
308,252,164651,1,0,0:0:0:0:
344,80,164839,6,0,P|312:72|280:76,1,60
224,132,165214,1,0,0:0:0:0:
192,208,165401,2,0,B|200:256|180:244|212:240|236:240,1,60
296,208,165776,1,0,0:0:0:0:
368,164,165964,2,0,B|404:184|380:172|400:192|404:164|408:140|408:168|416:172,1,60
420,252,166339,6,0,L|420:288,1,30
384,252,166526,2,0,L|384:296,1,30
352,252,166714,2,0,L|352:292,1,30
316,252,166901,2,0,L|316:288,1,30
280,248,167089,6,0,L|244:248,1,30
280,212,167276,2,0,L|236:212,1,30
280,180,167464,2,0,L|240:180,1,30
280,144,167651,2,0,L|244:144,1,30
148,80,167839,6,0,L|120:104,1,30
164,108,168026,2,0,L|136:132,1,30
184,140,168214,2,0,L|156:164,1,30
204,168,168401,2,0,L|176:192,1,30
224,196,168589,6,0,L|248:224,1,30
252,180,168776,2,0,L|276:208,1,30
284,160,168964,2,0,L|308:188,1,30
312,140,169151,2,0,L|336:168,1,30
164,132,175339,6,0,B|160:168|180:152|188:156|216:164|192:144|208:156,1,60
408,260,176089,2,0,B|364:232|384:248|396:256|360:260,1,60
152,296,176839,1,0,0:0:0:0:
256,64,177026,1,0,0:0:0:0:
380,192,177214,1,0,0:0:0:0:
160,168,177401,1,0,0:0:0:0:
344,296,177589,1,0,0:0:0:0:
252,176,177964,2,0,B|288:144|276:156|240:140,2,60
160,184,179089,2,0,B|168:208|196:216|204:224,1,60
296,144,179839,6,0,L|320:184,1,45.0000017166138
300,148,180214,2,0,L|324:188,1,45.0000017166138
356,232,180589,2,0,L|328:188,1,45.0000017166138
328,188,180776,1,0,0:0:0:0:
424,328,180964,1,0,0:0:0:0:
168,152,181339,6,0,P|152:200|152:216,1,60
192,284,181714,1,0,0:0:0:0:
272,252,181901,1,0,0:0:0:0:
332,192,182089,2,0,B|320:136|292:120|244:116,1,120
408,56,182839,2,0,P|420:96|420:120,2,60
332,92,183401,1,0,0:0:0:0:
136,208,183776,5,0,0:0:0:0:
452,248,183964,1,0,0:0:0:0:
296,96,184339,5,0,0:0:0:0:
260,292,184526,1,0,0:0:0:0:
164,128,184714,1,0,0:0:0:0:
408,216,184901,1,0,0:0:0:0:
160,240,185089,2,0,B|180:200|208:224|244:200|280:200,1,120
152,76,185839,2,0,L|184:96,2,30
260,112,186214,1,0,0:0:0:0:
116,188,186401,1,0,0:0:0:0:
252,248,186776,2,0,L|388:268,1,120
140,88,187339,6,0,B|100:112|96:136|112:168|116:196,1,120
200,204,187901,1,0,0:0:0:0:
280,180,188089,2,0,B|328:180|344:204|372:224|372:252,1,120
288,268,188651,1,0,0:0:0:0:
368,296,188839,2,0,P|356:248|372:240,2,60
436,248,189401,2,0,P|404:200|396:196,1,60
428,120,189776,1,0,0:0:0:0:
92,196,189964,1,0,0:0:0:0:
232,108,190339,5,0,0:0:0:0:
232,108,190526,1,0,0:0:0:0:
232,108,190714,1,0,0:0:0:0:
232,108,190901,1,0,0:0:0:0:
204,228,191089,1,0,0:0:0:0:
204,228,191276,1,0,0:0:0:0:
204,228,191464,1,0,0:0:0:0:
204,228,191651,1,0,0:0:0:0:
324,160,191839,2,0,P|344:196|364:192,4,60
432,108,192776,1,0,0:0:0:0:
332,328,192964,1,0,0:0:0:0:
224,128,193339,6,0,B|184:112|160:136|136:176|104:140|148:96|168:140|180:184|224:176|252:188|288:108|272:76|316:104|336:164|272:184|272:156|312:212|400:160|368:92|360:88|356:140|336:196|300:220|268:208|184:208|232:188|216:184|156:200,1,480
92,252,195026,1,0,0:0:0:0:
76,168,195214,6,0,B|116:108|116:132|72:148|84:160|112:180|148:148|144:148|140:144|136:168|136:180|136:184|132:188|136:188|156:172|164:152|172:140|168:184|168:200|168:212|168:216|176:208|192:184|200:168|200:156|216:148|232:156|228:192|236:224|232:224,1,240
308,176,196151,1,0,0:0:0:0:
356,108,196339,6,0,B|352:68|392:84|408:104|404:120|400:144|376:152|392:160|400:184|416:200|416:208|412:224|404:240|344:240|344:240|340:240|400:180|448:184|428:192|444:232,1,360
484,280,197651,2,0,L|416:296,1,60
448,212,198026,2,0,L|368:228,1,60
384,140,198401,2,0,L|336:96,1,60
296,172,198776,2,0,L|240:212,2,60
176,84,199339,5,0,0:0:0:0:
128,240,199526,1,0,0:0:0:0:
288,152,199714,1,0,0:0:0:0:
108,160,199901,1,0,0:0:0:0:
216,280,200089,1,0,0:0:0:0:
184,56,200276,1,0,0:0:0:0:
112,260,200464,1,0,0:0:0:0:
276,164,200651,1,0,0:0:0:0:
168,144,200839,6,0,L|168:212,1,60
232,276,201214,6,0,L|232:196,1,60
292,144,201589,6,0,L|292:212,1,60
356,276,201964,6,0,L|356:196,1,60
424,164,202339,1,0,0:0:0:0:
408,248,202526,1,0,0:0:0:0:
352,320,202714,1,0,0:0:0:0:
256,332,202901,1,0,0:0:0:0:
164,288,203089,1,0,0:0:0:0:
100,208,203276,1,0,0:0:0:0:
52,104,203464,2,0,B|100:76|112:80|120:120|168:112,1,120
161,112,204026,1,0,0:0:0:0:
161,112,204214,1,0,0:0:0:0:
161,112,204401,1,0,0:0:0:0:
280,96,204776,5,0,0:0:0:0:
336,264,204964,1,0,0:0:0:0:
168,224,205151,1,0,0:0:0:0:
172,152,217339,6,0,L|220:196,1,60
264,132,217714,1,0,0:0:0:0:
264,252,217901,1,0,0:0:0:0:
184,160,218089,2,0,P|152:196|144:216,2,60
304,208,218651,1,0,0:0:0:0:
168,256,218839,6,0,P|192:288|208:284,1,60
112,164,219214,1,0,0:0:0:0:
112,164,219308,1,0,0:0:0:0:
112,164,219401,1,0,0:0:0:0:
252,236,219589,1,0,0:0:0:0:
252,236,219683,1,0,0:0:0:0:
252,236,219776,1,0,0:0:0:0:
128,288,219964,6,0,P|124:240|140:224,1,60
128,156,220339,2,0,B|160:140|184:148|200:188|240:192,1,120
316,80,221089,1,0,0:0:0:0:
244,272,221276,1,0,0:0:0:0:
192,92,221464,1,0,0:0:0:0:
352,192,221651,2,0,B|364:248|360:280|344:316,3,120
200,256,223339,5,0,0:0:0:0:
200,128,223526,1,0,0:0:0:0:
312,128,223714,1,0,0:0:0:0:
312,256,223901,1,0,0:0:0:0:
152,192,224089,5,0,0:0:0:0:
360,192,224276,1,0,0:0:0:0:
256,296,224464,1,0,0:0:0:0:
256,88,224651,1,0,0:0:0:0:
80,72,224839,6,0,B|80:312|80:304|80:304|76:308|212:304,1,360
300,304,226339,2,0,B|300:80|300:80|340:80|356:88|392:104|404:148|396:184|336:204|328:200|336:200|336:200|408:296,1,540
200,128,228776,5,0,0:0:0:0:
200,128,228964,1,0,0:0:0:0:
200,128,229151,1,0,0:0:0:0:
116,192,229339,2,0,P|128:228|148:240,1,60
228,216,229714,1,0,0:0:0:0:
300,172,229901,1,0,0:0:0:0:
380,140,230089,2,0,P|400:184|408:216,1,60
352,264,230464,2,0,P|308:232|288:208,1,60
228,196,230839,1,0,0:0:0:0:
144,212,231026,1,0,0:0:0:0:
92,280,231214,1,0,0:0:0:0:
64,200,231401,6,0,B|56:132|64:128|128:136,2,120
168,248,232339,2,0,L|192:272,1,30
184,236,232526,2,0,L|208:260,1,30
204,224,232714,2,0,L|228:248,1,30
224,212,232901,2,0,L|248:236,1,30
245,233,233089,2,0,L|221:209,1,30
229,245,233276,2,0,L|205:221,1,30
209,257,233464,2,0,L|185:233,1,30
189,269,233651,2,0,L|165:245,1,30
140,216,233839,5,0,0:0:0:0:
244,76,234026,1,0,0:0:0:0:
332,308,234214,1,0,0:0:0:0:
212,204,234401,1,0,0:0:0:0:
420,164,234589,1,0,0:0:0:0:
320,80,234776,1,0,0:0:0:0:
272,312,234964,1,0,0:0:0:0:
152,100,235151,1,0,0:0:0:0:
68,192,235339,5,0,0:0:0:0:
120,260,235526,2,0,P|144:232|156:256,1,60
200,172,235901,1,0,0:0:0:0:
228,252,236089,1,0,0:0:0:0:
300,212,236276,2,0,L|316:272,1,60
392,304,236651,2,0,L|376:232,1,60
364,164,237026,1,0,0:0:0:0:
288,124,237214,1,0,0:0:0:0:
360,80,237401,1,0,0:0:0:0:
284,44,237589,2,0,P|220:44|216:44,1,60
148,80,237964,5,0,0:0:0:0:
148,80,238058,1,0,0:0:0:0:
148,80,238151,1,0,0:0:0:0:
76,128,238339,2,0,B|44:164|56:148|92:160,1,60
156,204,238714,2,0,P|148:252|148:268,1,60
232,256,239089,2,0,B|252:228|264:260|244:264|248:288,1,60
280,128,239464,1,0,0:0:0:0:
424,324,239651,1,0,0:0:0:0:
316,308,239839,6,0,P|312:260|308:228,3,60
196,184,240589,6,0,P|196:224|200:252,3,60
320,144,241339,5,0,0:0:0:0:
260,200,241526,1,0,0:0:0:0:
192,148,241714,1,0,0:0:0:0:
116,184,241901,2,0,P|104:224|104:252,2,60
88,104,242464,1,0,0:0:0:0:
160,64,242651,2,0,P|188:88|204:124,1,60
172,188,243026,2,0,P|176:236|196:256,1,60
264,224,243401,1,0,0:0:0:0:
288,144,243589,1,0,0:0:0:0:
220,92,243776,2,0,P|176:92|164:116,1,60
228,260,244339,6,0,B|260:288|260:288|280:252,1,60
312,152,244714,2,0,B|340:168|340:168|328:196,1,60
248,176,245089,1,0,0:0:0:0:
168,200,245276,1,0,0:0:0:0:
100,248,245464,1,0,0:0:0:0:
52,316,245651,1,0,0:0:0:0:
236,324,245839,6,0,P|256:288|276:272,2,60
188,256,246401,1,0,0:0:0:0:
184,172,246589,2,0,P|208:144|232:148,1,60
280,212,246964,1,0,0:0:0:0:
320,140,247151,1,0,0:0:0:0:
152,100,247339,6,0,L|148:136,4,30
80,144,247901,1,0,0:0:0:0:
108,224,248089,2,0,L|136:260,2,30
188,192,248464,1,0,0:0:0:0:
264,228,248651,1,0,0:0:0:0:
316,160,248839,1,0,0:0:0:0:
384,112,249026,1,0,0:0:0:0:
432,184,249214,2,0,P|432:220|420:252,1,60
340,232,249589,2,0,L|380:304,1,60
284,288,249964,5,0,0:0:0:0:
224,228,250151,1,0,0:0:0:0:
164,168,250339,1,0,0:0:0:0:
284,288,250526,5,0,0:0:0:0:
224,228,250713,1,0,0:0:0:0:
164,168,250901,1,0,0:0:0:0:
284,288,251089,5,0,0:0:0:0:
224,228,251276,1,0,0:0:0:0:
164,168,251464,1,0,0:0:0:0:
112,100,251651,1,0,0:0:0:0:
224,48,252776,5,0,0:0:0:0:
240,324,252964,1,0,0:0:0:0:
404,172,253339,5,0,0:0:0:0:
340,120,253526,1,0,0:0:0:0:
260,92,253714,1,0,0:0:0:0:
176,84,253901,1,0,0:0:0:0:
80,156,254089,6,0,B|48:160|32:136|44:116,1,60
168,164,254464,2,0,B|192:184|172:192|128:184,1,60
40,256,254839,5,0,0:0:0:0:
104,308,255026,1,0,0:0:0:0:
184,336,255214,1,0,0:0:0:0:
268,344,255401,1,0,0:0:0:0:
380,324,255589,6,0,P|412:312|424:288,1,60
336,252,255964,2,0,P|300:264|280:256,1,60
136,260,256339,6,0,L|164:196,3,60
204,132,257089,1,0,0:0:0:0:
268,80,257276,1,0,0:0:0:0:
352,68,257464,1,0,0:0:0:0:
436,80,257651,1,0,0:0:0:0:
400,260,257839,6,0,L|372:196,3,60
332,132,258589,1,0,0:0:0:0:
268,80,258776,1,0,0:0:0:0:
184,68,258964,1,0,0:0:0:0:
100,80,259151,1,0,0:0:0:0:
148,236,259339,6,0,P|192:264|224:264,1,60
208,152,259714,1,0,0:0:0:0:
280,272,259901,1,0,0:0:0:0:
320,164,260089,2,0,L|264:204,1,60
340,152,260464,1,0,0:0:0:0:
340,152,260558,1,0,0:0:0:0:
340,152,260651,1,0,0:0:0:0:
116,168,260839,5,0,0:0:0:0:
248,320,261026,1,0,0:0:0:0:
256,104,261214,1,0,0:0:0:0:
108,288,261401,1,0,0:0:0:0:
368,248,261589,1,0,0:0:0:0:
108,104,261776,1,0,0:0:0:0:
232,320,261964,1,0,0:0:0:0:
236,72,262151,1,0,0:0:0:0:
80,204,262339,6,0,P|120:180|140:188,1,60
208,216,262714,1,0,0:0:0:0:
288,188,262901,1,0,0:0:0:0:
360,232,263089,1,0,0:0:0:0:
420,288,263276,2,0,P|392:304|408:332,2,60
256,112,263839,5,0,0:0:0:0:
168,308,264026,1,0,0:0:0:0:
104,172,264214,1,0,0:0:0:0:
416,232,264401,1,0,0:0:0:0:
292,312,264589,1,0,0:0:0:0:
248,124,264776,1,0,0:0:0:0:
192,308,264964,1,0,0:0:0:0:
88,108,265151,1,0,0:0:0:0:
224,204,265339,6,0,B|248:216|272:220|288:204,1,60
376,72,266089,2,0,B|392:96|400:124|396:136,1,60
196,132,266839,5,0,0:0:0:0:
152,308,267026,1,0,0:0:0:0:
72,176,267214,1,0,0:0:0:0:
264,248,267401,1,0,0:0:0:0:
72,280,267589,1,0,0:0:0:0:
272,108,267964,5,0,0:0:0:0:
124,136,268339,6,0,P|104:176|104:204,1,60
228,284,269089,2,0,B|244:304|256:324|272:312|288:304,1,60
372,148,269839,6,0,L|376:168,1,15
200,184,270214,2,0,L|176:200,1,15
336,288,270589,2,0,L|348:308,1,15
256,192,271339,12,0,275464,0:0:0:0:
256,192,275839,5,0,0:0:0:0:
256,192,276214,5,0,0:0:0:0:
260,196,276589,5,0,0:0:0:0:
184,304,276776,1,0,0:0:0:0:
376,64,276964,1,0,0:0:0:0:
