osu file format v14

[General]
AudioFilename: audio.mp3
AudioLeadIn: 0
PreviewTime: -1
Countdown: 1
SampleSet: Soft
StackLeniency: 0.7
Mode: 2
LetterboxInBreaks: 0
WidescreenStoryboard: 0

[Editor]
DistanceSpacing: 0.8
BeatDivisor: 4
GridSize: 32
TimelineZoom: 2.899999

[Metadata]
Title:Natsu no Owari no Amaoto gaChika & Kanan
TitleUnicode:『Natsu no Owari no Amaoto ga』/Chika & Kanan
Artist:Love Live sunshine
ArtistUnicode:Love Live sunshine
Creator:Feel free to
Version:Feel the idol hell
Source:Love Live! Sunshine!
Tags:ラブライブ!サンシャイン!! love live school idol project festival
BeatmapID:1443719
BeatmapSetID:682699

[Difficulty]
HPDrainRate:8
CircleSize:5
OverallDifficulty:9.5
ApproachRate:9
SliderMultiplier:1.6
SliderTickRate:2

[Events]
//Background and Video events
0,0,"BG.jpg",0,0
//Break Periods
//Storyboard Layer 0 (Background)
//Storyboard Layer 1 (Fail)
//Storyboard Layer 2 (Pass)
//Storyboard Layer 3 (Foreground)
//Storyboard Sound Samples

[TimingPoints]
1315,444.444444444444,4,2,0,100,1,0
8426,-100,4,2,0,40,0,0
10203,-100,4,2,0,60,0,0
47537,-100,4,2,0,100,0,1
61759,-100,4,2,0,100,0,0

[HitObjects]
128,192,426,5,0,0:0:0:0:
256,288,648,1,0,0:0:0:0:
384,192,870,1,0,0:0:0:0:
320,128,1092,1,0,0:0:0:0:
256,128,1315,1,0,0:0:0:0:
160,256,1759,6,0,L|-32:256,1,160
416,192,2648,1,0,0:0:0:0:
320,160,2870,1,0,0:0:0:0:
64,192,3314,1,0,0:0:0:0:
192,160,3537,1,0,0:0:0:0:
256,320,3981,5,0,0:0:0:0:
320,288,4203,1,0,0:0:0:0:
384,256,4426,1,0,0:0:0:0:
448,224,4648,1,0,0:0:0:0:
256,192,4870,1,0,0:0:0:0:
96,128,5314,6,0,L|256:32,1,160
288,128,6203,2,0,L|384:64,1,80
416,192,6648,1,0,0:0:0:0:
320,192,7092,1,0,0:0:0:0:
256,256,7537,1,0,0:0:0:0:
128,352,7981,5,0,0:0:0:0:
192,320,8203,1,0,0:0:0:0:
96,288,8426,1,0,0:0:0:0:
224,256,8648,1,0,0:0:0:0:
64,224,8870,1,0,0:0:0:0:
256,192,9092,5,0,0:0:0:0:
64,160,9314,1,0,0:0:0:0:
256,128,9537,1,0,0:0:0:0:
96,96,9759,1,0,0:0:0:0:
224,64,9981,1,0,0:0:0:0:
128,32,10203,5,0,0:0:0:0:
192,32,10426,1,0,0:0:0:0:
96,96,10648,1,0,0:0:0:0:
224,96,10870,1,0,0:0:0:0:
64,160,11092,1,0,0:0:0:0:
224,160,11314,5,0,0:0:0:0:
64,224,11537,1,0,0:0:0:0:
224,256,11759,1,0,0:0:0:0:
64,320,11981,1,0,0:0:0:0:
224,320,12203,1,0,0:0:0:0:
320,256,12426,6,0,L|384:256,12,40
256,256,13981,1,0,0:0:0:0:
192,192,14203,1,0,0:0:0:0:
128,160,14426,5,0,0:0:0:0:
192,128,14537,1,0,0:0:0:0:
256,96,14648,1,0,0:0:0:0:
320,64,14759,1,0,0:0:0:0:
352,384,14870,1,0,0:0:0:0:
384,64,14981,1,0,0:0:0:0:
448,64,15092,5,0,0:0:0:0:
352,160,15203,1,0,0:0:0:0:
448,224,15314,1,0,0:0:0:0:
352,288,15426,1,0,0:0:0:0:
448,320,15537,1,0,0:0:0:0:
64,160,16426,5,0,0:0:0:0:
160,128,16537,1,0,0:0:0:0:
256,128,16648,1,0,0:0:0:0:
320,192,16759,5,0,0:0:0:0:
448,192,16870,1,0,0:0:0:0:
320,288,16981,1,0,0:0:0:0:
224,288,17092,1,0,0:0:0:0:
160,224,17203,1,0,0:0:0:0:
288,192,17314,5,0,0:0:0:0:
384,288,17426,1,0,0:0:0:0:
256,224,17537,5,0,0:0:0:0:
192,192,17648,1,0,0:0:0:0:
128,160,17759,1,0,0:0:0:0:
64,128,17870,1,0,0:0:0:0:
384,96,17981,5,0,0:0:0:0:
448,64,18092,1,0,0:0:0:0:
448,160,18203,1,0,0:0:0:0:
384,192,18314,1,0,0:0:0:0:
448,256,18426,1,0,0:0:0:0:
384,288,18537,1,0,0:0:0:0:
448,352,18648,1,0,0:0:0:0:
256,320,18759,5,0,0:0:0:0:
192,256,18870,1,0,0:0:0:0:
256,224,18981,1,0,0:0:0:0:
160,160,19092,1,0,0:0:0:0:
224,128,19203,1,0,0:0:0:0:
416,64,19314,5,0,0:0:0:0:
352,96,19426,1,0,0:0:0:0:
352,192,19537,1,0,0:0:0:0:
416,160,19648,1,0,0:0:0:0:
352,256,19759,1,0,0:0:0:0:
288,320,19870,5,0,0:0:0:0:
224,288,19981,1,0,0:0:0:0:
160,256,20092,1,0,0:0:0:0:
224,160,20211,1,0,0:0:0:0:
288,96,20318,1,0,0:0:0:0:
416,96,20426,5,0,0:0:0:0:
352,160,20532,1,0,0:0:0:0:
416,224,20648,1,0,0:0:0:0:
480,288,20755,1,0,0:0:0:0:
416,352,20862,1,0,0:0:0:0:
352,320,20981,5,0,0:0:0:0:
288,288,21092,1,0,0:0:0:0:
224,256,21203,1,0,0:0:0:0:
160,224,21314,1,0,0:0:0:0:
224,192,21426,1,0,0:0:0:0:
288,160,21537,5,0,0:0:0:0:
352,128,21648,1,0,0:0:0:0:
416,96,21759,1,0,0:0:0:0:
352,64,21870,1,0,0:0:0:0:
288,32,21981,1,0,0:0:0:0:
160,64,22092,5,0,0:0:0:0:
96,128,22203,1,0,0:0:0:0:
160,192,22314,1,0,0:0:0:0:
224,256,22426,1,0,0:0:0:0:
160,320,22537,1,0,0:0:0:0:
96,352,22648,5,0,0:0:0:0:
32,288,22759,1,0,0:0:0:0:
96,224,22870,1,0,0:0:0:0:
160,160,22981,1,0,0:0:0:0:
224,96,23092,1,0,0:0:0:0:
288,64,23203,5,0,0:0:0:0:
384,96,23314,1,0,0:0:0:0:
448,160,23426,1,0,0:0:0:0:
512,224,23537,1,0,0:0:0:0:
448,256,23648,1,0,0:0:0:0:
384,192,23759,5,0,0:0:0:0:
320,192,23870,1,0,0:0:0:0:
384,128,23981,1,0,0:0:0:0:
320,128,24092,1,0,0:0:0:0:
384,64,24203,1,0,0:0:0:0:
320,64,24314,5,0,0:0:0:0:
256,96,24426,1,0,0:0:0:0:
192,160,24537,1,0,0:0:0:0:
128,224,24648,1,0,0:0:0:0:
192,288,24759,1,0,0:0:0:0:
128,352,24870,5,0,0:0:0:0:
352,320,24981,1,0,0:0:0:0:
416,224,25092,1,0,0:0:0:0:
256,192,25314,6,0,L|96:96,1,160
320,96,25981,2,0,L|160:96,1,160
416,192,26759,5,0,0:0:0:0:
352,256,26870,1,0,0:0:0:0:
288,320,26981,1,0,0:0:0:0:
224,256,27092,1,0,0:0:0:0:
288,192,27203,1,0,0:0:0:0:
352,128,27314,1,0,0:0:0:0:
192,128,27537,6,0,L|96:128,1,80
192,96,27981,2,0,L|288:96,1,80
352,192,28426,2,0,L|448:192,1,80
192,96,28870,2,0,L|288:96,1,80
160,224,29314,1,0,0:0:0:0:
448,192,29537,5,0,0:0:0:0:
352,128,29648,1,0,0:0:0:0:
256,96,29759,1,0,0:0:0:0:
160,128,29870,1,0,0:0:0:0:
64,192,29974,1,0,0:0:0:0:
256,320,30081,5,0,0:0:0:0:
128,224,30203,1,0,0:0:0:0:
384,224,30314,1,0,0:0:0:0:
288,160,30426,1,0,0:0:0:0:
256,128,30545,1,0,0:0:0:0:
224,96,30652,5,0,0:0:0:0:
192,64,30759,1,0,0:0:0:0:
160,32,30866,1,0,0:0:0:0:
256,32,30973,1,0,0:0:0:0:
352,32,31081,1,0,0:0:0:0:
416,96,31212,5,0,0:0:0:0:
384,160,31319,1,0,0:0:0:0:
352,224,31426,1,0,0:0:0:0:
320,288,31533,1,0,0:0:0:0:
288,352,31640,1,0,0:0:0:0:
96,192,31747,5,0,0:0:0:0:
256,192,31870,1,0,0:0:0:0:
96,96,31981,1,0,0:0:0:0:
160,64,32092,1,0,0:0:0:0:
224,32,32203,1,0,0:0:0:0:
256,128,32314,5,0,0:0:0:0:
320,96,32426,1,0,0:0:0:0:
384,64,32537,1,0,0:0:0:0:
384,160,32648,1,0,0:0:0:0:
448,128,32759,1,0,0:0:0:0:
512,96,32870,5,0,0:0:0:0:
384,256,32981,1,0,0:0:0:0:
320,224,33092,1,0,0:0:0:0:
256,192,33203,1,0,0:0:0:0:
320,160,33314,1,0,0:0:0:0:
384,128,33426,5,0,0:0:0:0:
448,96,33537,1,0,0:0:0:0:
384,64,33648,1,0,0:0:0:0:
320,32,33759,1,0,0:0:0:0:
256,96,33870,1,0,0:0:0:0:
192,160,33981,5,0,0:0:0:0:
128,224,34092,1,0,0:0:0:0:
256,224,34203,1,0,0:0:0:0:
384,224,34314,1,0,0:0:0:0:
384,320,34426,1,0,0:0:0:0:
256,320,34537,5,0,0:0:0:0:
128,288,34648,1,0,0:0:0:0:
224,256,34759,1,0,0:0:0:0:
320,224,34870,1,0,0:0:0:0:
416,192,34981,1,0,0:0:0:0:
320,160,35092,5,0,0:0:0:0:
224,128,35203,1,0,0:0:0:0:
128,96,35314,1,0,0:0:0:0:
256,64,35426,1,0,0:0:0:0:
384,96,35537,1,0,0:0:0:0:
448,160,35648,5,0,0:0:0:0:
384,224,35759,1,0,0:0:0:0:
448,288,35870,1,0,0:0:0:0:
352,320,35981,1,0,0:0:0:0:
256,288,36092,1,0,0:0:0:0:
192,256,36203,5,0,0:0:0:0:
128,224,36314,1,0,0:0:0:0:
64,192,36426,1,0,0:0:0:0:
128,128,36537,1,0,0:0:0:0:
192,64,36648,1,0,0:0:0:0:
288,96,36759,5,0,0:0:0:0:
384,128,36870,1,0,0:0:0:0:
480,192,36981,1,0,0:0:0:0:
384,256,37092,1,0,0:0:0:0:
288,320,37203,1,0,0:0:0:0:
192,256,37314,5,0,0:0:0:0:
160,192,37426,1,0,0:0:0:0:
128,128,37537,1,0,0:0:0:0:
160,64,37648,1,0,0:0:0:0:
224,64,37759,1,0,0:0:0:0:
320,96,37870,5,0,0:0:0:0:
384,160,37981,1,0,0:0:0:0:
448,224,38092,1,0,0:0:0:0:
480,320,38203,1,0,0:0:0:0:
384,288,38314,1,0,0:0:0:0:
288,224,38426,5,0,0:0:0:0:
192,288,38537,1,0,0:0:0:0:
96,224,38648,1,0,0:0:0:0:
160,160,38759,1,0,0:0:0:0:
256,96,38870,1,0,0:0:0:0:
352,160,38981,5,0,0:0:0:0:
416,224,39092,1,0,0:0:0:0:
352,288,39203,1,0,0:0:0:0:
256,224,39314,1,0,0:0:0:0:
192,160,39426,1,0,0:0:0:0:
224,96,39537,5,0,0:0:0:0:
288,64,39648,1,0,0:0:0:0:
352,32,39759,1,0,0:0:0:0:
416,64,39870,5,0,0:0:0:0:
480,96,39981,1,0,0:0:0:0:
448,160,40092,1,0,0:0:0:0:
416,224,40203,1,0,0:0:0:0:
384,288,40314,1,0,0:0:0:0:
320,256,40426,5,0,0:0:0:0:
256,224,40537,1,0,0:0:0:0:
192,192,40648,1,0,0:0:0:0:
128,160,40759,1,0,0:0:0:0:
64,128,40870,1,0,0:0:0:0:
128,64,40981,5,0,0:0:0:0:
192,64,41092,1,0,0:0:0:0:
256,96,41203,1,0,0:0:0:0:
320,160,41314,1,0,0:0:0:0:
384,96,41426,1,0,0:0:0:0:
448,160,41537,5,0,0:0:0:0:
416,256,41648,1,0,0:0:0:0:
352,288,41759,1,0,0:0:0:0:
288,256,41870,1,0,0:0:0:0:
224,224,41981,1,0,0:0:0:0:
64,160,42092,5,0,0:0:0:0:
256,96,42203,1,0,0:0:0:0:
320,128,42314,1,0,0:0:0:0:
384,160,42426,1,0,0:0:0:0:
448,192,42537,1,0,0:0:0:0:
448,256,42648,5,0,0:0:0:0:
384,320,42759,1,0,0:0:0:0:
320,256,42870,1,0,0:0:0:0:
256,320,42981,1,0,0:0:0:0:
192,256,43092,1,0,0:0:0:0:
256,192,43203,1,0,0:0:0:0:
128,96,43314,5,0,0:0:0:0:
224,96,43426,1,0,0:0:0:0:
288,160,43537,1,0,0:0:0:0:
352,224,43648,1,0,0:0:0:0:
288,288,43759,1,0,0:0:0:0:
224,352,43870,5,0,0:0:0:0:
160,288,43981,1,0,0:0:0:0:
96,224,44092,1,0,0:0:0:0:
160,160,44203,1,0,0:0:0:0:
224,96,44314,1,0,0:0:0:0:
352,128,44426,5,0,0:0:0:0:
416,224,44537,1,0,0:0:0:0:
352,288,44648,1,0,0:0:0:0:
256,320,44759,1,0,0:0:0:0:
160,224,44870,1,0,0:0:0:0:
384,128,44981,5,0,0:0:0:0:
256,96,45092,1,0,0:0:0:0:
160,32,45203,1,0,0:0:0:0:
320,32,45314,1,0,0:0:0:0:
416,64,45426,1,0,0:0:0:0:
288,128,45537,5,0,0:0:0:0:
448,160,45648,2,0,P|288:256|256:256,1,200
160,224,46426,1,0,0:0:0:0:
288,160,46648,1,0,0:0:0:0:
160,96,46870,1,0,0:0:0:0:
320,32,47092,6,0,L|320:96,1,40
224,96,47426,2,0,L|224:160,1,40
320,192,47648,1,0,0:0:0:0:
224,256,47759,2,0,L|224:320,1,40
320,320,47981,2,0,L|320:384,1,40
96,128,48203,5,0,0:0:0:0:
192,192,48314,2,0,L|192:256,1,40
96,288,48537,1,0,0:0:0:0:
192,320,48648,2,0,L|192:384,1,40
192,64,48870,1,0,0:0:0:0:
448,64,48981,6,0,L|480:96,1,40
384,128,49203,1,0,0:0:0:0:
448,192,49314,2,0,L|480:224,1,40
320,192,49537,1,0,0:0:0:0:
384,256,49648,2,0,L|416:288,1,40
256,256,49870,6,0,L|224:288,1,40
128,256,50092,1,0,0:0:0:0:
96,160,50203,2,0,L|128:128,1,40
192,64,50426,1,0,0:0:0:0:
288,64,50537,1,0,0:0:0:0:
416,64,50648,6,0,L|448:96,1,40
352,128,50870,1,0,0:0:0:0:
288,192,50981,2,0,L|320:224,1,40
384,288,51203,1,0,0:0:0:0:
448,224,51314,2,0,L|480:192,1,40
352,128,51537,5,0,0:0:0:0:
160,128,51648,2,0,L|128:160,1,40
256,192,51870,2,0,L|288:224,1,40
160,256,52092,2,0,L|128:288,1,40
256,320,52314,2,0,L|288:352,1,40
416,288,52537,5,0,0:0:0:0:
352,256,52648,1,0,0:0:0:0:
288,192,52759,2,0,L|224:192,1,40
192,128,52981,2,0,L|128:128,1,40
128,64,53203,2,0,L|64:64,1,40
224,64,53426,5,0,0:0:0:0:
320,64,53537,1,0,0:0:0:0:
384,160,53648,2,0,B|320:160|384:288|256:192,1,160
224,288,54203,1,0,0:0:0:0:
160,256,54314,1,0,0:0:0:0:
96,224,54426,5,0,0:0:0:0:
160,192,54537,1,0,0:0:0:0:
224,160,54648,1,0,0:0:0:0:
288,128,54759,1,0,0:0:0:0:
352,96,54870,1,0,0:0:0:0:
288,64,54981,5,0,0:0:0:0:
224,32,55092,1,0,0:0:0:0:
160,64,55203,1,0,0:0:0:0:
96,96,55314,1,0,0:0:0:0:
128,160,55426,1,0,0:0:0:0:
192,160,55537,5,0,0:0:0:0:
256,192,55648,2,0,L|288:224,1,40
288,288,55870,2,0,L|256:320,1,40
160,288,56092,2,0,L|128:320,1,40
96,224,56314,2,0,L|64:256,1,40
160,160,56537,6,0,L|192:192,1,40
256,160,56759,2,0,L|288:192,1,40
384,224,56981,2,0,L|416:256,1,40
288,288,57203,2,0,L|256:320,1,40
128,256,57426,2,0,L|160:288,1,40
320,128,57648,6,0,L|352:160,1,40
192,128,57870,2,0,L|160:160,1,40
320,256,58092,2,0,L|352:288,1,40
192,256,58314,2,0,L|160:288,1,40
256,96,58537,1,0,0:0:0:0:
96,128,58648,5,0,0:0:0:0:
128,192,58759,1,0,0:0:0:0:
96,256,58870,1,0,0:0:0:0:
128,320,58981,1,0,0:0:0:0:
192,352,59092,1,0,0:0:0:0:
416,32,59203,5,0,0:0:0:0:
352,96,59314,1,0,0:0:0:0:
416,160,59426,1,0,0:0:0:0:
352,192,59537,1,0,0:0:0:0:
416,256,59648,1,0,0:0:0:0:
352,288,59759,5,0,0:0:0:0:
288,288,59870,1,0,0:0:0:0:
192,224,59981,1,0,0:0:0:0:
128,192,60092,1,0,0:0:0:0:
64,160,60203,1,0,0:0:0:0:
96,96,60315,5,0,0:0:0:0:
128,96,60426,1,0,0:0:0:0:
160,96,60537,1,0,0:0:0:0:
192,96,60648,1,0,0:0:0:0:
224,96,60759,1,0,0:0:0:0:
256,96,60870,5,0,0:0:0:0:
288,96,60981,1,0,0:0:0:0:
448,192,61092,1,0,0:0:0:0:
384,256,61203,1,0,0:0:0:0:
448,320,61315,1,0,0:0:0:0:
256,288,61426,5,0,0:0:0:0:
192,320,61537,1,0,0:0:0:0:
128,288,61648,1,0,0:0:0:0:
96,224,61759,1,0,0:0:0:0:
128,160,61870,1,0,0:0:0:0:
224,96,61981,6,0,L|352:96,1,120
384,160,62426,1,0,0:0:0:0:
416,256,62537,2,0,L|512:256,1,80
352,320,62870,1,0,0:0:0:0:
256,256,62981,2,0,L|160:256,1,80
96,192,63314,5,0,0:0:0:0:
128,32,63426,2,0,L|224:32,1,80
256,96,63759,1,0,0:0:0:0:
352,128,63870,1,0,0:0:0:0:
256,224,63981,2,0,L|160:224,1,80
128,288,64314,5,0,0:0:0:0:
64,32,64426,2,0,L|160:32,1,80
192,96,64759,1,0,0:0:0:0:
256,160,64870,2,0,L|352:160,1,80
384,224,65203,1,0,0:0:0:0:
352,288,65314,6,0,L|256:288,1,80
192,320,65648,1,0,0:0:0:0:
128,288,65759,2,0,L|64:224,1,80
128,192,66092,1,0,0:0:0:0:
224,192,66203,6,0,L|288:128,1,80
352,64,66537,1,0,0:0:0:0:
416,128,66648,2,0,L|480:192,1,80
352,256,66981,1,0,0:0:0:0:
256,320,67092,2,0,L|160:320,1,80
64,256,67426,5,0,0:0:0:0:
160,192,67537,2,0,L|256:192,1,80
320,128,67870,1,0,0:0:0:0:
384,192,67981,2,0,L|384:288,1,80
256,192,68314,1,0,0:0:0:0:
96,192,68426,6,0,L|96:288,1,80
192,96,68759,1,0,0:0:0:0:
320,96,68870,1,0,0:0:0:0:
448,96,68981,1,0,0:0:0:0:
320,192,69092,1,0,0:0:0:0:
480,224,69203,6,0,L|416:288,1,80
320,320,69537,1,0,0:0:0:0:
160,224,69648,2,0,L|224:288,1,80
320,128,69981,1,0,0:0:0:0:
416,96,70092,2,0,L|480:32,1,80
224,32,70426,5,0,0:0:0:0:
160,96,70537,2,0,L|96:160,1,80
160,224,70870,1,0,0:0:0:0:
224,288,70981,2,0,L|160:352,1,80
288,352,71314,1,0,0:0:0:0:
384,288,71426,6,0,L|448:224,1,80
320,192,71759,1,0,0:0:0:0:
352,64,71870,2,0,L|448:128,1,80
256,128,72203,1,0,0:0:0:0:
192,64,72314,2,0,L|128:128,1,80
96,224,72648,5,0,0:0:0:0:
128,288,72759,2,0,L|224:288,1,80
320,256,73092,1,0,0:0:0:0:
480,320,73203,2,0,L|384:320,1,80
320,160,73537,1,0,0:0:0:0:
480,224,73648,6,0,L|384:224,1,80
320,64,73981,1,0,0:0:0:0:
480,128,74092,2,0,L|384:128,1,80
256,32,74426,1,0,0:0:0:0:
192,96,74537,2,0,L|192:192,1,80
128,256,74870,5,0,0:0:0:0:
224,288,74981,2,0,L|224:384,1,80
352,256,75314,1,0,0:0:0:0:
416,256,75426,1,0,0:0:0:0:
480,256,75537,1,0,0:0:0:0:
448,192,75648,5,0,0:0:0:0:
416,160,75759,1,0,0:0:0:0:
384,128,75870,1,0,0:0:0:0:
352,96,75981,1,0,0:0:0:0:
320,64,76092,1,0,0:0:0:0:
256,96,76203,6,0,L|160:96,1,80
128,160,76537,1,0,0:0:0:0:
160,224,76648,2,0,L|224:224,2,40
256,288,76981,1,0,0:0:0:0:
352,320,77092,2,0,L|416:320,2,40
448,256,77426,5,0,0:0:0:0:
384,192,77537,2,0,L|320:192,2,40
256,160,77870,1,0,0:0:0:0:
192,96,77981,2,0,L|128:96,2,40
96,64,78314,1,0,0:0:0:0:
96,192,78426,6,0,L|160:192,2,40
192,256,78759,1,0,0:0:0:0:
288,288,78870,2,0,L|352:288,2,40
416,256,79203,1,0,0:0:0:0:
288,192,79314,2,0,L|352:192,2,40
192,128,79648,5,0,0:0:0:0:
288,64,79759,2,0,L|352:64,2,40
416,128,80092,1,0,0:0:0:0:
416,256,80203,2,0,L|480:256,2,40
352,320,80537,1,0,0:0:0:0:
256,256,80648,6,0,L|192:256,2,40
128,192,80981,1,0,0:0:0:0:
192,128,81092,2,0,L|256:128,2,40
320,192,81426,1,0,0:0:0:0:
96,320,81537,2,0,L|160:320,2,40
256,320,81870,5,0,0:0:0:0:
96,224,81981,2,0,L|160:224,2,40
256,224,82314,1,0,0:0:0:0:
96,128,82426,2,0,L|160:128,2,40
256,128,82759,1,0,0:0:0:0:
352,128,82870,6,0,L|352:192,2,40
160,256,83203,1,0,0:0:0:0:
352,256,83314,2,0,L|352:320,2,40
160,256,83648,1,0,0:0:0:0:
448,192,83759,2,0,L|448:256,2,40
384,128,84092,5,0,0:0:0:0:
288,160,84203,2,0,L|224:160,2,40
192,224,84537,1,0,0:0:0:0:
128,288,84648,2,0,L|64:288,2,40
192,320,84981,1,0,0:0:0:0:
256,320,85092,6,0,L|352:320,1,80
384,288,85426,1,0,0:0:0:0:
416,224,85537,2,0,L|480:160,1,80
448,96,85870,1,0,0:0:0:0:
384,64,85981,2,0,L|320:64,2,40
288,128,86314,5,0,0:0:0:0:
256,192,86426,2,0,L|192:192,2,40
160,256,86759,1,0,0:0:0:0:
224,320,86870,2,0,L|288:320,2,40
352,256,87203,1,0,0:0:0:0:
416,128,87314,6,0,L|416:192,2,40
320,96,87648,1,0,0:0:0:0:
224,128,87759,2,0,L|224:192,2,40
128,192,88092,1,0,0:0:0:0:
160,256,88203,1,0,0:0:0:0:
224,288,88314,5,0,0:0:0:0:
288,256,88426,1,0,0:0:0:0:
352,224,88537,1,0,0:0:0:0:
480,160,88759,1,0,0:0:0:0:
480,96,88870,5,0,0:0:0:0:
96,32,88981,1,0,0:0:0:0:
160,64,89092,2,0,L|224:64,1,40
256,128,89314,2,0,L|320:128,1,40
352,192,89537,2,0,L|416:192,1,40
320,288,89759,6,0,L|256:288,1,40
192,256,89981,1,0,0:0:0:0:
96,192,90092,1,0,0:0:0:0:
192,128,90203,1,0,0:0:0:0:
256,64,90314,2,0,L|320:64,1,40
352,128,90537,5,0,0:0:0:0:
416,160,90648,2,0,L|480:160,1,40
128,224,90870,1,0,0:0:0:0:
192,288,90981,2,0,L|256:288,1,40
352,224,91203,1,0,0:0:0:0:
416,288,91314,6,0,L|480:288,1,40
256,160,91537,1,0,0:0:0:0:
384,96,91648,2,0,L|448:96,1,40
256,64,91870,1,0,0:0:0:0:
192,128,91981,2,0,L|128:128,1,40
256,224,92203,5,0,0:0:0:0:
352,288,92314,1,0,0:0:0:0:
256,352,92426,1,0,0:0:0:0:
160,288,92537,2,0,L|96:288,2,40
96,224,92870,1,0,0:0:0:0:
160,160,92981,5,0,0:0:0:0:
256,96,93092,1,0,0:0:0:0:
160,32,93203,1,0,0:0:0:0:
352,32,93314,1,0,0:0:0:0:
256,96,93426,1,0,0:0:0:0:
352,160,93537,5,0,0:0:0:0:
448,224,93648,1,0,0:0:0:0:
352,288,93759,1,0,0:0:0:0:
224,288,93870,1,0,0:0:0:0:
128,224,93981,1,0,0:0:0:0:
224,160,94092,5,0,0:0:0:0:
384,96,94203,1,0,0:0:0:0:
128,96,94314,1,0,0:0:0:0:
352,192,94426,1,0,0:0:0:0:
160,192,94537,1,0,0:0:0:0:
256,288,94648,6,0,L|192:288,2,40
352,288,94981,1,0,0:0:0:0:
256,288,95092,2,0,L|192:288,2,40
416,192,95426,1,0,0:0:0:0:
352,96,95537,1,0,0:0:0:0:
256,128,95648,6,0,L|192:128,1,40
160,192,95870,2,0,L|96:192,1,40
96,288,96092,2,0,L|160:288,1,40
256,288,96314,1,0,0:0:0:0:
352,256,96426,2,0,L|384:224,1,40
384,160,96648,5,0,0:0:0:0:
320,96,96759,2,0,L|256:64,1,40
192,96,96981,1,0,0:0:0:0:
128,160,97092,1,0,0:0:0:0:
64,224,97203,1,0,0:0:0:0:
96,288,97314,6,0,L|160:288,2,40
192,224,97648,1,0,0:0:0:0:
256,352,97759,1,0,0:0:0:0:
320,224,97870,1,0,0:0:0:0:
384,160,97981,2,0,L|448:160,1,40
320,64,98203,5,0,0:0:0:0:
192,128,98314,1,0,0:0:0:0:
96,224,98426,1,0,0:0:0:0:
32,320,98537,1,0,0:0:0:0:
160,320,98648,1,0,0:0:0:0:
256,256,98759,5,0,0:0:0:0:
384,192,98870,1,0,0:0:0:0:
448,128,98981,1,0,0:0:0:0:
384,64,99092,2,0,L|320:64,1,40
256,128,99314,1,0,0:0:0:0:
192,192,99426,6,0,L|128:192,1,40
96,256,99648,1,0,0:0:0:0:
160,320,99759,2,0,L|224:320,1,40
288,256,99981,1,0,0:0:0:0:
384,288,100092,2,0,L|416:256,1,40
352,192,100314,5,0,0:0:0:0:
448,160,100426,1,0,0:0:0:0:
288,128,100537,1,0,0:0:0:0:
448,96,100648,1,0,0:0:0:0:
288,64,100759,1,0,0:0:0:0:
448,32,100870,5,0,0:0:0:0:
288,0,100981,1,0,0:0:0:0:
224,32,101092,2,0,L|192:64,1,40
160,96,101314,1,0,0:0:0:0:
128,128,101426,2,0,L|96:160,1,40
128,192,101648,5,0,0:0:0:0:
160,224,101759,2,0,L|192:256,1,40
224,288,101981,1,0,0:0:0:0:
256,320,102092,2,0,L|288:352,1,40
480,288,102314,1,0,0:0:0:0:
288,224,102426,6,0,L|352:224,1,40
480,160,102648,1,0,0:0:0:0:
288,96,102759,2,0,L|352:96,1,40
480,64,102981,1,0,0:0:0:0:
256,32,103092,2,0,L|192:32,1,40
96,96,103314,5,0,0:0:0:0:
256,160,103426,2,0,L|192:160,1,40
96,224,103648,1,0,0:0:0:0:
256,320,103759,6,0,L|480:128,1,280
384,96,104648,1,0,0:0:0:0:
320,128,104759,1,0,0:0:0:0:
256,160,104870,1,0,0:0:0:0:
192,192,104981,1,0,0:0:0:0:
128,224,105092,5,0,0:0:0:0:
128,288,105203,1,0,0:0:0:0:
160,352,105314,1,0,0:0:0:0:
224,320,105426,1,0,0:0:0:0:
288,288,105537,1,0,0:0:0:0:
352,256,105648,5,0,0:0:0:0:
416,224,105759,1,0,0:0:0:0:
480,192,105870,1,0,0:0:0:0:
448,128,105981,1,0,0:0:0:0:
384,64,106092,1,0,0:0:0:0:
320,96,106203,5,0,0:0:0:0:
416,32,106314,1,0,0:0:0:0:
352,96,106426,1,0,0:0:0:0:
288,32,106537,1,0,0:0:0:0:
224,96,106648,1,0,0:0:0:0:
128,192,106759,5,0,0:0:0:0:
64,256,106870,1,0,0:0:0:0:
192,256,106981,1,0,0:0:0:0:
256,320,107092,1,0,0:0:0:0:
320,256,107203,1,0,0:0:0:0:
384,192,107314,5,0,0:0:0:0:
448,256,107426,1,0,0:0:0:0:
480,128,107537,1,0,0:0:0:0:
160,32,107648,1,0,0:0:0:0:
96,96,107759,1,0,0:0:0:0:
64,160,107870,5,0,0:0:0:0:
160,192,107981,1,0,0:0:0:0:
64,256,108092,1,0,0:0:0:0:
160,288,108203,1,0,0:0:0:0:
64,352,108314,1,0,0:0:0:0:
288,352,108426,5,0,0:0:0:0:
448,320,108537,1,0,0:0:0:0:
288,224,108648,1,0,0:0:0:0:
448,160,108759,1,0,0:0:0:0:
288,96,108870,1,0,0:0:0:0:
448,64,108981,5,0,0:0:0:0:
288,0,109092,1,0,0:0:0:0:
160,64,109203,1,0,0:0:0:0:
32,128,109314,1,0,0:0:0:0:
64,192,109426,1,0,0:0:0:0:
96,256,109537,5,0,0:0:0:0:
128,320,109648,1,0,0:0:0:0:
192,352,109759,1,0,0:0:0:0:
256,320,109870,1,0,0:0:0:0:
320,288,109981,1,0,0:0:0:0:
384,256,110092,5,0,0:0:0:0:
448,224,110203,1,0,0:0:0:0:
416,160,110314,1,0,0:0:0:0:
384,96,110426,1,0,0:0:0:0:
352,32,110537,1,0,0:0:0:0:
288,64,110648,5,0,0:0:0:0:
224,96,110759,1,0,0:0:0:0:
160,128,110870,1,0,0:0:0:0:
96,160,110981,1,0,0:0:0:0:
32,192,111092,1,0,0:0:0:0:
96,224,111203,5,0,0:0:0:0:
160,256,111314,1,0,0:0:0:0:
224,224,111426,1,0,0:0:0:0:
256,320,111537,1,0,0:0:0:0:
320,288,111648,1,0,0:0:0:0:
384,256,111759,5,0,0:0:0:0:
448,224,111870,1,0,0:0:0:0:
512,192,111981,1,0,0:0:0:0:
416,160,112092,1,0,0:0:0:0:
480,128,112203,1,0,0:0:0:0:
448,64,112314,5,0,0:0:0:0:
384,64,112426,1,0,0:0:0:0:
320,64,112537,1,0,0:0:0:0:
256,128,112648,1,0,0:0:0:0:
192,192,112759,1,0,0:0:0:0:
128,256,112870,5,0,0:0:0:0:
64,192,112981,1,0,0:0:0:0:
32,128,113092,1,0,0:0:0:0:
96,128,113203,1,0,0:0:0:0:
160,128,113314,1,0,0:0:0:0:
160,64,113426,5,0,0:0:0:0:
224,64,113537,1,0,0:0:0:0:
256,128,113648,1,0,0:0:0:0:
288,192,113759,1,0,0:0:0:0:
320,256,113870,1,0,0:0:0:0:
384,256,113981,5,0,0:0:0:0:
448,256,114092,1,0,0:0:0:0:
448,320,114203,1,0,0:0:0:0:
384,320,114314,1,0,0:0:0:0:
320,320,114426,1,0,0:0:0:0:
160,320,114537,5,0,0:0:0:0:
256,256,114648,1,0,0:0:0:0:
160,192,114759,1,0,0:0:0:0:
224,128,114870,1,0,0:0:0:0:
320,96,114981,1,0,0:0:0:0:
448,128,115092,5,0,0:0:0:0:
480,32,115203,1,0,0:0:0:0:
384,32,115314,1,0,0:0:0:0:
320,96,115426,1,0,0:0:0:0:
256,160,115537,1,0,0:0:0:0:
192,224,115648,5,0,0:0:0:0:
128,160,115759,1,0,0:0:0:0:
64,96,115870,1,0,0:0:0:0:
128,96,115981,1,0,0:0:0:0:
192,96,116092,1,0,0:0:0:0:
256,160,116203,5,0,0:0:0:0:
320,224,116314,1,0,0:0:0:0:
384,160,116426,1,0,0:0:0:0:
448,224,116537,1,0,0:0:0:0:
448,320,116648,2,0,L|384:320,1,40
320,320,116870,6,0,L|256:320,1,40
160,256,117092,2,0,L|128:224,1,40
128,160,117314,2,0,L|160:128,1,40
192,96,117537,2,0,L|224:64,1,40
288,64,117759,2,0,L|352:64,1,40
480,96,117981,6,0,L|448:128,1,40
320,192,118203,2,0,L|352:224,1,40
480,256,118426,2,0,L|448:288,1,40
320,320,118648,2,0,L|352:352,1,40
480,32,118870,2,0,L|448:64,1,40
320,96,119092,6,0,L|288:128,1,40
288,192,119314,2,0,L|256:224,1,40
160,192,119537,2,0,L|128:224,1,40
160,320,119759,2,0,L|128:352,1,40
64,256,119981,1,0,0:0:0:0:
64,128,120092,5,0,0:0:0:0:
192,128,120203,1,0,0:0:0:0:
320,128,120314,1,0,0:0:0:0:
320,256,120426,1,0,0:0:0:0:
448,256,120537,1,0,0:0:0:0:
128,288,120648,6,0,L|192:288,1,40
128,192,120870,2,0,L|192:192,1,40
320,160,121092,1,0,0:0:0:0:
128,96,121203,2,0,L|192:96,1,40
320,64,121426,1,0,0:0:0:0:
416,32,121537,6,0,L|416:96,1,40
352,128,121759,2,0,L|352:192,1,40
288,224,121981,2,0,L|288:288,1,40
224,320,122203,2,0,L|224:384,1,40
32,288,122426,1,0,0:0:0:0:
160,256,122537,5,0,0:0:0:0:
32,192,122648,1,0,0:0:0:0:
160,160,122759,1,0,0:0:0:0:
32,96,122870,1,0,0:0:0:0:
160,64,122981,1,0,0:0:0:0:
224,64,123092,5,0,0:0:0:0:
288,64,123203,1,0,0:0:0:0:
352,64,123314,1,0,0:0:0:0:
416,96,123426,1,0,0:0:0:0:
384,160,123537,1,0,0:0:0:0:
320,192,123648,5,0,0:0:0:0:
256,224,123759,1,0,0:0:0:0:
256,288,123870,1,0,0:0:0:0:
320,352,123981,1,0,0:0:0:0:
384,320,124092,1,0,0:0:0:0:
448,288,124203,5,0,0:0:0:0:
416,224,124314,1,0,0:0:0:0:
352,192,124426,1,0,0:0:0:0:
288,160,124537,1,0,0:0:0:0:
224,128,124648,1,0,0:0:0:0:
160,96,124759,5,0,0:0:0:0:
96,64,124870,1,0,0:0:0:0:
32,96,124981,1,0,0:0:0:0:
32,160,125092,1,0,0:0:0:0:
64,224,125203,1,0,0:0:0:0:
96,288,125314,5,0,0:0:0:0:
160,288,125426,1,0,0:0:0:0:
224,256,125537,1,0,0:0:0:0:
288,224,125648,1,0,0:0:0:0:
352,192,125759,1,0,0:0:0:0:
416,192,125870,5,0,0:0:0:0:
448,256,125981,1,0,0:0:0:0:
416,320,126092,1,0,0:0:0:0:
352,320,126203,1,0,0:0:0:0:
288,320,126314,1,0,0:0:0:0:
256,256,126426,5,0,0:0:0:0:
224,192,126537,1,0,0:0:0:0:
192,128,126648,1,0,0:0:0:0:
160,64,126759,1,0,0:0:0:0:
224,64,126870,1,0,0:0:0:0:
288,64,126981,5,0,0:0:0:0:
352,96,127092,1,0,0:0:0:0:
416,128,127203,1,0,0:0:0:0:
416,192,127314,1,0,0:0:0:0:
384,256,127426,1,0,0:0:0:0:
320,288,127537,6,0,L|288:320,1,40
160,288,127759,2,0,L|192:320,1,40
256,352,127981,1,0,0:0:0:0:
256,288,128092,1,0,0:0:0:0:
256,224,128203,1,0,0:0:0:0:
320,192,128314,5,0,0:0:0:0:
384,160,128426,1,0,0:0:0:0:
448,128,128537,1,0,0:0:0:0:
416,64,128648,1,0,0:0:0:0:
352,32,128759,1,0,0:0:0:0:
288,64,128870,5,0,0:0:0:0:
224,96,128981,1,0,0:0:0:0:
160,128,129092,1,0,0:0:0:0:
96,160,129203,1,0,0:0:0:0:
32,192,129314,1,0,0:0:0:0:
64,256,129426,5,0,0:0:0:0:
128,160,129537,1,0,0:0:0:0:
128,256,129648,1,0,0:0:0:0:
192,160,129759,1,0,0:0:0:0:
192,256,129870,1,0,0:0:0:0:
288,160,129981,6,0,L|320:192,1,40
448,160,130203,2,0,L|416:192,1,40
288,288,130426,2,0,L|320:320,2,40
448,288,130759,2,0,L|416:320,2,40
