osu file format v14

[General]
AudioFilename: audio.mp3
AudioLeadIn: 0
PreviewTime: 38464
Countdown: 0
SampleSet: Normal
StackLeniency: 0.7
Mode: 1
LetterboxInBreaks: 0
WidescreenStoryboard: 1

[Editor]
DistanceSpacing: 0.5
BeatDivisor: 4
GridSize: 32
TimelineZoom: 2.1

[Metadata]
Title:Blimp
TitleUnicode:Blimp
Artist:Louis Cole
ArtistUnicode:Louis Cole
Creator:tzechi
Version:Muzukashii
Source:
Tags:rycy english pop drums electronic electro-funk jazz-funk avant-pop electro funk jazz knower
BeatmapID:4458504
BeatmapSetID:2121794

[Difficulty]
HPDrainRate:6
CircleSize:5
OverallDifficulty:5
ApproachRate:5
SliderMultiplier:1.35
SliderTickRate:1

[Events]
//Background and Video events
0,0,"maxresdefault.jpg",0,80
Video,-163,"video.mp4"
//Break Periods
2,56037,59573
//Storyboard Layer 0 (Background)
//Storyboard Layer 1 (Fail)
//Storyboard Layer 2 (Pass)
//Storyboard Layer 3 (Foreground)
//Storyboard Layer 4 (Overlay)
//Storyboard Sound Samples

[TimingPoints]
774,394.736842105263,4,1,0,70,1,0
774,-100,4,1,0,70,0,0
13405,-100,4,1,0,73,0,0
26037,-100,4,1,0,75,0,0
38668,-100,4,1,0,80,0,1
51300,-100,4,1,0,75,0,0
54556,-117.647058823529,4,1,0,65,0,0
60773,-100,4,1,0,65,0,0
62352,-100,4,1,0,70,0,0
63931,-100,4,1,0,75,0,0
92352,-100,4,1,0,75,0,1
93537,428.571428571429,4,1,0,75,1,9
93537,-90.9090909090909,4,1,0,75,0,1
93965,428.571428571429,4,1,0,75,1,0
93965,-90.9090909090909,4,1,0,75,0,0

[HitObjects]
228,211,774,5,0,0:0:0:0:
228,211,971,1,0,0:0:0:0:
228,211,1168,1,8,0:0:0:0:
228,211,1366,1,8,0:0:0:0:
217,212,1563,1,0,0:0:0:0:
214,201,1958,1,8,0:0:0:0:
213,203,2155,1,8,0:0:0:0:
213,203,2352,1,0,0:0:0:0:
214,201,2747,1,8,0:0:0:0:
213,203,3142,1,0,0:0:0:0:
209,205,3537,1,8,0:0:0:0:
186,209,3931,1,0,0:0:0:0:
186,209,4129,1,0,0:0:0:0:
186,209,4326,1,8,0:0:0:0:
186,209,4523,1,8,0:0:0:0:
186,209,4721,1,0,0:0:0:0:
186,209,5116,1,8,0:0:0:0:
186,209,5313,1,8,0:0:0:0:
186,209,5510,1,0,0:0:0:0:
155,211,5708,1,8,0:0:0:0:
186,209,5905,1,0,0:0:0:0:
186,209,6004,1,8,0:0:0:0:
186,209,6300,1,8,0:0:0:0:
186,209,6596,1,8,0:0:0:0:
179,204,7089,1,0,0:0:0:0:
179,204,7287,1,0,0:0:0:0:
178,204,7484,1,8,0:0:0:0:
169,207,7879,1,0,0:0:0:0:
169,207,8273,1,8,0:0:0:0:
169,207,8471,1,8,0:0:0:0:
169,207,8668,1,0,0:0:0:0:
169,207,9063,1,8,0:0:0:0:
169,207,9458,1,0,0:0:0:0:
166,213,9655,1,0,0:0:0:0:
165,212,9852,1,8,0:0:0:0:
164,210,10247,1,0,0:0:0:0:
164,210,10445,1,0,0:0:0:0:
166,213,10642,1,8,0:0:0:0:
165,212,10839,1,8,0:0:0:0:
164,210,11037,1,0,0:0:0:0:
133,211,11431,1,8,0:0:0:0:
166,213,11629,1,8,0:0:0:0:
133,211,11826,1,0,0:0:0:0:
133,211,12023,1,8,0:0:0:0:
133,211,12221,1,0,0:0:0:0:
133,211,12320,1,8,0:0:0:0:
133,211,12616,1,8,0:0:0:0:
133,211,13405,1,4,0:0:0:0:
133,211,13602,1,0,0:0:0:0:
131,215,13800,1,8,0:0:0:0:
131,216,13997,1,8,0:0:0:0:
131,216,14195,1,0,0:0:0:0:
131,217,14589,1,8,0:0:0:0:
131,215,14787,1,8,0:0:0:0:
131,216,14984,1,0,0:0:0:0:
131,217,15379,1,8,0:0:0:0:
135,213,15576,1,0,0:0:0:0:
139,211,15773,1,0,0:0:0:0:
131,217,16168,1,8,0:0:0:0:
101,214,16563,1,0,0:0:0:0:
101,214,16760,1,0,0:0:0:0:
114,205,16958,1,8,0:0:0:0:
114,205,17155,1,8,0:0:0:0:
114,205,17352,1,0,0:0:0:0:
72,190,17747,1,8,0:0:0:0:
114,205,17945,1,8,0:0:0:0:
114,205,18142,1,0,0:0:0:0:
114,205,18339,1,8,0:0:0:0:
72,190,18537,1,0,0:0:0:0:
72,190,18635,1,8,0:0:0:0:
104,204,18931,1,8,0:0:0:0:
72,190,19227,1,8,0:0:0:0:
72,190,19721,1,0,0:0:0:0:
72,190,20116,1,8,0:0:0:0:
78,189,20510,1,0,0:0:0:0:
78,189,20708,1,0,0:0:0:0:
80,188,20905,1,8,0:0:0:0:
74,198,21102,1,0,0:0:0:0:
78,189,21300,1,0,0:0:0:0:
75,196,21695,1,8,0:0:0:0:
75,196,22089,1,0,0:0:0:0:
75,197,22287,1,0,0:0:0:0:
75,196,22484,1,8,0:0:0:0:
75,196,22879,1,0,0:0:0:0:
75,196,23076,1,0,0:0:0:0:
75,197,23273,1,8,0:0:0:0:
75,196,23471,1,8,0:0:0:0:
75,196,23668,1,0,0:0:0:0:
75,196,24063,1,8,0:0:0:0:
75,197,24260,1,8,0:0:0:0:
72,200,24458,1,0,0:0:0:0:
72,200,24655,1,8,0:0:0:0:
72,200,24852,1,0,0:0:0:0:
72,200,24951,1,8,0:0:0:0:
75,197,25247,1,8,0:0:0:0:
68,174,25642,1,8,0:0:0:0:
68,174,25741,1,8,0:0:0:0:
68,174,25839,1,8,0:0:0:0:
68,174,26037,1,4,0:0:0:0:
139,159,26234,1,0,0:0:0:0:
139,159,26431,1,8,0:0:0:0:
139,159,26629,1,8,0:0:0:0:
139,159,26826,1,0,0:0:0:0:
139,159,27221,1,8,0:0:0:0:
139,159,27616,1,0,0:0:0:0:
133,148,28010,1,8,0:0:0:0:
132,149,28208,1,0,0:0:0:0:
132,149,28306,1,0,0:0:0:0:
132,149,28405,1,0,0:0:0:0:
132,149,28602,1,0,0:0:0:0:
133,148,28800,1,8,0:0:0:0:
132,149,29195,1,0,0:0:0:0:
132,149,29392,1,0,0:0:0:0:
132,149,29589,1,8,0:0:0:0:
133,148,29787,1,8,0:0:0:0:
132,149,29984,1,0,0:0:0:0:
132,149,30379,1,8,0:0:0:0:
132,149,30576,1,8,0:0:0:0:
133,148,30773,1,0,0:0:0:0:
132,149,30971,1,8,0:0:0:0:
132,149,31168,1,0,0:0:0:0:
132,149,31267,1,8,0:0:0:0:
132,149,31563,1,8,0:0:0:0:
132,149,31859,1,8,0:0:0:0:
126,146,32352,1,0,0:0:0:0:
144,132,32747,1,8,0:0:0:0:
144,132,33142,1,0,0:0:0:0:
144,132,33339,1,0,0:0:0:0:
144,132,33537,1,8,0:0:0:0:
157,131,33734,1,0,0:0:0:0:
149,126,33931,1,0,0:0:0:0:
148,135,34326,1,8,0:0:0:0:
148,135,34523,1,0,0:0:0:0:
148,135,34622,1,0,0:0:0:0:
148,135,34721,1,0,0:0:0:0:
148,135,34918,1,0,0:0:0:0:
148,135,35116,1,8,0:0:0:0:
148,135,35510,1,0,0:0:0:0:
148,135,35708,1,0,0:0:0:0:
148,135,35905,1,8,0:0:0:0:
148,135,36102,1,8,0:0:0:0:
148,135,36300,1,0,0:0:0:0:
148,135,36695,1,8,0:0:0:0:
148,135,36892,1,8,0:0:0:0:
148,135,37089,1,0,0:0:0:0:
148,135,37287,1,8,0:0:0:0:
148,135,37484,1,0,0:0:0:0:
148,135,37583,1,8,0:0:0:0:
148,135,37879,1,8,0:0:0:0:
148,135,38668,1,4,0:0:0:0:
148,135,38866,1,8,0:0:0:0:
148,135,38964,1,8,0:0:0:0:
148,135,39063,1,8,0:0:0:0:
148,135,39260,1,8,0:0:0:0:
148,135,39458,1,0,0:0:0:0:
148,135,39852,1,8,0:0:0:0:
148,135,40247,1,0,0:0:0:0:
148,135,40445,1,8,0:0:0:0:
148,135,40543,1,8,0:0:0:0:
148,135,40642,1,8,0:0:0:0:
148,135,40839,1,0,0:0:0:0:
148,135,41037,1,0,0:0:0:0:
148,135,41431,1,8,0:0:0:0:
148,135,41826,1,0,0:0:0:0:
148,135,42023,1,8,0:0:0:0:
148,135,42122,1,8,0:0:0:0:
148,135,42221,1,8,0:0:0:0:
142,142,42418,1,8,0:0:0:0:
148,135,42616,1,0,0:0:0:0:
148,135,43010,1,0,0:0:0:0:
151,124,43405,1,0,0:0:0:0:
137,108,43602,1,8,0:0:0:0:
134,106,43701,1,8,0:0:0:0:
134,106,43800,1,8,0:0:0:0:
155,140,43997,1,8,0:0:0:0:
155,140,44195,1,0,0:0:0:0:
148,135,44984,1,8,0:0:0:0:
148,135,45181,1,0,0:0:0:0:
148,135,45280,1,0,0:0:0:0:
148,135,45379,1,0,0:0:0:0:
148,135,45576,1,0,0:0:0:0:
170,113,45971,1,8,0:0:0:0:
148,135,46168,1,0,0:0:0:0:
148,135,46563,1,8,0:0:0:0:
148,135,46760,1,0,0:0:0:0:
148,135,46859,1,0,0:0:0:0:
148,135,46958,1,0,0:0:0:0:
148,135,47155,1,0,0:0:0:0:
148,135,47550,1,8,0:0:0:0:
148,135,47747,1,0,0:0:0:0:
148,135,48142,1,8,0:0:0:0:
148,135,48339,1,0,0:0:0:0:
148,135,48438,1,0,0:0:0:0:
148,135,48537,1,0,0:0:0:0:
142,142,48734,1,0,0:0:0:0:
148,135,48931,1,0,0:0:0:0:
152,74,49030,1,0,0:0:0:0:
148,135,49129,1,0,0:0:0:0:
148,135,49326,1,8,0:0:0:0:
190,63,49721,1,0,0:0:0:0:
190,63,49820,1,0,0:0:0:0:
190,63,49918,1,0,0:0:0:0:
190,63,50116,1,8,0:0:0:0:
193,50,50313,1,8,0:0:0:0:
213,90,50412,1,8,0:0:0:0:
235,99,50609,1,8,0:0:0:0:
193,50,50708,1,8,0:0:0:0:
193,50,50905,1,8,0:0:0:0:
225,58,51300,1,4,0:0:0:0:
231,116,51497,1,0,0:0:0:0:
231,116,51695,1,8,0:0:0:0:
231,116,51892,1,8,0:0:0:0:
231,116,52089,1,0,0:0:0:0:
231,116,52484,1,8,0:0:0:0:
231,116,52681,1,8,0:0:0:0:
231,116,52879,1,0,0:0:0:0:
231,116,53273,1,8,0:0:0:0:
224,113,53668,1,0,0:0:0:0:
224,113,53866,1,0,0:0:0:0:
224,113,54063,1,8,0:0:0:0:
224,113,54458,1,0,0:0:0:0:
206,128,60773,5,0,0:0:0:0:
225,150,61168,1,0,0:0:0:0:
212,148,61563,1,8,0:0:0:0:
202,165,61958,1,8,0:0:0:0:
174,116,62352,1,0,0:0:0:0:
174,116,62747,1,8,0:0:0:0:
174,116,62945,1,0,0:0:0:0:
174,116,63142,1,8,0:0:0:0:
174,116,63339,1,8,0:0:0:0:
174,116,63438,1,8,0:0:0:0:
174,116,63537,1,8,0:0:0:0:
174,116,63931,1,4,0:0:0:0:
174,116,64129,1,0,0:0:0:0:
174,116,64523,1,8,0:0:0:0:
174,116,64721,1,0,0:0:0:0:
174,116,64918,1,0,0:0:0:0:
174,116,65116,1,8,0:0:0:0:
174,116,65510,1,0,0:0:0:0:
174,116,65708,1,8,0:0:0:0:
174,116,66102,1,8,0:0:0:0:
174,116,66300,1,0,0:0:0:0:
174,116,66497,1,8,0:0:0:0:
174,116,66695,1,8,0:0:0:0:
174,116,67089,1,0,0:0:0:0:
174,116,67287,1,0,0:0:0:0:
174,116,67681,1,8,0:0:0:0:
174,116,67879,1,0,0:0:0:0:
174,116,68076,1,0,0:0:0:0:
174,116,68273,1,8,0:0:0:0:
174,116,68668,1,0,0:0:0:0:
174,116,68866,1,8,0:0:0:0:
174,116,69162,1,8,0:0:0:0:
174,116,69458,1,8,0:0:0:0:
174,116,70247,1,0,0:0:0:0:
174,116,70445,1,0,0:0:0:0:
174,116,70839,1,8,0:0:0:0:
174,116,71037,1,0,0:0:0:0:
174,116,71234,1,8,0:0:0:0:
174,116,71431,1,8,0:0:0:0:
174,116,71826,1,0,0:0:0:0:
174,116,72023,1,8,0:0:0:0:
174,116,72418,1,8,0:0:0:0:
174,116,72616,1,0,0:0:0:0:
174,116,72813,1,0,0:0:0:0:
174,116,73010,1,8,0:0:0:0:
185,79,73405,1,0,0:0:0:0:
185,79,73602,1,0,0:0:0:0:
185,79,73800,1,8,0:0:0:0:
185,79,73997,1,8,0:0:0:0:
185,79,74195,1,0,0:0:0:0:
178,72,74589,1,8,0:0:0:0:
180,73,74787,1,8,0:0:0:0:
180,73,74984,1,0,0:0:0:0:
174,70,75773,1,8,0:0:0:0:
174,70,75971,1,8,0:0:0:0:
172,70,76168,1,0,0:0:0:0:
174,70,76563,1,0,0:0:0:0:
174,70,76958,1,8,0:0:0:0:
177,69,77155,1,0,0:0:0:0:
174,70,77352,1,0,0:0:0:0:
188,56,77550,1,8,0:0:0:0:
188,56,77747,1,8,0:0:0:0:
148,48,78142,1,0,0:0:0:0:
148,48,78537,1,8,0:0:0:0:
148,48,78734,1,8,0:0:0:0:
148,48,78931,1,0,0:0:0:0:
148,48,79129,1,8,0:0:0:0:
148,48,79326,1,8,0:0:0:0:
148,48,79721,1,0,0:0:0:0:
148,48,79918,1,0,0:0:0:0:
148,48,80116,1,8,0:0:0:0:
148,48,80313,1,8,0:0:0:0:
164,47,80510,1,0,0:0:0:0:
164,47,80905,1,8,0:0:0:0:
164,47,81102,1,8,0:0:0:0:
164,47,81300,1,0,0:0:0:0:
164,47,81497,1,8,0:0:0:0:
164,47,81695,1,0,0:0:0:0:
164,47,81793,1,8,0:0:0:0:
164,47,82089,1,8,0:0:0:0:
164,47,82879,1,0,0:0:0:0:
164,47,83273,1,8,0:0:0:0:
164,47,83471,1,0,0:0:0:0:
164,47,83668,1,0,0:0:0:0:
164,47,83866,1,8,0:0:0:0:
164,47,84063,1,8,0:0:0:0:
158,43,84458,1,0,0:0:0:0:
158,43,84852,1,8,0:0:0:0:
158,43,85050,1,8,0:0:0:0:
158,43,85247,1,0,0:0:0:0:
158,43,85445,1,8,0:0:0:0:
158,43,85642,1,8,0:0:0:0:
158,43,86037,1,0,0:0:0:0:
158,43,86234,1,0,0:0:0:0:
158,43,86431,1,8,0:0:0:0:
158,43,86629,1,8,0:0:0:0:
158,43,86826,1,0,0:0:0:0:
250,155,87221,1,8,0:0:0:0:
250,155,87418,1,8,0:0:0:0:
250,155,87616,1,0,0:0:0:0:
243,149,88109,1,8,0:0:0:0:
240,146,88405,1,8,0:0:0:0:
236,144,88602,1,0,0:0:0:0:
236,144,88800,1,0,0:0:0:0:
230,140,89195,1,0,0:0:0:0:
230,140,89392,1,0,0:0:0:0:
230,140,89589,1,8,0:0:0:0:
230,140,89787,1,8,0:0:0:0:
230,140,89984,1,0,0:0:0:0:
230,140,90379,1,8,0:0:0:0:
230,140,90576,1,8,0:0:0:0:
230,140,90773,1,0,0:0:0:0:
230,140,91168,1,8,0:0:0:0:
230,140,91563,1,0,0:0:0:0:
230,140,91760,1,0,0:0:0:0:
230,140,91958,1,8,0:0:0:0:
230,140,92352,1,4,0:0:0:0:
230,140,92550,1,4,0:0:0:0:
230,140,92747,1,4,0:0:0:0:
230,140,92945,1,4,0:0:0:0:
230,140,93142,1,4,0:0:0:0:
221,137,93537,1,8,0:0:0:0:
221,137,93751,1,8,0:0:0:0:
221,137,93965,1,0,0:0:0:0:
