osu file format v14

[General]
AudioFilename: audio.mp3
AudioLeadIn: 0
PreviewTime: 38464
Countdown: 0
SampleSet: Normal
StackLeniency: 0.7
Mode: 1
LetterboxInBreaks: 0
WidescreenStoryboard: 1

[Editor]
DistanceSpacing: 0.5
BeatDivisor: 4
GridSize: 32
TimelineZoom: 1.7

[Metadata]
Title:Blimp
TitleUnicode:Blimp
Artist:Louis Cole
ArtistUnicode:Louis Cole
Creator:tzechi
Version:Kantan
Source:
Tags:rycy english pop drums electronic electro-funk jazz-funk avant-pop electro funk jazz knower
BeatmapID:4458503
BeatmapSetID:2121794

[Difficulty]
HPDrainRate:8
CircleSize:5
OverallDifficulty:3
ApproachRate:5
SliderMultiplier:1.35
SliderTickRate:1

[Events]
//Background and Video events
0,0,"maxresdefault.jpg",0,80
Video,-163,"video.mp4"
//Break Periods
2,56037,59573
//Storyboard Layer 0 (Background)
//Storyboard Layer 1 (Fail)
//Storyboard Layer 2 (Pass)
//Storyboard Layer 3 (Foreground)
//Storyboard Layer 4 (Overlay)
//Storyboard Sound Samples

[TimingPoints]
774,394.736842105263,4,1,0,70,1,0
774,-100,4,1,0,70,0,0
13405,-100,4,1,0,73,0,0
26037,-100,4,1,0,75,0,0
38668,-100,4,1,0,80,0,1
51300,-100,4,1,0,75,0,0
54556,-117.647058823529,4,1,0,65,0,0
60773,-100,4,1,0,65,0,0
62352,-100,4,1,0,70,0,0
63931,-100,4,1,0,75,0,0
92352,-100,4,1,0,75,0,1
93537,428.571428571429,4,1,0,75,1,9
93965,428.571428571429,4,1,0,75,1,0
93965,-100,4,1,0,75,0,0

[HitObjects]
234,190,774,5,0,0:0:0:0:
234,190,1563,1,8,0:0:0:0:
213,160,1958,1,8,0:0:0:0:
213,160,2352,1,0,0:0:0:0:
213,160,3142,1,8,0:0:0:0:
206,158,3931,1,0,0:0:0:0:
206,158,4721,1,8,0:0:0:0:
206,158,5116,1,8,0:0:0:0:
206,158,5510,1,0,0:0:0:0:
234,190,7089,1,0,0:0:0:0:
234,190,7879,1,8,0:0:0:0:
225,186,8273,1,0,0:0:0:0:
213,160,8668,1,0,0:0:0:0:
213,160,9458,1,8,0:0:0:0:
206,158,10247,1,0,0:0:0:0:
206,158,11037,1,8,0:0:0:0:
206,158,11431,1,8,0:0:0:0:
206,158,11826,1,0,0:0:0:0:
221,180,13405,1,4,0:0:0:0:
214,188,14195,1,8,0:0:0:0:
205,180,14589,1,0,0:0:0:0:
205,180,14984,1,0,0:0:0:0:
205,180,15773,1,8,0:0:0:0:
205,180,16563,1,0,0:0:0:0:
205,180,17352,1,8,0:0:0:0:
205,180,17747,1,0,0:0:0:0:
205,180,18142,1,0,0:0:0:0:
216,189,19721,1,0,0:0:0:0:
145,207,20116,1,0,0:0:0:0:
216,189,20510,1,8,0:0:0:0:
216,189,20905,1,8,0:0:0:0:
216,189,21300,1,0,0:0:0:0:
196,113,22089,1,8,0:0:0:0:
191,115,22879,1,0,0:0:0:0:
191,115,23668,1,8,0:0:0:0:
248,173,24063,1,8,0:0:0:0:
180,143,24458,1,0,0:0:0:0:
183,156,26037,1,4,0:0:0:0:
183,156,26826,1,8,0:0:0:0:
188,162,27221,1,8,0:0:0:0:
193,141,27616,1,0,0:0:0:0:
187,144,28405,1,8,0:0:0:0:
187,144,29195,1,0,0:0:0:0:
187,144,29984,1,8,0:0:0:0:
194,156,30379,1,8,0:0:0:0:
187,144,30773,1,0,0:0:0:0:
187,144,32352,1,0,0:0:0:0:
187,144,33142,1,8,0:0:0:0:
187,144,33537,1,0,0:0:0:0:
187,144,33931,1,0,0:0:0:0:
178,143,34721,1,8,0:0:0:0:
178,143,35510,1,0,0:0:0:0:
178,143,36300,1,8,0:0:0:0:
178,143,36695,1,8,0:0:0:0:
178,143,37089,1,0,0:0:0:0:
178,143,38668,1,4,0:0:0:0:
178,143,39063,1,0,0:0:0:0:
178,143,39852,1,8,0:0:0:0:
178,143,40247,1,0,0:0:0:0:
178,143,40642,1,0,0:0:0:0:
178,143,41431,1,8,0:0:0:0:
178,143,41826,1,0,0:0:0:0:
178,143,42221,1,0,0:0:0:0:
170,138,43010,1,8,0:0:0:0:
170,138,43405,1,0,0:0:0:0:
173,130,44589,1,8,0:0:0:0:
173,130,44984,1,0,0:0:0:0:
173,130,45379,1,0,0:0:0:0:
173,130,45971,1,8,0:0:0:0:
173,130,46563,1,0,0:0:0:0:
173,130,46958,1,0,0:0:0:0:
173,130,47550,1,8,0:0:0:0:
173,130,48142,1,0,0:0:0:0:
173,130,48537,1,0,0:0:0:0:
173,130,49326,1,0,0:0:0:0:
57,109,49721,2,0,B|396:60|396:60|296:44,1,405
216,138,51300,1,4,0:0:0:0:
244,174,51695,1,0,0:0:0:0:
244,174,52089,1,8,0:0:0:0:
244,174,52484,1,8,0:0:0:0:
244,174,52879,1,0,0:0:0:0:
244,174,53668,1,8,0:0:0:0:
244,174,54458,1,0,0:0:0:0:
174,191,60773,5,0,0:0:0:0:
174,191,61563,1,0,0:0:0:0:
174,191,62352,1,8,0:0:0:0:
174,191,63142,1,8,0:0:0:0:
181,184,63931,1,4,0:0:0:0:
193,161,64523,1,0,0:0:0:0:
181,184,65116,1,8,0:0:0:0:
180,159,65510,1,0,0:0:0:0:
179,159,66102,1,0,0:0:0:0:
179,159,67089,1,0,0:0:0:0:
179,159,67681,1,0,0:0:0:0:
179,159,68273,1,8,0:0:0:0:
174,142,68668,1,0,0:0:0:0:
181,184,70247,1,0,0:0:0:0:
193,161,70839,1,0,0:0:0:0:
181,184,71431,1,8,0:0:0:0:
180,159,71826,1,0,0:0:0:0:
179,159,72418,1,0,0:0:0:0:
171,151,73010,1,8,0:0:0:0:
179,159,73405,1,0,0:0:0:0:
167,147,74195,1,8,0:0:0:0:
179,159,74589,1,8,0:0:0:0:
174,142,74984,1,0,0:0:0:0:
181,184,76563,1,0,0:0:0:0:
193,161,77155,1,0,0:0:0:0:
181,184,77747,1,0,0:0:0:0:
180,159,78142,1,8,0:0:0:0:
179,159,78734,1,8,0:0:0:0:
179,159,79721,1,0,0:0:0:0:
170,140,80510,1,8,0:0:0:0:
179,159,80905,1,8,0:0:0:0:
174,142,81300,1,0,0:0:0:0:
181,184,82879,1,0,0:0:0:0:
193,161,83471,1,0,0:0:0:0:
181,184,84063,1,0,0:0:0:0:
180,159,84458,1,8,0:0:0:0:
179,159,85050,1,8,0:0:0:0:
179,159,86037,1,0,0:0:0:0:
164,114,86826,1,8,0:0:0:0:
179,159,87221,1,8,0:0:0:0:
174,142,87616,1,0,0:0:0:0:
181,184,89195,1,0,0:0:0:0:
193,161,89984,1,8,0:0:0:0:
181,184,90379,1,8,0:0:0:0:
180,159,90773,1,0,0:0:0:0:
179,159,91563,1,8,0:0:0:0:
179,159,92352,1,4,0:0:0:0:
179,159,92747,1,4,0:0:0:0:
179,159,93142,1,4,0:0:0:0:
179,134,93965,1,8,0:0:0:0:
