osu file format v14

[General]
AudioFilename: audio.mp3
AudioLeadIn: 0
PreviewTime: 62179
Countdown: 0
SampleSet: Soft
StackLeniency: 0.7
Mode: 0
LetterboxInBreaks: 0
WidescreenStoryboard: 1

[Editor]
Bookmarks: 26061,38692,49745,54482,76587
DistanceSpacing: 1.1
BeatDivisor: 4
GridSize: 32
TimelineZoom: 2.699999

[Metadata]
Title:Blimp
TitleUnicode:Blimp
Artist:Louis Cole
ArtistUnicode:Louis Cole
Creator:Wispy
Version:Rabu's Another
Source:
Tags:yeastiest raburauza english pop drums electronic electro-funk jazz-funk avant-pop electro funk jazz knower
BeatmapID:3890826
BeatmapSetID:1883139

[Difficulty]
HPDrainRate:4
CircleSize:5
OverallDifficulty:8.6
ApproachRate:9
SliderMultiplier:1.9
SliderTickRate:1

[Events]
//Background and Video events
0,0,"maxresdefault.jpg",0,0
Video,-80,"video.avi"
//Break Periods
2,56030,61745
//Storyboard Layer 0 (Background)
//Storyboard Layer 1 (Fail)
//Storyboard Layer 2 (Pass)
//Storyboard Layer 3 (Foreground)
//Storyboard Layer 4 (Overlay)
//Storyboard Sound Samples

[TimingPoints]
767,394.736842105263,4,2,1,75,1,0
767,-200,4,2,1,75,0,0
1556,-125,4,2,1,75,0,0
3135,-100,4,2,1,75,0,0
3530,-166.666666666667,4,2,1,75,0,0
4714,-111.111111111111,4,2,1,75,0,0
6293,-90.9090909090908,4,2,1,75,0,0
7477,-166.666666666667,4,2,1,75,0,0
7872,-111.111111111111,4,2,1,75,0,0
8266,-100,4,2,1,75,0,0
9056,-83.3333333333333,4,2,1,75,0,0
12016,-100,4,2,1,70,0,0
14977,-90.9090909090909,4,2,1,70,0,0
15766,-100,4,2,1,70,0,0
17345,-83.3333333333333,4,2,1,70,0,0
18628,-100,4,2,1,70,0,0
24845,-100,4,2,1,70,0,0
25536,-100,4,2,1,70,0,0
25635,-100,4,2,1,85,0,0
26030,-76.9230769230769,4,2,1,80,0,1
26424,-100,4,2,1,80,0,0
26819,-71.4285714285714,4,2,1,80,0,0
27609,-83.3333333333333,4,2,1,80,0,0
29977,-71.4285714285714,4,2,1,80,0,0
31260,-83.3333333333333,4,2,1,80,0,0
32345,-83.3333333333333,4,2,1,80,0,0
33530,-50,4,2,1,80,0,0
33628,-50,4,2,1,80,0,0
33727,-90.9090909090909,4,2,1,80,0,0
35701,-200,4,2,1,80,0,0
35799,-200,4,2,1,80,0,0
35898,-90.9090909090909,4,2,1,80,0,0
37280,-142.857142857143,4,2,1,80,0,0
38661,-90.9090909090909,4,2,1,80,0,1
39648,-66.6666666666667,4,2,1,80,0,1
40043,-45.4545454545455,4,2,1,80,0,1
40240,-66.6666666666667,4,2,1,80,0,1
41227,-58.8235294117647,4,2,1,80,0,1
42214,-71.4285714285714,4,2,1,80,0,1
50109,-100,4,2,1,85,0,1
50405,-83.3333333333333,4,2,1,85,0,1
50898,-100,4,2,1,85,0,0
51490,-100,4,2,1,80,0,0
63924,-52.6315789473684,4,2,1,80,0,1
64319,-100,4,2,1,80,0,0
75174,-90.9090909090909,4,2,1,80,0,0
75470,-100,4,2,1,80,0,0
81490,-76.9230769230769,4,2,1,80,0,0
81786,-90.9090909090909,4,2,1,80,0,0
82872,-100,4,2,1,80,0,0
84056,-125,4,2,1,80,0,0
84451,-100,4,2,1,80,0,0
87806,-83.3333333333333,4,2,1,80,0,0
88102,-100,4,2,1,80,0,0
90766,-76.9230769230769,4,2,1,80,0,0
91556,-90.9090909090909,4,2,1,80,0,0
92345,-90.9090909090909,4,2,1,85,0,0
93530,-90.9090909090909,4,2,1,80,0,0
93727,-100,4,2,1,75,0,0
93924,-100,4,2,1,70,0,0

[Colours]
Combo1 : 4,121,251
Combo2 : 255,242,9

[HitObjects]
66,303,767,6,0,L|58:363,1,47.5,2|0,1:2|3:0,0:0:0:0:
123,250,1161,1,8,1:0:0:0:
123,250,1359,1,2,2:0:0:0:
17,190,1556,6,0,L|110:179,1,76,0|0,1:0|2:0,2:0:0:0:
110,179,1852,1,0,3:0:0:0:
110,179,1951,1,8,1:0:0:0:
35,92,2148,1,0,3:0:0:0:
231,21,2345,5,2,1:2:0:0:
215,93,2543,1,0,0:0:0:0:
215,93,2641,1,0,3:0:0:0:
215,93,2740,2,0,B|228:116|228:116|229:183,1,76,8|2,1:0|0:0,0:0:0:0:
382,212,3135,6,0,P|327:218|277:257,1,95,0|0,1:0|0:0,2:0:0:0:
260,297,3431,1,0,3:0:0:0:
260,297,3530,2,0,P|235:284|199:288,1,56.9999982604981,8|0,1:0|0:0,0:0:0:0:
70,374,3924,5,2,1:2:0:0:
79,296,4122,1,0,3:0:0:0:
144,371,4319,5,8,1:0:0:0:
13,333,4516,1,2,2:0:0:0:
120,234,4714,6,0,B|132:220|132:220|115:132,1,85.4999973907472,0|0,1:0|2:0,2:0:0:0:
58,118,5010,1,0,3:0:0:0:
58,118,5109,1,8,1:0:0:0:
139,92,5306,1,0,3:0:0:0:
220,66,5503,1,0,1:0:0:0:
275,4,5701,5,2,2:0:0:0:
334,93,5898,1,8,1:0:0:0:
334,93,5997,1,2,2:0:0:0:
274,172,6194,1,0,3:0:0:0:
274,172,6293,6,0,B|268:197|268:197|298:220|312:274,1,104.500003189087,2|0,1:2|2:0,2:0:0:0:
306,274,6589,1,2,2:0:0:0:
306,274,6688,1,8,1:0:0:0:
416,248,6885,1,0,2:0:0:0:
195,372,7082,5,2,1:2:0:0:
195,372,7280,1,0,3:0:0:0:
225,277,7477,2,0,L|179:286,2,28.4999991302491,8|0|2,1:0|0:0|0:0,2:0:0:0:
90,358,7872,6,0,L|81:255,1,85.4999973907472,0|0,1:0|3:0,2:0:0:0:
60,239,8168,1,0,3:0:0:0:
60,239,8267,1,8,1:0:0:0:
173,205,8465,1,0,3:0:0:0:
283,171,8661,6,0,B|272:154|272:154|283:66,1,95,2|0,1:2|2:0,2:0:0:0:
225,36,8957,1,0,3:0:0:0:
225,36,9056,2,0,L|65:53,1,113.999996520996,8|2,1:0|2:0,2:0:0:0:
58,184,9451,6,0,B|79:202|79:202|96:288,1,113.999996520996,0|0,1:0|2:0,2:0:0:0:
96,287,9747,1,0,3:0:0:0:
96,287,9845,1,8,1:0:0:0:
195,365,10043,1,0,3:0:0:0:
195,365,10141,1,0,3:0:0:0:
195,365,10240,5,2,1:2:0:0:
248,263,10438,1,0,3:0:0:0:
205,204,10635,5,8,1:0:0:0:
285,346,10832,1,2,2:0:0:0:
351,303,11030,6,0,L|486:291,1,113.999996520996,0|0,1:0|2:0,2:0:0:0:
482,291,11326,1,0,3:0:0:0:
482,291,11424,1,8,1:0:0:0:
301,212,11622,1,0,3:0:0:0:
364,113,11819,5,0,1:0:0:0:
385,231,12016,2,0,L|372:336,1,95,2|8,2:0|1:0,2:0:0:0:
298,363,12313,2,0,B|217:361|217:361|195:348,1,95,2|0,2:0|2:0,2:0:0:0:
204,341,12609,1,2,1:2:0:0:
147,272,12806,6,0,L|137:218,2,47.5,0|2|8,3:0|2:0|1:0,0:0:0:0:
73,361,13201,1,0,3:0:0:0:
73,361,13299,1,0,3:0:0:0:
73,361,13398,5,2,1:2:0:0:
46,211,13595,1,0,3:0:0:0:
37,284,13793,5,8,1:0:0:0:
175,193,13990,1,2,2:0:0:0:
32,107,14188,6,0,L|44:207,1,95,0|0,1:0|2:0,2:0:0:0:
46,211,14484,1,0,3:0:0:0:
46,211,14582,1,8,1:0:0:0:
185,56,14780,1,0,3:0:0:0:
212,128,14977,6,0,L|204:246,1,104.500003189087,2|0,1:2|3:0,2:0:0:0:
204,246,15273,1,0,3:0:0:0:
204,246,15372,1,8,1:0:0:0:
263,350,15569,1,2,2:0:0:0:
263,350,15668,1,0,3:0:0:0:
263,350,15766,2,0,B|287:331|287:331|365:336,1,95,0|0,1:0|2:0,2:0:0:0:
444,246,16161,6,0,L|494:250,2,47.5,8|0|0,1:0|2:0|3:0,2:0:0:0:
348,79,16556,5,2,1:2:0:0:
491,140,16753,1,0,3:0:0:0:
502,68,16951,5,8,1:0:0:0:
415,180,17148,1,2,3:0:0:0:
337,66,17345,6,0,B|315:76|315:76|329:170,1,113.999996520996,0|0,1:0|2:0,2:0:0:0:
331,176,17641,1,0,3:0:0:0:
331,176,17740,1,8,1:0:0:0:
217,22,17938,1,0,3:0:0:0:
162,69,18135,1,0,1:0:0:0:
22,34,18332,6,0,L|91:154,1,113.999996520996,2|8,2:0|1:0,0:0:0:0:
179,175,18628,2,0,B|196:132|196:132|146:137,1,95,2|0,0:0|2:0,0:0:0:0:
87,205,18924,2,0,B|70:248|70:248|120:243,1,95,2|0,1:2|2:0,2:0:0:0:
118,243,19220,1,2,2:0:0:0:
118,243,19319,1,8,1:0:0:0:
207,277,19516,1,0,3:0:0:0:
322,359,19714,6,0,B|342:351|342:351|449:373,1,95,2|0,1:2|2:0,2:0:0:0:
501,152,20109,1,8,1:0:0:0:
413,195,20306,2,0,L|405:273,1,47.5,2|0,2:0|0:0,0:0:0:0:
494,361,20503,2,0,L|486:283,2,47.5,0|0|0,1:0|0:0|2:0,2:0:0:0:
405,176,20898,1,8,1:0:0:0:
329,229,21095,5,0,3:0:0:0:
329,229,21194,1,0,3:0:0:0:
329,229,21293,2,0,L|222:232,1,95,2|0,1:2|0:0,2:0:0:0:
216,231,21589,1,0,3:0:0:0:
216,231,21688,1,8,1:0:0:0:
306,58,21885,5,2,2:0:0:0:
306,58,21984,1,0,3:0:0:0:
306,58,22082,2,0,B|311:71|311:71|280:138|280:138|283:155,1,95,0|0,1:0|2:0,2:0:0:0:
175,21,22477,1,8,1:0:0:0:
175,21,22576,2,0,L|188:78,1,47.5,0|0,0:0|3:0,0:0:0:0:
45,141,22872,5,2,1:2:0:0:
181,220,23069,1,0,3:0:0:0:
78,293,23266,5,8,1:0:0:0:
161,131,23464,1,2,0:0:0:0:
258,335,23661,6,0,L|352:322,1,95,0|0,1:0|0:0,0:0:0:0:
359,322,23957,1,0,3:0:0:0:
359,322,24056,1,8,1:0:0:0:
211,242,24253,1,0,3:0:0:0:
278,193,24451,1,0,1:0:0:0:
215,44,24648,5,2,2:0:0:0:
215,44,24747,1,0,3:0:0:0:
215,44,24845,2,2,B|248:62|273:73|247:0|391:-15|414:121|316:171|247:166|241:63|168:141,1,332.5,8|2,1:0|2:0,2:1:0:0:
130,147,25635,5,8,1:3:0:0:
83,132,25734,1,8,1:0:0:0:
78,77,25832,1,8,1:3:0:0:
119,54,25931,1,8,1:0:0:0:
135,160,26030,6,0,L|119:313,1,123.499994346619,4|0,1:0|0:0,2:0:0:0:
138,350,26326,1,0,3:0:0:0:
138,350,26424,2,0,L|197:337,1,47.5,8|0,1:3|2:0,2:0:0:0:
276,192,26622,2,0,L|278:252,1,47.5,2|0,2:0|0:0,0:0:0:0:
411,330,26819,6,0,B|306:347|306:347|339:359,1,132.999995941162,0|2,1:0|2:0,2:0:0:0:
420,175,27214,1,8,1:3:0:0:
385,253,27411,1,2,2:0:0:0:
327,120,27609,6,0,B|244:100|244:100|215:106,1,113.999996520996,0|2,1:0|2:0,2:0:0:0:
194,116,27905,1,0,3:0:0:0:
194,116,28003,1,8,1:3:0:0:
91,41,28201,5,2,2:0:0:0:
91,41,28299,1,2,2:0:0:0:
91,41,28398,2,0,B|99:57|99:57|72:134|72:134|87:156,1,113.999996520996,0|2,1:0|2:0,2:0:0:0:
211,231,28793,1,8,1:3:0:0:
144,185,28990,1,2,2:0:0:0:
36,343,29188,5,0,1:0:0:0:
178,323,29385,1,2,2:0:0:0:
28,350,29582,5,8,1:3:0:0:
185,328,29779,1,2,2:0:0:0:
340,361,29977,6,0,B|453:353|453:353|434:342,1,132.999995941162,0|2,1:0|2:0,2:0:0:0:
428,341,30273,1,0,3:0:0:0:
428,341,30372,1,8,1:3:0:0:
369,166,30569,1,2,2:0:0:0:
433,106,30766,1,0,1:0:0:0:
356,258,30964,6,0,L|204:247,1,132.999995941162,2|8,1:0|1:3,2:0:0:0:
201,128,31260,2,0,B|226:137|257:127|257:127|230:143|230:208,1,113.999996520996,2|0,2:1|2:0,2:0:0:0:
115,279,31556,2,0,B|90:270|59:280|59:280|86:264|86:199,1,113.999996520996,2|0,1:0|2:0,2:0:0:0:
87,220,31852,1,2,2:1:0:0:
87,220,31951,1,8,1:3:0:0:
201,128,32148,5,2,2:0:0:0:
27,19,32345,6,0,B|41:27|41:27|52:113|52:113|63:120,1,113.999996520996,0|2,1:0|2:0,2:0:0:0:
75,124,32641,1,0,3:0:0:0:
75,124,32740,1,8,1:3:0:0:
212,43,32938,5,2,2:0:0:0:
212,43,33036,1,0,3:0:0:0:
212,43,33135,1,0,1:0:0:0:
196,135,33332,1,2,3:0:0:0:
342,98,33530,6,2,B|340:113|340:113|322:131|322:131|319:162|319:162|298:179,1,95,10|0,1:3|2:0,1:0:0:0:
183,273,33727,1,2,2:0:0:0:
143,189,33924,6,0,B|119:181|119:181|44:208,1,104.500003189087,0|2,1:0|2:0,2:0:0:0:
30,218,34220,1,0,3:0:0:0:
30,218,34319,1,8,1:3:0:0:
201,312,34516,2,0,L|190:387,1,52.2500015945435,2|0,2:0|2:0,2:0:0:0:
262,249,34714,6,0,L|313:256,2,52.2500015945435,0|0|0,1:0|0:0|0:0,2:0:0:0:
332,164,35109,1,8,1:3:0:0:
346,81,35306,1,2,2:0:0:0:
411,39,35503,5,0,1:0:0:0:
230,73,35701,2,0,L|230:111,1,23.75,2|0,3:0|2:0,2:0:0:0:
417,28,35898,5,8,1:3:0:0:
217,70,36095,1,2,2:0:0:0:
426,189,36293,5,0,1:0:0:0:
360,272,36490,1,2,2:0:0:0:
360,272,36589,1,0,3:0:0:0:
360,272,36688,2,0,L|374:387,1,104.500003189087,8|2,1:3|2:0,2:0:0:0:
440,311,37082,5,0,1:0:0:0:
440,311,37280,2,0,L|365:303,1,66.4999979705811,2|8,3:0|2:1,0:0:0:0:
303,314,37576,2,0,L|320:378,1,66.4999979705811
241,299,37872,5,0,1:0:0:0:
136,62,38069,5,0,1:0:0:0:
131,88,38168,1,0,3:0:0:0:
126,114,38266,1,10,2:1:0:0:
34,49,38661,5,0,1:0:0:0:
85,55,38760,1,0,3:0:0:0:
136,62,38859,1,0,3:0:0:0:
187,69,38957,1,8,2:3:0:0:
214,113,39056,2,0,L|275:119,1,52.2500015945435,10|0,1:3|2:0,2:0:0:0:
307,214,39253,6,0,L|285:289,1,52.2500015945435,8|0,2:3|2:0,2:0:0:0:
442,152,39451,2,0,L|420:77,1,52.2500015945435,2|0,1:3|2:0,2:0:0:0:
457,349,39648,6,0,B|465:368|465:368|356:342|356:342|326:355,1,142.500005435944,2|8,3:0|1:3,2:0:0:0:
296,208,39944,1,0,3:0:0:0:
296,208,40043,2,0,B|290:219|290:219|359:203|359:203|378:211,1,104.500003189087,2|8,3:0|2:3,0:0:0:0:
259,32,40240,5,0,1:0:0:0:
241,81,40339,1,0,3:0:0:0:
223,130,40438,1,10,1:3:0:0:
205,178,40536,1,0,3:0:0:0:
186,247,40635,2,0,L|197:317,1,71.2500027179719,8|0,1:3|2:0,2:0:0:0:
44,153,40832,6,0,L|57:83,1,71.2500027179719,2|0,3:0|2:0,2:0:0:0:
210,59,41030,2,0,L|223:130,1,71.2500027179719,0|0,1:0|3:0,0:0:0:0:
33,256,41227,6,0,B|136:228|136:228|159:246|187:248,1,161.500003080368,2|10,3:0|1:3,2:0:0:0:
209,245,41523,1,0,3:0:0:0:
209,245,41622,2,0,P|172:245|133:268,1,80.750001540184,0|2,3:0|2:3,2:0:0:0:
297,349,41819,5,0,1:0:0:0:
332,367,41918,1,0,3:0:0:0:
389,328,42016,5,2,3:0:0:0:
402,298,42115,1,0,3:0:0:0:
388,232,42214,6,0,B|357:243|357:243|306:227,1,66.4999979705811,10|0,3:0|3:0,2:0:0:0:
247,90,42411,2,0,L|238:180,1,66.4999979705811,0|0,3:0|2:0,2:0:0:0:
125,151,42609,5,2,1:3:0:0:
131,216,42707,1,0,3:0:0:0:
138,282,42806,2,0,B|144:297|144:297|147:358,1,66.4999979705811,2|0,2:3|2:0,0:0:0:0:
66,224,43003,6,0,B|174:211|174:211|212:230,1,132.999995941162,10|0,1:3|3:0,2:0:0:0:
195,221,43299,1,4,2:1:0:0:
240,156,43398,5,0,1:3:0:0:
293,145,43497,1,4,2:1:0:0:
345,135,43595,1,0,3:0:0:0:
398,125,43694,1,0,3:0:0:0:
451,162,43793,5,10,1:3:0:0:
396,202,43891,2,0,B|373:209|373:209|318:192,1,66.4999979705811,2|2,3:0|3:0,0:0:0:0:
229,110,44089,1,0,3:0:0:0:
240,156,44188,2,0,B|248:180|248:180|225:314,1,132.999995941162,8|0,1:3|3:0,0:0:0:0:
172,330,44484,5,4,2:1:0:0:
93,295,44582,5,8,1:3:0:0:
84,232,44681,1,0,3:0:0:0:
138,176,44780,5,0,1:3:0:0:
127,142,44878,1,0,3:0:0:0:
61,82,44977,5,6,1:0:0:0:
112,67,45076,1,0,3:0:0:0:
162,52,45174,1,0,3:0:0:0:
213,37,45273,1,8,2:3:0:0:
264,22,45372,2,0,L|357:47,1,66.4999979705811,8|0,1:3|3:0,0:0:0:0:
379,181,45569,6,0,L|286:206,1,66.4999979705811,2|0,3:1|2:0,2:0:0:0:
311,15,45766,2,0,L|375:32,1,66.4999979705811,8|8,1:3|2:3,0:0:0:0:
473,74,45964,5,4,2:0:0:0:
448,229,46161,5,8,1:3:0:0:
434,280,46260,1,0,3:0:0:0:
420,331,46359,2,0,B|387:351|387:351|345:346,1,66.4999979705811,8|0,1:3|3:0,0:0:0:0:
252,384,46556,5,6,1:0:0:0:
246,344,46655,1,0,3:0:0:0:
240,305,46753,1,0,3:0:0:0:
234,265,46852,1,8,1:3:0:0:
228,225,46951,2,0,L|242:159,1,66.4999979705811,8|0,1:3|2:0,2:0:0:0:
384,156,47148,6,0,L|327:191,1,66.4999979705811,2|0,3:0|2:0,2:0:0:0:
199,30,47345,2,0,L|255:65,1,66.4999979705811,8|0,2:1|2:0,2:0:0:0:
449,109,47543,5,4,2:0:0:0:
460,153,47641,1,0,3:0:0:0:
471,198,47740,1,8,1:3:0:0:
482,243,47839,1,0,3:0:0:0:
473,289,47938,1,0,3:0:0:0:
351,352,48135,5,6,1:0:0:0:
317,348,48234,1,2,3:0:0:0:
284,344,48332,1,0,3:0:0:0:
250,340,48431,1,2,3:0:0:0:
216,336,48530,2,0,B|195:330|195:330|186:331|186:331|142:317,1,66.4999979705811,8|0,1:3|0:0,2:0:0:0:
100,218,48727,6,0,L|87:272,2,44.3333319803874,2|0|0,3:0|3:0|3:0,2:0:0:0:
136,158,48924,2,0,L|123:104,2,44.3333319803874,0|0|2,1:0|3:0|3:0,0:0:0:0:
235,222,49122,5,2,3:0:0:0:
251,171,49220,1,2,3:0:0:0:
268,120,49319,2,0,L|249:22,1,66.4999979705811,8|0,1:2|0:0,2:0:0:0:
408,33,49516,6,0,L|391:90,2,44.3333319803874,2|2|0,3:0|3:0|3:0,0:0:0:0:
475,167,49714,2,0,L|458:110,2,44.3333319803874,2|0|0,1:0|3:0|3:0,2:0:0:0:
406,221,49911,1,0,3:0:0:0:
406,221,50010,1,0,3:0:0:0:
473,268,50109,6,0,L|456:340,1,47.5,10|0,1:2|0:0,0:0:0:0:
422,371,50306,1,8,2:0:0:0:
366,298,50405,6,0,L|253:306,1,113.999996520996,10|8,2:0|2:0,0:0:0:0:
211,372,50701,1,10,2:0:0:0:
267,119,50898,5,10,1:2:0:0:
267,119,51293,6,0,L|285:239,1,95,4|0,1:0|0:0,2:0:0:0:
319,164,51589,1,0,3:0:0:0:
319,164,51688,1,8,1:3:0:0:
144,238,51885,1,2,2:0:0:0:
86,185,52082,6,0,P|76:161|125:97,1,95,0|2,1:0|2:0,2:0:0:0:
170,89,52378,1,0,3:0:0:0:
170,89,52477,1,8,1:3:0:0:
76,298,52674,1,2,2:0:0:0:
152,338,52872,6,0,L|270:322,1,95,0|2,1:0|2:0,2:0:0:0:
269,323,53168,1,0,3:0:0:0:
269,323,53266,1,8,1:3:0:0:
329,149,53464,1,2,2:0:0:0:
329,149,53563,1,0,3:0:0:0:
329,149,53661,6,0,L|323:252,1,95,0|2,1:0|2:0,2:0:0:0:
234,60,54056,5,8,1:3:0:0:
273,43,54155,1,0,3:0:0:0:
305,57,54253,1,2,2:0:0:0:
358,43,54352,1,0,3:0:0:0:
408,81,54451,5,8,1:0:0:0:
36,346,62345,5,0,1:0:0:0:
137,203,62543,5,8,2:0:0:0:
180,221,62641,1,8,2:0:0:0:
224,239,62740,1,8,2:0:0:0:
267,257,62839,1,8,2:0:0:0:
310,275,62938,1,8,1:0:0:0:
395,340,63135,5,8,2:0:0:0:
450,352,63234,1,8,2:0:0:0:
429,253,63332,5,8,2:0:0:0:
381,283,63431,1,8,2:0:0:0:
451,358,63530,5,8,2:0:0:0:
429,247,63628,1,8,2:0:0:0:
254,344,63924,6,0,B|241:330|241:330|142:349|142:349|69:337,1,180.49999518013,4|2,1:0|2:0,2:0:0:0:
63,324,64220,1,0,3:0:0:0:
63,324,64319,1,8,1:3:0:0:
151,164,64516,6,0,B|158:186|158:186|145:271,1,95,2|0,2:0|1:0,2:0:0:0:
147,270,64813,1,0,3:0:0:0:
147,270,64911,1,2,2:0:0:0:
77,83,65109,2,0,B|99:90|99:90|184:77,1,95,8|2,1:3|2:0,2:0:0:0:
237,43,65405,1,0,2:0:0:0:
237,43,65503,6,0,B|250:155,1,95,0|2,1:0|2:0,0:0:0:0:
252,163,65799,1,0,3:0:0:0:
252,163,65898,1,8,1:3:0:0:
363,96,66095,6,0,L|350:219,1,95,2|0,2:0|1:0,2:0:0:0:
350,219,66391,1,0,3:0:0:0:
350,219,66490,1,2,2:0:0:0:
462,322,66687,5,8,1:3:0:0:
471,332,66786,1,0,3:0:0:0:
478,344,66885,1,2,2:0:0:0:
483,357,66984,1,0,3:0:0:0:
378,331,67082,6,0,B|362:324|362:324|266:351,1,95,0|2,1:0|2:0,0:0:0:0:
266,351,67378,1,0,3:0:0:0:
266,351,67477,1,8,1:3:0:0:
180,236,67674,6,0,P|153:302|185:329,1,95,2|0,2:0|1:0,2:0:0:0:
179,324,67970,1,0,3:0:0:0:
179,324,68069,1,2,2:0:0:0:
214,151,68266,1,8,1:3:0:0:
79,225,68464,1,2,3:0:0:0:
79,225,68563,1,0,3:0:0:0:
79,225,68661,1,0,1:0:0:0:
57,143,68859,6,0,L|76:35,1,95,2|8,2:0|1:3,2:0:0:0:
138,60,69155,2,0,L|121:153,1,95,2|0,2:0|3:0,2:0:0:0:
121,153,69451,1,2,1:2:0:0:
227,22,69648,5,0,3:0:0:0:
237,27,69746,1,2,3:2:0:0:
246,35,69845,1,8,1:3:0:0:
253,45,69944,1,0,3:0:0:0:
256,56,70042,1,2,2:0:0:0:
442,79,70240,6,0,B|478:111|478:111|450:148,1,95,0|2,1:0|2:0,2:0:0:0:
449,148,70536,1,0,3:0:0:0:
449,148,70635,1,8,1:3:0:0:
344,168,70832,6,0,B|308:136|308:136|336:99,1,95,2|0,2:0|1:0,2:0:0:0:
336,98,71128,1,0,3:0:0:0:
336,98,71227,1,2,2:0:0:0:
482,292,71424,1,8,1:3:0:0:
334,353,71622,1,2,2:0:0:0:
334,353,71720,1,0,3:0:0:0:
334,353,71819,6,0,L|234:360,1,95,0|2,1:0|2:0,2:0:0:0:
226,362,72115,1,0,3:0:0:0:
226,362,72214,1,8,1:3:0:0:
221,289,72411,6,0,L|321:282,1,95,2|0,2:0|1:0,2:0:0:0:
329,280,72707,1,0,3:0:0:0:
329,280,72806,1,2,2:0:0:0:
166,216,73003,5,8,1:3:0:0:
162,187,73102,1,0,3:0:0:0:
159,158,73201,1,2,2:0:0:0:
156,129,73299,1,0,3:0:0:0:
153,100,73398,5,0,1:0:0:0:
248,181,73595,1,2,2:0:0:0:
322,146,73793,5,8,1:3:0:0:
247,275,73990,1,2,2:0:0:0:
321,258,74188,6,0,B|340:255|340:255|414:272,1,95,0|2,1:0|2:0,2:0:0:0:
424,276,74484,1,0,3:0:0:0:
424,276,74582,1,8,1:3:0:0:
214,353,74780,1,2,2:0:0:0:
292,337,74977,1,0,1:0:0:0:
150,251,75174,6,0,L|163:132,1,104.500003189087,2|8,2:0|1:3,0:0:0:0:
124,85,75470,6,0,B|74:89|74:89|111:157,1,95,2|0,2:0|2:0,2:0:0:0:
227,144,75766,2,0,B|257:111|257:111|210:94,1,95,2|2,1:2|2:0,2:0:0:0:
176,33,76063,1,0,3:0:0:0:
176,33,76161,1,8,1:3:0:0:
329,155,76359,1,2,2:0:0:0:
416,68,76556,6,0,L|396:189,1,95,2|2,1:0|2:0,0:0:0:0:
396,188,76852,1,0,3:0:0:0:
396,188,76951,1,8,1:3:0:0:
344,52,77148,6,0,B|340:66|340:66|332:136|332:136|324:173,1,95,2|0,2:1|1:0,2:0:0:0:
324,172,77444,1,0,3:0:0:0:
324,172,77543,1,2,2:0:0:0:
158,167,77740,1,8,1:3:0:0:
203,257,77938,1,2,2:0:0:0:
203,257,78036,1,0,3:0:0:0:
203,257,78135,6,0,B|198:271|198:271|212:297|212:297|209:303|209:303|219:338|219:338|223:378,1,95,2|2,1:0|2:0,0:0:0:0:
223,377,78431,1,0,3:0:0:0:
223,377,78530,1,8,1:3:0:0:
275,241,78727,6,0,B|287:253|287:253|284:283|284:283|281:291|281:291|289:307|289:307|286:325|286:325|295:362,1,95,2|0,2:1|1:0,2:0:0:0:
295,354,79023,1,0,3:0:0:0:
295,354,79122,1,2,2:0:0:0:
426,191,79319,1,8,1:3:0:0:
360,138,79516,1,2,2:0:0:0:
360,138,79615,1,0,3:0:0:0:
360,138,79714,5,2,1:0:0:0:
440,202,79911,1,2,2:0:0:0:
264,167,80109,5,8,1:3:0:0:
436,79,80306,1,2,2:1:0:0:
371,31,80503,6,0,B|349:21|349:21|343:115,1,95,0|2,1:0|2:0,2:0:0:0:
343,115,80799,1,0,3:0:0:0:
343,115,80898,1,8,1:3:0:0:
193,33,81095,1,2,2:0:0:0:
264,80,81293,1,0,1:0:0:0:
172,148,81490,6,0,L|150:279,1,123.499994346619,2|8,2:1|1:3,2:0:0:0:
94,307,81786,6,0,B|71:310|71:310|89:211,1,104.500003189087,2|0,2:1|2:0,2:0:0:0:
198,330,82082,2,0,B|219:338|219:338|227:238,1,104.500003189087,2|2,1:0|2:0,0:0:0:0:
227,237,82378,1,2,2:1:0:0:
227,237,82477,1,8,1:3:0:0:
340,369,82674,1,2,2:0:0:0:
474,318,82872,6,0,L|466:212,1,95,2|2,1:0|2:0,2:0:0:0:
465,205,83168,1,0,3:0:0:0:
465,205,83266,1,8,1:3:0:0:
409,323,83464,6,0,B|400:303|400:303|401:217,1,95,2|0,2:1|1:0,2:0:0:0:
400,210,83760,1,0,3:0:0:0:
400,210,83858,1,2,2:0:0:0:
283,111,84056,2,0,L|291:68,2,38,8|0|2,1:3|2:0|2:0,2:0:0:0:
161,296,84451,6,0,B|173:277|173:277|154:221|154:221|165:208,1,95,2|2,1:0|2:0,2:0:0:0:
170,201,84747,1,0,3:0:0:0:
170,201,84845,1,8,1:3:0:0:
261,184,85043,6,0,B|256:162|256:162|236:153|236:153|233:149|233:149|215:146|215:146|211:141|211:141|203:135|203:135|201:118,1,95,2|0,2:1|1:0,2:0:0:0:
200,111,85339,1,0,3:0:0:0:
200,111,85437,1,2,2:0:0:0:
94,29,85635,5,8,1:3:0:0:
105,62,85734,1,2,3:0:0:0:
72,94,85832,1,2,3:0:0:0:
93,152,85931,1,2,3:0:0:0:
55,221,86030,5,2,1:0:0:0:
162,352,86227,1,2,2:0:0:0:
227,288,86424,5,8,1:3:0:0:
148,364,86622,1,2,2:1:0:0:
285,237,86819,6,0,L|294:345,1,95,0|2,1:0|2:0,2:0:0:0:
296,346,87115,1,0,3:0:0:0:
296,346,87214,1,8,1:3:0:0:
391,169,87411,1,2,2:0:0:0:
439,222,87609,1,0,1:0:0:0:
314,165,87806,6,0,P|326:80|346:47,1,113.999996520996,2|8,2:3|1:3,2:0:0:0:
407,39,88102,2,0,B|442:51|447:69|447:69|432:60|381:59,1,95,2|0,2:1|2:0,0:0:0:0:
252,97,88398,2,0,B|217:85|212:67|212:67|227:76|278:77,1,95,2|2,1:0|2:0,2:0:0:0:
262,76,88694,1,2,2:1:0:0:
262,76,88793,1,8,1:3:0:0:
75,166,89188,5,0,1:0:0:0:
109,324,89385,1,2,2:0:0:0:
162,245,89582,5,8,1:3:0:0:
47,280,89780,1,2,2:0:0:0:
212,334,89977,6,0,L|278:327,2,47.5,0|0|2,1:0|0:0|2:0,2:0:0:0:
327,384,90273,1,0,3:0:0:0:
329,336,90372,1,8,1:3:0:0:
331,288,90470,1,0,3:0:0:0:
333,240,90569,1,2,2:0:0:0:
271,116,90766,6,0,B|245:125|245:125|255:231,1,123.499994346619,0|2,1:0|2:0,2:0:0:0:
255,233,91063,1,0,3:0:0:0:
255,233,91161,1,8,1:3:0:0:
139,380,91359,5,2,2:0:0:0:
139,380,91457,1,0,3:0:0:0:
139,380,91556,2,0,B|126:360|126:360|148:297|148:297|138:267,1,104.500003189087,0|2,1:0|2:0,2:0:0:0:
5,357,91951,1,8,1:3:0:0:
18,347,92345,5,8,2:0:0:0:
171,251,92543,1,8,2:0:0:0:
159,332,92740,5,8,2:0:0:0:
100,117,92938,1,8,2:0:0:0:
258,279,93135,5,8,2:0:0:0:
36,210,93530,5,8,3:0:0:0:
174,178,93727,1,8,3:0:0:0:
312,147,93924,1,2,3:0:0:0:
