osu file format v14

[General]
AudioFilename: audio.mp3
AudioLeadIn: 0
PreviewTime: 46690
Countdown: 0
SampleSet: Soft
StackLeniency: 0.7
Mode: 0
LetterboxInBreaks: 0
WidescreenStoryboard: 1

[Editor]
DistanceSpacing: 1.3
BeatDivisor: 4
GridSize: 4
TimelineZoom: 2.7

[Metadata]
Title:Chung Hwa Ban Jeom
TitleUnicode:중화반점
Artist:Louis
ArtistUnicode:루이스
Creator:PandaHero
Version:Hard
Source:Pump It Up Zero
Tags:Bakari piu Chinese Restaurant Andamiro video dance game
BeatmapID:1362595
BeatmapSetID:641732

[Difficulty]
HPDrainRate:5
CircleSize:3.5
OverallDifficulty:6
ApproachRate:7
SliderMultiplier:1.6
SliderTickRate:1

[Events]
//Background and Video events
0,0,"132465789.jpg",0,0
//Break Periods
//Storyboard Layer 0 (Background)
//Storyboard Layer 1 (Fail)
//Storyboard Layer 2 (Pass)
//Storyboard Layer 3 (Foreground)
//Storyboard Sound Samples

[TimingPoints]
8262,401.33779264214,4,1,1,50,1,0
9867,-83.3333333333333,4,1,1,60,0,0
11472,-100,4,1,1,50,0,0
13078,-83.3333333333333,4,1,1,60,0,0
14683,-100,4,1,1,50,0,0
15285,-100,4,1,1,55,0,0
16088,-100,4,1,1,60,0,0
16890,-100,4,1,1,65,0,0
17693,-100,4,1,1,70,0,0
19499,-100,4,1,1,60,0,0
21104,-111.111111111111,4,2,1,50,0,0
23512,-90.9090909090909,4,2,1,60,0,0
23914,-111.111111111111,4,2,1,50,0,0
33947,-100,4,2,1,60,0,0
46790,-83.3333333333333,4,1,1,60,0,1
54415,-76.9230769230769,4,1,1,65,0,1
54817,-83.3333333333333,4,1,1,60,0,1
56021,-76.9230769230769,4,1,1,65,0,1
56422,-83.3333333333333,4,1,1,60,0,1
59633,-100,4,3,0,55,0,0
65653,-90.909090909091,4,3,0,50,0,0
66054,-100,4,3,0,60,0,0
70870,-125,4,3,0,50,0,0
72476,-83.3333333333333,4,1,1,65,0,1
85318,-100,4,1,1,50,0,0
86924,-83.3333333333333,4,1,1,60,0,0
88529,-100,4,1,1,50,0,0
90134,-83.3333333333333,4,1,1,60,0,0
91740,-100,4,1,1,50,0,0
92342,-100,4,1,1,55,0,0
93144,-100,4,1,1,60,0,0
93947,-100,4,1,1,65,0,0
94950,-100,4,1,1,50,0,0
98261,-100,4,2,1,25,0,0

[Colours]
Combo1 : 170,240,94
Combo2 : 240,94,192
Combo3 : 241,149,92
Combo4 : 240,225,94

[HitObjects]
472,100,8262,6,0,P|412:108|353:100,1,120,6|2,0:0|0:0,0:0:0:0:
316,92,8663,1,10,0:0:0:0:
212,32,8864,2,0,P|164:68|140:168,1,160,10|4,0:0|0:3,0:0:0:0:
236,236,9466,2,0,P|268:212|292:176,1,80,8|4,0:0|0:3,0:0:0:0:
408,120,9867,6,0,P|388:172|388:232,1,95.9999970703126,2|0,0:0|0:0,0:0:0:0:
464,340,10268,2,0,P|484:288|484:228,1,95.9999970703126,10|0,0:0|0:0,0:0:0:0:
368,140,10670,6,0,P|348:192|348:252,1,95.9999970703126,2|0,0:0|0:0,0:0:0:0:
424,360,11071,2,0,P|444:308|444:248,1,95.9999970703126,10|0,0:0|0:0,0:0:0:0:
268,232,11472,6,0,P|208:223|149:231,1,120,6|2,0:0|0:0,0:0:0:0:
112,240,11874,1,10,0:0:0:0:
12,324,12074,2,0,P|0:232|16:160,1,160,10|4,0:0|0:3,0:0:0:0:
108,76,12676,2,0,P|116:128|112:180,1,80,8|4,0:0|0:3,0:0:0:0:
192,288,13078,6,0,P|244:308|304:308,1,95.9999970703126,2|0,0:0|0:0,0:0:0:0:
412,232,13479,2,0,P|360:212|300:212,1,95.9999970703126,10|0,0:0|0:0,0:0:0:0:
212,328,13880,6,0,P|264:348|324:348,1,95.9999970703126,2|0,0:0|0:0,0:0:0:0:
432,272,14282,2,0,P|380:252|320:252,1,95.9999970703126,10|0,0:0|0:0,0:0:0:0:
192,288,14683,5,4,0:0:0:0:
36,312,14884,2,0,P|28:336|16:380,2,40,2|2|8,0:0|0:0|0:0,0:0:0:0:
108,200,15285,2,0,P|116:224|128:268,2,40,2|2|4,0:0|0:0|0:0,0:0:0:0:
24,80,15686,2,0,P|16:104|4:148,2,40,2|2|8,0:0|0:0|0:0,0:0:0:0:
172,56,16088,6,0,P|196:48|240:36,2,40,2|0|0,0:0|0:0|0:0,0:0:0:0:
292,140,16489,2,0,P|316:148|360:160,2,40,2|2|8,0:0|0:0|0:0,0:0:0:0:
404,68,16890,2,0,P|428:60|472:48,2,40,2|2|4,0:0|0:0|0:0,0:0:0:0:
480,192,17292,6,0,P|472:216|460:260,2,40,2|2|8,0:0|0:0|0:0,0:0:0:0:
352,288,17693,2,0,P|360:312|372:356,2,40,4|2|6,0:0|0:0|0:0,0:0:0:0:
256,192,17994,12,8,19499,0:0:0:0:
92,104,19900,5,4,0:3:0:0:
312,316,20302,2,0,L|284:368,3,40,4|4|4|4,0:3|0:3|0:3|0:3,0:0:0:0:
214,351,20703,2,0,L|196:316,3,40,4|4|0|0,0:3|0:3|0:3|0:0,0:0:0:0:
193,229,21104,6,0,P|256:222|330:232,1,107.999996704102,4|0,0:3|0:0,0:0:0:0:
346,235,21506,1,2,0:0:0:0:
421,289,21706,1,4,0:3:0:0:
484,181,21907,2,0,P|494:113|486:59,1,107.999996704102,4|0,0:3|0:0,0:0:0:0:
469,44,22308,1,2,0:0:0:0:
399,113,22509,1,4,0:3:0:0:
306,29,22710,2,0,B|236:9|227:49|151:27,1,143.999995605469,4|2,0:3|0:0,0:0:0:0:
51,83,23312,1,4,0:3:0:0:
25,179,23512,2,0,B|17:219|17:219|17:291,1,88.000002685547,4|2,0:3|0:0,0:0:0:0:
113,352,23914,5,4,0:3:0:0:
124,259,24114,1,4,0:3:0:0:
204,211,24315,2,0,P|266:222|320:211,1,107.999996704102,4|0,0:3|0:0,0:0:0:0:
343,203,24716,1,2,0:0:0:0:
424,160,24917,1,4,0:3:0:0:
468,276,25118,2,0,P|476:304|480:352,2,71.9999978027344,4|2|2,0:3|0:0|0:0,0:0:0:0:
424,160,25720,6,0,P|424:93|465:30,1,143.999995605469,4|2,0:3|0:0,0:0:0:0:
495,160,26322,2,0,P|455:164|411:156,1,71.9999978027344,4|0,0:3|0:0,0:0:0:0:
347,94,26723,2,0,P|311:89|275:93,1,71.9999978027344,4|4,0:3|0:3,0:0:0:0:
160,140,27124,1,8,0:1:0:0:
176,240,27325,1,8,0:1:0:0:
294,306,27526,6,0,P|334:252|332:175,1,143.999995605469,4|2,0:3|0:0,0:0:0:0:
275,92,28128,1,4,0:3:0:0:
160,140,28328,2,0,P|96:112|48:40,1,143.999995605469,4|2,0:3|0:0,0:0:0:0:
22,150,28930,2,0,P|10:222|34:318,1,143.999995605469,4|2,0:3|0:0,0:0:0:0:
144,288,29532,2,0,P|184:296|232:320,1,71.9999978027344,4|2,0:3|0:0,0:0:0:0:
304,352,29934,2,0,P|317:318|324:283,1,71.9999978027344,4|4,0:3|0:3,0:0:0:0:
368,168,30335,2,0,P|401:181|436:188,1,71.9999978027344,4|2,0:3|0:0,0:0:0:0:
288,104,30736,6,0,P|274:137|267:172,1,71.9999978027344,4|2,0:3|0:0,0:0:0:0:
132,252,31138,2,0,P|167:247|201:235,1,71.9999978027344,4|2,0:3|0:0,0:0:0:0:
360,304,31539,2,0,P|337:275|310:252,1,71.9999978027344,4|2,0:3|0:0,0:0:0:0:
239,318,31940,1,4,0:3:0:0:
88,344,32141,6,0,P|52:304|44:212,1,143.999995605469,2|4,0:0|0:3,0:0:0:0:
64,120,32743,1,4,0:3:0:0:
152,72,32944,1,2,0:0:0:0:
271,149,33144,2,0,P|279:169|287:217,3,35.9999989013672,4|0|2|0,0:0|0:0|0:0|0:0,0:0:0:0:
214,227,33546,2,0,P|206:247|198:295,3,35.9999989013672,2|0|0|0,0:0|0:0|0:0|0:0,0:0:0:0:
288,264,33947,6,0,P|316:288|344:336,1,80,4|2,0:0|0:0,0:0:0:0:
480,264,34348,2,0,P|450:290|428:323,1,80,8|2,0:1|0:0,0:0:0:0:
380,177,34750,2,0,P|360:117|316:69,1,120,4|0,0:3|0:0,0:0:0:0:
292,53,35151,1,8,0:1:0:0:
196,77,35352,1,8,0:1:0:0:
77,187,35552,6,0,P|117:203|173:219,1,80,4|2,0:0|0:0,0:0:0:0:
245,203,35954,1,8,0:1:0:0:
300,312,36154,2,0,P|228:336|156:344,1,120,8|0,0:1|0:0,0:0:0:0:
144,336,36556,1,8,0:1:0:0:
28,352,36756,2,0,P|20:312|20:256,1,80,8|2,0:1|0:0,0:0:0:0:
28,114,37158,6,0,B|68:94|68:94|200:126,1,160,4|8,0:0|0:1,0:0:0:0:
252,182,37760,1,2,0:0:0:0:
356,114,37960,2,0,B|380:90|380:90|408:26,2,80,4|0|8,0:3|1:0|0:1,0:0:0:0:
252,182,38563,2,0,P|244:246|380:230,1,240,8|0,0:1|0:0,0:0:0:0:
376,244,39566,5,4,0:3:0:0:
492,186,39767,1,8,0:0:0:0:
468,278,39967,1,8,0:0:0:0:
368,80,40369,6,0,P|292:96|200:72,1,160,4|8,0:0|0:1,0:0:0:0:
132,28,40971,1,2,0:0:0:0:
44,128,41171,2,0,P|28:204|52:296,1,160,4|8,0:3|0:1,0:0:0:0:
116,348,41773,1,2,0:2:0:0:
232,296,41974,6,0,P|268:316|316:352,2,80,4|2|8,0:0|0:0|0:1,0:0:0:0:
156,236,42576,2,0,P|120:168|164:108,1,160,4|8,0:3|0:1,0:0:0:0:
257,27,43178,2,0,P|301:31|349:27,1,80,8|2,0:1|1:2,0:0:0:0:
474,102,43579,6,0,L|454:286,1,160,4|8,0:0|0:1,0:0:0:0:
376,316,44181,1,2,0:0:0:0:
260,268,44382,2,0,L|252:160,2,80,4|2|8,0:3|1:2|0:1,0:0:0:0:
159,344,44984,1,8,0:1:0:0:
256,192,45084,12,8,46389,0:1:0:0:
128,348,46790,6,0,P|112:264|60:208,1,143.999995605469,6|0,0:0|2:0,0:0:0:0:
40,188,47191,2,0,P|56:104|108:48,1,143.999995605469,10|0,0:0|2:0,0:0:0:0:
132,36,47593,2,0,P|164:76|184:128,1,95.9999970703126,4|8,0:3|0:3,0:0:0:0:
244,188,47994,1,2,0:0:0:0:
244,188,48195,2,0,P|340:180|408:108,1,191.999994140625,10|0,0:0|0:0,0:0:0:0:
368,28,48797,1,4,0:3:0:0:
216,44,48997,6,0,P|212:68|208:92,2,47.9999985351563,2|2|4,0:0|0:0|0:3,0:0:0:0:
104,97,49399,1,2,0:0:0:0:
148,187,49599,2,0,P|198:189|260:187,1,95.9999970703126,4|2,0:3|0:0,0:0:0:0:
416,184,50001,6,0,P|432:252|428:328,1,143.999995605469,6|0,0:0|2:0,0:0:0:0:
388,304,50402,2,0,P|316:300|246:316,1,143.999995605469,10|0,0:0|2:0,0:0:0:0:
208,344,50803,2,0,P|160:348|92:332,1,95.9999970703126,4|8,0:3|0:3,0:0:0:0:
52,264,51205,1,2,0:0:0:0:
52,264,51405,2,0,B|88:152|24:172|68:48,1,191.999994140625,10|0,0:0|0:0,0:0:0:0:
148,32,52007,1,4,0:3:0:0:
307,62,52208,6,0,P|331:58|355:54,2,47.9999985351563,2|2|4,0:0|0:0|0:3,0:0:0:0:
200,126,52609,1,2,0:0:0:0:
193,220,52810,2,0,P|194:275|202:330,1,95.9999970703126,4|2,0:3|0:0,0:0:0:0:
380,353,53211,6,0,P|432:289|436:161,2,191.999994140625,6|10|2,0:0|0:0|0:0,0:0:0:0:
286,355,54215,1,2,0:0:0:0:
177,282,54415,2,0,P|125:282|73:310,1,103.999995239258,8|0,0:0|0:0,0:0:0:0:
278,262,54817,6,0,P|330:198|334:70,2,191.999994140625,6|10|2,0:0|0:0|0:0,0:0:0:0:
177,282,55820,1,2,0:0:0:0:
110,176,56021,2,0,P|58:176|6:204,1,103.999995239258,8|0,0:0|0:0,0:0:0:0:
201,193,56422,6,0,P|234:117|205:-6,2,191.999994140625,6|10|2,0:0|0:0|0:0,0:0:0:0:
96,263,57425,1,2,0:0:0:0:
176,358,57626,1,8,0:3:0:0:
301,365,57827,2,0,P|326:274|301:182,1,191.999994140625,10|0,0:0|0:0,0:0:0:0:
160,120,58429,2,0,P|112:124|48:120,1,95.9999970703126,8|0,0:3|0:0,0:0:0:0:
152,20,58830,6,0,P|200:24|264:20,1,95.9999970703126,14|2,0:0|0:0,0:0:0:0:
332,68,59231,2,0,P|380:72|444:68,1,95.9999970703126,10|2,0:0|0:0,0:0:0:0:
456,224,59633,6,0,P|452:272|456:328,1,80,4|2,0:0|0:0,0:0:0:0:
344,240,60034,2,0,P|304:236|264:237,1,80,8|2,0:0|0:0,0:0:0:0:
208,312,60435,2,0,L|204:372,2,40,6|2|2,0:0|0:0|0:0,0:0:0:0:
88,260,60837,2,0,P|48:256|8:257,1,80,8|2,0:0|0:0,0:0:0:0:
0,136,61238,6,0,P|39:135|79:138,1,80,4|2,0:0|0:0,0:0:0:0:
144,32,61639,2,0,P|183:31|223:34,1,80,8|2,0:0|0:0,0:0:0:0:
308,92,62041,2,0,L|308:148,2,40,6|2|2,0:0|0:0|0:0,0:0:0:0:
428,80,62442,2,0,P|428:119|425:159,1,80,8|2,0:0|0:0,0:0:0:0:
364,268,62843,6,0,L|312:268,2,40,6|2|2,0:0|0:0|0:0,0:0:0:0:
240,296,63245,2,0,P|212:264|192:208,1,80,8|2,0:0|0:0,0:0:0:0:
144,104,63646,2,0,P|172:72|192:16,1,80,4|2,0:0|0:0,0:0:0:0:
20,76,64047,2,0,L|72:76,2,40,10|2|2,0:0|0:0|0:0,0:0:0:0:
20,200,64449,6,0,L|20:252,2,40,6|2|2,0:0|0:0|0:0,0:0:0:0:
112,212,64850,2,0,P|152:208|204:212,1,80,8|2,0:0|0:0,0:0:0:0:
284,124,65251,2,0,P|288:164|284:216,1,80,10|2,0:0|0:0,0:0:0:0:
406,268,65653,2,0,B|396:234|407:181,1,88.000002685547,6|2,0:0|0:0,0:0:0:0:
468,44,66054,6,0,P|376:60|292:44,1,160,6|8,0:0|0:3,0:0:0:0:
20,128,66857,2,0,L|132:128,1,80,6|2,0:3|0:3,0:0:0:0:
192,128,67258,1,8,0:3:0:0:
468,84,67659,6,0,P|376:100|292:84,1,160,4|8,0:0|0:0,0:0:0:0:
20,168,68462,2,0,L|132:168,1,80,6|2,0:0|0:0,0:0:0:0:
192,168,68864,1,8,0:0:0:0:
468,124,69265,6,0,P|376:140|292:124,1,160,4|8,0:0|0:0,0:0:0:0:
20,208,70068,2,0,L|132:208,1,80,6|2,0:0|0:0,0:0:0:0:
192,208,70469,1,8,0:0:0:0:
468,168,70870,6,0,P|385:181|320:173,1,128,4|8,0:0|0:0,0:0:0:0:
35,244,71673,2,0,L|123:243,1,64,6|2,0:0|0:0,0:0:0:0:
195,317,72074,2,0,B|148:317|148:317|109:328,1,64,2|2,0:2|0:0,0:0:0:0:
304,352,72476,6,0,P|388:336|444:284,1,143.999995605469,6|0,0:0|2:0,0:0:0:0:
432,252,72877,2,0,P|448:168|500:112,1,143.999995605469,10|0,0:0|2:0,0:0:0:0:
436,108,73278,2,0,P|385:102|334:79,1,95.9999970703126,4|8,0:3|0:3,0:0:0:0:
256,44,73680,1,2,0:0:0:0:
256,44,73880,2,0,P|193:117|196:216,1,191.999994140625,10|0,0:0|0:0,0:0:0:0:
264,272,74482,1,4,0:3:0:0:
115,319,74683,6,0,L|47:303,2,47.9999985351563,2|2|4,0:0|0:0|0:3,0:0:0:0:
232,360,75084,1,2,0:0:0:0:
336,335,75285,2,0,P|303:302|264:272,1,95.9999970703126,4|2,0:3|0:0,0:0:0:0:
110,229,75686,6,0,P|112:159|135:86,1,143.999995605469,6|0,0:0|2:0,0:0:0:0:
150,45,76088,2,0,P|218:67|290:70,1,143.999995605469,10|0,0:0|2:0,0:0:0:0:
334,49,76489,2,0,P|381:57|442:90,1,95.9999970703126,4|8,0:3|0:3,0:0:0:0:
488,164,76890,1,2,0:0:0:0:
488,164,77091,2,0,B|424:262|491:260|416:368,1,191.999994140625,10|0,0:0|0:0,0:0:0:0:
328,364,77693,1,4,0:3:0:0:
220,296,77894,6,0,P|196:300|172:304,2,47.9999985351563,2|2|4,0:0|0:0|0:3,0:0:0:0:
335,244,78295,1,2,0:0:0:0:
280,167,78496,2,0,P|230:169|168:167,1,95.9999970703126,4|2,0:3|0:0,0:0:0:0:
96,296,78897,6,0,P|44:232|40:104,2,191.999994140625,6|10|2,0:0|0:0|0:0,0:0:0:0:
184,336,79900,1,2,0:0:0:0:
303,283,80101,2,0,P|355:283|399:307,1,95.9999970703126,4|0,0:0|0:0,0:0:0:0:
207,241,80502,6,0,P|155:177|151:49,2,191.999994140625,2|10|2,0:0|0:0|0:0,0:0:0:0:
303,283,81506,1,2,0:0:0:0:
400,200,81706,2,0,P|452:200|496:224,1,95.9999970703126,4|0,0:0|0:0,0:0:0:0:
293,187,82108,6,0,P|279:105|340:-7,2,191.999994140625,2|10|2,0:0|0:0|0:0,0:0:0:0:
386,271,83111,1,2,0:0:0:0:
307,365,83312,1,0,0:0:0:0:
181,359,83512,2,0,P|168:291|232:157,1,191.999994140625,10|0,0:0|0:0,0:0:0:0:
355,119,84114,2,0,P|403:123|467:119,1,95.9999970703126,8|0,0:3|0:0,0:0:0:0:
316,28,84516,6,0,P|268:32|204:28,1,95.9999970703126,4|2,0:3|0:3,0:0:0:0:
148,96,84917,2,0,P|100:100|36:96,1,95.9999970703126,8|0,0:3|0:0,0:0:0:0:
40,252,85318,6,0,P|100:244|159:252,1,120,6|2,0:0|0:0,0:0:0:0:
192,272,85720,1,8,0:0:0:0:
288,344,85920,2,0,P|336:308|360:208,1,160,10|4,0:0|0:3,0:0:0:0:
280,144,86522,2,0,P|248:168|224:204,1,80,8|4,0:0|0:3,0:0:0:0:
104,264,86924,6,0,P|124:212|124:152,1,95.9999970703126,6|0,0:0|0:0,0:0:0:0:
48,44,87325,2,0,P|28:96|28:156,1,95.9999970703126,10|0,0:0|0:0,0:0:0:0:
144,244,87726,6,0,P|164:192|164:132,1,95.9999970703126,2|0,0:0|0:0,0:0:0:0:
88,24,88128,2,0,P|68:76|68:136,1,95.9999970703126,10|0,0:0|0:0,0:0:0:0:
244,152,88529,6,0,P|304:161|363:153,1,120,6|2,0:0|0:0,0:0:0:0:
400,144,88930,1,10,0:0:0:0:
500,60,89131,2,0,P|512:152|496:224,1,160,10|4,0:0|0:3,0:0:0:0:
404,308,89733,2,0,P|396:256|400:204,1,80,8|4,0:0|0:3,0:0:0:0:
320,96,90134,6,0,P|268:76|208:76,1,95.9999970703126,6|0,0:0|0:0,0:0:0:0:
100,152,90536,2,0,P|152:172|212:172,1,95.9999970703126,10|0,0:0|0:0,0:0:0:0:
300,56,90937,6,0,P|248:36|188:36,1,95.9999970703126,2|0,0:0|0:0,0:0:0:0:
80,112,91338,2,0,P|132:132|192:132,1,95.9999970703126,10|0,0:0|0:0,0:0:0:0:
320,96,91740,5,6,0:0:0:0:
476,72,91940,2,0,P|484:48|496:4,2,40,2|2|8,0:0|0:0|0:0,0:0:0:0:
404,184,92342,2,0,P|396:160|384:116,2,40,2|2|4,0:0|0:0|0:0,0:0:0:0:
488,304,92743,2,0,P|496:280|508:236,2,40,2|2|8,0:0|0:0|0:0,0:0:0:0:
340,328,93144,6,0,P|316:336|272:348,2,40,2|2|4,0:0|0:0|0:0,0:0:0:0:
220,244,93546,2,0,P|196:236|152:224,2,40,2|2|8,0:0|0:0|0:0,0:0:0:0:
108,316,93947,2,0,P|84:324|40:336,2,40,2|2|4,0:0|0:0|0:0,0:0:0:0:
32,192,94348,6,0,P|40:168|52:124,2,40,2|2|8,0:0|0:0|0:0,0:0:0:0:
160,96,94750,2,0,P|152:72|140:28,2,40,4|2|2,0:0|0:0|0:0,0:0:0:0:
256,192,95051,12,0,96154,0:0:0:0:
207,21,96556,5,8,0:0:0:0:
58,85,96756,2,0,P|54:125|54:181,2,80,6|10|0,0:0|0:0|0:0,0:0:0:0:
202,143,97358,2,0,P|206:183|206:239,1,80,10|0,0:0|0:0,0:0:0:0:
48,292,97760,2,0,B|112:300|112:300|208:368,1,160,10|6,0:0|0:0,0:0:0:0:
256,192,98261,12,0,99767,0:0:0:0:
