osu file format v14

[General]
AudioFilename: audio.mp3
AudioLeadIn: 0
PreviewTime: 46690
Countdown: 0
SampleSet: Normal
StackLeniency: 0.7
Mode: 0
LetterboxInBreaks: 0
WidescreenStoryboard: 1

[Editor]
DistanceSpacing: 1.1
BeatDivisor: 2
GridSize: 4
TimelineZoom: 2.7

[Metadata]
Title:Chung Hwa Ban Jeom
TitleUnicode:중화반점
Artist:Louis
ArtistUnicode:루이스
Creator:PandaHero
Version:Normal
Source:Pump It Up Zero
Tags:Bakari piu Chinese Restaurant Andamiro video dance game
BeatmapID:1363488
BeatmapSetID:641732

[Difficulty]
HPDrainRate:3
CircleSize:3
OverallDifficulty:3
ApproachRate:5
SliderMultiplier:0.999999999999999
SliderTickRate:1

[Events]
//Background and Video events
0,0,"132465789.jpg",0,0
//Break Periods
//Storyboard Layer 0 (Background)
//Storyboard Layer 1 (Fail)
//Storyboard Layer 2 (Pass)
//Storyboard Layer 3 (Foreground)
//Storyboard Sound Samples

[TimingPoints]
8262,401.33779264214,4,1,1,50,1,0
9867,-100,4,1,1,60,0,0
11472,-100,4,1,1,50,0,0
13078,-100,4,1,1,60,0,0
14683,-100,4,1,1,50,0,0
15285,-100,4,1,1,55,0,0
16088,-100,4,1,1,60,0,0
16890,-100,4,1,1,65,0,0
17693,-100,4,1,1,70,0,0
19499,-100,4,1,1,60,0,0
21104,-100,4,2,1,50,0,0
23512,-100,4,2,1,60,0,0
23914,-100,4,2,1,50,0,0
33947,-100,4,2,1,60,0,0
46790,-100,4,1,1,60,0,1
54415,-100,4,1,1,65,0,1
54817,-100,4,1,1,60,0,1
56021,-100,4,1,1,65,0,1
56422,-100,4,1,1,60,0,1
59633,-100,4,3,0,55,0,0
64449,-100,4,3,0,45,0,0
65653,-100,4,3,0,50,0,0
66054,-100,4,3,0,60,0,0
70870,-100,4,3,0,50,0,0
72476,-100,4,1,1,65,0,1
80101,-100,4,1,1,70,0,1
80502,-100,4,1,1,65,0,1
81706,-100,4,1,1,70,0,1
82108,-100,4,1,1,65,0,1
85318,-100,4,1,1,50,0,0
86924,-100,4,1,1,60,0,0
88529,-100,4,1,1,50,0,0
90134,-100,4,1,1,60,0,0
91740,-100,4,1,1,50,0,0
92342,-100,4,1,1,55,0,0
93144,-100,4,1,1,60,0,0
93947,-100,4,1,1,65,0,0
94950,-100,4,1,1,50,0,0
98261,-100,4,2,1,25,0,0

[Colours]
Combo1 : 170,240,94
Combo2 : 240,94,192
Combo3 : 241,149,92
Combo4 : 240,225,94

[HitObjects]
84,96,8262,6,0,P|52:92|28:84,2,50,6|0|10,0:0|0:0|0:0,0:0:0:0:
137,82,8864,2,0,P|193:78|245:106,1,99.9999999999999,10|4,0:0|0:3,0:0:0:0:
248,147,9466,2,0,L|248:207,1,50,8|4,0:0|0:3,0:0:0:0:
281,240,9867,5,2,0:0:0:0:
390,240,10268,1,10,0:0:0:0:
390,350,10670,5,2,0:0:0:0:
281,350,11071,1,10,0:0:0:0:
197,278,11472,6,0,P|165:282|133:292,2,50,6|0|10,0:0|0:0|0:0,0:0:0:0:
235,238,12074,2,0,P|224:182|183:139,1,99.9999999999999,10|4,0:0|0:3,0:0:0:0:
146,127,12676,2,0,L|81:126,1,50,8|4,0:0|0:3,0:0:0:0:
46,151,13078,5,2,0:0:0:0:
46,260,13479,1,10,0:0:0:0:
136,322,13880,5,2,0:0:0:0:
136,213,14281,1,10,0:0:0:0:
207,129,14683,6,0,P|269:136|334:125,1,99.9999999999999,4|8,0:0|0:0,0:0:0:0:
373,44,15486,1,4,0:0:0:0:
475,83,15887,1,8,0:0:0:0:
473,192,16288,6,0,B|479:233|479:233|473:317,2,99.9999999999999,0|8|4,0:0|0:0|0:0,0:0:0:0:
368,158,17492,1,8,0:0:0:0:
308,250,17894,1,6,0:0:0:0:
256,192,17994,12,8,19499,0:0:0:0:
50,36,21104,6,0,P|32:83|28:143,1,99.9999999999999,4|2,0:3|0:0,0:0:0:0:
127,177,21907,2,0,P|145:224|149:284,1,99.9999999999999,4|2,0:3|0:0,0:0:0:0:
140,327,22509,2,0,P|212:313|296:331,1,150,4|2,0:3|0:0,0:0:0:0:
391,359,23512,1,4,0:3:0:0:
470,282,23914,1,4,0:3:0:0:
416,185,24315,6,0,P|363:180|296:194,1,99.9999999999999,4|2,0:3|0:0,0:0:0:0:
221,241,25118,2,0,P|171:248|122:243,1,99.9999999999999,4|2,0:3|0:0,0:0:0:0:
74,214,25720,2,0,P|50:273|76:355,1,150,4|4,0:3|0:3,0:0:0:0:
182,337,26723,1,4,0:3:0:0:
214,231,27124,1,8,0:1:0:0:
313,183,27526,6,0,P|364:193|432:221,1,99.9999999999999,4|2,0:3|0:0,0:0:0:0:
415,319,28328,2,0,P|368:335|318:345,1,99.9999999999999,4|2,0:3|0:0,0:0:0:0:
275,311,28930,2,0,B|237:295|201:300|201:300|120:331,1,150,4|4,0:3|0:3,0:0:0:0:
31,371,29934,1,4,0:3:0:0:
1,265,30335,1,4,0:3:0:0:
92,204,30736,6,0,P|124:218|158:235,2,50,4|2|4,0:3|0:0|0:3,0:0:0:0:
73,95,31539,2,0,P|124:85|185:98,1,99.9999999999999,4|4,0:3|0:3,0:0:0:0:
221,114,32141,2,0,P|290:129|394:104,1,150,2|4,0:0|0:3,0:0:0:0:
475,134,33144,2,0,P|476:164|476:210,2,50,4|2|2,0:0|0:0|0:0,0:0:0:0:
422,36,33947,6,0,P|382:75|366:140,2,99.9999999999999,4|8|4,0:0|0:1|0:3,0:0:0:0:
475,134,35151,2,0,L|474:204,1,50,8|8,0:1|0:1,0:0:0:0:
466,238,35552,2,0,B|425:240|425:240|352:261,1,99.9999999999999,4|8,0:0|0:1,0:0:0:0:
319,281,36154,1,8,0:1:0:0:
233,350,36556,1,8,0:1:0:0:
178,352,36756,2,0,P|152:339|126:320,1,50,8|2,0:1|0:0,0:0:0:0:
95,288,37158,6,0,P|89:235|99:175,1,99.9999999999999,4|8,0:0|0:1,0:0:0:0:
147,92,37960,2,0,P|183:94|218:90,1,50,4|0,0:3|1:0,0:0:0:0:
251,86,38362,1,8,0:1:0:0:
303,68,38563,2,0,P|353:130|356:203,1,150,8|8,0:1|0:1,0:0:0:0:
260,250,39566,1,4,0:3:0:0:
293,293,39767,2,0,L|326:334,1,50,8|8,0:0|0:0,0:3:0:0:
434,332,40369,6,0,P|450:282|455:218,1,99.9999999999999,4|8,0:0|0:1,0:0:0:0:
454,125,41171,1,4,0:3:0:0:
362,63,41573,1,8,0:1:0:0:
258,98,41974,2,0,L|192:88,1,50,4|2,0:0|0:0,0:0:0:0:
101,108,42576,2,0,P|106:157|122:205,1,99.9999999999999,4|8,0:3|0:1,0:0:0:0:
168,234,43178,2,0,L|239:221,1,50,8|2,0:1|1:2,0:0:0:0:
264,253,43579,6,0,L|302:366,1,99.9999999999999,4|8,0:0|0:1,0:0:0:0:
408,347,44382,2,0,L|429:292,1,50,4|2,0:3|1:2,0:0:0:0:
434,245,44783,1,8,0:1:0:0:
404,198,44984,2,0,B|354:166|354:166|256:185,1,150,8|8,0:1|0:1,0:0:0:0:
160,218,45987,1,4,0:3:0:0:
77,144,46389,1,8,0:1:0:0:
151,63,46790,6,0,B|183:53|183:53|265:64,1,99.9999999999999,6|10,0:0|0:0,0:0:0:0:
355,89,47593,1,4,0:3:0:0:
298,183,47994,1,2,0:0:0:0:
250,211,48195,2,0,B|232:282|232:282|260:366,1,150,10|4,0:0|0:3,0:0:0:0:
366,360,49198,1,4,0:3:0:0:
464,311,49599,2,0,L|470:241,1,50,4|0,0:3|0:0,0:0:0:0:
475,206,50001,6,0,B|485:174|485:174|474:92,1,99.9999999999999,6|10,0:0|0:0,0:0:0:0:
389,39,50803,1,4,0:3:0:0:
291,90,51205,1,2,0:0:0:0:
237,99,51405,2,0,P|165:90|92:43,1,150,10|4,0:0|0:3,0:0:0:0:
29,135,52409,1,4,0:3:0:0:
109,210,52810,2,0,L|184:213,1,50,4|0,0:3|0:3,0:3:0:0:
198,250,53211,6,0,P|194:298|198:355,1,99.9999999999999,6|10,0:0|0:0,0:0:0:0:
303,318,54014,2,0,L|304:241,1,50,2|2,0:0|0:0,0:0:0:0:
302,212,54415,1,8,0:0:0:0:
308,102,54817,6,0,P|363:95|435:107,1,99.9999999999999,6|10,0:0|0:0,0:0:0:0:
456,197,55619,2,0,L|398:197,1,50,2|2,0:0|0:0,0:0:0:0:
350,197,56021,1,8,0:0:0:0:
255,253,56422,6,0,P|200:260|128:248,1,99.9999999999999,6|10,0:0|0:0,0:0:0:0:
46,271,57225,2,0,P|48:306|55:349,2,50,2|2|8,0:0|0:0|0:3,0:0:0:0:
47,215,57827,2,0,P|56:144|85:54,1,150,10|8,0:0|0:3,0:0:0:0:
185,96,58830,1,14,0:0:0:0:
178,205,59231,1,10,0:0:0:0:
283,235,59633,6,0,P|334:242|418:227,1,99.9999999999999,4|8,0:0|0:0,0:0:0:0:
483,194,60435,1,6,0:0:0:0:
488,83,60837,1,8,0:0:0:0:
391,30,61238,2,0,P|340:23|256:38,1,99.9999999999999,4|8,0:0|0:0,0:0:0:0:
191,72,62041,2,0,P|189:105|192:143,2,50,6|2|8,0:0|0:0|0:0,0:0:0:0:
85,39,62843,6,0,P|77:89|86:167,1,99.9999999999999,6|8,0:0|0:0,0:0:0:0:
113,243,63646,1,4,0:0:0:0:
222,247,64047,1,10,0:0:0:0:
299,169,64449,2,0,P|348:192|395:237,2,99.9999999999999,6|8|10,0:0|0:0|0:0,0:0:0:0:
190,151,65653,1,6,0:0:0:0:
110,75,66054,6,0,P|81:159|108:294,1,200,6|6,0:0|0:3,0:0:0:0:
279,146,67659,2,0,B|367:184|391:106|491:155,1,200,4|6,0:0|0:0,0:0:0:0:
280,42,69265,6,0,B|191:77|167:-1|67:48,1,200,4|6,0:0|0:0,0:0:0:0:
88,260,70870,2,0,P|186:283|300:253,1,200,4|6,0:0|0:0,0:0:0:0:
448,117,72476,6,0,B|458:149|458:149|449:214,1,99.9999999999999,6|10,0:0|0:0,0:0:0:0:
373,294,73278,1,4,0:3:0:0:
283,230,73680,1,2,0:0:0:0:
233,206,73881,2,0,B|170:215|170:215|119:291,1,150,10|4,0:0|0:3,0:0:0:0:
43,363,74884,1,4,0:3:0:0:
33,253,75285,2,0,L|30:190,1,50,4|0,0:3|0:3,0:3:0:0:
30,147,75687,6,0,B|100:147|100:147|145:132,1,99.9999999999999,6|10,0:0|0:0,0:0:0:0:
234,165,76489,1,4,0:3:0:0:
204,271,76891,1,2,0:0:0:0:
189,323,77091,2,0,P|268:348|338:336,1,150,10|4,0:0|0:3,0:0:0:0:
419,270,78095,1,4,0:3:0:0:
388,164,78496,2,0,L|348:126,1,50,4|0,0:3|0:0,0:0:0:0:
299,112,78897,6,0,P|249:107|199:111,1,99.9999999999999,6|10,0:0|0:0,0:0:0:0:
230,216,79700,2,0,L|279:216,1,50,2|2,0:0|0:0,0:0:0:0:
334,212,80101,1,4,0:0:0:0:
422,144,80503,6,0,P|428:94|424:44,1,99.9999999999999,2|10,0:0|0:0,0:0:0:0:
314,39,81305,2,0,L|313:93,1,50,2|2,0:0|0:0,0:0:0:0:
312,144,81707,1,4,0:0:0:0:
310,253,82108,6,0,P|260:259|210:255,1,99.9999999999999,2|10,0:0|0:0,0:0:0:0:
101,245,82911,2,0,L|53:269,2,50,2|2|0,0:0|0:0|0:0,0:0:0:0:
139,205,83513,2,0,P|148:131|125:58,1,150,10|8,0:0|0:3,0:0:0:0:
235,62,84516,5,4,0:3:0:0:
264,167,84917,1,8,0:3:0:0:
208,261,85318,6,0,P|176:265|152:273,2,50,6|0|8,0:0|0:0|0:0,0:0:0:0:
245,301,85920,2,0,P|287:308|358:292,1,99.9999999999999,10|4,0:0|0:3,0:0:0:0:
367,248,86522,2,0,L|367:188,1,50,8|4,0:0|0:3,0:0:0:0:
365,142,86924,5,2,0:0:0:0:
256,142,87325,1,10,0:0:0:0:
256,32,87726,5,2,0:0:0:0:
372,32,88127,1,10,0:0:0:0:
446,113,88528,6,0,L|483:54,2,50,6|0|10,0:0|0:0|0:0,0:0:0:0:
414,157,89130,2,0,P|410:213|438:265,1,99.9999999999999,10|4,0:0|0:3,0:0:0:0:
456,299,89733,2,0,L|422:359,1,50,8|4,0:0|0:3,0:0:0:0:
376,346,90134,5,2,0:0:0:0:
267,346,90535,1,10,0:0:0:0:
175,284,90937,5,2,0:0:0:0:
175,175,91338,1,10,0:0:0:0:
110,85,91740,6,0,P|61:81|11:88,1,99.9999999999999,4|8,0:0|0:0,0:0:0:0:
18,197,92542,1,6,0:0:0:0:
106,261,92943,1,8,0:0:0:0:
195,196,93345,2,0,B|201:155|201:155|195:71,2,99.9999999999999,4|8|4,0:0|0:0|0:0,0:0:0:0:
236,298,94549,1,8,0:0:0:0:
340,261,94951,1,2,0:0:0:0:
256,192,95050,12,8,96555,0:0:0:0:
349,159,98161,5,6,0:0:0:0:
256,192,98261,12,0,99767,0:0:0:0:
