osu file format v14

[General]
AudioFilename: audio.mp3
AudioLeadIn: 0
PreviewTime: 46690
Countdown: 0
SampleSet: Normal
StackLeniency: 0.7
Mode: 0
LetterboxInBreaks: 0
WidescreenStoryboard: 0

[Editor]
DistanceSpacing: 1
BeatDivisor: 4
GridSize: 4
TimelineZoom: 2.7

[Metadata]
Title:Chung Hwa Ban Jeom
TitleUnicode:중화반점
Artist:Louis
ArtistUnicode:루이스
Creator:PandaHero
Version:Another
Source:Pump It Up Zero
Tags:Bakari piu Chinese Restaurant Andamiro video dance game
BeatmapID:1360693
BeatmapSetID:641732

[Difficulty]
HPDrainRate:6
CircleSize:4
OverallDifficulty:7
ApproachRate:8
SliderMultiplier:2
SliderTickRate:1

[Events]
//Background and Video events
0,0,"132465789.jpg",0,0
//Break Periods
//Storyboard Layer 0 (Background)
//Storyboard Layer 1 (Fail)
//Storyboard Layer 2 (Pass)
//Storyboard Layer 3 (Foreground)
//Storyboard Sound Samples

[TimingPoints]
8262,401.33779264214,4,1,1,50,1,0
9867,-66.6666666666667,4,1,1,60,0,0
11472,-100,4,1,1,50,0,0
13078,-66.6666666666667,4,1,1,60,0,0
14683,-100,4,1,1,50,0,0
15285,-100,4,1,1,55,0,0
16088,-100,4,1,1,60,0,0
16890,-100,4,1,1,65,0,0
17693,-100,4,1,1,70,0,0
19499,-100,4,1,1,60,0,0
21104,-125,4,2,1,50,0,0
23512,-83.3333333333333,4,2,1,60,0,0
23914,-125,4,2,1,50,0,0
33947,-100,4,2,1,60,0,0
46790,-83.3333333333333,4,1,1,60,0,1
54415,-50,4,1,1,65,0,1
54817,-83.3333333333333,4,1,1,60,0,1
56021,-50,4,1,1,65,0,1
56422,-83.3333333333333,4,1,1,60,0,1
59633,-100,4,3,0,55,0,0
64449,-111.111111111111,4,3,0,45,0,0
65653,-83.3333333333334,4,3,0,50,0,0
66054,-100,4,3,0,60,0,0
67659,-90.9090909090909,4,3,0,60,0,0
69265,-83.3333333333333,4,3,0,60,0,0
70870,-100,4,3,0,50,0,0
72476,-76.9230769230769,4,1,1,65,0,1
80101,-62.5,4,1,1,70,0,1
80502,-76.9230769230769,4,1,1,65,0,1
81706,-62.5,4,1,1,70,0,1
82108,-76.9230769230769,4,1,1,65,0,1
85318,-100,4,1,1,50,0,0
86924,-66.6666666666667,4,1,1,60,0,0
88529,-100,4,1,1,50,0,0
90134,-66.6666666666667,4,1,1,60,0,0
91740,-66.6666666666667,4,1,1,50,0,0
92342,-66.6666666666667,4,1,1,55,0,0
93144,-66.6666666666667,4,1,1,60,0,0
93947,-66.6666666666667,4,1,1,65,0,0
94950,-100,4,1,1,50,0,0
98261,-100,4,2,0,25,0,0

[Colours]
Combo1 : 170,240,94
Combo2 : 240,94,192
Combo3 : 241,149,92
Combo4 : 240,225,94

[HitObjects]
48,80,8262,5,6,0:0:0:0:
193,206,8563,1,2,0:0:0:0:
193,206,8663,1,10,0:0:0:0:
122,294,8864,2,0,P|91:305|89:197,1,200,10|4,0:0|0:3,0:0:0:0:
255,31,9466,2,0,L|255:150,1,100,8|4,0:0|0:3,0:0:0:0:
346,323,9867,6,2,P|422:346|487:318,1,150.000005722046,2|0,0:0|0:0,0:0:0:0:
166,61,10268,2,2,P|90:38|25:66,1,150.000005722046,10|0,0:0|0:0,0:0:0:0:
376,295,10670,6,2,P|456:297|511:253,1,150.000005722046,2|0,0:0|0:0,0:0:0:0:
135,88,11071,2,2,P|55:86|0:130,1,150.000005722046,10|0,0:0|0:0,0:0:0:0:
474,135,11472,6,0,P|484:74|475:11,1,100,6|0,0:0|0:0,0:0:0:0:
481,37,11773,1,2,0:0:0:0:
481,37,11874,1,10,0:0:0:0:
296,58,12074,2,0,P|356:126|396:54,1,200,10|4,0:0|0:3,0:0:0:0:
211,39,12676,2,0,P|209:94|227:154,1,100,8|4,0:0|0:3,0:0:0:0:
376,295,13078,6,0,P|456:297|511:253,1,150.000005722046,2|0,0:0|0:0,0:0:0:0:
135,88,13479,2,0,P|55:86|0:130,1,150.000005722046,10|0,0:0|0:0,0:0:0:0:
399,260,13881,6,0,P|476:242|519:185,1,150.000005722046,2|0,0:0|0:0,0:0:0:0:
112,123,14282,2,0,P|35:141|-7:198,1,150.000005722046,10|0,0:0|0:0,0:0:0:0:
268,36,14683,5,4,0:0:0:0:
224,224,14884,1,2,0:0:0:0:
198,272,14984,1,2,0:0:0:0:
148,274,15084,1,8,0:0:0:0:
296,176,15285,5,2,0:0:0:0:
322,128,15385,1,2,0:0:0:0:
372,126,15485,1,4,0:0:0:0:
208,136,15686,5,2,0:0:0:0:
160,110,15786,1,2,0:0:0:0:
158,60,15886,1,8,0:0:0:0:
312,264,16087,5,2,0:0:0:0:
360,290,16187,1,2,0:0:0:0:
362,340,16287,1,4,0:0:0:0:
200,264,16489,5,2,0:0:0:0:
152,290,16589,1,2,0:0:0:0:
150,340,16689,1,8,0:0:0:0:
450,162,16890,5,2,0:0:0:0:
478,209,16990,1,2,0:0:0:0:
455,253,17090,1,4,0:0:0:0:
62,162,17292,5,2,0:0:0:0:
34,208,17392,1,2,0:0:0:0:
57,252,17492,1,8,0:0:0:0:
211,64,17693,5,4,0:0:0:0:
255,41,17794,1,2,0:0:0:0:
299,64,17894,1,6,0:0:0:0:
256,192,17994,12,8,19499,0:0:0:0:
53,32,19900,5,4,0:3:0:0:
88,48,20000,1,0,0:0:0:0:
127,56,20100,1,0,0:0:0:0:
167,54,20201,1,0,0:0:0:0:
206,44,20301,1,4,0:3:0:0:
245,39,20401,1,4,0:3:0:0:
285,44,20502,1,4,0:3:0:0:
323,57,20602,1,4,0:3:0:0:
363,57,20703,2,0,L|402:38,6,25,4|0|0|0|0|0|0,0:3|0:0|0:0|0:0|0:0|0:0|0:0,0:0:0:0:
404,120,21104,6,0,P|381:171|378:247,1,120,4|0,0:3|0:0,0:0:0:0:
380,274,21506,1,2,0:0:0:0:
416,359,21706,1,4,0:3:0:0:
261,332,21907,2,0,P|204:323|112:344,1,120,4|0,0:3|0:0,0:0:0:0:
103,340,22308,1,2,0:0:0:0:
30,208,22509,5,4,0:3:0:0:
30,208,22609,1,4,0:3:0:0:
30,208,22710,2,0,B|106:190|110:232|202:217,1,160,4|2,0:3|0:0,0:0:0:0:
301,271,23312,1,4,0:3:0:0:
346,126,23512,2,0,P|334:69|296:-1,1,119.999996337891,4|2,0:3|0:0,0:0:0:0:
201,133,23914,5,4,0:3:0:0:
383,203,24114,1,4,0:3:0:0:
412,190,24215,1,4,0:3:0:0:
436,166,24315,2,0,P|488:237|481:326,1,160,4|2,0:3|0:0,0:0:0:0:
304,338,24917,1,4,0:3:0:0:
243,271,25118,2,0,P|199:271|142:307,2,80,4|2|2,0:3|0:0|0:0,0:0:0:0:
436,166,25720,6,0,P|460:100|391:88,1,160,4|2,0:3|0:0,0:0:0:0:
268,84,26322,2,0,P|278:45|299:11,1,80,4|0,0:3|0:0,0:0:0:0:
336,150,26723,1,4,0:3:0:0:
336,150,26823,1,4,0:3:0:0:
336,150,26924,1,4,0:3:0:0:
243,225,27124,1,8,0:1:0:0:
175,125,27325,1,8,0:1:0:0:
41,33,27526,6,0,P|27:111|47:187,1,160,4|2,0:3|0:0,0:0:0:0:
106,263,28128,1,4,0:3:0:0:
222,229,28328,2,0,P|242:152|228:74,1,160,4|2,0:3|0:0,0:0:0:0:
347,202,28930,5,4,0:3:0:0:
377,206,29031,1,4,0:3:0:0:
407,202,29131,2,0,P|448:181|487:141,1,80,4|2,0:3|0:0,0:0:0:0:
361,38,29532,2,0,P|358:84|373:137,1,80,4|2,0:3|0:0,0:0:0:0:
402,286,29934,1,4,0:3:0:0:
311,307,30134,1,4,0:3:0:0:
281,312,30235,1,4,0:3:0:0:
251,307,30335,2,0,P|209:286|170:246,1,80,4|2,0:3|0:0,0:0:0:0:
121,215,30636,5,4,0:3:0:0:
121,215,30736,2,0,P|106:258|106:314,1,80,4|2,0:3|0:0,0:0:0:0:
248,139,31138,2,0,P|263:96|263:40,1,80,4|2,0:3|0:0,0:0:0:0:
405,193,31539,2,0,P|390:236|390:292,1,80,4|2,0:3|0:0,0:0:0:0:
433,284,31840,1,4,0:3:0:0:
478,269,31940,2,0,P|474:229|460:191,1,80,4|2,0:3|0:0,0:0:0:0:
337,84,32342,5,4,0:3:0:0:
244,232,32542,1,4,0:3:0:0:
235,263,32643,1,4,0:3:0:0:
235,295,32743,2,0,B|250:326|250:326|290:353,1,80,4|2,0:3|0:0,0:0:0:0:
138,195,33144,5,4,0:0:0:0:
118,159,33245,1,0,0:0:0:0:
138,127,33345,1,2,0:0:0:0:
122,91,33445,1,0,0:0:0:0:
142,55,33546,2,0,L|142:23,6,20,2|0|0|0|0|0|0,0:0|0:0|0:0|0:0|0:0|0:0|0:0,0:0:0:0:
304,32,33947,6,0,P|358:39|433:20,1,100,4|2,0:0|0:0,0:0:0:0:
472,196,34348,2,0,P|464:146|472:97,1,100,8|2,0:1|0:0,0:0:0:0:
300,260,34750,2,0,P|349:252|398:260,1,100,4|2,0:3|0:0,0:0:0:0:
219,97,35151,1,8,0:1:0:0:
118,292,35352,5,8,0:1:0:0:
98,324,35452,1,0,1:0:0:0:
66,352,35552,2,0,P|40:305|33:255,1,100,4|2,0:0|0:0,0:0:0:0:
39,136,35954,1,8,0:1:0:0:
148,33,36154,2,0,B|206:68|281:4|351:37,1,200,2|8,0:0|0:1,0:0:0:0:
332,73,36656,1,0,1:0:0:0:
324,113,36756,2,0,P|316:162|327:225,1,100,8|2,0:1|0:0,0:0:0:0:
490,261,37158,6,0,P|441:250|379:266,1,100,4|2,0:0|0:0,0:0:0:0:
196,341,37559,2,0,P|245:352|307:336,1,100,8|2,0:1|0:0,0:0:0:0:
322,211,37960,1,4,0:3:0:0:
260,133,38161,1,0,1:0:0:0:
418,40,38362,1,8,0:1:0:0:
382,132,38563,1,8,0:1:0:0:
256,192,38663,12,4,39566,0:3:0:0:
133,36,39767,6,0,B|101:36|101:36|69:44,1,50,8|0,0:0|0:0,0:0:0:0:
220,105,39967,2,0,B|267:105|267:105|324:131,1,100,8|0,0:0|0:0,0:0:0:0:
473,278,40369,6,0,P|419:285|344:266,1,100,4|2,0:0|0:0,0:0:0:0:
196,257,40770,2,0,P|189:306|197:356,1,100,8|2,0:1|0:0,0:0:0:0:
316,127,41171,2,0,P|323:73|304:-2,1,100,4|2,0:3|0:0,0:0:0:0:
39,106,41573,2,0,P|93:99|168:118,1,100,8|2,0:1|0:2,0:0:0:0:
376,232,41974,6,0,P|430:239|505:220,2,100,4|2|8,0:0|0:0|0:1,0:0:0:0:
244,140,42576,2,0,P|234:222|244:315,1,150,4|0,0:3|0:0,0:0:0:0:
252,336,42977,1,8,0:0:0:0:
376,232,43179,1,8,0:0:0:0:
342,353,43379,1,2,1:2:0:0:
144,248,43579,6,0,P|88:240|32:212,1,100,4|2,0:0|0:0,0:0:0:0:
192,152,43981,2,0,P|158:106|138:47,1,100,8|2,0:1|0:0,0:0:0:0:
320,152,44382,2,0,P|353:106|373:47,1,100,4|2,0:3|1:2,0:0:0:0:
368,248,44783,1,8,0:1:0:0:
464,222,44984,1,8,0:1:0:0:
256,192,45084,12,4,45987,0:3:0:0:
128,108,46188,5,4,0:3:0:0:
116,148,46288,1,4,0:3:0:0:
104,184,46389,1,8,0:1:0:0:
384,104,46589,5,4,0:3:0:0:
396,144,46690,1,4,0:3:0:0:
412,180,46790,2,0,B|432:241|432:241|404:356,1,179.999994506836,6|0,0:0|2:0,0:0:0:0:
354,320,47191,2,0,P|270:296|158:332,1,179.999994506836,10|0,0:0|2:0,0:0:0:0:
181,316,47593,1,4,0:3:0:0:
61,360,47793,1,8,0:3:0:0:
16,176,47994,1,2,0:0:0:0:
229,221,48195,2,2,P|297:182|273:31,1,239.999992675781,10|0,0:0|0:0,0:0:0:0:
176,148,48797,1,4,0:3:0:0:
346,279,48997,5,2,0:0:0:0:
402,299,49098,1,2,0:0:0:0:
458,278,49198,1,4,0:3:0:0:
170,290,49399,5,2,0:0:0:0:
118,318,49500,1,2,0:0:0:0:
58,310,49600,1,4,0:3:0:0:
22,262,49700,1,2,0:0:0:0:
26,202,49800,1,2,0:0:0:0:
70,162,49900,1,2,0:0:0:0:
130,162,50001,6,0,B|191:182|191:182|306:154,1,179.999994506836,6|0,0:0|2:0,0:0:0:0:
344,108,50402,2,0,P|368:192|332:304,1,179.999994506836,10|0,0:0|2:0,0:0:0:0:
347,280,50803,1,4,0:3:0:0:
248,352,51004,1,8,0:3:0:0:
432,308,51205,1,2,0:0:0:0:
344,108,51405,2,2,P|288:52|149:114,1,239.999992675781,10|0,0:0|0:0,0:0:0:0:
217,216,52007,1,4,0:3:0:0:
474,187,52208,5,2,0:0:0:0:
417,207,52309,1,2,0:0:0:0:
361,184,52409,1,4,0:3:0:0:
108,191,52609,5,2,0:0:0:0:
80,243,52710,1,2,0:0:0:0:
88,303,52810,1,4,0:3:0:0:
136,339,52910,1,2,0:0:0:0:
196,335,53010,1,2,0:0:0:0:
240,295,53110,1,2,0:0:0:0:
244,235,53211,6,0,B|201:187|201:187|87:153,1,179.999994506836,6|0,0:0|2:0,0:0:0:0:
52,203,53613,2,0,P|8:139|84:67,1,179.999994506836,10|0,0:0|2:0,0:0:0:0:
64,68,54014,1,2,0:0:0:0:
116,247,54215,1,2,0:0:0:0:
303,360,54415,6,2,P|391:336|335:276,1,200,8|0,0:0|0:0,0:0:0:0:
254,170,54817,6,0,B|200:134|200:134|81:131,1,179.999994506836,6|0,0:0|2:0,0:0:0:0:
60,188,55219,2,0,P|0:137|55:48,1,179.999994506836,10|0,0:0|2:0,0:0:0:0:
35,55,55620,1,2,0:0:0:0:
133,214,55821,1,2,0:0:0:0:
343,275,56021,6,2,P|421:229|352:185,1,200,8|0,0:0|0:0,0:0:0:0:
272,99,56422,6,0,B|210:78|210:78|95:106,1,179.999994506836,6|0,0:0|2:0,0:0:0:0:
89,166,56824,2,0,P|18:132|48:32,1,179.999994506836,10|0,0:0|2:0,0:0:0:0:
173,165,57225,2,0,P|218:213|245:267,1,119.999996337891,2|2,0:0|0:0,0:0:0:0:
290,355,57626,1,8,0:3:0:0:
426,139,57827,2,2,P|386:207|510:269,1,239.999992675781,10|0,0:0|0:0,0:0:0:0:
346,91,58429,2,0,P|310:151|298:199,1,119.999996337891,8|0,0:3|0:0,0:0:0:0:
379,352,58830,5,6,0:0:0:0:
217,150,59031,1,2,0:0:0:0:
157,146,59131,1,2,0:0:0:0:
125,194,59231,2,0,P|121:254|165:294,1,119.999996337891,10|2,0:0|0:0,0:0:0:0:
472,160,59633,6,0,L|340:184,1,100,4|2,0:0|0:0,0:0:0:0:
152,44,60034,2,0,L|284:68,1,100,8|2,0:0|0:0,0:0:0:0:
264,288,60435,1,6,0:0:0:0:
216,296,60536,1,2,0:0:0:0:
168,304,60636,1,2,0:0:0:0:
148,160,60837,2,0,L|280:184,1,100,8|2,0:0|0:0,0:0:0:0:
20,20,61238,6,0,L|152:44,1,100,4|2,0:0|0:0,0:0:0:0:
4,272,61639,2,0,L|136:296,1,100,8|2,0:0|0:0,0:0:0:0:
340,128,62041,1,6,0:0:0:0:
292,136,62142,1,2,0:0:0:0:
244,144,62242,1,2,0:0:0:0:
196,152,62342,1,2,0:0:0:0:
148,160,62442,2,0,L|280:184,1,100,8|2,0:0|0:0,0:0:0:0:
480,300,62843,5,6,0:0:0:0:
468,348,62944,1,2,0:0:0:0:
432,312,63044,1,2,0:0:0:0:
332,184,63245,2,0,P|320:236|312:296,1,100,8|2,0:0|0:0,0:0:0:0:
180,184,63646,2,0,P|192:236|200:296,1,100,4|2,0:0|0:0,0:0:0:0:
32,300,64047,1,10,0:0:0:0:
44,348,64148,1,2,0:0:0:0:
80,312,64248,1,2,0:0:0:0:
32,84,64449,5,6,0:0:0:0:
44,36,64550,1,2,0:0:0:0:
80,72,64650,1,2,0:0:0:0:
192,164,64850,2,0,P|208:120|216:60,1,89.9999972534181,8|2,0:0|0:0,0:0:0:0:
344,164,65251,1,10,0:0:0:0:
344,164,65352,1,2,0:0:0:0:
344,164,65452,1,2,0:0:0:0:
210,262,65653,2,0,B|172:288|172:288|136:360,1,119.999996337891,6|2,0:0|0:0,0:0:0:0:
388,352,66055,6,2,P|428:329|483:370,1,100,6|2,0:0|0:0,0:0:0:0:
288,352,66456,1,8,0:3:0:0:
114,218,66656,2,0,L|114:168,1,50,2|2,0:0|0:0,0:0:0:0:
216,104,66857,1,6,0:3:0:0:
216,128,66957,1,2,0:3:0:0:
228,148,67057,1,2,0:3:0:0:
228,172,67157,1,2,0:3:0:0:
216,192,67258,2,0,B|208:244|208:244|216:296,1,100,8|0,0:3|0:0,0:0:0:0:
388,300,67660,6,2,P|432:272|483:318,1,110.000003356934,4|2,0:0|0:0,0:0:0:0:
289,304,68061,1,8,0:0:0:0:
88,177,68261,2,0,L|88:111,1,55.0000016784668,2|2,0:0|0:0,0:0:0:0:
192,68,68462,1,6,0:0:0:0:
192,96,68562,1,2,0:0:0:0:
208,120,68662,1,2,0:0:0:0:
208,148,68762,1,2,0:0:0:0:
192,172,68863,2,0,B|184:224|184:224|196:292,1,110.000003356934,8|0,0:0|0:0,0:0:0:0:
388,248,69265,6,2,P|432:216|484:256,1,119.999996337891,4|2,0:0|0:0,0:0:0:0:
289,255,69666,1,8,0:0:0:0:
56,154,69867,2,0,L|56:87,1,59.9999981689454,2|2,0:0|0:0,0:0:0:0:
160,32,70068,1,6,0:0:0:0:
160,60,70168,1,2,0:0:0:0:
176,84,70268,1,2,0:0:0:0:
176,112,70368,1,2,0:0:0:0:
160,136,70469,2,0,B|152:188|152:188|168:260,1,119.999996337891,8|2,0:0|0:0,0:0:0:0:
388,192,70870,6,2,P|428:169|483:210,1,100,4|2,0:0|0:0,0:0:0:0:
298,208,71272,1,8,0:0:0:0:
363,104,71472,1,2,0:0:0:0:
363,104,71573,1,2,0:0:0:0:
363,104,71673,1,6,0:0:0:0:
255,87,71874,1,2,0:0:0:0:
231,94,71974,1,2,0:0:0:0:
214,110,72074,2,0,B|202:154|202:154|214:230,1,100,2|2,0:2|0:0,0:0:0:0:
240,248,72375,1,2,0:0:0:0:
276,280,72476,6,0,B|215:300|215:300|76:252,1,194.999991073609,6|0,0:0|2:0,0:0:0:0:
27,288,72877,2,0,P|6:201|39:96,1,194.999991073609,10|0,0:0|2:0,0:0:0:0:
35,101,73279,1,4,0:3:0:0:
200,136,73479,1,8,0:3:0:0:
100,329,73680,1,2,0:0:0:0:
356,348,73881,2,2,P|432:328|452:152,1,259.999988098145,10|0,0:0|0:0,0:0:0:0:
328,96,74483,1,4,0:3:0:0:
152,272,74683,5,2,0:0:0:0:
97,293,74784,1,2,0:0:0:0:
41,275,74884,1,4,0:3:0:0:
340,324,75085,5,2,0:0:0:0:
394,345,75186,1,2,0:0:0:0:
450,332,75286,1,4,0:3:0:0:
481,282,75386,1,2,0:0:0:0:
464,225,75486,1,2,0:0:0:0:
416,191,75586,1,2,0:0:0:0:
357,194,75687,6,0,B|235:219|235:219|156:188,1,194.999991073609,6|0,0:0|2:0,0:0:0:0:
136,132,76088,2,0,P|112:216|152:348,1,194.999991073609,10|0,0:0|2:0,0:0:0:0:
133,319,76489,1,4,0:3:0:0:
284,276,76690,1,8,0:3:0:0:
305,47,76891,1,2,0:0:0:0:
114,47,77091,2,2,P|45:86|66:253,1,259.999988098145,10|0,0:0|0:0,0:0:0:0:
200,212,77693,1,4,0:3:0:0:
305,47,77894,5,2,0:0:0:0:
330,100,77995,1,2,0:0:0:0:
316,156,78095,1,4,0:3:0:0:
86,354,78295,5,2,0:0:0:0:
44,311,78396,1,2,0:0:0:0:
36,253,78496,1,4,0:3:0:0:
70,207,78596,1,2,0:0:0:0:
126,191,78696,1,2,0:0:0:0:
177,217,78796,1,2,0:0:0:0:
205,268,78897,6,0,B|269:271|269:271|393:204,1,194.999991073609,6|0,0:0|2:0,0:0:0:0:
453,189,79298,2,0,P|509:253|433:325,1,194.999991073609,10|0,0:0|2:0,0:0:0:0:
376,326,79700,1,2,0:0:0:0:
316,156,79901,1,2,0:0:0:0:
90,291,80101,2,2,B|102:231|102:231|90:195|90:195|103:135,1,160,4|0,0:0|0:0,0:0:0:0:
196,227,80502,6,2,B|260:230|260:230|384:163,1,194.999991073609,2|0,0:0|2:0,0:0:0:0:
445,177,80904,2,0,P|501:241|425:313,1,194.999991073609,10|0,0:0|2:0,0:0:0:0:
369,313,81305,1,2,0:0:0:0:
292,117,81506,1,2,0:0:0:0:
64,249,81706,2,2,B|76:189|76:189|64:153|64:153|78:93,1,160,4|0,0:0|0:0,0:0:0:0:
166,190,82108,6,0,B|230:193|230:193|354:126,1,194.999991073609,2|0,0:0|2:0,0:0:0:0:
412,107,82510,2,0,P|468:171|392:243,1,194.999991073609,10|0,0:0|2:0,0:0:0:0:
338,229,82910,1,2,0:0:0:0:
152,107,83111,1,2,0:0:0:0:
276,353,83312,1,0,0:0:0:0:
412,107,83512,2,2,P|464:183|392:323,1,259.999988098145,10|0,0:0|0:0,0:0:0:0:
268,56,84115,6,0,P|208:116|196:168,1,129.999994049073,8|0,0:3|0:0,0:0:0:0:
312,290,84516,1,4,0:3:0:0:
31,257,84717,1,2,0:3:0:0:
39,309,84817,1,2,0:3:0:0:
71,349,84917,2,0,P|139:333|195:273,1,129.999994049073,8|0,0:3|0:0,0:0:0:0:
268,56,85318,5,6,0:0:0:0:
406,198,85619,1,2,0:0:0:0:
406,198,85719,1,8,0:0:0:0:
335,286,85920,2,2,P|304:297|302:189,1,200,10|4,0:0|0:3,0:0:0:0:
478,47,86522,2,0,P|484:100|477:163,1,100,8|4,0:0|0:3,0:0:0:0:
166,61,86924,6,2,P|90:38|25:66,1,150.000005722046,6|0,0:0|0:0,0:0:0:0:
346,323,87325,2,2,P|422:346|492:315,1,150.000005722046,10|0,0:0|0:0,0:0:0:0:
136,89,87726,6,2,P|56:87|1:131,1,150.000005722046,2|0,0:0|0:0,0:0:0:0:
377,296,88127,2,2,P|457:298|512:254,1,150.000005722046,10|0,0:0|0:0,0:0:0:0:
31,254,88529,6,0,P|12:308|12:368,1,100,6|0,0:0|0:0,0:0:0:0:
9,350,88830,1,2,0:0:0:0:
9,350,88930,1,10,0:0:0:0:
212,348,89131,2,2,P|156:280|108:356,1,200,10|4,0:0|0:3,0:0:0:0:
308,356,89733,2,0,P|302:306|285:260,1,100,8|4,0:0|0:3,0:0:0:0:
136,89,90134,6,2,P|56:87|1:131,1,150.000005722046,6|0,0:0|0:0,0:0:0:0:
377,296,90535,2,2,P|457:298|512:254,1,150.000005722046,10|0,0:0|0:0,0:0:0:0:
113,124,90937,6,2,P|36:142|-7:199,1,150.000005722046,2|0,0:0|0:0,0:0:0:0:
400,261,91338,2,2,P|477:243|519:186,1,150.000005722046,10|0,0:0|0:0,0:0:0:0:
244,348,91740,5,4,0:0:0:0:
288,160,91941,1,2,0:0:0:0:
314,112,92041,1,2,0:0:0:0:
364,110,92141,1,8,0:0:0:0:
216,208,92342,5,2,0:0:0:0:
190,256,92442,1,2,0:0:0:0:
140,258,92542,1,4,0:0:0:0:
304,248,92743,5,2,0:0:0:0:
352,274,92843,1,2,0:0:0:0:
354,324,92943,1,8,0:0:0:0:
200,120,93144,5,2,0:0:0:0:
152,94,93244,1,2,0:0:0:0:
150,44,93344,1,4,0:0:0:0:
312,120,93546,5,2,0:0:0:0:
360,94,93646,1,2,0:0:0:0:
362,44,93746,1,8,0:0:0:0:
62,222,93947,5,2,0:0:0:0:
34,175,94047,1,2,0:0:0:0:
57,131,94147,1,4,0:0:0:0:
450,222,94349,5,2,0:0:0:0:
478,176,94449,1,2,0:0:0:0:
455,132,94549,1,8,0:0:0:0:
301,320,94750,5,4,0:0:0:0:
257,343,94850,1,2,0:0:0:0:
209,320,94950,1,6,0:0:0:0:
256,192,95050,12,8,96555,0:0:0:0:
41,37,96756,5,6,0:0:0:0:
209,117,96957,2,0,P|250:174|261:215,1,100,10|0,0:0|0:0,0:0:0:0:
56,207,97358,2,0,P|74:253|105:291,1,100,10|0,0:0|0:0,0:0:0:0:
279,353,97760,2,0,L|318:352,6,25,10|0|0|0|0|0|0,0:0|0:0|0:0|0:0|0:0|0:0|0:0,0:0:0:0:
405,262,98161,1,6,0:0:0:0:
256,192,98261,12,0,99767,0:0:0:0:
