osu file format v14

[General]
AudioFilename: audio.mp3
AudioLeadIn: 0
PreviewTime: 46371
Countdown: 0
SampleSet: Soft
StackLeniency: 0.7
Mode: 0
LetterboxInBreaks: 0
WidescreenStoryboard: 1

[Editor]
DistanceSpacing: 1.5
BeatDivisor: 4
GridSize: 16
TimelineZoom: 1

[Metadata]
Title:hello world
TitleUnicode:hello world
Artist:Louie Zong
ArtistUnicode:Louie Zong
Creator:nmi5
Version:Hard
Source:
Tags:Indie Vocaloid
BeatmapID:2741844
BeatmapSetID:836755

[Difficulty]
HPDrainRate:7
CircleSize:4
OverallDifficulty:7
ApproachRate:8
SliderMultiplier:1.4
SliderTickRate:1

[Events]
//Background and Video events
0,0,"1024x640.png",0,0
//Break Periods
//Storyboard Layer 0 (Background)
//Storyboard Layer 1 (Fail)
//Storyboard Layer 2 (Pass)
//Storyboard Layer 3 (Foreground)
//Storyboard Layer 4 (Overlay)
//Storyboard Sound Samples

[TimingPoints]
4462,500,4,2,1,50,1,0
4462,-333.333333333333,4,2,1,50,0,0
5462,545.454545454546,4,2,1,50,1,0
5462,-100,4,2,1,50,0,0
27280,-133.333333333333,4,2,1,50,0,0
33825,-100,4,2,1,50,0,0
44734,-133.333333333333,4,2,1,50,0,0
75825,-100,4,2,1,50,0,0
79643,-200,4,2,1,50,0,0
84920,521.739130434783,4,2,1,50,1,0
85963,545.454545454546,4,2,1,35,1,0

[Colours]
Combo1 : 0,0,255
Combo2 : 133,56,226
Combo3 : 54,160,220
Combo4 : 6,198,31

[HitObjects]
142,158,4462,6,0,P|159:174|169:195,1,41.9999987182618
286,341,5462,2,0,P|358:243|332:85,1,280,0|0,3:0|0:0,0:0:0:0:
134,36,7098,1,8,0:2:0:0:
53,104,7371,1,0,2:0:0:0:
152,140,7643,1,0,2:0:0:0:
469,339,8189,6,0,P|501:278|473:188,1,140,8|0,0:0|0:0,0:0:0:0:
298,121,9280,1,8,2:0:0:0:
217,189,9553,1,0,2:0:0:0:
315,225,9825,6,0,P|416:248|459:215,1,140,0|8,2:0|2:0,2:0:0:0:
288,90,10916,1,0,0:0:0:0:
288,300,11462,1,8,0:0:0:0:
470,195,12007,6,0,P|425:182|384:158,1,70
306,210,12552,2,0,P|354:281|320:338,1,140,8|0,0:0|0:0,0:0:0:0:
133,268,13643,1,8,0:0:0:0:
80,177,13916,1,0,0:0:0:0:
185,177,14189,5,0,0:0:0:0:
361,290,14734,2,0,P|360:202|304:146,2,140,8|0|8,0:0|0:0|0:0,0:0:0:0:
140,336,16371,5,0,0:0:0:0:
68,138,16916,2,0,P|123:81|187:49,1,140,8|0,0:0|0:0,0:0:0:0:
380,110,18007,1,8,0:0:0:0:
225,244,18552,1,0,0:0:0:0:
225,139,18825,1,0,0:0:0:0:
316,192,19098,2,0,P|360:270|357:351,2,140,8|0|8,0:0|0:0|0:0,2:0:0:0:
256,279,20462,1,0,3:0:0:0:
342,338,20734,5,0,0:0:0:0:
269,140,21280,1,8,0:0:0:0:
74,219,21825,2,0,P|145:204|218:213,1,140,0|8,0:0|0:0,0:0:0:0:
406,288,22916,2,0,P|458:147|342:156,1,280
180,216,24552,1,8,0:0:0:0:
76,228,24825,1,0,0:0:0:0:
116,132,25098,5,0,0:0:0:0:
218,110,25371,2,0,P|265:112|304:140,2,70
131,169,26189,1,0,0:0:0:0:
230,353,26734,1,0,0:0:0:0:
308,216,27280,6,0,P|260:137|183:207,1,210.000008010865
187,271,28643,1,0,0:0:0:0:
199,349,28916,1,8,0:0:0:0:
276,336,29189,1,0,0:0:0:0:
265,257,29462,5,0,0:0:0:0:
187,120,30007,2,0,P|138:155|104:212,1,105.000004005432,8|0,0:0|0:0,0:0:0:0:
163,340,31098,2,0,P|200:364|267:386,1,105.000004005432,8|0,0:0|0:0,0:0:0:0:
437,154,32189,1,8,0:0:0:0:
332,38,32734,1,0,0:0:0:0:
283,187,33280,1,8,0:0:0:0:
478,262,33825,6,0,P|450:127|308:177,1,280,0|0,0:0|0:0,0:3:0:0:
424,217,35462,1,8,0:0:0:0:
424,112,35734,1,0,0:0:0:0:
333,165,36007,1,0,0:0:0:0:
295,371,36552,5,8,0:0:0:0:
451,230,37098,2,0,P|474:163|468:71,2,140,0|8|0,0:0|0:0|0:0,0:0:0:0:
249,290,38734,5,8,0:0:0:0:
167,96,39280,1,0,0:0:0:0:
375,122,39825,1,8,0:0:0:0:
224,268,40371,6,0,P|125:278|154:126,1,280
336,174,42007,1,8,0:0:0:0:
377,270,42280,1,0,0:0:0:0:
273,257,42552,5,0,0:0:0:0:
116,117,43098,1,8,0:0:0:0:
318,63,43643,2,0,P|389:115|432:182,1,140,0|8,2:0|2:0,2:0:0:0:
388,311,44734,2,0,P|324:214|248:155,1,210.000008010865,0|0,2:0|2:0,2:0:0:0:
119,68,46371,1,8,0:0:0:0:
189,208,46916,6,2,L|234:195,1,26.2500010013581,2|0,2:2|2:2,2:2:0:0:
205,261,47189,2,2,L|250:248,1,26.2500010013581,2|0,2:2|2:2,2:2:0:0:
225,312,47462,2,2,L|270:299,1,26.2500010013581,2|0,2:2|2:2,2:2:0:0:
245,359,47734,2,2,L|290:346,1,26.2500010013581,2|0,2:2|2:2,2:2:0:0:
310,330,48007,6,2,L|265:343,1,26.2500010013581,2|0,2:2|2:2,2:2:0:0:
294,277,48280,2,2,L|249:290,1,26.2500010013581,2|0,2:2|2:2,2:2:0:0:
274,226,48553,2,2,L|229:239,1,26.2500010013581,2|0,2:2|2:2,2:2:0:0:
260,177,48825,2,2,L|215:190,1,26.2500010013581,2|0,2:2|2:2,2:2:0:0:
172,135,49098,6,0,P|131:77|237:36,1,210.000008010865
245,106,50462,1,0,0:0:0:0:
269,181,50734,1,8,0:0:0:0:
322,122,51007,1,0,0:0:0:0:
306,44,51280,6,0,P|364:55|413:84,3,105.000004005432,0|8|0|8,0:0|0:0|0:0|0:0,0:0:0:0:
436,238,53462,6,0,P|353:165|252:105,1,210.000008010865
189,111,54825,1,0,0:3:0:0:
117,144,55098,1,8,0:0:0:0:
86,72,55371,1,0,0:3:0:0:
159,44,55643,5,0,0:0:0:0:
306,16,56189,1,8,0:0:0:0:
349,159,56734,1,0,0:0:0:0:
196,197,57280,1,8,0:0:0:0:
61,119,57825,6,0,P|123:213|221:245,1,210.000008010865
356,182,59462,1,8,0:0:0:0:
415,130,59734,1,0,3:0:0:0:
382,58,60007,6,0,P|325:53|266:76,3,105.000004005432,0|8|0|8,0:0|0:0|0:0|0:0,0:0:0:0:
122,67,62189,6,0,P|217:121|285:216,1,210.000008010865
328,258,63552,1,0,0:3:0:0:
376,320,63825,1,8,0:0:0:0:
313,368,64098,1,0,0:3:0:0:
265,304,64371,1,0,0:3:0:0:
190,165,64916,5,8,0:0:0:0:
309,62,65462,1,0,0:0:0:0:
384,36,65734,1,0,0:0:0:0:
409,111,66007,1,8,0:0:0:0:
335,137,66280,1,0,0:0:0:0:
298,68,66552,6,0,P|408:92|322:215,1,315.000012016297,0|8,0:0|0:0,0:0:0:0:
255,73,68734,6,0,P|212:106|174:161,3,105.000004005432,0|8|0|8,0:0|0:0|0:0|0:0,0:0:0:0:
247,289,70916,2,0,P|320:196|409:125,1,210.000008010865
467,153,72280,1,0,0:0:0:0:
477,231,72552,1,8,0:0:0:0:
403,200,72825,1,0,0:0:0:0:
334,160,73098,6,0,P|227:166|209:260,1,210.000008010865
272,294,74462,1,0,0:0:0:0:
341,333,74734,1,8,0:0:0:0:
379,265,75007,1,0,0:0:0:0:
310,226,75280,5,0,0:0:0:0:
112,154,75825,2,0,P|89:252|89:332,2,140,8|0|8,0:0|0:0|0:0,0:0:0:0:
298,55,77462,5,0,0:0:0:0:
489,140,78007,1,8,0:0:0:0:
348,295,78552,2,0,P|296:345|224:378,1,140,0|8,0:0|0:0,0:0:0:0:
131,361,79643,6,0,P|131:232|185:83,2,280
199,204,84920,6,0,P|263:216|340:205,1,140
410,47,85963,2,0,P|275:43|116:85,2,280,0|2|0,0:0|0:0|0:0,0:0:0:0:
507,232,88690,2,0,L|371:266,1,140,0|2,0:0|0:0,0:0:0:0:
162,237,89781,1,0,0:0:0:0:
45,62,90326,5,0,0:0:0:0:
249,111,90872,2,0,L|393:156,2,140,0|2|0,0:0|0:0|0:0,0:0:0:0:
90,250,92508,6,0,L|28:299,2,70,0|0|0,0:0|3:0|0:0,0:0:0:0:
290,185,93599,1,2,0:0:0:0:
261,143,94690,5,0,0:0:0:0:
71,232,95235,2,0,P|154:290|213:293,2,140,0|2|0,0:0|0:0|0:0,0:0:0:0:
68,21,96872,5,0,0:0:0:0:
274,59,97417,2,0,L|427:89,2,140,0|2|0,0:0|0:0|0:0,0:0:0:0:
66,89,99053,6,0,P|44:109|36:147,2,70,0|0|0,0:0|3:0|0:0,0:0:0:0:
267,29,100144,1,0,0:0:0:0:
297,158,101235,1,0,0:0:0:0:
127,230,102326,6,0,P|190:241|289:238,1,140,2|0,0:0|0:0,0:0:0:0:
474,218,103417,2,0,P|365:121|234:35,1,280,0|2,0:0|0:0,0:0:0:0:
159,140,105599,6,0,P|268:237|399:323,1,280,0|2,0:0|0:0,0:0:0:0:
265,83,107781,6,0,L|312:78,3,35
