osu file format v14

[General]
AudioFilename: audio.mp3
AudioLeadIn: 0
PreviewTime:2740
Countdown: 0
SampleSet: Normal
StackLeniency: 0.7
Mode: 1
LetterboxInBreaks: 0
WidescreenStoryboard: 1

[Editor]
DistanceSpacing: 1.2
BeatDivisor: 4
GridSize: 32
TimelineZoom: 1.399999

[Metadata]
Title:Rhythm Hell
TitleUnicode:Rhythm Hell
Artist:Louie Zong
ArtistUnicode:Louie Zong
Creator:Hivie
Version:Oni
Source:
Tags:novelty electronic instrumental seals everydaylouie リズム天国 rhythm heaven paradise world rizumu tengoku sv gimmick polyrhythms polyrhythmic 1/6 1/5 1/9
BeatmapID:4231471
BeatmapSetID:2030497

[Difficulty]
HPDrainRate:10
CircleSize:2
OverallDifficulty:6
ApproachRate:10
SliderMultiplier:1.4
SliderTickRate:1

[Events]
//Background and Video events
0,0,"maxresdefault.jpg",0,-75
Video,0,"output.mp4"
//Break Periods
//Storyboard Layer 0 (Background)
//Storyboard Layer 1 (Fail)
//Storyboard Layer 2 (Pass)
//Storyboard Layer 3 (Foreground)
//Storyboard Layer 4 (Overlay)
//Storyboard Sound Samples

[TimingPoints]
740,500,4,1,0,60,1,8
2740,500,4,1,0,60,1,0

[HitObjects]
256,192,2740,5,0,0:0:0:0:
256,192,3239,1,0,0:0:0:0:
256,192,3739,1,0,0:0:0:0:
256,192,4239,1,0,0:0:0:0:
256,192,4741,1,8,0:0:0:0:
256,192,5239,1,8,0:0:0:0:
256,192,5739,1,8,0:0:0:0:
256,192,6239,1,8,0:0:0:0:
256,192,6740,1,0,0:0:0:0:
256,192,7240,1,0,0:0:0:0:
256,192,7489,1,0,0:0:0:0:
256,192,7739,1,0,0:0:0:0:
256,192,8239,1,0,0:0:0:0:
256,192,8741,1,8,0:0:0:0:
256,192,9239,1,8,0:0:0:0:
256,192,9489,1,8,0:0:0:0:
256,192,9739,1,8,0:0:0:0:
256,192,10239,1,8,0:0:0:0:
256,192,10740,1,0,0:0:0:0:
256,192,10989,1,0,0:0:0:0:
256,192,11239,1,0,0:0:0:0:
256,192,11739,1,0,0:0:0:0:
256,192,11989,1,0,0:0:0:0:
256,192,12239,1,0,0:0:0:0:
256,192,12741,1,8,0:0:0:0:
256,192,12989,1,8,0:0:0:0:
256,192,13239,1,8,0:0:0:0:
256,192,13739,1,8,0:0:0:0:
256,192,13989,1,8,0:0:0:0:
256,192,14239,1,8,0:0:0:0:
256,192,14740,1,0,0:0:0:0:
256,192,14864,1,0,0:0:0:0:
256,192,15114,1,0,0:0:0:0:
256,192,15239,1,0,0:0:0:0:
256,192,15489,1,0,0:0:0:0:
256,192,15739,1,0,0:0:0:0:
256,192,15864,1,0,0:0:0:0:
256,192,16114,1,0,0:0:0:0:
256,192,16239,1,0,0:0:0:0:
256,192,16489,1,0,0:0:0:0:
256,192,16741,1,8,0:0:0:0:
256,192,16864,1,8,0:0:0:0:
256,192,17114,1,8,0:0:0:0:
256,192,17239,1,8,0:0:0:0:
256,192,17489,1,8,0:0:0:0:
256,192,17739,1,8,0:0:0:0:
256,192,17864,1,8,0:0:0:0:
256,192,18114,1,8,0:0:0:0:
256,192,18239,1,8,0:0:0:0:
256,192,18489,1,8,0:0:0:0:
256,192,18990,1,0,0:0:0:0:
256,192,19240,1,0,0:0:0:0:
256,192,19406,1,0,0:0:0:0:
256,192,19573,1,0,0:0:0:0:
256,192,19990,1,0,0:0:0:0:
256,192,20240,1,0,0:0:0:0:
256,192,20406,1,0,0:0:0:0:
256,192,20573,1,0,0:0:0:0:
256,192,20989,1,8,0:0:0:0:
256,192,21239,1,8,0:0:0:0:
256,192,21405,1,8,0:0:0:0:
256,192,21572,1,8,0:0:0:0:
256,192,21989,1,8,0:0:0:0:
256,192,22239,1,8,0:0:0:0:
256,192,22405,1,8,0:0:0:0:
256,192,22572,1,8,0:0:0:0:
256,192,22990,1,0,0:0:0:0:
256,192,23490,1,0,0:0:0:0:
256,192,23740,1,0,0:0:0:0:
256,192,23940,1,0,0:0:0:0:
256,192,24140,1,0,0:0:0:0:
256,192,24340,1,0,0:0:0:0:
256,192,24540,1,0,0:0:0:0:
256,192,24989,1,8,0:0:0:0:
256,192,25489,1,8,0:0:0:0:
256,192,25739,1,8,0:0:0:0:
256,192,25939,1,8,0:0:0:0:
256,192,26139,1,8,0:0:0:0:
256,192,26339,1,8,0:0:0:0:
256,192,26539,1,8,0:0:0:0:
256,192,26740,1,0,0:0:0:0:
256,192,26962,1,0,0:0:0:0:
256,192,27183,1,0,0:0:0:0:
256,192,27406,1,0,0:0:0:0:
256,192,27627,1,0,0:0:0:0:
256,192,27850,1,0,0:0:0:0:
256,192,28072,1,0,0:0:0:0:
256,192,28294,1,0,0:0:0:0:
256,192,28516,1,0,0:0:0:0:
256,192,28741,1,8,0:0:0:0:
256,192,28961,1,8,0:0:0:0:
256,192,29183,1,8,0:0:0:0:
256,192,29405,1,8,0:0:0:0:
256,192,29627,1,8,0:0:0:0:
256,192,29850,1,8,0:0:0:0:
256,192,30072,1,8,0:0:0:0:
256,192,30294,1,8,0:0:0:0:
256,192,30516,1,8,0:0:0:0:
256,192,30940,1,0,0:0:0:0:
256,192,31340,1,0,0:0:0:0:
256,192,31906,1,0,0:0:0:0:
256,192,32240,1,0,0:0:0:0:
256,192,32939,1,8,0:0:0:0:
256,192,33339,1,8,0:0:0:0:
256,192,33905,1,8,0:0:0:0:
256,192,34239,1,8,0:0:0:0:
256,192,34740,1,0,0:0:0:0:
256,192,34989,1,0,0:0:0:0:
256,192,35114,1,0,0:0:0:0:
256,192,35239,1,0,0:0:0:0:
256,192,35365,1,0,0:0:0:0:
256,192,35489,1,0,0:0:0:0:
256,192,35740,1,0,0:0:0:0:
256,192,35864,1,0,0:0:0:0:
256,192,35989,1,0,0:0:0:0:
256,192,36114,1,0,0:0:0:0:
256,192,36239,1,0,0:0:0:0:
256,192,36364,1,0,0:0:0:0:
256,192,36489,1,0,0:0:0:0:
256,192,36741,1,8,0:0:0:0:
256,192,36989,1,8,0:0:0:0:
256,192,37114,1,8,0:0:0:0:
256,192,37239,1,8,0:0:0:0:
256,192,37364,1,8,0:0:0:0:
256,192,37490,1,8,0:0:0:0:
256,192,37739,1,8,0:0:0:0:
256,192,37864,1,8,0:0:0:0:
256,192,37989,1,8,0:0:0:0:
256,192,38114,1,8,0:0:0:0:
256,192,38239,1,8,0:0:0:0:
256,192,38364,1,8,0:0:0:0:
256,192,38489,1,8,0:0:0:0:
256,192,40615,1,0,0:0:0:0:
256,192,42614,1,8,0:0:0:0:
256,192,42990,12,0,43240,0:0:0:0:
