osu file format v14

[General]
AudioFilename: Dance!.mp3
AudioLeadIn: 0
PreviewTime: 47592
Countdown: 0
SampleSet: Soft
StackLeniency: 0.7
Mode: 0
LetterboxInBreaks: 0
WidescreenStoryboard: 1

[Editor]
Bookmarks: 5325,19600,33875,62425,76700
DistanceSpacing: 1
BeatDivisor: 4
GridSize: 8
TimelineZoom: 1.4

[Metadata]
Title:Dance!
TitleUnicode:Dance!
Artist:Lotus Juice & Shihoko Hirata
ArtistUnicode:Lotus Juice & 平田志穂子
Creator:tasuke912
Version:Satellite's Insane
Source:Persona 4: Dancing All Night
Tags:ペルソナ4 Satellite Doyak
BeatmapID:1062671
BeatmapSetID:486684

[Difficulty]
HPDrainRate:6
CircleSize:4
OverallDifficulty:7
ApproachRate:8
SliderMultiplier:1.6
SliderTickRate:1

[Events]
//Background and Video events
0,0,"bg.jpg",0,0
//Break Periods
//Storyboard Layer 0 (Background)
//Storyboard Layer 1 (Fail)
//Storyboard Layer 2 (Pass)
//Storyboard Layer 3 (Foreground)
//Storyboard Sound Samples

[TimingPoints]
578,500,4,2,0,70,1,0
5328,446.096654275093,4,2,0,70,1,0
48153,-100,4,2,0,70,0,1
75365,-200,4,2,0,70,0,1
75393,-200,4,2,0,5,0,1
76703,-100,4,2,0,70,0,0
89194,456.273764258555,4,2,0,70,1,0

[Colours]
Combo1 : 255,129,2
Combo2 : 0,128,255
Combo3 : 255,66,255
Combo4 : 255,255,0

[HitObjects]
113,148,5328,6,0,L|105:62,1,80,4|0,0:0|0:0,0:0:0:0:
69,237,5774,1,2,3:0:0:0:
69,237,6220,1,0,1:0:0:0:
169,226,6443,1,0,0:0:0:0:
69,237,6666,1,2,3:0:0:0:
225,302,6889,5,2,0:0:0:0:
225,302,7335,1,2,0:0:0:0:
269,215,7558,2,0,L|350:206,1,80,0|0,1:0|0:0,0:0:0:0:
391,120,8004,2,0,L|407:81,2,40,2|0|0,3:0|0:0|0:0,0:0:0:0:
417,270,8450,1,0,3:0:0:0:
399,236,8896,6,0,L|407:322,1,80,4|0,1:0|0:0,0:0:0:0:
443,147,9342,1,2,3:0:0:0:
443,147,9788,1,0,1:0:0:0:
343,158,10012,1,0,0:0:0:0:
443,147,10235,1,2,3:0:0:0:
287,82,10458,5,2,0:0:0:0:
287,82,10904,1,2,0:0:0:0:
243,169,11127,2,0,L|162:178,1,80,0|2,1:0|0:0,0:0:0:0:
121,263,11573,2,0,L|105:302,2,40,2|0|0,3:0|0:0|0:0,0:0:0:0:
95,114,12019,1,2,3:0:0:0:
0,206,12242,5,0,3:0:0:0:
0,206,12354,1,0,3:0:0:0:
0,206,12465,2,0,P|42:198|98:193,1,80,4|0,1:0|0:0,0:0:0:0:
228,265,12911,1,2,3:0:0:0:
228,265,13357,1,0,1:0:0:0:
176,182,13580,1,0,0:0:0:0:
228,265,13803,1,2,3:0:0:0:
216,99,14026,5,2,0:0:0:0:
216,99,14472,1,2,0:0:0:0:
309,75,14696,2,0,P|309:115|294:151,1,80,0|0,1:0|0:0,0:0:0:0:
198,219,15142,2,0,L|154:213,2,40,2|0|0,3:0|0:0|0:0,0:0:0:0:
311,238,15588,2,0,L|324:320,1,80,2|2,3:0|3:0,0:0:0:0:
198,360,16034,6,0,B|339:327|296:388|440:357,1,240,2|0,1:0|0:0,0:0:0:0:
495,275,16926,2,2,P|503:235|499:197,1,80,2|2,1:0|1:0,1:0:0:0:
414,153,17372,1,0,1:0:0:0:
453,25,17595,5,4,0:0:0:0:
453,25,19603,6,0,L|361:30,1,80,4|2,0:0|0:0,0:0:0:0:
187,45,20049,1,8,0:0:0:0:
288,107,20272,1,0,0:0:0:0:
288,107,20383,1,0,0:0:0:0:
288,107,20495,2,0,P|297:148|293:185,1,80,0|0,3:0|0:0,0:0:0:0:
213,271,20941,1,8,0:0:0:0:
152,176,21164,6,0,P|111:169|116:265,1,160,2|2,0:0|0:0,0:0:0:0:
68,366,21833,2,0,L|147:359,1,80,8|0,0:0|0:0,0:0:0:0:
213,271,22279,2,0,L|337:282,1,120,0|0,1:0|0:0,0:0:0:0:
379,312,22725,2,0,L|371:187,1,120,8|0,0:0|0:0,0:0:0:0:
335,149,23171,6,0,L|428:157,1,80,4|0,0:0|0:0,0:0:0:0:
270,76,23617,1,8,0:0:0:0:
269,76,24064,2,0,P|233:144|264:215,1,160,0|8,3:0|0:0,0:0:0:0:
382,288,24733,2,0,P|340:223|264:215,1,160,2|2,0:0|0:0,0:0:0:0:
123,272,25402,2,0,P|162:275|204:266,1,80,8|0,0:0|0:0,0:0:0:0:
335,149,25848,5,2,3:0:0:0:
234,100,26071,1,2,0:0:0:0:
335,149,26294,1,2,0:0:0:0:
160,189,26517,1,2,0:0:0:0:
314,51,26740,5,4,0:0:0:0:
407,111,26963,2,0,P|416:154|404:191,1,80,2|8,0:0|0:0,0:0:0:0:
247,346,27632,1,0,1:0:0:0:
177,258,27855,2,0,P|221:234|275:238,1,80,2|8,0:0|0:0,0:0:0:0:
497,331,28301,6,0,P|421:346|362:292,1,160,2|2,0:0|0:0,0:0:0:0:
335,149,28971,1,8,0:0:0:0:
335,149,29417,2,0,L|202:135,1,120,0|0,1:0|0:0,0:0:0:0:
177,94,29863,2,0,L|162:235,1,120,8|0,0:0|0:0,0:0:0:0:
190,262,30309,6,0,L|95:253,1,80,4|0,0:0|0:0,0:0:0:0:
255,335,30755,1,8,0:0:0:0:
255,335,31201,2,0,P|286:294|255:191,1,160,0|8,3:0|0:0,3:0:0:0:
159,149,31870,1,0,0:0:0:0:
331,105,32093,5,4,0:0:0:0:
331,105,32539,1,0,1:0:0:0:
219,37,32762,5,6,0:0:0:0:
219,37,33209,1,0,3:0:0:0:
260,195,33432,2,0,L|357:193,1,80,8|2,0:0|0:0,0:0:0:0:
390,167,33766,1,2,0:0:0:0:
440,191,33878,6,0,P|446:231|439:271,1,80,4|0,0:0|0:0,0:0:0:0:
392,334,34324,1,0,3:0:0:0:
392,334,34547,1,0,0:0:0:0:
332,280,34770,1,0,3:0:0:0:
302,270,34881,1,0,0:0:0:0:
270,270,34993,1,0,0:0:0:0:
240,280,35104,1,0,0:0:0:0:
214,299,35216,1,0,3:0:0:0:
170,365,35439,1,0,0:0:0:0:
94,337,35662,6,0,P|87:300|93:251,1,80,0|0,3:0|0:0,0:0:0:0:
113,225,35997,1,0,0:0:0:0:
113,225,36108,2,0,L|105:175,3,40,0|0|0|0,3:0|0:0|0:0|0:0,0:0:0:0:
121,148,36554,6,0,L|41:142,1,80,0|0,3:0|0:0,0:0:0:0:
178,92,37000,2,0,L|257:97,1,80,0|0,3:0|0:0,0:0:0:0:
391,54,37446,5,0,3:0:0:0:
410,80,37558,1,0,0:0:0:0:
420,110,37670,1,0,0:0:0:0:
420,142,37781,1,0,0:0:0:0:
410,172,37893,1,0,3:0:0:0:
357,232,38116,1,0,0:0:0:0:
357,232,38227,1,0,0:0:0:0:
357,232,38339,2,0,L|304:226,3,40,0|0|0|0,3:0|0:0|0:0|0:0,0:0:0:0:
287,200,38785,2,0,P|243:182|204:186,1,80,0|0,3:0|0:0,0:0:0:0:
177,205,39119,1,0,0:0:0:0:
177,205,39231,6,0,P|162:246|165:291,1,80,0|0,3:0|0:0,0:0:0:0:
198,353,39677,1,0,3:0:0:0:
350,305,40123,2,0,L|244:315,1,80,0|0,3:0|0:0,0:0:0:0:
198,353,40569,2,0,L|92:343,1,80,0|0,3:0|0:0,0:0:0:0:
47,309,41015,5,0,3:0:0:0:
28,283,41127,1,0,0:0:0:0:
18,253,41238,1,0,0:0:0:0:
18,221,41350,1,0,0:0:0:0:
28,191,41461,1,0,3:0:0:0:
87,137,41684,1,0,0:0:0:0:
87,137,41796,1,0,0:0:0:0:
87,137,41907,2,0,L|82:95,3,40,0|0|0|0,3:0|0:0|0:0|0:0,0:0:0:0:
77,57,42354,2,0,P|116:56|166:51,1,80,0|0,3:0|1:0,0:0:0:0:
235,39,42800,6,0,L|225:0,2,40,0|0|0,3:0|0:0|0:0,0:0:0:0:
302,81,43246,2,0,P|341:82|391:87,1,80,0|0,3:0|0:0,0:0:0:0:
419,73,43580,1,0,0:0:0:0:
419,73,43692,2,0,L|428:158,1,80,0|0,3:0|0:0,0:0:0:0:
471,219,44138,2,0,L|462:298,1,80,0|0,3:0|0:0,0:0:0:0:
314,360,44584,6,0,B|173:327|216:388|72:357,1,240,2|0,1:0|0:0,0:0:0:0:
17,275,45476,2,2,P|9:235|13:197,1,80,2|2,1:0|1:0,1:0:0:0:
98,153,45922,1,0,1:0:0:0:
59,25,46145,5,4,0:0:0:0:
59,25,47707,6,0,L|151:30,1,80,0|0,3:0|0:0,0:0:0:0:
312,9,48153,6,0,P|314:69|320:129,1,120,4|0,0:0|0:0,0:0:0:0:
338,164,48599,2,0,L|427:173,1,80,12|2,0:0|0:0,0:0:0:0:
270,236,49045,1,0,1:0:0:0:
443,271,49268,1,0,0:0:0:0:
443,271,49380,1,2,0:0:0:0:
443,271,49491,1,8,0:0:0:0:
263,341,49714,6,0,P|337:322|397:372,1,160,4|2,0:0|0:0,0:0:0:0:
443,271,50383,2,0,P|438:229|436:191,1,80,8|2,0:0|0:0,0:0:0:0:
270,236,50829,1,0,1:0:0:0:
337,108,51052,1,2,0:0:0:0:
353,292,51275,1,0,3:0:0:0:
184,171,51499,6,0,P|102:176|23:183,1,160,4|2,0:0|0:0,0:0:0:0:
135,72,52168,1,4,0:0:0:0:
135,72,52614,2,0,L|145:197,1,120,0|0,3:0|0:0,0:0:0:0:
148,231,53060,1,8,0:0:0:0:
363,189,53283,6,0,P|334:152|225:157,1,160,4|0,0:0|3:0,0:0:0:0:
274,299,53952,2,0,P|277:258|283:215,1,80,8|0,0:0|0:0,0:0:0:0:
247,60,54398,1,0,3:0:0:0:
398,104,54621,1,0,0:0:0:0:
398,104,54733,1,2,0:0:0:0:
398,104,54844,1,8,0:0:0:0:
343,15,55067,1,2,0:0:0:0:
497,69,55290,6,0,P|500:113|496:193,1,120,4|0,0:0|0:0,0:0:0:0:
478,224,55736,2,0,L|397:227,1,80,12|0,0:0|0:0,0:0:0:0:
227,219,56183,1,0,3:0:0:0:
317,160,56406,1,0,0:0:0:0:
317,160,56517,1,2,0:0:0:0:
317,160,56629,1,8,0:0:0:0:
372,322,56852,1,4,0:0:0:0:
372,322,57298,6,0,P|305:313|283:316,1,80,2|0,0:0|3:0,0:0:0:0:
149,345,57744,2,0,L|105:333,2,40,2|0|0,0:0|0:0|1:0,0:0:0:0:
200,206,58190,1,2,0:0:0:0:
189,222,58636,6,0,P|228:222|267:214,1,80,4|0,0:0|0:0,0:0:0:0:
388,118,59082,1,2,0:0:0:0:
299,79,59305,1,8,0:0:0:0:
388,118,59528,1,2,0:0:0:0:
221,143,59751,2,0,P|202:97|222:17,1,120,4|0,0:0|0:0,0:0:0:0:
243,2,60197,1,8,0:0:0:0:
129,19,60420,6,0,L|116:106,1,80,4|0,0:0|0:0,0:0:0:0:
146,190,60867,1,0,0:0:0:0:
146,190,61090,2,0,P|104:195|68:183,1,80,8|0,0:0|0:0,0:0:0:0:
25,317,61536,5,2,0:0:0:0:
55,306,61647,1,8,0:0:0:0:
86,300,61759,1,0,0:0:0:0:
117,300,61870,1,8,0:0:0:0:
248,363,62093,1,8,0:0:0:0:
258,332,62205,1,2,0:0:0:0:
146,190,62428,6,0,P|175:224|245:223,1,120,4|0,0:0|0:0,0:0:0:0:
277,198,62874,2,0,L|282:112,1,80,12|0,0:0|0:0,0:0:0:0:
371,250,63320,1,0,1:0:0:0:
393,88,63543,1,0,0:0:0:0:
393,88,63655,1,2,0:0:0:0:
393,88,63766,1,8,0:0:0:0:
483,243,63989,6,0,B|479:200|451:174|451:174|481:154|494:105,1,160,4|2,0:0|0:0,0:0:0:0:
393,88,64658,2,0,P|351:82|290:79,1,80,8|2,0:0|0:0,0:0:0:0:
177,141,65104,1,0,1:0:0:0:
291,168,65328,1,2,0:0:0:0:
218,34,65551,1,0,3:0:0:0:
78,85,65774,6,0,P|82:139|76:244,1,160,4|2,0:0|0:0,0:0:0:0:
221,350,66443,1,4,0:0:0:0:
221,350,66889,2,0,P|170:319|101:331,1,120,0|0,3:0|0:0,0:0:0:0:
80,350,67335,1,8,0:0:0:0:
193,241,67558,6,0,P|192:180|187:93,1,120,4|2,0:0|0:0,0:0:0:0:
157,96,68004,2,0,L|78:85,1,80,4|0,0:0|3:0,0:0:0:0:
255,43,68450,2,0,P|309:17|399:67,1,160,4|2,0:0|0:0,0:0:0:0:
367,206,69119,1,8,0:0:0:0:
317,113,69342,1,2,0:0:0:0:
464,170,69565,6,0,P|467:213|460:248,1,80,4|2,0:0|0:0,0:0:0:0:
303,330,70012,2,0,L|256:335,2,40,4|0|2,0:0|0:0|0:0,0:0:0:0:
417,359,70458,1,0,1:0:0:0:
367,206,70681,1,2,0:0:0:0:
356,217,70792,2,0,L|276:219,1,80,2|0,0:0|0:0,0:0:0:0:
234,221,71127,1,6,0:0:0:0:
135,313,71350,6,0,P|137:261|133:187,1,120,0|0,3:0|0:0,0:0:0:0:
152,157,71796,2,0,L|66:153,1,80,8|2,0:0|0:0,0:0:0:0:
203,66,72242,1,0,1:0:0:0:
234,221,72465,1,2,0:0:0:0:
302,25,72688,2,0,P|308:67|299:103,1,80,8|2,0:0|0:0,0:0:0:0:
281,138,73023,1,0,0:0:0:0:
281,138,73134,5,4,0:0:0:0:
107,70,73357,1,2,0:0:0:0:
107,70,73803,1,2,0:0:0:0:
80,198,74026,2,0,P|122:201|172:182,1,80,2|0,0:0|0:0,0:0:0:0:
285,331,74472,1,0,1:0:0:0:
261,235,74696,1,4,0:0:0:0:
250,247,75365,6,0,B|362:265|339:185|463:208,1,220,6|0,0:0|0:0,0:0:0:0:
490,233,76703,6,0,P|487:164|489:148,1,80,4|2,0:0|0:0,0:0:0:0:
410,32,77149,1,0,1:0:0:0:
410,32,77261,2,0,L|402:78,1,40,2|0,0:0|0:0,0:0:0:0:
413,114,77484,2,0,P|350:107|285:106,1,120,2|0,0:0|0:0,0:0:0:0:
174,27,78041,1,0,1:0:0:0:
176,50,78153,1,2,0:0:0:0:
177,74,78264,1,2,0:0:0:0:
177,98,78376,1,2,0:0:0:0:
176,122,78487,6,0,P|174:164|170:206,1,80,0|2,1:0|0:0,0:0:0:0:
286,272,78933,1,0,1:0:0:0:
286,272,79045,2,0,P|283:248|282:227,1,40,2|0,0:0|0:0,0:0:0:0:
269,189,79268,2,0,P|327:184|392:183,1,120,2|0,0:0|0:0,0:0:0:0:
285,76,79826,1,0,1:0:0:0:
285,76,79937,1,2,0:0:0:0:
285,76,80049,1,2,0:0:0:0:
174,158,80272,6,0,P|177:200|178:240,1,80,0|2,1:0|0:0,0:0:0:0:
123,374,80718,1,0,1:0:0:0:
123,374,80829,2,0,L|166:371,1,40,2|0,0:0|0:0,0:0:0:0:
202,364,81052,2,0,P|260:360|326:364,1,120,2|0,0:0|0:0,0:0:0:0:
369,188,81610,2,0,P|327:188|278:195,1,80,0|2,1:0|0:0,0:0:0:0:
100,259,82056,5,0,1:0:0:0:
174,158,82279,1,2,0:0:0:0:
174,158,82391,1,2,0:0:0:0:
174,158,82502,2,0,L|178:118,2,40,0|2|0,1:0|0:0|3:0,0:0:0:0:
185,78,82837,2,0,P|247:196|170:304,1,280,4|2,1:0|0:0,0:0:0:0:
67,371,83841,5,4,0:0:0:0:
277,347,84064,1,2,0:0:0:0:
170,304,84287,1,0,1:0:0:0:
170,304,84398,2,0,P|166:265|168:223,1,80,2|2,0:0|0:0,0:0:0:0:
177,185,84733,1,0,1:0:0:0:
325,133,84956,1,2,0:0:0:0:
325,133,85067,1,2,0:0:0:0:
325,133,85179,1,0,1:0:0:0:
220,77,85402,1,2,0:0:0:0:
303,244,85625,6,0,P|353:239|406:238,1,80,4|2,0:0|0:0,0:0:0:0:
408,207,85959,2,0,L|451:212,1,40,2|0,0:0|1:0,0:0:0:0:
487,202,86183,2,0,P|491:245|475:313,1,80,2|2,0:0|0:0,0:0:0:0:
465,315,86517,1,0,1:0:0:0:
369,365,86740,1,0,3:0:0:0:
369,365,86852,1,0,3:0:0:0:
369,365,86963,2,0,L|317:358,1,40,2|2,0:0|0:0,0:0:0:0:
253,326,87186,2,0,L|201:333,1,40,2|2,0:0|0:0,0:0:0:0:
112,380,87409,6,0,P|114:332|112:298,1,80,4|2,0:0|0:0,0:0:0:0:
72,159,87855,1,0,1:0:0:0:
72,159,87967,2,0,L|83:106,1,40,2|0,0:0|0:0,0:0:0:0:
73,80,88190,2,0,P|132:73|194:71,1,120,0|2,1:0|0:0,0:0:0:0:
228,49,88636,2,0,L|232:138,2,80,4|2|2,0:0|0:0|0:0,0:0:0:0:
327,86,89194,5,6,1:2:0:0:
157,174,89422,1,6,1:2:0:0:
296,222,89650,1,2,0:0:0:0:
296,222,89764,1,6,1:2:0:0:
228,49,89992,1,6,1:2:0:0:
