osu file format v14

[General]
AudioFilename: Dance!.mp3
AudioLeadIn: 0
PreviewTime: 47592
Countdown: 0
SampleSet: Normal
StackLeniency: 0.7
Mode: 1
LetterboxInBreaks: 0
WidescreenStoryboard: 1

[Editor]
Bookmarks: 5325,19600,33875,55287,62425,76700
DistanceSpacing: 1
BeatDivisor: 4
GridSize: 32
TimelineZoom: 1.5

[Metadata]
Title:Dance!
TitleUnicode:Dance!
Artist:Lotus Juice & Shihoko Hirata
ArtistUnicode:Lotus Juice & 平田志穂子
Creator:tasuke912
Version:Oni
Source:Persona 4: Dancing All Night
Tags:ペルソナ4 Satellite Doyak
BeatmapID:1037717
BeatmapSetID:486684

[Difficulty]
HPDrainRate:6
CircleSize:2
OverallDifficulty:6
ApproachRate:5
SliderMultiplier:1.4
SliderTickRate:1

[Events]
//Background and Video events
0,0,"bg_taiko.jpg",0,-10
//Break Periods
//Storyboard Layer 0 (Background)
//Storyboard Layer 1 (Fail)
//Storyboard Layer 2 (Pass)
//Storyboard Layer 3 (Foreground)
//Storyboard Sound Samples

[TimingPoints]
578,500,4,2,0,70,1,0
5236,-100,4,1,0,70,0,0
5328,446.096654275093,4,1,0,70,1,0
17707,-100,4,1,0,45,0,0
19491,-100,4,1,0,70,0,0
44696,-100,4,1,0,45,0,0
46368,-100,4,1,0,70,0,0
48153,-100,4,1,0,75,0,1
76703,-100,4,1,0,75,0,0
89194,456.273764258555,4,1,0,75,1,0
89194,-98.134328358209,4,1,0,75,0,0

[HitObjects]
256,192,5328,5,0,0:0:0:0:
256,192,5551,1,0,0:0:0:0:
256,192,5774,1,2,0:0:0:0:
256,192,6108,1,2,0:0:0:0:
256,192,6220,1,0,0:0:0:0:
256,192,6443,1,2,0:0:0:0:
256,192,6666,1,0,0:0:0:0:
256,192,6777,1,0,0:0:0:0:
256,192,6889,1,2,0:0:0:0:
256,192,7112,1,0,0:0:0:0:
256,192,7335,1,2,0:0:0:0:
256,192,7558,1,2,0:0:0:0:
256,192,7781,1,0,0:0:0:0:
256,192,7893,1,2,0:0:0:0:
256,192,8004,1,0,0:0:0:0:
256,192,8227,1,0,0:0:0:0:
256,192,8450,1,2,0:0:0:0:
256,192,8673,1,2,0:0:0:0:
256,192,8785,1,2,0:0:0:0:
256,192,8896,1,0,0:0:0:0:
256,192,9119,1,0,0:0:0:0:
256,192,9342,1,2,0:0:0:0:
256,192,9677,1,2,0:0:0:0:
256,192,9788,1,0,0:0:0:0:
256,192,10012,1,2,0:0:0:0:
256,192,10235,1,0,0:0:0:0:
256,192,10346,1,0,0:0:0:0:
256,192,10458,1,2,0:0:0:0:
256,192,10569,1,2,0:0:0:0:
256,192,10681,1,0,0:0:0:0:
256,192,10904,1,2,0:0:0:0:
256,192,11015,1,0,0:0:0:0:
256,192,11127,1,2,0:0:0:0:
256,192,11350,1,0,0:0:0:0:
256,192,11461,1,0,0:0:0:0:
256,192,11573,1,2,0:0:0:0:
256,192,11796,1,0,0:0:0:0:
256,192,12019,1,2,0:0:0:0:
256,192,12130,1,2,0:0:0:0:
256,192,12354,1,2,0:0:0:0:
256,192,12465,1,0,0:0:0:0:
256,192,12688,1,2,0:0:0:0:
256,192,12911,1,0,0:0:0:0:
256,192,13023,1,2,0:0:0:0:
256,192,13246,1,2,0:0:0:0:
256,192,13357,1,0,0:0:0:0:
256,192,13469,1,0,0:0:0:0:
256,192,13580,1,2,0:0:0:0:
256,192,13803,1,0,0:0:0:0:
256,192,14026,1,2,0:0:0:0:
256,192,14138,1,2,0:0:0:0:
256,192,14249,1,0,0:0:0:0:
256,192,14472,1,2,0:0:0:0:
256,192,14696,1,0,0:0:0:0:
256,192,14807,1,0,0:0:0:0:
256,192,14919,1,2,0:0:0:0:
256,192,15030,1,2,0:0:0:0:
256,192,15142,1,0,0:0:0:0:
256,192,15253,1,2,0:0:0:0:
256,192,15365,1,0,0:0:0:0:
256,192,15588,1,2,0:0:0:0:
256,192,15811,1,0,0:0:0:0:
256,192,15922,1,0,0:0:0:0:
256,192,16034,1,2,0:0:0:0:
256,192,16257,1,0,0:0:0:0:
256,192,16480,1,2,0:0:0:0:
256,192,16591,1,2,0:0:0:0:
256,192,16814,1,2,0:0:0:0:
256,192,16926,1,0,0:0:0:0:
256,192,17038,1,2,0:0:0:0:
256,192,17149,1,2,0:0:0:0:
256,192,17261,1,2,0:0:0:0:
256,192,17372,1,0,0:0:0:0:
256,192,17595,1,6,0:0:0:0:
256,192,17818,12,0,19156,0:0:0:0:
256,192,19603,5,4,0:0:0:0:
256,192,19826,1,0,0:0:0:0:
256,192,20049,1,2,0:0:0:0:
256,192,20383,1,2,0:0:0:0:
256,192,20495,1,0,0:0:0:0:
256,192,20718,1,0,0:0:0:0:
256,192,20941,1,2,0:0:0:0:
256,192,21164,1,2,0:0:0:0:
256,192,21275,1,2,0:0:0:0:
256,192,21387,1,0,0:0:0:0:
256,192,21610,1,0,0:0:0:0:
256,192,21833,1,2,0:0:0:0:
256,192,22056,1,0,0:0:0:0:
256,192,22168,1,0,0:0:0:0:
256,192,22279,1,2,0:0:0:0:
256,192,22391,1,2,0:0:0:0:
256,192,22502,1,0,0:0:0:0:
256,192,22725,1,2,0:0:0:0:
256,192,22948,1,2,0:0:0:0:
256,192,23060,1,2,0:0:0:0:
256,192,23171,1,0,0:0:0:0:
256,192,23394,1,0,0:0:0:0:
256,192,23617,1,2,0:0:0:0:
256,192,23952,1,2,0:0:0:0:
256,192,24064,1,0,0:0:0:0:
256,192,24287,1,0,0:0:0:0:
256,192,24398,1,0,0:0:0:0:
256,192,24510,1,2,0:0:0:0:
256,192,24733,1,0,0:0:0:0:
256,192,25179,1,0,0:0:0:0:
256,192,25402,1,2,0:0:0:0:
256,192,25625,1,0,0:0:0:0:
256,192,25736,1,0,0:0:0:0:
256,192,25848,1,2,0:0:0:0:
256,192,26071,1,0,0:0:0:0:
256,192,26294,1,2,0:0:0:0:
256,192,26517,1,2,0:0:0:0:
256,192,26629,1,2,0:0:0:0:
256,192,26740,5,0,0:0:0:0:
256,192,26963,1,0,0:0:0:0:
256,192,27186,1,2,0:0:0:0:
256,192,27521,1,2,0:0:0:0:
256,192,27632,1,0,0:0:0:0:
256,192,27855,1,0,0:0:0:0:
256,192,28078,1,2,0:0:0:0:
256,192,28301,1,0,0:0:0:0:
256,192,28413,1,0,0:0:0:0:
256,192,28525,1,2,0:0:0:0:
256,192,28748,1,0,0:0:0:0:
256,192,28971,1,2,0:0:0:0:
256,192,29194,1,2,0:0:0:0:
256,192,29305,1,0,0:0:0:0:
256,192,29417,1,2,0:0:0:0:
256,192,29528,1,2,0:0:0:0:
256,192,29640,1,0,0:0:0:0:
256,192,29863,1,2,0:0:0:0:
256,192,30086,1,2,0:0:0:0:
256,192,30197,1,2,0:0:0:0:
256,192,30309,1,0,0:0:0:0:
256,192,30643,1,0,0:0:0:0:
256,192,30755,1,2,0:0:0:0:
256,192,30978,1,0,0:0:0:0:
256,192,31201,1,2,0:0:0:0:
256,192,31313,1,0,0:0:0:0:
256,192,31424,1,0,0:0:0:0:
256,192,31647,1,2,0:0:0:0:
256,192,31870,1,0,0:0:0:0:
256,192,31982,1,2,0:0:0:0:
256,192,32093,1,0,0:0:0:0:
256,192,32316,1,0,0:0:0:0:
256,192,32539,1,2,0:0:0:0:
256,192,32762,1,0,0:0:0:0:
256,192,32874,1,0,0:0:0:0:
256,192,32985,1,2,0:0:0:0:
256,192,33097,1,2,0:0:0:0:
256,192,33209,1,0,0:0:0:0:
256,192,33432,1,0,0:0:0:0:
256,192,33543,1,2,0:0:0:0:
256,192,33655,1,2,0:0:0:0:
256,192,33766,1,2,0:0:0:0:
256,192,33878,5,0,0:0:0:0:
256,192,34212,1,0,0:0:0:0:
256,192,34324,1,2,0:0:0:0:
256,192,34547,1,0,0:0:0:0:
256,192,34658,1,0,0:0:0:0:
256,192,34770,1,0,0:0:0:0:
256,192,34993,1,0,0:0:0:0:
256,192,35104,1,0,0:0:0:0:
256,192,35216,1,2,0:0:0:0:
256,192,35439,1,2,0:0:0:0:
256,192,35551,1,0,0:0:0:0:
256,192,35662,1,0,0:0:0:0:
256,192,35774,1,2,0:0:0:0:
256,192,35997,1,0,0:0:0:0:
256,192,36108,1,2,0:0:0:0:
256,192,36220,1,2,0:0:0:0:
256,192,36331,1,0,0:0:0:0:
256,192,36554,1,0,0:0:0:0:
256,192,36777,1,0,0:0:0:0:
256,192,36889,1,0,0:0:0:0:
256,192,37000,1,2,0:0:0:0:
256,192,37223,1,2,0:0:0:0:
256,192,37335,1,2,0:0:0:0:
256,192,37446,1,0,0:0:0:0:
256,192,37558,1,2,0:0:0:0:
256,192,37670,1,0,0:0:0:0:
256,192,37893,1,2,0:0:0:0:
256,192,38116,1,0,0:0:0:0:
256,192,38227,1,0,0:0:0:0:
256,192,38339,1,2,0:0:0:0:
256,192,38450,1,2,0:0:0:0:
256,192,38562,1,0,0:0:0:0:
256,192,38673,1,0,0:0:0:0:
256,192,38785,1,2,0:0:0:0:
256,192,39008,1,2,0:0:0:0:
256,192,39119,1,2,0:0:0:0:
256,192,39231,1,0,0:0:0:0:
256,192,39454,1,2,0:0:0:0:
256,192,39565,1,0,0:0:0:0:
256,192,39677,1,0,0:0:0:0:
256,192,39788,1,2,0:0:0:0:
256,192,40012,1,2,0:0:0:0:
256,192,40123,1,0,0:0:0:0:
256,192,40235,1,0,0:0:0:0:
256,192,40346,1,0,0:0:0:0:
256,192,40458,1,2,0:0:0:0:
256,192,40681,1,0,0:0:0:0:
256,192,40792,1,2,0:0:0:0:
256,192,40904,1,2,0:0:0:0:
256,192,41015,1,0,0:0:0:0:
256,192,41238,1,0,0:0:0:0:
256,192,41350,1,2,0:0:0:0:
256,192,41461,1,0,0:0:0:0:
256,192,41573,1,0,0:0:0:0:
256,192,41684,1,2,0:0:0:0:
256,192,41796,1,0,0:0:0:0:
256,192,41907,1,0,0:0:0:0:
256,192,42019,1,2,0:0:0:0:
256,192,42130,1,2,0:0:0:0:
256,192,42242,1,0,0:0:0:0:
256,192,42354,1,2,0:0:0:0:
256,192,42577,1,2,0:0:0:0:
256,192,42688,1,2,0:0:0:0:
256,192,42800,1,0,0:0:0:0:
256,192,43023,1,2,0:0:0:0:
256,192,43134,1,0,0:0:0:0:
256,192,43246,1,2,0:0:0:0:
256,192,43357,1,2,0:0:0:0:
256,192,43469,1,0,0:0:0:0:
256,192,43580,1,0,0:0:0:0:
256,192,43692,1,2,0:0:0:0:
256,192,43915,1,0,0:0:0:0:
256,192,44026,1,2,0:0:0:0:
256,192,44138,1,0,0:0:0:0:
256,192,44249,1,0,0:0:0:0:
256,192,44361,1,2,0:0:0:0:
256,192,44472,1,2,0:0:0:0:
256,192,44584,1,0,0:0:0:0:
256,192,44807,12,0,46145,0:0:0:0:
256,192,46591,5,0,0:0:0:0:
256,192,46926,1,0,0:0:0:0:
256,192,47261,1,2,0:0:0:0:
256,192,47484,1,2,0:0:0:0:
256,192,48153,1,4,0:0:0:0:
256,192,48599,1,0,0:0:0:0:
256,192,48822,1,2,0:0:0:0:
256,192,49045,1,0,0:0:0:0:
256,192,49268,1,0,0:0:0:0:
256,192,49380,1,2,0:0:0:0:
256,192,49603,1,0,0:0:0:0:
256,192,49714,1,2,0:0:0:0:
256,192,49937,1,2,0:0:0:0:
256,192,50049,1,2,0:0:0:0:
256,192,50160,1,0,0:0:0:0:
256,192,50383,1,2,0:0:0:0:
256,192,50606,1,0,0:0:0:0:
256,192,50718,1,2,0:0:0:0:
256,192,50829,1,0,0:0:0:0:
256,192,50941,1,0,0:0:0:0:
256,192,51052,1,2,0:0:0:0:
256,192,51275,1,0,0:0:0:0:
256,192,51499,1,2,0:0:0:0:
256,192,51610,1,2,0:0:0:0:
256,192,51722,1,0,0:0:0:0:
256,192,51945,1,2,0:0:0:0:
256,192,52168,1,0,0:0:0:0:
256,192,52279,1,2,0:0:0:0:
256,192,52502,1,2,0:0:0:0:
256,192,52614,1,0,0:0:0:0:
256,192,52725,1,2,0:0:0:0:
256,192,52837,1,2,0:0:0:0:
256,192,52948,1,0,0:0:0:0:
256,192,53171,1,0,0:0:0:0:
256,192,53283,1,2,0:0:0:0:
256,192,53506,1,0,0:0:0:0:
256,192,53729,1,0,0:0:0:0:
256,192,53841,1,0,0:0:0:0:
256,192,53952,1,2,0:0:0:0:
256,192,54064,1,2,0:0:0:0:
256,192,54175,1,0,0:0:0:0:
256,192,54398,1,2,0:0:0:0:
256,192,54621,1,0,0:0:0:0:
256,192,54733,1,2,0:0:0:0:
256,192,54956,1,2,0:0:0:0:
256,192,55067,1,2,0:0:0:0:
256,192,55179,1,2,0:0:0:0:
256,192,55290,5,0,0:0:0:0:
256,192,55513,1,2,0:0:0:0:
256,192,55736,1,0,0:0:0:0:
256,192,55848,1,2,0:0:0:0:
256,192,56071,1,2,0:0:0:0:
256,192,56183,1,0,0:0:0:0:
256,192,56294,1,2,0:0:0:0:
256,192,56517,1,0,0:0:0:0:
256,192,56740,1,2,0:0:0:0:
256,192,56852,1,0,0:0:0:0:
256,192,57075,1,2,0:0:0:0:
256,192,57186,1,2,0:0:0:0:
256,192,57298,1,0,0:0:0:0:
256,192,57521,1,2,0:0:0:0:
256,192,57744,1,0,0:0:0:0:
256,192,57855,1,2,0:0:0:0:
256,192,57967,1,0,0:0:0:0:
256,192,58078,1,0,0:0:0:0:
256,192,58190,1,2,0:0:0:0:
256,192,58413,1,0,0:0:0:0:
256,192,58636,1,2,0:0:0:0:
256,192,58748,1,2,0:0:0:0:
256,192,58859,1,0,0:0:0:0:
256,192,59082,1,2,0:0:0:0:
256,192,59305,1,0,0:0:0:0:
256,192,59417,1,2,0:0:0:0:
256,192,59640,1,2,0:0:0:0:
256,192,59751,1,0,0:0:0:0:
256,192,59863,1,2,0:0:0:0:
256,192,59974,1,2,0:0:0:0:
256,192,60086,1,0,0:0:0:0:
256,192,60309,1,0,0:0:0:0:
256,192,60420,1,2,0:0:0:0:
256,192,60643,1,0,0:0:0:0:
256,192,60755,1,0,0:0:0:0:
256,192,60867,1,2,0:0:0:0:
256,192,60978,1,2,0:0:0:0:
256,192,61090,1,0,0:0:0:0:
256,192,61313,1,2,0:0:0:0:
256,192,61536,1,0,0:0:0:0:
256,192,61647,1,2,0:0:0:0:
256,192,61870,1,2,0:0:0:0:
256,192,61982,1,0,0:0:0:0:
256,192,62093,1,2,0:0:0:0:
256,192,62205,1,0,0:0:0:0:
256,192,62428,5,4,0:0:0:0:
256,192,62762,1,0,0:0:0:0:
256,192,62874,1,2,0:0:0:0:
256,192,63097,1,0,0:0:0:0:
256,192,63209,1,0,0:0:0:0:
256,192,63320,1,0,0:0:0:0:
256,192,63543,1,0,0:0:0:0:
256,192,63655,1,2,0:0:0:0:
256,192,63878,1,0,0:0:0:0:
256,192,63989,1,2,0:0:0:0:
256,192,64212,1,2,0:0:0:0:
256,192,64324,1,2,0:0:0:0:
256,192,64435,1,0,0:0:0:0:
256,192,64658,1,2,0:0:0:0:
256,192,64881,1,0,0:0:0:0:
256,192,64993,1,2,0:0:0:0:
256,192,65104,1,0,0:0:0:0:
256,192,65216,1,0,0:0:0:0:
256,192,65328,1,2,0:0:0:0:
256,192,65551,1,0,0:0:0:0:
256,192,65774,1,2,0:0:0:0:
256,192,65885,1,2,0:0:0:0:
256,192,65997,1,0,0:0:0:0:
256,192,66220,1,2,0:0:0:0:
256,192,66443,1,0,0:0:0:0:
256,192,66554,1,2,0:0:0:0:
256,192,66777,1,2,0:0:0:0:
256,192,66889,1,0,0:0:0:0:
256,192,67000,1,2,0:0:0:0:
256,192,67112,1,2,0:0:0:0:
256,192,67223,1,0,0:0:0:0:
256,192,67446,1,0,0:0:0:0:
256,192,67558,1,2,0:0:0:0:
256,192,67781,1,0,0:0:0:0:
256,192,68004,1,0,0:0:0:0:
256,192,68116,1,0,0:0:0:0:
256,192,68227,1,2,0:0:0:0:
256,192,68339,1,2,0:0:0:0:
256,192,68450,1,0,0:0:0:0:
256,192,68673,1,2,0:0:0:0:
256,192,68785,1,0,0:0:0:0:
256,192,68896,1,2,0:0:0:0:
256,192,69008,1,2,0:0:0:0:
256,192,69119,1,0,0:0:0:0:
256,192,69231,1,2,0:0:0:0:
256,192,69454,1,2,0:0:0:0:
256,192,69565,5,0,0:0:0:0:
256,192,69788,1,0,0:0:0:0:
256,192,70012,1,2,0:0:0:0:
256,192,70235,1,0,0:0:0:0:
256,192,70346,1,0,0:0:0:0:
256,192,70458,1,2,0:0:0:0:
256,192,70681,1,0,0:0:0:0:
256,192,70904,1,0,0:0:0:0:
256,192,71015,1,2,0:0:0:0:
256,192,71238,1,2,0:0:0:0:
256,192,71350,1,0,0:0:0:0:
256,192,71461,1,2,0:0:0:0:
256,192,71684,1,0,0:0:0:0:
256,192,71796,1,2,0:0:0:0:
256,192,71907,1,2,0:0:0:0:
256,192,72019,1,0,0:0:0:0:
256,192,72242,1,2,0:0:0:0:
256,192,72465,1,2,0:0:0:0:
256,192,72577,1,0,0:0:0:0:
256,192,72688,1,2,0:0:0:0:
256,192,72800,1,2,0:0:0:0:
256,192,72911,1,0,0:0:0:0:
256,192,73023,1,0,0:0:0:0:
256,192,73134,1,0,0:0:0:0:
256,192,73357,1,0,0:0:0:0:
256,192,73580,1,2,0:0:0:0:
256,192,73915,1,0,0:0:0:0:
256,192,74026,1,2,0:0:0:0:
256,192,74249,1,0,0:0:0:0:
256,192,74472,1,0,0:0:0:0:
256,192,74696,1,2,0:0:0:0:
64,128,75365,2,4,P|179:48|126:172,1,350
256,192,76703,5,0,0:0:0:0:
256,192,76926,1,2,0:0:0:0:
256,192,77149,1,0,0:0:0:0:
256,192,77261,1,2,0:0:0:0:
256,192,77484,1,2,0:0:0:0:
256,192,77595,1,0,0:0:0:0:
256,192,77818,1,2,0:0:0:0:
256,192,78041,1,0,0:0:0:0:
256,192,78153,1,2,0:0:0:0:
256,192,78264,1,2,0:0:0:0:
256,192,78376,1,0,0:0:0:0:
256,192,78487,1,2,0:0:0:0:
256,192,78710,1,2,0:0:0:0:
256,192,78933,1,0,0:0:0:0:
256,192,79045,1,2,0:0:0:0:
256,192,79268,1,2,0:0:0:0:
256,192,79380,1,0,0:0:0:0:
256,192,79603,1,2,0:0:0:0:
256,192,79826,1,0,0:0:0:0:
256,192,79937,1,2,0:0:0:0:
256,192,80049,1,0,0:0:0:0:
256,192,80272,1,0,0:0:0:0:
256,192,80495,1,2,0:0:0:0:
256,192,80718,1,0,0:0:0:0:
256,192,80829,1,2,0:0:0:0:
256,192,81052,1,2,0:0:0:0:
256,192,81164,1,0,0:0:0:0:
256,192,81387,1,2,0:0:0:0:
256,192,81610,1,0,0:0:0:0:
256,192,81722,1,0,0:0:0:0:
256,192,81833,1,2,0:0:0:0:
256,192,82056,1,2,0:0:0:0:
256,192,82279,1,0,0:0:0:0:
256,192,82502,1,2,0:0:0:0:
256,192,82614,1,2,0:0:0:0:
256,192,82837,1,2,0:0:0:0:
256,192,82948,1,0,0:0:0:0:
256,192,83060,1,0,0:0:0:0:
256,192,83171,1,2,0:0:0:0:
256,192,83394,1,0,0:0:0:0:
256,192,83506,1,2,0:0:0:0:
256,192,83617,1,2,0:0:0:0:
256,192,83729,1,2,0:0:0:0:
256,192,83841,1,0,0:0:0:0:
256,192,84064,1,2,0:0:0:0:
256,192,84287,1,0,0:0:0:0:
256,192,84398,1,2,0:0:0:0:
256,192,84621,1,2,0:0:0:0:
256,192,84733,1,0,0:0:0:0:
256,192,84956,1,0,0:0:0:0:
256,192,85067,1,2,0:0:0:0:
256,192,85179,1,0,0:0:0:0:
256,192,85290,1,0,0:0:0:0:
256,192,85402,1,2,0:0:0:0:
256,192,85625,1,0,0:0:0:0:
256,192,85848,1,2,0:0:0:0:
256,192,86071,1,0,0:0:0:0:
256,192,86183,1,2,0:0:0:0:
256,192,86406,1,2,0:0:0:0:
256,192,86517,1,0,0:0:0:0:
256,192,86740,1,0,0:0:0:0:
256,192,86852,1,0,0:0:0:0:
256,192,86963,1,2,0:0:0:0:
256,192,87075,1,2,0:0:0:0:
256,192,87186,1,2,0:0:0:0:
256,192,87298,1,2,0:0:0:0:
256,192,87409,5,0,0:0:0:0:
256,192,87632,1,2,0:0:0:0:
256,192,87855,1,0,0:0:0:0:
256,192,87967,1,2,0:0:0:0:
256,192,88190,1,2,0:0:0:0:
256,192,88301,1,0,0:0:0:0:
256,192,88413,1,0,0:0:0:0:
256,192,88525,1,0,0:0:0:0:
256,192,88636,1,2,0:0:0:0:
256,192,88859,1,2,0:0:0:0:
256,192,89082,1,0,0:0:0:0:
256,192,89194,1,2,0:0:0:0:
256,192,89422,1,2,0:0:0:0:
256,192,89536,1,2,0:0:0:0:
256,192,89650,1,0,0:0:0:0:
256,192,89764,1,2,0:0:0:0:
256,192,89992,1,4,0:0:0:0:
