osu file format v14

[General]
AudioFilename: Dance!.mp3
AudioLeadIn: 0
PreviewTime: 47592
Countdown: 0
SampleSet: Soft
StackLeniency: 0.7
Mode: 0
LetterboxInBreaks: 0
WidescreenStoryboard: 1

[Editor]
Bookmarks: 5325,19600,33875,62425,76700
DistanceSpacing: 0.9
BeatDivisor: 4
GridSize: 4
TimelineZoom: 1.4

[Metadata]
Title:Dance!
TitleUnicode:Dance!
Artist:Lotus Juice & Shihoko Hirata
ArtistUnicode:Lotus Juice & 平田志穂子
Creator:tasuke912
Version:Easy
Source:Persona 4: Dancing All Night
Tags:ペルソナ4 Satellite Doyak
BeatmapID:1130929
BeatmapSetID:486684

[Difficulty]
HPDrainRate:2
CircleSize:3
OverallDifficulty:2
ApproachRate:3
SliderMultiplier:0.95
SliderTickRate:1

[Events]
//Background and Video events
0,0,"bg.jpg",0,0
//Break Periods
//Storyboard Layer 0 (Background)
//Storyboard Layer 1 (Fail)
//Storyboard Layer 2 (Pass)
//Storyboard Layer 3 (Foreground)
//Storyboard Sound Samples

[TimingPoints]
578,500,4,2,0,70,1,0
5328,446.096654275093,4,2,0,70,1,0
48153,-100,4,2,0,70,0,1
76703,-100,4,2,0,70,0,0
89194,456.273764258555,4,2,0,70,1,0

[Colours]
Combo1 : 255,129,2
Combo2 : 0,128,255
Combo3 : 255,66,255
Combo4 : 255,255,0

[HitObjects]
169,329,5328,6,0,P|185:278|172:235,1,95,4|8,1:0|0:0,0:0:0:0:
104,189,6220,2,0,P|87:138|100:95,1,95,0|8,0:0|0:0,0:0:0:0:
164,44,7112,2,0,L|56:31,2,95,2|8|0,1:2|0:0|3:0,0:0:0:0:
246,22,8450,1,8,0:0:0:0:
306,81,8896,6,0,P|315:127|293:189,1,95,0|8,1:0|0:0,0:0:0:0:
223,203,9788,2,0,P|214:249|236:311,1,95,0|8,0:0|0:0,0:0:0:0:
305,326,10681,2,0,B|351:315|351:315|409:326,2,95,2|8|0,1:2|0:0|3:0,0:0:0:0:
237,379,12019,1,8,0:0:0:0:
164,333,12465,6,0,L|150:225,1,95,0|8,1:0|0:0,0:0:0:0:
108,164,13357,2,0,P|151:151|207:171,1,95,0|8,0:0|0:0,0:0:0:0:
239,239,14249,2,0,P|283:251|328:239,2,95,0|8|0,1:0|0:0|3:0,0:0:0:0:
282,165,15588,1,8,0:0:0:0:
256,192,16034,12,4,17595,0:0:0:0:
282,166,19603,6,0,L|388:157,1,95,4|8,1:0|0:0,0:0:0:0:
450,201,20495,2,0,P|461:141|439:99,1,95,0|8,0:0|0:0,0:0:0:0:
371,74,21387,2,0,P|319:68|277:41,2,95,2|8|0,0:0|0:0|3:0,0:0:0:0:
441,26,22725,1,8,0:0:0:0:
448,111,23171,6,0,L|438:227,1,95,0|8,1:0|0:0,0:0:0:0:
387,273,24064,2,0,B|431:304|477:284|477:284|508:320,2,142.5,0|2|0,0:0|0:0|0:0,0:0:0:0:
318,221,25848,2,0,B|269:213|269:213|224:220,1,95,0|8,3:0|0:0,0:0:0:0:
163,281,26740,6,0,P|139:234|144:187,1,95,4|8,1:0|0:0,0:0:0:0:
208,138,27632,2,0,P|171:113|118:113,1,95,0|8,0:0|0:0,0:0:0:0:
38,128,28525,2,0,L|17:20,2,95,2|8|0,0:0|0:0|3:0,0:0:0:0:
58,211,29863,1,8,0:0:0:0:
141,193,30309,6,0,P|188:183|234:192,1,95,4|8,1:0|0:0,0:0:0:0:
308,232,31201,2,0,P|316:169|257:111,1,142.5,0|2,0:0|0:2,0:0:0:0:
180,118,32316,2,0,P|191:69|243:30,2,95,0|0|0,0:0|3:0|3:0,0:0:0:0:
272,208,33878,6,0,P|330:270|268:329,1,190,4|0,1:0|3:0,0:0:0:0:
190,292,35216,1,8,0:0:0:0:
115,248,35662,2,0,P|102:294|116:338,2,95,0|8|0,1:0|0:0|3:0,0:0:0:0:
192,212,37000,1,8,0:0:0:0:
268,174,37446,6,0,P|281:128|267:84,1,95,0|8,1:0|0:0,0:0:0:0:
193,128,38339,2,0,B|146:136|146:136|100:125,1,95,0|8,3:0|0:0,0:0:0:0:
15,111,39231,2,0,P|41:61|84:41,2,95,0|8|0,1:0|0:0|3:0,0:0:0:0:
49,190,40569,1,8,0:0:0:0:
125,225,41015,6,0,P|143:269|133:315,1,95,0|8,1:0|0:0,0:0:0:0:
64,366,41907,2,0,P|46:322|56:276,1,95,0|8,3:0|0:0,0:0:0:0:
125,225,42800,2,0,P|177:235|241:242,2,95,0|8|0,1:0|0:0|3:0,0:0:0:0:
45,192,44138,1,8,0:0:0:0:
256,192,44584,12,4,46145,0:0:0:0:
125,225,48153,6,0,L|135:103,1,95,4|12,1:0|0:0,0:0:0:0:
76,66,49045,2,0,P|116:43|162:47,1,95,0|8,0:0|0:0,0:0:0:0:
216,114,49937,2,0,B|262:98|262:98|294:57,2,95,2|8|0,1:2|0:0|3:0,0:0:0:0:
132,130,51275,1,8,0:0:0:0:
58,174,51722,6,0,P|42:218|53:263,1,95,0|8,1:0|0:0,0:0:0:0:
121,314,52614,2,0,L|8:331,2,95,0|8|2,0:0|0:0|1:2,0:0:0:0:
181,254,53952,1,8,0:0:0:0:
242,311,54398,2,0,P|289:320|335:309,1,95,2|8,0:0|0:0,0:0:0:0:
389,244,55290,6,0,L|408:369,2,95,4|12|0,1:0|0:0|0:0,0:0:0:0:
326,184,56629,1,8,0:0:0:0:
249,222,57075,2,0,P|240:180|259:130,1,95,2|8,1:2|0:0,0:0:0:0:
337,101,57967,2,0,P|309:64|263:48,1,95,0|8,0:0|0:0,0:0:0:0:
187,85,58859,6,0,B|141:74|141:74|88:83,2,95,0|8|0,1:0|0:0|3:0,0:0:0:0:
257,132,60197,1,8,0:0:0:0:
337,103,60643,6,0,B|356:164|323:188|317:188|311:200|301:247|326:305|394:298|430:268|435:243,1,285,6|0,1:2|3:0,0:0:0:0:
427,158,62428,6,0,P|474:163|510:199,2,95,4|12|0,1:0|0:0|0:0,0:0:0:0:
357,208,63766,1,8,0:0:0:0:
275,181,64212,2,0,L|263:76,1,95,2|8,1:2|0:0,0:0:0:0:
246,2,65104,6,0,B|195:17|181:66|181:66|128:89,2,142.5,0|4|8,0:0|1:0|0:0,0:0:0:0:
323,37,66889,2,0,P|381:69|451:30,1,142.5,0|2,0:0|0:0,0:0:0:0:
492,109,68004,2,0,L|484:220,1,95,2|2,0:0|0:0,0:0:0:0:
471,331,69119,1,2,3:0:0:0:
385,322,69565,6,0,P|340:339|289:353,2,95,4|12|0,1:0|0:0|0:0,0:0:0:0:
439,255,70904,1,8,0:0:0:0:
361,219,71350,2,0,P|344:175|353:129,1,95,2|8,1:2|0:0,0:0:0:0:
422,76,72242,2,0,P|438:119|429:165,1,95,0|8,0:0|0:0,0:0:0:0:
360,218,73134,6,0,L|241:213,1,95,4|0,1:0|3:0,0:0:0:0:
233,293,74026,2,0,L|380:299,1,142.5,2|4,0:0|3:2,0:0:0:0:
454,197,75365,6,0,P|504:140|417:93,1,190,4|0,1:0|0:0,0:0:0:0:
367,145,76703,6,0,P|317:152|270:143,1,95,4|8,1:0|0:0,0:0:0:0:
209,87,77595,2,0,P|186:131|191:178,1,95,0|8,0:0|0:0,0:0:0:0:
256,229,78487,2,0,B|237:340,2,95,2|8|0,1:2|0:0|3:0,0:0:0:0:
273,144,79826,1,10,2:2:0:0:
209,87,80272,6,0,P|162:77|117:90,1,95,0|8,1:0|0:0,0:0:0:0:
52,145,81164,2,0,P|35:106|40:55,2,95,0|8|0,0:0|0:0|1:2,0:0:0:0:
132,174,82502,6,0,P|195:187|248:297,1,190,4|0,1:2|3:0,0:0:0:0:
216,371,83841,6,0,P|265:377|306:356,1,95,4|8,1:0|0:0,0:0:0:0:
356,289,84733,2,0,L|366:182,1,95,0|10,0:0|0:0,0:0:0:0:
379,111,85625,2,0,B|392:65|392:65|439:24,2,95,0|8|0,1:2|0:0|0:0,0:0:0:0:
364,194,86963,1,10,0:2:0:0:
297,140,87409,6,0,B|250:130|250:130|202:142,1,95,0|8,1:0|0:0,0:0:0:0:
160,214,88301,2,0,B|207:224|207:224|255:212,1,95,0|8,0:0|0:0,0:0:0:0:
335,221,89194,6,0,B|340:167|298:140|298:140|338:125|349:74,1,166.25,4|4,1:0|1:0,0:0:0:0:
