osu file format v14

[General]
AudioFilename: Dance!.mp3
AudioLeadIn: 0
PreviewTime: 47592
Countdown: 0
SampleSet: Soft
StackLeniency: 0.6
Mode: 0
LetterboxInBreaks: 0
WidescreenStoryboard: 1

[Editor]
Bookmarks: 5325,19600,33875,62425,76700
DistanceSpacing: 1.4
BeatDivisor: 4
GridSize: 8
TimelineZoom: 1.4

[Metadata]
Title:Dance!
TitleUnicode:Dance!
Artist:Lotus Juice & Shihoko Hirata
ArtistUnicode:Lotus Juice & 平田志穂子
Creator:tasuke912
Version:Doyak's Hard
Source:Persona 4: Dancing All Night
Tags:ペルソナ4 Satellite Doyak
BeatmapID:1070024
BeatmapSetID:486684

[Difficulty]
HPDrainRate:5
CircleSize:3.7
OverallDifficulty:5
ApproachRate:7
SliderMultiplier:1.2
SliderTickRate:1

[Events]
//Background and Video events
0,0,"bg.jpg",0,0
//Break Periods
//Storyboard Layer 0 (Background)
//Storyboard Layer 1 (Fail)
//Storyboard Layer 2 (Pass)
//Storyboard Layer 3 (Foreground)
//Storyboard Sound Samples

[TimingPoints]
578,500,4,2,0,70,1,0
5328,446.096654275093,4,2,0,70,1,0
48153,-100,4,2,0,70,0,1
75393,-100,4,2,0,5,0,1
76703,-100,4,2,0,70,0,0
82865,-100,4,2,0,5,0,0
83841,-100,4,2,0,70,0,0
89194,456.273764258555,4,2,0,70,1,0

[Colours]
Combo1 : 255,129,2
Combo2 : 0,128,255
Combo3 : 255,66,255
Combo4 : 255,255,0

[HitObjects]
142,230,5328,6,0,L|149:156,1,60,4|0,0:0|0:0,0:0:0:0:
215,120,5774,1,2,3:0:0:0:
320,250,6220,2,0,L|379:244,2,60,0|0|2,1:0|0:0|3:0,0:0:0:0:
259,192,6889,6,0,P|240:273|272:317,1,120,2|2,0:0|0:0,0:0:0:0:
333,333,7558,2,0,L|392:327,1,60,0|0,1:0|0:0,0:0:0:0:
457,274,8004,1,2,3:0:0:0:
401,211,8227,1,0,0:0:0:0:
466,159,8450,1,2,3:0:0:0:
273,67,8896,6,0,L|214:73,1,60,4|0,1:0|0:0,0:0:0:0:
139,30,9342,1,2,3:0:0:0:
15,143,9788,2,0,L|21:202,2,60,0|0|2,1:0|0:0|3:0,0:0:0:0:
90,106,10458,6,0,L|102:245,1,120,2|2,0:0|0:0,0:0:0:0:
175,255,11127,2,0,L|171:321,1,60,0|2,1:0|0:0,0:0:0:0:
238,365,11573,1,2,3:0:0:0:
322,358,11796,1,0,0:0:0:0:
405,351,12019,1,2,3:0:0:0:
359,280,12242,1,0,3:0:0:0:
359,280,12354,1,0,3:0:0:0:
359,280,12465,6,0,L|355:220,1,60,4|0,1:0|0:0,0:0:0:0:
350,136,12911,1,2,3:0:0:0:
188,91,13357,2,0,L|192:31,2,60,0|0|2,1:0|0:0|3:0,0:0:0:0:
235,160,14026,6,0,P|184:176|115:131,1,120,2|2,0:0|0:0,0:0:0:0:
74,81,14696,1,0,1:0:0:0:
8,132,14919,1,0,0:0:0:0:
59,198,15142,2,0,L|55:258,1,60,2|0,3:0|0:0,0:0:0:0:
49,341,15588,1,2,3:0:0:0:
116,137,16034,6,0,P|63:112|7:131,2,120,2|0|2,1:0|3:0|1:0,0:0:0:0:
182,188,17149,2,0,L|242:184,1,60,2|0,1:0|1:0,0:0:0:0:
321,156,17595,1,4,0:0:0:0:
321,156,19603,6,0,L|325:216,2,60,4|2|8,0:0|0:0|0:0,0:0:0:0:
199,39,20495,2,0,L|139:43,1,60,0|0,3:0|0:0,0:0:0:0:
63,78,20941,1,8,0:0:0:0:
131,126,21164,6,0,L|120:245,1,120,2|2,0:0|0:0,0:0:0:0:
113,329,21833,1,8,0:0:0:0:
274,285,22279,2,0,P|304:281|333:289,1,60,0|0,1:0|0:0,0:0:0:0:
325,372,22725,2,0,P|295:375|266:367,1,60,8|0,0:0|0:0,0:0:0:0:
197,320,23171,5,4,0:0:0:0:
217,153,23617,1,8,0:0:0:0:
347,258,24064,2,0,L|466:269,1,120,0|8,3:0|0:0,0:0:0:0:
475,185,24733,6,0,L|356:174,1,120,2|2,0:0|0:0,0:0:0:0:
279,209,25402,1,8,0:0:0:0:
211,55,25848,1,2,3:0:0:0:
135,91,26071,2,0,L|75:95,2,60,2|2|2,0:0|0:0|0:0,0:0:0:0:
204,138,26740,5,4,0:0:0:0:
280,103,26963,2,0,P|288:132|284:161,1,60,2|8,0:0|0:0,0:0:0:0:
238,322,27632,2,0,L|298:326,2,60,0|2|8,1:0|0:0|0:0,0:0:0:0:
171,373,28301,6,0,P|152:317|177:264,1,120,2|2,0:0|0:0,0:0:0:0:
258,241,28971,1,8,0:0:0:0:
415,298,29417,2,0,P|443:305|473:301,1,60,0|0,1:0|0:0,0:0:0:0:
481,219,29863,2,0,P|452:211|422:214,1,60,8|0,0:0|0:0,0:0:0:0:
346,249,30309,5,4,0:0:0:0:
216,144,30755,1,8,0:0:0:0:
196,311,31201,1,0,3:0:0:0:
61,210,31647,2,0,L|57:150,1,60,8|0,0:0|0:0,0:0:0:0:
51,66,32093,5,4,0:0:0:0:
126,103,32316,2,0,L|186:99,1,60,0|0,0:0|1:0,0:0:0:0:
253,49,32762,2,0,L|372:38,1,120,6|0,0:0|3:0,0:0:0:0:
447,74,33432,1,8,0:0:0:0:
380,124,33655,1,2,0:0:0:0:
380,124,33766,1,2,0:0:0:0:
380,124,33878,6,0,L|384:184,1,60,4|0,0:0|0:0,0:0:0:0:
327,246,34324,2,0,L|267:250,1,60,0|0,3:0|0:0,0:0:0:0:
205,193,34770,1,0,3:0:0:0:
150,256,34993,2,0,L|116:258,2,30,0|0|0,0:0|0:0|3:0,0:0:0:0:
212,312,35439,1,0,0:0:0:0:
267,249,35662,6,0,L|384:257,1,90,0|0,3:0|0:0,0:0:0:0:
390,229,36108,2,0,P|397:200|394:170,1,60,0|0,3:0|0:0,0:0:0:0:
352,97,36554,1,0,3:0:0:0:
277,58,36777,1,0,0:0:0:0:
277,58,36889,1,0,0:0:0:0:
277,58,37000,2,0,L|217:62,1,60,0|0,3:0|0:0,0:0:0:0:
165,127,37446,5,0,3:0:0:0:
103,68,37670,1,0,0:0:0:0:
50,133,37893,2,0,L|54:193,1,60,0|0,3:0|0:0,0:0:0:0:
122,250,38339,1,0,3:0:0:0:
122,250,38450,1,0,0:0:0:0:
122,250,38562,2,0,L|182:246,2,60,0|0|0,0:0|3:0|0:0,0:0:0:0:
67,314,39231,5,0,3:0:0:0:
130,368,39454,1,0,0:0:0:0:
214,360,39677,2,0,P|249:345|306:347,1,90,0|0,3:0|0:0,0:0:0:0:
339,359,40123,1,0,3:0:0:0:
414,322,40346,2,0,L|448:324,2,30,0|0|0,0:0|0:0|3:0,0:0:0:0:
351,139,41015,6,0,L|355:79,1,60,0|0,3:0|0:0,0:0:0:0:
271,72,41461,2,0,L|267:132,1,60,0|0,3:0|0:0,0:0:0:0:
207,190,41907,1,0,3:0:0:0:
207,190,42019,1,0,0:0:0:0:
207,190,42130,2,0,L|147:186,1,60,0|0,0:0|3:0,0:0:0:0:
89,126,42577,1,0,3:0:0:0:
25,181,42800,6,0,L|21:241,1,60,0|0,3:0|0:0,0:0:0:0:
99,271,43246,2,0,L|103:331,1,60,0|0,3:0|0:0,0:0:0:0:
171,379,43692,1,0,3:0:0:0:
224,316,43915,1,0,0:0:0:0:
224,316,44026,1,0,0:0:0:0:
224,316,44138,2,0,L|284:320,1,60,0|0,3:0|0:0,0:0:0:0:
350,268,44584,6,0,P|440:305|340:344,1,240,2|2,1:0|1:0,0:0:0:0:
283,319,45699,1,2,1:0:0:0:
231,252,45922,1,0,1:0:0:0:
298,201,46145,1,4,0:0:0:0:
177,83,46591,6,0,L|60:91,1,90,2|2,0:0|0:0,0:0:0:0:
44,208,47261,2,0,L|104:212,1,60,2|2,0:0|0:0,0:0:0:0:
399,298,48153,6,0,L|410:179,1,120,4|12,0:0|0:0,0:0:0:0:
263,96,49045,2,0,L|271:186,1,90,0|2,1:0|0:0,0:0:0:0:
276,228,49491,1,8,0:0:0:0:
232,299,49714,6,0,P|177:321|122:302,1,120,4|2,0:0|0:0,0:0:0:0:
58,246,50383,1,8,0:0:0:0:
115,184,50606,1,2,0:0:0:0:
49,130,50829,2,0,L|45:70,1,60,0|2,1:0|0:0,0:0:0:0:
102,8,51275,1,8,0:0:0:0:
162,66,51499,6,0,L|281:55,1,120,4|2,0:0|0:0,0:0:0:0:
365,48,52168,1,12,0:0:0:0:
455,189,52614,2,0,P|410:214|368:217,1,90,0|0,3:0|0:0,0:0:0:0:
331,211,53060,1,8,0:0:0:0:
260,164,53283,6,0,L|249:283,1,120,0|0,3:0|3:0,0:0:0:0:
186,339,53952,2,0,L|126:335,1,60,8|0,0:0|0:0,0:0:0:0:
75,267,54398,2,0,L|79:207,1,60,0|0,3:0|0:0,0:0:0:0:
142,152,54844,1,8,0:0:0:0:
142,152,54956,1,2,0:0:0:0:
142,152,55067,1,2,0:0:0:0:
77,96,55290,6,0,P|57:152|78:207,1,120,4|12,0:0|0:0,0:0:0:0:
233,268,56183,2,0,L|241:151,1,90,0|2,3:0|0:0,0:0:0:0:
271,150,56629,1,8,0:0:0:0:
336,202,56852,6,0,L|458:209,1,120,2|0,0:0|0:0,0:0:0:0:
511,271,57521,2,0,L|507:331,1,60,8|2,3:2|0:0,0:0:0:0:
439,380,57967,2,0,L|379:376,1,60,0|2,1:0|0:0,0:0:0:0:
295,368,58413,1,8,0:0:0:0:
244,300,58636,6,0,P|259:242|308:209,1,120,4|0,0:0|0:0,0:0:0:0:
325,290,59305,1,8,0:0:0:0:
295,368,59528,1,0,0:0:0:0:
210,377,59751,2,0,L|120:370,1,90,4|0,0:0|0:0,0:0:0:0:
78,367,60197,1,8,0:0:0:0:
12,314,60420,6,0,P|62:284|120:295,1,120,4|0,0:0|0:0,0:0:0:0:
193,253,61090,2,0,L|197:193,1,60,8|0,0:0|0:0,0:0:0:0:
137,133,61536,1,2,0:0:0:0:
137,133,61647,2,0,L|133:73,1,60,8|8,0:0|0:0,0:0:0:0:
130,31,61982,2,0,L|96:33,2,30,0|8|2,0:0|0:0|0:0,0:0:0:0:
211,52,62428,6,0,L|218:174,1,120,4|12,0:0|0:0,0:0:0:0:
362,256,63320,2,0,L|370:166,1,90,0|2,1:0|0:0,0:0:0:0:
375,124,63766,1,8,0:0:0:0:
434,65,63989,6,0,P|382:39|325:55,1,120,4|2,0:0|0:0,0:0:0:0:
292,132,64658,2,0,L|232:136,1,60,8|0,0:0|0:0,0:0:0:0:
163,87,65104,2,0,L|103:83,1,60,0|2,1:0|0:0,0:0:0:0:
33,131,65551,1,8,0:0:0:0:
108,166,65774,6,0,L|114:285,1,120,4|2,0:0|0:0,0:0:0:0:
120,369,66443,1,12,0:0:0:0:
280,319,66889,2,0,L|370:327,1,90,0|0,3:0|0:0,0:0:0:0:
412,332,67335,1,8,0:0:0:0:
469,270,67558,6,0,P|476:241|473:211,1,60,4|0,0:0|0:0,0:0:0:0:
395,180,68004,2,0,P|392:150|399:121,1,60,4|0,0:0|0:0,0:0:0:0:
457,61,68450,1,4,0:0:0:0:
396,2,68673,2,0,L|336:6,1,60,0|2,0:0|0:0,0:0:0:0:
293,78,69119,1,8,0:0:0:0:
293,78,69231,1,2,0:0:0:0:
293,78,69342,1,2,0:0:0:0:
249,150,69565,6,0,L|189:146,1,60,4|2,0:0|0:0,0:0:0:0:
124,91,70012,1,12,0:0:0:0:
69,154,70235,2,0,L|75:273,1,120,2|2,0:0|0:0,0:0:0:0:
140,328,70904,1,8,0:0:0:0:
195,265,71127,1,6,0:0:0:0:
260,320,71350,6,0,P|302:332|347:326,1,90,2|0,0:0|0:0,0:0:0:0:
386,309,71796,1,8,0:0:0:0:
436,242,72019,2,0,L|440:182,1,60,2|0,0:0|0:0,0:0:0:0:
404,106,72465,1,2,0:0:0:0:
355,174,72688,1,8,0:0:0:0:
439,182,72911,1,2,0:0:0:0:
404,106,73134,6,0,L|400:46,2,60,4|2|0,0:0|0:0|1:0,0:0:0:0:
355,174,73803,1,2,0:0:0:0:
286,125,74026,2,0,L|226:129,1,60,2|0,0:0|0:0,0:0:0:0:
142,136,74472,1,0,1:0:0:0:
57,143,74696,1,0,3:0:0:0:
207,344,75365,6,0,P|255:225|302:345,1,330,6|0,0:0|0:0,0:0:0:0:
335,371,76703,6,0,L|395:367,1,60,4|2,0:0|0:0,0:0:0:0:
463,318,77149,1,0,1:0:0:0:
463,318,77261,1,2,0:0:0:0:
406,256,77484,2,0,L|414:166,1,90,2|0,0:0|0:0,0:0:0:0:
341,124,78041,2,0,L|337:64,1,60,0|2,1:0|0:0,0:0:0:0:
269,13,78487,6,0,L|209:17,1,60,0|2,1:0|0:0,0:0:0:0:
160,85,78933,1,0,1:0:0:0:
160,85,79045,1,2,0:0:0:0:
103,22,79268,1,2,0:0:0:0:
82,231,79826,2,0,L|116:233,2,30,0|2|2,1:0|0:0|0:0,0:0:0:0:
14,279,80272,6,0,L|18:339,1,60,0|2,1:0|0:0,0:0:0:0:
95,372,80718,1,0,1:0:0:0:
95,372,80829,1,2,0:0:0:0:
165,326,81052,2,0,L|255:334,1,90,2|0,0:0|0:0,0:0:0:0:
314,274,81610,2,0,L|374:270,1,60,0|2,1:0|0:0,0:0:0:0:
449,306,82056,6,0,L|453:246,1,60,0|2,1:0|0:0,0:0:0:0:
456,162,82502,1,0,1:0:0:0:
456,162,82614,1,2,0:0:0:0:
392,106,82837,2,0,B|276:61|276:150|159:106,1,240,0|0,1:0|0:0,0:0:0:0:
126,133,83841,6,0,L|130:193,1,60,4|2,0:0|0:0,0:0:0:0:
192,249,84287,1,0,1:0:0:0:
192,249,84398,1,2,0:0:0:0:
273,228,84621,2,0,L|265:318,1,90,2|2,0:0|0:0,0:0:0:0:
211,383,85179,2,0,L|151:379,1,60,0|2,1:0|0:0,0:0:0:0:
101,306,85625,6,0,L|105:246,1,60,0|2,1:0|0:0,0:0:0:0:
111,162,86071,1,0,1:0:0:0:
111,162,86183,1,2,0:0:0:0:
116,78,86406,1,2,0:0:0:0:
319,129,86963,2,0,L|379:133,1,60,2|2,0:0|0:0,0:0:0:0:
433,196,87409,6,0,L|429:256,1,60,4|2,0:0|0:0,0:0:0:0:
366,310,87855,1,0,1:0:0:0:
366,310,87967,1,2,0:0:0:0:
289,275,88190,2,0,L|170:281,1,120,0|2,1:0|0:0,0:0:0:0:
114,216,88859,2,0,L|54:212,1,60,2|2,0:0|0:0,0:0:0:0:
24,183,89194,6,0,L|28:123,1,60,6|6,0:0|0:0,0:0:0:0:
91,67,89650,1,2,0:0:0:0:
91,67,89764,2,0,P|120:73|149:70,1,60,6|6,0:0|0:0,0:0:0:0:
