osu file format v14

[General]
AudioFilename: Dance!.mp3
AudioLeadIn: 0
PreviewTime: 47592
Countdown: 0
SampleSet: Soft
StackLeniency: 0.7
Mode: 0
LetterboxInBreaks: 0
WidescreenStoryboard: 1

[Editor]
Bookmarks: 5325,19600,33875,62425,76700
DistanceSpacing: 1
BeatDivisor: 4
GridSize: 4
TimelineZoom: 1.4

[Metadata]
Title:Dance!
TitleUnicode:Dance!
Artist:Lotus Juice & Shihoko Hirata
ArtistUnicode:Lotus Juice & 平田志穂子
Creator:tasuke912
Version:Normal
Source:Persona 4: Dancing All Night
Tags:ペルソナ4 Satellite Doyak
BeatmapID:1130930
BeatmapSetID:486684

[Difficulty]
HPDrainRate:3
CircleSize:3.3
OverallDifficulty:4
ApproachRate:5
SliderMultiplier:1.2
SliderTickRate:1

[Events]
//Background and Video events
0,0,"bg.jpg",0,0
//Break Periods
//Storyboard Layer 0 (Background)
//Storyboard Layer 1 (Fail)
//Storyboard Layer 2 (Pass)
//Storyboard Layer 3 (Foreground)
//Storyboard Sound Samples

[TimingPoints]
578,500,4,2,0,70,1,0
5328,446.096654275093,4,2,0,70,1,0
48153,-100,4,2,0,70,0,1
76703,-100,4,2,0,70,0,0
89194,456.273764258555,4,2,0,70,1,0

[Colours]
Combo1 : 255,129,2
Combo2 : 0,128,255
Combo3 : 255,66,255
Combo4 : 255,255,0

[HitObjects]
89,207,5328,6,0,L|80:124,2,60,2|0|8,1:2|0:0|0:0,0:0:0:0:
193,265,6220,2,0,L|202:348,2,60,0|0|8,1:0|0:0|0:0,0:0:0:0:
212,208,6889,2,0,P|267:187|322:208,1,120,2|0,0:0|0:0,0:0:0:0:
353,259,7558,2,0,P|382:262|412:259,1,60,8|0,0:0|0:0,0:0:0:0:
455,216,8004,2,0,L|468:148,2,60,0|0|8,3:0|0:0|0:0,0:0:0:0:
418,330,8896,6,0,P|447:333|477:332,2,60,2|0|8,1:2|0:0|0:0,0:0:0:0:
301,306,9788,2,0,P|271:302|241:303,2,60,0|0|8,1:0|3:2|0:0,0:0:0:0:
354,278,10458,2,0,P|376:223|356:168,1,120,2|0,0:0|0:0,0:0:0:0:
300,145,11127,2,0,L|314:70,1,60,8|2,0:0|0:0,0:0:0:0:
255,62,11573,2,0,L|243:3,2,60,0|0|8,3:0|0:0|0:0,0:0:0:0:
164,140,12465,6,0,P|146:196|164:252,1,120,2|8,1:2|0:0,0:0:0:0:
266,315,13357,2,0,P|298:305|328:301,2,60,0|0|8,1:0|0:0|0:0,0:0:0:0:
222,356,14026,2,0,B|166:347|166:347|104:358,1,120,2|0,0:0|0:0,0:0:0:0:
47,379,14696,2,0,L|33:288,1,60,8|0,0:0|0:0,0:0:0:0:
78,275,15142,2,0,P|97:218|79:159,1,120,0|8,3:0|0:0,0:0:0:0:
256,192,16034,12,4,17595,0:0:0:0:
189,128,19603,6,0,L|265:112,2,60,2|0|8,1:2|0:0|0:0,0:0:0:0:
80,180,20495,2,0,L|4:164,2,60,0|0|8,1:0|0:0|0:0,0:0:0:0:
111,229,21164,2,0,B|172:218|172:218|232:231,1,120,2|2,0:0|0:0,0:0:0:0:
279,262,21833,1,8,0:0:0:0:
377,330,22279,2,0,P|397:274|387:215,1,120,0|8,3:0|0:0,0:0:0:0:
286,150,23171,6,0,P|328:108|387:96,1,120,2|8,1:2|0:0,0:0:0:0:
499,134,24064,2,0,L|508:67,2,60,0|0|8,1:0|0:0|0:0,0:0:0:0:
452,171,24733,2,0,B|432:187|426:222|426:222|430:256|451:277,1,120,2|2,0:0|0:0,0:0:0:0:
501,309,25402,1,8,0:0:0:0:
388,351,25848,2,0,L|310:361,1,60,0|0,3:0|0:0,0:0:0:0:
286,316,26294,2,0,L|208:306,1,60,8|0,0:0|0:0,0:0:0:0:
170,330,26740,6,0,P|141:334|110:330,2,60,2|0|8,1:2|0:0|0:0,0:0:0:0:
239,232,27632,2,0,P|268:228|298:231,2,60,0|0|8,1:2|0:0|0:0,0:0:0:0:
181,250,28301,2,0,L|174:119,1,120,2|2,0:0|0:0,0:0:0:0:
169,70,28971,1,8,0:0:0:0:
62,125,29417,2,0,P|48:68|63:10,1,120,0|8,3:0|0:0,0:0:0:0:
169,70,30309,6,0,P|228:83|298:66,1,120,2|8,1:2|0:0,0:0:0:0:
398,29,31201,2,0,L|462:20,2,60,0|0|8,1:0|0:0|0:0,0:0:0:0:
364,78,31870,1,2,0:0:0:0:
364,78,32093,6,0,P|346:136|366:190,1,120,0|2,1:2|3:3,0:2:0:0:
416,221,32762,2,0,B|280:234,1,120,0|2,1:0|3:0,0:0:0:0:
141,327,33878,6,0,P|163:271|137:201,1,120,4|8,1:2|0:0,0:0:0:0:
95,187,34547,1,0,0:0:0:0:
95,187,34770,2,0,L|119:107,2,60,0|0|8,3:0|0:0|0:0,0:0:0:0:
31,288,35662,2,0,L|114:298,1,60,0|0,3:0|0:0,0:0:0:0:
141,327,36108,2,0,L|224:317,1,60,8|0,0:0|0:0,0:0:0:0:
248,283,36554,2,0,B|270:262|300:257|300:257|334:259|360:274,1,120,0|8,3:0|0:0,0:0:0:0:
466,325,37446,6,0,L|474:384,2,60,0|0|8,1:0|0:0|0:0,0:0:0:0:
434,273,38116,1,0,0:0:0:0:
434,273,38339,2,0,P|418:216|433:159,1,120,0|8,3:0|0:0,0:0:0:0:
501,59,39231,2,0,L|512:125,2,60,0|0|8,3:0|0:0|0:0,0:0:0:0:
382,74,40123,2,0,L|371:8,2,60,0|0|8,3:0|0:0|0:0,0:0:0:0:
331,182,41015,6,0,P|275:201|218:178,1,120,2|8,1:2|0:0,0:0:0:0:
167,153,41684,1,0,0:0:0:0:
167,153,41907,2,0,L|82:161,2,60,0|0|8,3:0|0:0|0:0,0:0:0:0:
276,103,42800,2,0,P|272:73|274:43,2,60,0|0|8,1:0|0:0|0:0,0:0:0:0:
320,144,43469,1,0,0:0:0:0:
320,144,43692,2,0,L|327:203,1,60,0|0,3:0|0:0,0:0:0:0:
279,237,44138,2,0,L|271:296,1,60,8|0,0:0|0:0,0:0:0:0:
292,352,44584,6,0,B|233:319|178:352|178:352|218:260|118:173|-3:253|38:343|97:335|120:313,1,420,2|4,1:1|0:0,0:0:0:0:
166,145,48153,6,0,L|299:138,1,120,4|12,1:1|0:2,0:0:0:0:
399,178,49045,2,0,P|408:131|386:70,2,90,0|2|4,1:0|0:0|0:0,0:0:0:0:
346,207,49937,2,0,B|331:264|331:264|351:332,1,120,0|8,1:0|0:0,0:0:0:0:
399,353,50606,1,0,0:0:0:0:
399,353,50829,2,0,L|468:352,2,60,0|0|8,3:0|0:0|0:0,0:0:0:0:
348,322,51499,6,0,P|302:296|232:315,1,120,4|0,1:1|0:0,0:0:0:0:
199,354,52168,1,8,0:0:0:0:
165,238,52614,2,0,P|159:193|164:148,2,90,0|2|2,1:0|0:0|0:2,0:0:0:0:
145,295,53506,2,0,P|89:310|34:292,1,120,0|8,1:0|0:0,0:0:0:0:
7,237,54175,1,0,0:0:0:0:
7,237,54398,2,0,B|17:179|17:179|9:148,2,90,0|2|2,3:0|0:0|0:0,0:0:0:0:
33,291,55290,6,0,P|89:310|146:295,1,120,4|12,1:0|0:0,0:0:0:0:
226,205,56183,2,0,L|236:298,2,90,0|2|4,1:0|0:0|0:0,0:0:0:0:
173,175,57075,2,0,P|154:118|171:62,1,120,0|8,1:0|0:0,0:0:0:0:
226,40,57744,1,0,0:0:0:0:
226,40,57967,2,0,L|321:45,2,60,0|0|8,3:0|0:0|0:0,0:0:0:0:
170,62,58636,6,0,B|142:78|112:80|112:80|79:76|54:54,1,120,4|0,1:1|0:0,0:0:0:0:
11,21,59305,2,0,L|19:161,1,120,8|0,0:0|1:0,0:0:0:0:
31,259,60197,1,8,0:0:0:0:
31,259,60420,2,0,P|82:240|151:258,1,120,4|2,1:0|0:2,0:0:0:0:
183,299,61090,2,0,L|194:159,1,120,8|0,0:0|1:0,0:0:0:0:
164,126,61759,1,2,3:2:0:0:
164,126,61982,2,0,L|256:121,1,60,0|4,1:0|3:0,0:0:0:0:
276,93,62428,6,0,P|329:110|390:89,1,120,4|12,1:0|0:2,0:0:0:0:
489,25,63320,2,0,P|506:63|503:115,2,90,0|2|4,1:0|0:0|0:0,0:0:0:0:
432,6,64212,2,0,B|374:18|374:18|314:3,1,120,0|8,1:0|0:0,0:0:0:0:
263,34,64881,1,0,0:0:0:0:
263,34,65104,2,0,L|252:111,2,60,0|0|8,3:0|0:0|0:0,0:0:0:0:
315,3,65774,6,0,P|357:35|358:109,1,120,4|0,1:0|0:0,0:0:0:0:
322,143,66443,1,8,0:0:0:0:
420,210,66889,2,0,P|457:217|509:211,2,90,0|0|2,1:0|0:0|0:0,0:0:0:0:
361,195,67781,2,0,L|290:211,2,60,0|2|8,1:0|0:0|0:0,0:0:0:0:
420,210,68450,2,0,L|426:80,1,120,2|2,3:2|0:0,0:0:0:0:
427,30,69119,1,8,1:2:0:0:
312,65,69565,6,0,B|288:82|255:86|255:86|219:82|194:58,1,120,4|12,1:0|0:0,0:0:0:0:
158,21,70235,2,0,L|77:28,1,60,2|0,0:0|1:0,0:0:0:0:
50,62,70681,2,0,P|86:105|65:162,1,120,0|2,0:0|0:0,0:0:0:0:
17,194,71350,2,0,L|5:289,2,90,0|2|2,1:0|0:0|0:0,0:0:0:0:
66,160,72242,2,0,P|120:137|175:158,1,120,0|8,3:0|0:0,0:0:0:0:
225,191,72911,1,0,0:0:0:0:
225,191,73134,6,0,L|237:117,2,60,0|0|8,1:0|0:0|0:0,0:0:0:0:
119,247,74026,2,0,L|107:321,2,60,0|0|8,1:0|0:0|0:0,0:0:0:0:
129,187,74696,1,0,1:0:0:0:
242,47,75365,6,0,P|349:98|234:150,1,300,4|0,1:0|0:0,0:0:0:0:
194,114,76703,6,0,L|61:133,1,120,4|8,1:0|0:0,0:0:0:0:
20,157,77372,1,0,0:0:0:0:
20,157,77595,2,0,B|31:198|31:198|20:274,1,120,0|2,1:0|0:0,0:0:0:0:
57,321,78264,1,0,0:0:0:0:
57,321,78487,2,0,L|124:326,1,60,0|0,1:0|0:0,0:0:0:0:
165,360,78933,2,0,L|232:355,1,60,8|0,0:0|0:0,0:0:0:0:
282,366,79380,2,0,P|266:310|284:253,1,120,0|2,1:0|0:0,0:0:0:0:
380,181,80272,6,0,P|314:135|239:147,1,120,0|8,1:0|0:0,0:0:0:0:
221,159,80941,1,0,0:0:0:0:
221,159,81164,2,0,L|213:60,2,60,0|0|8,1:0|0:0|0:0,0:0:0:0:
209,217,81833,1,2,0:0:0:0:
209,215,82056,2,0,P|179:219|149:220,1,60,0|0,1:0|0:0,0:0:0:0:
94,194,82502,2,0,P|93:238|60:267,2,90,8|0|0,0:0|1:0|3:0,0:0:0:0:
47,155,83394,1,8,0:0:0:0:
24,42,83841,6,0,B|83:55|83:55|149:45,1,120,4|8,1:0|0:0,0:0:0:0:
198,24,84510,1,0,0:0:0:0:
198,24,84733,2,0,L|204:96,1,60,0|0,1:0|0:0,0:0:0:0:
257,108,85179,2,0,L|251:180,1,60,8|2,0:0|0:0,0:0:0:0:
211,211,85625,2,0,P|157:186|102:205,1,120,0|8,1:0|0:0,0:0:0:0:
61,249,86294,1,0,0:0:0:0:
61,249,86517,2,0,L|49:169,2,60,0|0|8,1:0|0:0|0:0,0:0:0:0:
159,317,87409,6,0,B|173:344|203:356|203:356|235:356|262:338,1,120,4|8,1:0|0:0,0:0:0:0:
306,302,88078,1,0,0:0:0:0:
306,302,88301,2,0,B|368:293|368:293|414:303,2,90,0|2|0,1:0|0:0|0:0,0:0:0:0:
252,277,89194,5,0,1:0:0:0:
252,277,89422,2,0,P|249:230|253:182,1,90,0|0,1:0|1:0,0:0:0:0:
279,134,89992,1,4,1:0:0:0:
