osu file format v14

[General]
AudioFilename: LOS YUMAS -DUELE(HARDLY REMIX)- OFFICIAL VIDEO SELFIE.mp3
AudioLeadIn: 0
PreviewTime: -1
Countdown: 1
SampleSet: None
StackLeniency: 0.7
Mode: 0
LetterboxInBreaks: 1
WidescreenStoryboard: 0

[Editor]
DistanceSpacing: 1.2
BeatDivisor: 2
GridSize: 4
TimelineZoom: 1.2

[Metadata]
Title:Duele
TitleUnicode:Duele
Artist:Los Yumas
ArtistUnicode:Los Yumas
Creator:iderekmc
Version:Insane
Source:
Tags:
BeatmapID:812374
BeatmapSetID:370726

[Difficulty]
HPDrainRate:5
CircleSize:5
OverallDifficulty:5
ApproachRate:9
SliderMultiplier:1.4
SliderTickRate:1

[Events]
//Background and Video events
//Break Periods
//Storyboard Layer 0 (Background)
//Storyboard Layer 1 (Fail)
//Storyboard Layer 2 (Pass)
//Storyboard Layer 3 (Foreground)
//Storyboard Sound Samples

[TimingPoints]
3901.00640488552,444.444444444444,4,1,0,100,1,0

[HitObjects]
212,72,12788,5,0,0:0:0:0:
296,72,13010,1,0,0:0:0:0:
248,140,13455,5,0,0:0:0:0:
332,140,13677,1,0,0:0:0:0:
284,208,14121,5,0,0:0:0:0:
368,208,14344,1,0,0:0:0:0:
316,276,14788,5,0,0:0:0:0:
400,276,15010,1,0,0:0:0:0:
88,136,15455,5,0,0:0:0:0:
92,236,15677,1,0,0:0:0:0:
176,104,16121,1,0,0:0:0:0:
180,256,16343,1,0,0:0:0:0:
204,184,16788,5,0,0:0:0:0:
304,184,17010,1,0,0:0:0:0:
452,244,17677,5,0,0:0:0:0:
452,144,17899,1,0,0:0:0:0:
356,144,18121,1,0,0:0:0:0:
360,244,18343,1,0,0:0:0:0:
140,104,19010,5,0,0:0:0:0:
240,100,19232,1,0,0:0:0:0:
348,100,19454,2,0,B|404:148|404:148|448:88,1,140
200,192,20123,5,0,0:0:0:0:
300,192,20345,1,0,0:0:0:0:
256,80,20789,1,0,0:0:0:0:
160,188,21456,5,0,0:0:0:0:
264,304,21678,1,0,0:0:0:0:
344,188,21901,1,0,0:0:0:0:
256,80,22123,1,0,0:0:0:0:
256,192,22567,5,0,0:0:0:0:
196,88,23456,1,0,0:0:0:0:
260,88,23678,1,0,0:0:0:0:
328,88,23901,1,0,0:0:0:0:
256,192,24345,1,0,0:0:0:0:
168,280,25012,1,0,0:0:0:0:
228,280,25234,1,0,0:0:0:0:
292,280,25456,1,0,0:0:0:0:
356,280,25678,1,0,0:0:0:0:
256,100,26123,1,0,0:0:0:0:
128,96,27009,5,0,0:0:0:0:
172,96,27123,1,0,0:0:0:0:
256,100,27345,1,0,0:0:0:0:
304,100,27456,1,0,0:0:0:0:
404,100,27678,1,0,0:0:0:0:
256,200,27901,1,0,0:0:0:0:
424,100,28789,5,0,0:0:0:0:
376,100,28903,1,0,0:0:0:0:
292,104,29125,1,0,0:0:0:0:
256,104,29236,1,0,0:0:0:0:
152,104,29458,1,0,0:0:0:0:
256,196,29681,1,0,0:0:0:0:
256,64,30567,5,0,0:0:0:0:
208,136,30789,1,0,0:0:0:0:
312,136,30901,1,0,0:0:0:0:
184,224,31123,1,0,0:0:0:0:
336,224,31234,1,0,0:0:0:0:
256,304,31456,1,0,0:0:0:0:
260,192,31901,5,0,0:0:0:0:
256,64,32123,5,0,0:0:0:0:
208,136,32345,1,0,0:0:0:0:
312,136,32567,1,0,0:0:0:0:
184,224,32679,1,0,0:0:0:0:
336,224,32901,1,0,0:0:0:0:
256,304,33012,1,0,0:0:0:0:
256,192,33234,2,0,B|256:112|256:112,1,70
88,240,33901,6,0,L|156:292,1,70
224,292,34345,2,0,L|296:292,1,70
380,280,34789,2,0,L|436:232,1,70
440,156,35234,2,0,B|344:-20|172:112|176:112,1,280
68,224,36345,1,0,0:0:0:0:
216,344,36567,1,0,0:0:0:0:
432,296,36789,1,0,0:0:0:0:
408,96,37012,1,0,0:0:0:0:
256,40,37456,5,0,0:0:0:0:
164,72,37678,1,0,0:0:0:0:
104,144,37901,1,0,0:0:0:0:
104,236,38123,1,0,0:0:0:0:
160,320,38345,1,0,0:0:0:0:
256,340,38567,1,0,0:0:0:0:
348,304,38789,1,0,0:0:0:0:
420,228,39012,1,0,0:0:0:0:
416,128,39234,1,0,0:0:0:0:
360,48,39456,1,0,0:0:0:0:
128,72,39678,1,0,0:0:0:0:
360,140,39901,1,0,0:0:0:0:
128,192,40123,1,0,0:0:0:0:
372,260,40345,1,0,0:0:0:0:
136,324,40789,1,0,0:0:0:0:
188,64,41235,5,0,0:0:0:0:
320,64,41457,1,0,0:0:0:0:
324,176,41679,1,0,0:0:0:0:
188,184,41901,1,0,0:0:0:0:
184,336,42124,1,0,0:0:0:0:
320,332,42346,1,0,0:0:0:0:
444,196,42567,6,0,B|236:0|64:200|64:200,1,420
136,320,44345,1,0,0:0:0:0:
376,324,44567,1,0,0:0:0:0:
376,80,44789,1,0,0:0:0:0:
112,76,45012,1,0,0:0:0:0:
236,316,45234,1,0,0:0:0:0:
368,184,45456,1,0,0:0:0:0:
244,64,45678,1,0,0:0:0:0:
116,192,45901,1,0,0:0:0:0:
256,336,46123,5,0,0:0:0:0:
116,192,46345,1,0,0:0:0:0:
256,72,46567,1,0,0:0:0:0:
384,196,46789,1,0,0:0:0:0:
256,328,47012,1,0,0:0:0:0:
384,196,47234,1,0,0:0:0:0:
256,72,47456,1,0,0:0:0:0:
132,192,47678,1,0,0:0:0:0:
168,72,48789,5,0,0:0:0:0:
444,76,49012,1,0,0:0:0:0:
96,176,49456,5,0,0:0:0:0:
368,180,49678,1,0,0:0:0:0:
460,280,50123,5,0,0:0:0:0:
72,288,50345,1,0,0:0:0:0:
48,56,50789,5,0,0:0:0:0:
96,140,51012,1,0,0:0:0:0:
144,60,51234,1,0,0:0:0:0:
200,140,51456,1,0,0:0:0:0:
256,60,51678,1,0,0:0:0:0:
304,144,51901,1,0,0:0:0:0:
360,60,52123,1,0,0:0:0:0:
408,148,52345,1,0,0:0:0:0:
456,60,52567,1,0,0:0:0:0:
456,60,52789,1,0,0:0:0:0:
460,64,53012,1,0,0:0:0:0:
256,192,53789,5,0,0:0:0:0:
256,220,54012,1,0,0:0:0:0:
144,92,54456,1,0,0:0:0:0:
372,88,54678,1,0,0:0:0:0:
256,288,54901,1,0,0:0:0:0:
248,88,55123,1,0,0:0:0:0:
144,280,55234,1,0,0:0:0:0:
376,280,55456,1,0,0:0:0:0:
248,88,55678,1,0,0:0:0:0:
168,44,56567,5,0,0:0:0:0:
336,68,56789,1,0,0:0:0:0:
172,136,57012,1,0,0:0:0:0:
340,168,57234,1,0,0:0:0:0:
172,232,57456,1,0,0:0:0:0:
344,256,57678,1,0,0:0:0:0:
176,320,57901,1,0,0:0:0:0:
348,344,58123,1,0,0:0:0:0:
348,344,58345,1,0,0:0:0:0:
352,348,58567,1,0,0:0:0:0:
72,52,60123,5,0,0:0:0:0:
436,80,60345,1,0,0:0:0:0:
72,136,60567,1,0,0:0:0:0:
436,168,60789,1,0,0:0:0:0:
76,228,61012,1,0,0:0:0:0:
436,256,61234,1,0,0:0:0:0:
80,316,61456,1,0,0:0:0:0:
436,332,61678,2,0,L|264:332,1,140
256,192,62567,5,0,0:0:0:0:
64,220,63901,1,0,0:0:0:0:
112,144,64123,1,0,0:0:0:0:
168,220,64345,1,0,0:0:0:0:
216,144,64567,1,0,0:0:0:0:
276,216,64789,1,0,0:0:0:0:
312,144,65012,1,0,0:0:0:0:
372,212,65234,1,0,0:0:0:0:
404,140,65456,1,0,0:0:0:0:
464,208,65678,1,0,0:0:0:0:
256,192,66123,5,0,0:0:0:0:
232,40,67678,1,0,0:0:0:0:
280,60,67901,1,0,0:0:0:0:
228,84,68123,1,0,0:0:0:0:
280,96,68345,1,0,0:0:0:0:
232,120,68567,1,0,0:0:0:0:
284,136,68789,1,0,0:0:0:0:
240,160,69012,1,0,0:0:0:0:
296,176,69234,1,0,0:0:0:0:
212,72,69678,5,0,0:0:0:0:
296,72,69900,1,0,0:0:0:0:
248,140,70345,5,0,0:0:0:0:
332,140,70567,1,0,0:0:0:0:
284,208,71011,5,0,0:0:0:0:
368,208,71234,1,0,0:0:0:0:
316,276,71678,5,0,0:0:0:0:
400,276,71900,1,0,0:0:0:0:
88,136,72345,5,0,0:0:0:0:
92,236,72567,1,0,0:0:0:0:
176,104,73011,1,0,0:0:0:0:
180,256,73233,1,0,0:0:0:0:
204,184,73678,5,0,0:0:0:0:
304,184,73900,1,0,0:0:0:0:
452,244,74567,5,0,0:0:0:0:
452,144,74789,1,0,0:0:0:0:
356,144,75011,1,0,0:0:0:0:
360,244,75233,1,0,0:0:0:0:
140,104,75900,5,0,0:0:0:0:
240,100,76122,1,0,0:0:0:0:
348,100,76344,2,0,B|404:148|404:148|448:88,1,140
200,192,77013,5,0,0:0:0:0:
300,192,77235,1,0,0:0:0:0:
256,80,77679,1,0,0:0:0:0:
160,188,78346,5,0,0:0:0:0:
264,304,78568,1,0,0:0:0:0:
344,188,78791,1,0,0:0:0:0:
256,80,79013,1,0,0:0:0:0:
256,192,79457,5,0,0:0:0:0:
196,88,80346,1,0,0:0:0:0:
260,88,80568,1,0,0:0:0:0:
328,88,80791,1,0,0:0:0:0:
256,192,81235,1,0,0:0:0:0:
168,280,81902,1,0,0:0:0:0:
228,280,82124,1,0,0:0:0:0:
292,280,82346,1,0,0:0:0:0:
356,280,82568,1,0,0:0:0:0:
256,100,83013,1,0,0:0:0:0:
256,192,84789,5,0,0:0:0:0:
256,72,85012,1,0,0:0:0:0:
352,140,85234,1,0,0:0:0:0:
360,248,85456,1,0,0:0:0:0:
264,312,85678,1,0,0:0:0:0:
160,240,85901,1,0,0:0:0:0:
160,144,86123,1,0,0:0:0:0:
216,68,87012,2,0,L|432:72,1,210
