osu file format v14

[General]
AudioFilename: audio.mp3
AudioLeadIn: 0
PreviewTime: 69319
Countdown: 0
SampleSet: Soft
StackLeniency: 0.7
Mode: 0
LetterboxInBreaks: 0
WidescreenStoryboard: 0

[Editor]
Bookmarks: 321293
DistanceSpacing: 1.1
BeatDivisor: 4
GridSize: 4
TimelineZoom: 1

[Metadata]
Title:Tren Al Sur
TitleUnicode:Tren Al Sur
Artist:Los Prisioneros
ArtistUnicode:Los Prisioneros
Creator:Zekeyache
Version:Al Sur!
Source:
Tags:spanish espaƱol rock 80s 80's 90s 90's latin latino chile corazones synthpop indie alternative ezek
BeatmapID:2412815
BeatmapSetID:1156161

[Difficulty]
HPDrainRate:6
CircleSize:4
OverallDifficulty:7.5
ApproachRate:8.2
SliderMultiplier:1.62
SliderTickRate:1

[Events]
//Background and Video events
0,0,"TrainToTheSouth.jpg",0,0
//Break Periods
2,259861,282887
//Storyboard Layer 0 (Background)
//Storyboard Layer 1 (Fail)
//Storyboard Layer 2 (Pass)
//Storyboard Layer 3 (Foreground)
//Storyboard Layer 4 (Overlay)
//Storyboard Sound Samples

[TimingPoints]
534,332.465229678063,4,2,69,60,1,0
5520,-100,4,2,1,60,0,0
53728,-166.666666666667,4,2,1,60,0,0
59047,-100,4,2,1,60,0,0
69686,-80,4,2,1,60,0,1
96283,-100,4,2,1,60,0,0
133520,-166.666666666667,4,2,1,60,0,0
149395,-166.666666666667,4,2,1,5,0,0
149478,-80,4,2,1,60,0,1
178735,-100,4,2,1,60,0,0
200005,332.042058660764,4,2,1,60,1,1
200005,-80,4,2,1,60,0,1
226568,336.134453781513,4,2,1,60,1,1
226568,-80,4,2,1,60,0,1
228584,326.086956521739,4,2,1,60,1,1
228910,340.909090909091,4,2,1,60,1,1
229241,331.491712707183,4,2,1,60,1,0
235879,333.333333333333,4,2,1,60,1,0
237212,331.491712707182,4,2,1,60,1,0
242529,338.028169014084,4,2,1,60,1,0
243885,359.820089955022,4,2,1,60,1,0
245312,375,4,2,1,60,1,0
246808,391.644908616188,4,2,1,60,1,0
248388,416.666666666667,4,2,1,60,1,0
249005,423.280423280423,4,2,1,60,1,0
249631,424.028268551237,4,2,1,60,1,0
250075,430.416068866571,4,2,1,60,1,0
250954,433.839479392625,4,2,1,60,1,0
251834,480,4,2,1,60,1,0
253274,560.747663551402,4,2,1,60,1,0
253834,663.716814159292,4,2,1,60,1,0
254509,789.473684210526,4,2,1,60,1,0
255298,954.653937947494,4,2,1,60,1,0
255775,975.609756097561,4,2,1,60,1,0
256260,983.606557377049,4,2,69,60,1,0
256260,-142.857142857143,4,2,69,60,0,0
257737,1064.77373558119,4,2,1,60,1,0
259861,613.81074168798,4,2,1,60,1,0
261088,645.161290322581,4,2,1,60,1,0
262855,332.042058660764,4,2,1,60,1,0
315981,-100,4,2,1,55,0,0
318638,-100,4,2,1,40,0,0
321626,-100,4,2,1,30,0,0
322954,-100,4,2,1,25,0,0
324282,-100,4,2,1,20,0,0
325610,-100,4,2,1,15,0,0
326607,-100,4,2,1,10,0,0

[Colours]
Combo1 : 204,115,85
Combo2 : 104,169,61
Combo3 : 139,163,149
Combo4 : 193,164,96

[HitObjects]
381,237,534,5,2,0:0:0:0:
381,237,1863,5,2,0:0:0:0:
328,175,2196,1,0,0:0:0:0:
368,105,2528,1,2,0:0:0:0:
316,42,2861,1,2,0:0:0:0:
316,42,3526,1,2,0:0:0:0:
171,308,4523,5,2,0:0:0:0:
256,352,4856,1,0,0:0:0:0:
305,267,5188,1,2,0:0:0:0:
256,352,5520,5,10,0:0:0:0:
77,345,5853,2,0,P|42:273|54:194,1,162,8|8,3:0|0:0,0:0:0:0:
99,117,6352,2,0,B|115:86|156:79|186:104|189:135|189:135|191:170|226:194|263:183|277:157,1,243,8|8,3:0|0:0,0:0:0:0:
434,241,7183,2,0,P|461:193|448:83,1,162,8|8,3:0|0:0,0:0:0:0:
370,127,7682,1,8,3:0:0:0:
294,174,7848,2,0,P|279:252|311:325,1,162,0|8,0:0|0:0,0:0:0:0:
135,351,8513,5,8,3:0:0:0:
19,215,8845,1,8,0:0:0:0:
18,215,9011,2,0,P|104:138|67:30,1,243,8|8,3:0|0:0,0:0:0:0:
229,105,9843,2,0,B|339:90|339:90|366:94|386:107,1,162,8|8,3:0|0:0,0:0:0:0:
330,177,10341,1,8,3:0:0:0:
277,249,10507,2,0,B|167:264|167:264|140:260|119:246,1,162,0|8,0:0|0:0,0:0:0:0:
431,354,11172,6,0,B|458:317|458:317|434:203,1,162,8|8,3:0|0:0,0:0:0:0:
347,181,11671,2,0,B|320:144|320:144|343:30,1,162,8|8,3:0|3:0,0:0:0:0:
429,6,12170,1,8,0:0:0:0:
257,54,12502,2,0,L|170:40,1,81,8|0,3:0|0:0,0:0:0:0:
201,127,12835,2,0,L|113:135,1,81,8|8,0:0|3:0,0:0:0:0:
162,213,13167,2,0,L|79:244,1,81,0|8,0:0|3:0,0:0:0:0:
144,309,13500,2,0,L|72:360,1,81,8|0,0:0|0:0,0:0:0:0:
211,368,13832,5,8,3:0:0:0:
390,341,14165,1,8,0:0:0:0:
390,341,14331,2,0,B|404:278|404:278|431:248|431:248|444:193,1,162,8|8,3:0|3:0,0:0:0:0:
464,105,14830,1,8,0:0:0:0:
273,37,15162,2,0,P|234:29|194:32,1,81,8|0,3:0|0:0,0:0:0:0:
123,87,15494,2,0,P|114:126|117:166,1,81,8|8,0:0|3:0,0:0:0:0:
191,216,15827,2,0,P|230:224|270:221,1,81,0|8,0:0|3:0,0:0:0:0:
344,171,16159,2,0,P|352:131|349:91,1,81,8|0,0:0|0:0,0:0:0:0:
117,166,16492,6,0,L|134:333,1,162,8|8,3:0|0:0,0:0:0:0:
216,361,16991,2,0,P|268:333|375:343,1,162,8|8,3:0|3:0,0:0:0:0:
451,371,17489,1,8,0:0:0:0:
464,194,17822,2,0,L|488:113,1,81,8|0,3:0|0:0,0:0:0:0:
398,123,18154,2,0,L|422:42,1,81,8|8,0:0|3:0,0:0:0:0:
308,105,18487,2,0,L|332:186,1,81,0|8,0:0|3:0,0:0:0:0:
242,176,18819,2,0,L|266:257,1,81,8|0,0:0|0:0,0:0:0:0:
152,236,19152,5,8,3:0:0:0:
237,79,19484,1,8,0:0:0:0:
237,79,19650,2,0,P|157:32|73:44,1,162,8|8,3:0|3:0,0:0:0:0:
10,76,20149,1,8,0:0:0:0:
88,235,20481,2,0,P|101:276|101:316,1,81,8|0,3:0|0:0,0:0:0:0:
185,343,20814,2,0,P|198:302|198:262,1,81,8|8,0:0|3:0,0:0:0:0:
280,231,21146,2,0,P|293:272|293:312,1,81,0|8,0:0|3:0,0:0:0:0:
375,343,21479,2,0,P|388:302|388:262,1,81,8|0,0:0|0:0,0:0:0:0:
379,133,21811,6,0,B|341:66|341:66|258:44,1,162,8|8,3:0|0:0,0:0:0:0:
169,47,22310,2,0,B|86:68|86:68|48:135,1,162,8|0,3:0|0:0,0:0:0:0:
11,216,22809,1,8,0:0:0:0:
128,349,23141,2,0,B|211:376|195:310|283:338,1,162,8|8,3:0|0:0,0:0:0:0:
370,357,23640,2,0,P|445:335|475:262,1,162,8|0,3:0|0:0,0:0:0:0:
400,223,24139,1,8,0:0:0:0:
400,223,24305,1,0,0:0:0:0:
464,161,24471,6,0,L|303:181,1,162,8|8,3:0|0:0,0:0:0:0:
336,98,24970,2,0,L|175:118,1,162,8|0,3:0|0:0,0:0:0:0:
87,132,25468,1,8,0:0:0:0:
199,269,25801,2,0,P|135:314|59:296,1,162,8|8,3:0|0:0,0:0:0:0:
118,229,26300,2,0,P|72:164|90:88,1,162,8|0,3:0|0:0,0:0:0:0:
155,28,26798,1,8,0:0:0:0:
155,28,26964,1,0,0:0:0:0:
224,84,27131,6,0,B|278:88|278:88|381:45,1,162,8|8,3:0|0:0,0:0:0:0:
461,16,27629,2,0,L|438:182,1,162,8|0,3:0|0:0,0:0:0:0:
424,264,28128,1,8,0:0:0:0:
268,350,28461,1,8,3:0:0:0:
206,286,28627,1,0,0:0:0:0:
131,334,28793,1,8,0:0:0:0:
59,281,28959,2,0,P|43:215|69:125,1,162,8|8,3:0|3:0,0:0:0:0:
127,59,29458,1,8,0:0:0:0:
202,124,29624,1,0,0:0:0:0:
202,124,29707,1,0,0:0:0:0:
202,124,29790,6,0,B|266:124|266:124|302:144|302:144|358:144,1,162,8|8,3:0|0:0,0:0:0:0:
364,233,30289,2,0,B|300:233|300:233|264:253|264:253|208:253,1,162,8|0,3:0|0:0,0:0:0:0:
117,250,30788,1,8,0:0:0:0:
117,250,30954,1,0,0:0:0:0:
39,293,31120,2,0,P|24:243|33:209,2,81,8|0|8,3:0|0:0|0:0,0:0:0:0:
109,348,31619,2,0,P|166:364|281:330,1,162,8|8,3:0|3:0,0:0:0:0:
344,301,32118,1,8,0:0:0:0:
344,301,32450,6,0,P|354:345|418:295,1,162,8|8,3:0|0:0,0:0:0:0:
376,218,32949,2,0,P|366:174|302:224,1,162,8|0,3:0|0:0,0:0:0:0:
251,296,33448,1,8,0:0:0:0:
74,315,33780,2,0,P|53:264|55:231,1,81,8|0,3:0|0:0,0:0:0:0:
141,254,34112,2,0,P|162:203|160:170,1,81,8|8,0:0|3:0,0:0:0:0:
79,142,34445,2,0,P|58:91|60:58,1,81
146,81,34777,1,8,0:0:0:0:
320,43,35110,6,0,P|401:61|442:128,1,162,8|8,3:0|0:0,0:0:0:0:
449,213,35609,2,0,P|405:278|327:294,1,162,8|0,3:0|0:0,0:0:0:0:
240,278,36107,1,8,0:0:0:0:
273,102,36440,2,0,L|304:17,1,81,8|0,3:0|0:0,0:0:0:0:
211,30,36772,2,0,L|180:115,1,81,8|8,0:0|3:0,0:0:0:0:
94,93,37105,2,0,L|125:8,1,81,0|8,0:0|3:0,0:0:0:0:
32,21,37437,2,0,L|1:106,1,81,8|0,0:0|0:0,0:0:0:0:
95,194,37770,6,0,B|122:277|56:261|84:349,1,162,8|8,3:0|0:0,0:0:0:0:
166,315,38268,2,0,P|221:298|325:314,1,162,8|0,3:0|0:0,0:0:0:0:
399,358,38767,1,8,0:0:0:0:
476,197,39099,2,0,L|493:107,1,81,8|0,3:0|0:0,0:0:0:0:
446,39,39432,2,0,L|356:22,1,81,8|8,0:0|3:0,0:0:0:0:
302,85,39764,2,0,L|285:175,1,81
207,205,40097,2,0,L|117:188,1,81,8|0,0:0|0:0,0:0:0:0:
51,286,40429,6,0,P|87:321|212:306,1,162,8|8,3:0|0:0,0:0:0:0:
263,265,40928,2,0,P|341:253|405:299,1,162,8|8,3:0|3:0,0:0:0:0:
465,364,41427,2,0,P|488:332|494:292,1,81,8|0,0:0|0:0,0:0:0:0:
458,211,41759,2,0,L|448:131,1,81,8|0,3:0|0:0,0:0:0:0:
360,149,42092,2,0,L|350:69,1,81,8|8,0:0|3:0,0:0:0:0:
260,68,42424,2,0,L|250:148,1,81
162,130,42757,2,0,L|152:210,1,81,8|0,0:0|0:0,0:0:0:0:
223,262,43089,6,0,P|154:297|82:266,1,162,8|8,3:0|0:0,0:0:0:0:
29,194,43588,2,0,L|50:20,1,162,8|0,3:0|0:0,0:0:0:0:
134,10,44086,1,8,0:0:0:0:
220,165,44419,1,8,3:0:0:0:
220,165,44585,2,0,L|309:170,1,81,0|8,0:0|0:0,0:0:0:0:
347,93,44918,2,0,B|394:136|384:190|384:190|439:204,1,162,8|0,3:0|0:0,0:0:0:0:
484,277,45416,1,8,0:0:0:0:
321,351,45749,6,0,P|233:366|159:333,1,162,8|8,3:0|0:0,0:0:0:0:
87,300,46247,2,0,P|102:212|69:138,1,162,8|0,3:0|0:0,0:0:0:0:
19,77,46746,1,8,0:0:0:0:
199,56,47079,1,8,3:0:0:0:
199,56,47245,2,0,L|284:51,1,81,0|8,0:0|0:0,0:0:0:0:
326,127,47577,2,0,L|161:139,1,162,8|8,3:0|3:0,0:0:0:0:
75,146,48076,1,8,0:0:0:0:
30,318,48408,6,0,L|194:350,1,162,8|8,3:0|0:0,0:0:0:0:
167,262,48907,2,0,L|331:294,1,162,8|0,3:0|0:0,0:0:0:0:
414,306,49406,1,8,0:0:0:0:
433,129,49738,1,8,3:0:0:0:
433,129,49905,2,0,L|439:32,1,81,0|8,0:0|0:0,0:0:0:0:
358,7,50237,2,0,B|349:164|349:164|318:127|262:131,1,243,8|8,3:0|0:0,0:0:0:0:
119,221,51068,6,0,P|153:291|121:363,1,162,8|8,3:0|0:0,0:0:0:0:
65,294,51567,2,0,P|30:223|62:151,1,162,8|0,3:0|0:0,0:0:0:0:
128,90,52066,1,8,0:0:0:0:
276,188,52398,1,8,3:0:0:0:
276,188,52564,2,0,L|358:177,1,81,0|8,0:0|0:0,0:0:0:0:
420,114,52897,2,0,B|468:176|423:237|423:237|480:355,1,243,8|8,3:0|0:0,0:0:0:0:
256,240,53728,6,0,L|256:344,1,97.1999970336915,8|8,3:0|0:0,0:0:0:0:
256,337,54227,1,8,3:0:0:0:
232,144,54725,2,0,P|192:120|168:72,2,97.1999970336915,8|8|8,0:0|3:0|0:0,0:0:0:0:
280,144,55556,2,0,P|320:120|344:72,1,97.1999970336915,8|0,3:0|0:0,0:0:0:0:
343,76,56055,1,8,0:0:0:0:
384,176,56388,6,0,L|400:272,1,97.1999970336915,8|8,3:0|0:0,0:0:0:0:
256,329,57053,2,0,L|256:232,1,97.1999970336915,0|8,0:0|0:0,0:0:0:0:
128,176,57718,2,0,L|112:272,1,97.1999970336915,8|8,3:0|0:0,0:0:0:0:
112,271,58216,1,8,3:0:0:0:
256,164,58549,5,8,3:0:0:0:
256,164,58715,1,8,0:0:0:0:
389,372,59047,6,0,L|458:221,1,162,8|8,3:0|0:0,0:0:0:0:
366,224,59546,2,0,L|435:73,1,162,8|8,3:0|3:0,0:0:0:0:
481,1,60045,1,8,0:0:0:0:
316,69,60377,2,0,L|229:44,1,81,8|0,3:0|0:0,0:0:0:0:
135,109,60710,2,0,L|213:132,1,81,8|8,0:0|3:0,0:0:0:0:
242,234,61042,2,0,L|164:211,1,81,0|8,0:0|3:0,0:0:0:0:
67,275,61375,2,0,L|144:297,1,81,8|0,0:0|0:0,0:0:0:0:
312,317,61707,6,0,B|359:274|349:220|349:220|404:206,1,162,8|8,3:0|0:0,0:0:0:0:
379,119,62206,2,0,B|327:132|327:132|310:80|248:65,1,162,8|8,3:0|3:0,0:0:0:0:
163,37,62704,1,8,0:0:0:0:
17,139,63037,6,0,L|-1:219,1,81,8|0,3:0|0:0,0:0:0:0:
88,212,63369,2,0,L|91:293,1,81,8|8,0:0|3:0,0:0:0:0:
174,261,63702,2,0,L|198:339,1,81,0|8,0:0|3:0,0:0:0:0:
281,307,64034,2,0,L|324:376,1,81,8|0,0:0|0:0,0:0:0:0:
476,356,64367,6,0,B|532:294|532:294|476:238,1,162,8|8,3:0|0:0,0:0:0:0:
408,180,64866,2,0,B|352:118|352:118|408:62,1,162,8|8,3:0|3:0,0:0:0:0:
476,8,65364,1,8,0:0:0:0:
300,48,65697,2,0,P|260:60|224:48,1,81,8|0,3:0|0:0,0:0:0:0:
160,112,66029,2,0,P|200:124|236:112,1,81,8|8,0:0|3:0,0:0:0:0:
300,172,66362,2,0,P|260:184|224:172,1,81,0|8,0:0|3:0,0:0:0:0:
160,236,66694,2,0,P|200:248|236:236,1,81,8|0,0:0|0:0,0:0:0:0:
75,162,67027,6,0,P|47:222|75:310,1,162,8|8,3:0|0:0,0:0:0:0:
153,350,67525,2,0,L|315:359,1,162,8|8,3:0|3:0,0:0:0:0:
404,363,68024,1,8,0:0:0:0:
404,363,68190,1,0,0:0:0:0:
356,288,68356,6,0,L|437:259,1,81,8|0,3:0|0:0,0:0:0:0:
292,211,68689,2,0,L|211:182,1,81,8|8,0:0|3:0,0:0:0:0:
354,136,69021,2,0,L|435:107,1,81,0|8,0:0|3:0,0:0:0:0:
292,61,69354,2,0,L|211:32,1,81,8|0,0:0|0:0,0:0:0:0:
53,144,69686,6,0,P|40:220|104:327,1,202.5,4|8,0:0|0:0,0:0:0:0:
290,213,70185,2,0,B|147:197|147:197|183:245,1,202.5,4|0,0:0|0:0,0:0:0:0:
370,295,70684,2,0,B|388:213|388:213|373:162|373:162|390:91,1,202.5,4|0,0:0|0:0,0:0:0:0:
481,40,71182,1,8,3:0:0:0:
481,40,71349,1,12,0:0:0:0:
276,122,71681,1,8,3:0:0:0:
166,100,71847,1,8,3:0:0:0:
241,17,72014,1,8,0:0:0:0:
497,273,72346,6,0,P|434:347|338:335,1,202.5,4|0,0:0|0:0,0:0:0:0:
192,212,72845,2,0,B|256:133|256:133|320:212,1,202.5,4|0,0:0|0:0,0:0:0:0:
173,335,73343,2,0,P|77:347|15:273,1,202.5,4|0,0:0|0:0,0:0:0:0:
256,268,73842,1,8,3:0:0:0:
256,268,74008,2,0,L|256:372,1,101.25,8|0,0:0|0:0,0:0:0:0:
364,144,74341,1,8,3:0:0:0:
424,248,74507,1,8,3:0:0:0:
364,144,74673,2,0,P|348:92|364:48,1,101.25,8|0,0:0|0:0,0:0:0:0:
216,244,75006,6,0,B|186:266|147:264|120:244|120:244|91:222|52:224|25:244,1,202.5,8|8,3:0|0:0,0:0:0:0:
292,324,75504,2,0,B|322:346|361:344|388:324|388:324|417:302|456:304|483:324,1,202.5,8|0,3:0|0:0,0:0:0:0:
432,132,76003,6,0,B|385:99|320:114|289:168|299:218|299:218|255:126|255:126|211:218|211:218|221:162|180:109|119:103|77:132,1,607.5,8|8,3:0|3:0,0:0:0:0:
24,228,77167,1,8,3:0:0:0:
80,324,77333,1,8,0:0:0:0:
360,300,77665,6,0,L|456:336,2,101.25,8|0|8,3:0|0:0|0:0,0:0:0:0:
256,256,78164,2,0,B|234:226|236:187|256:160|256:160|278:131|276:92|256:65,1,202.5,8|0,3:0|0:0,0:0:0:0:
160,12,78663,1,8,0:0:0:0:
160,12,78829,1,0,0:0:0:0:
60,64,78995,5,0,0:0:0:0:
160,136,79162,1,8,3:0:0:0:
160,136,79328,2,0,L|256:88,1,101.25,8|0,0:0|0:0,0:0:0:0:
460,136,79660,5,8,3:0:0:0:
360,84,79826,1,8,3:0:0:0:
364,276,79993,1,8,0:0:0:0:
464,224,80159,1,8,0:0:0:0:
216,288,80325,2,0,B|136:272|136:272|96:288|96:288|20:272,1,202.5,4|8,0:0|0:0,0:0:0:0:
168,180,80824,2,0,B|244:196|244:196|284:180|284:180|364:196,1,202.5,4|0,0:0|0:0,0:0:0:0:
236,40,81323,6,0,B|179:35|130:82|132:145|169:182|169:182|206:219|202:290|153:327|102:324,1,405,4|4,0:0|0:0,0:0:0:0:
320,356,82320,1,8,3:0:0:0:
400,280,82486,1,8,3:0:0:0:
500,332,82652,1,8,0:0:0:0:
432,80,82985,6,0,B|420:25|349:-2|286:49|302:103|302:103|332:208|178:310|42:140|154:18|248:48,1,607.5,4|4,0:0|0:0,0:0:0:0:
56,200,84315,5,0,0:0:0:0:
132,280,84481,1,8,3:0:0:0:
68,372,84647,1,8,0:0:0:0:
360,184,84980,1,8,3:0:0:0:
251,160,85146,1,8,3:0:0:0:
227,269,85312,1,8,0:0:0:0:
336,292,85478,1,8,0:0:0:0:
464,164,85645,6,0,P|424:80|320:76,1,202.5,8|8,3:0|0:0,0:0:0:0:
48,164,86143,2,0,P|88:80|192:76,1,202.5,8|0,3:0|0:0,0:0:0:0:
352,200,86642,2,0,B|322:222|283:220|256:200|256:200|227:178|188:180|161:200,1,202.5,8|0,3:0|0:0,0:0:0:0:
64,252,87141,5,8,3:0:0:0:
64,252,87307,1,8,0:0:0:0:
256,364,87639,1,8,3:0:0:0:
344,296,87806,1,8,3:0:0:0:
440,348,87972,1,8,0:0:0:0:
476,128,88304,6,0,L|280:180,1,202.5,8|8,3:0|0:0,0:0:0:0:
324,76,88803,2,0,L|128:128,1,202.5,8|0,3:0|0:0,0:0:0:0:
20,156,89302,1,8,0:0:0:0:
120,356,89634,5,0,0:0:0:0:
208,288,89800,1,8,3:0:0:0:
308,336,89967,1,8,0:0:0:0:
142,59,90299,1,8,3:0:0:0:
314,160,90465,1,8,3:0:0:0:
199,160,90632,1,8,0:0:0:0:
369,59,90798,1,8,0:0:0:0:
488,176,90964,6,0,P|472:280|404:352,1,202.5,8|8,3:0|0:0,0:0:0:0:
324,276,91463,2,0,L|120:316,1,202.5,8|8,3:0|3:0,0:0:0:0:
100,208,91961,2,0,L|304:168,1,202.5,8|0,0:0|0:0,0:0:0:0:
384,96,92460,5,8,3:0:0:0:
312,12,92626,1,8,0:0:0:0:
381,188,92793,1,8,0:0:0:0:
494,147,92959,1,8,3:0:0:0:
475,36,93125,1,8,3:0:0:0:
298,169,93291,1,8,0:0:0:0:
443,269,93458,1,8,0:0:0:0:
320,348,93624,6,0,B|290:370|251:368|224:348|224:348|195:326|156:328|129:348,1,202.5,8|8,3:0|0:0,0:0:0:0:
16,204,94122,2,0,B|46:182|85:184|112:204|112:204|141:226|180:224|207:204,1,202.5,8|8,3:0|3:0,0:0:0:0:
384,112,94621,2,0,P|320:64|308:156,1,202.5,8|0,0:0|0:0,0:0:0:0:
392,220,95120,1,8,3:0:0:0:
256,300,95286,1,8,0:0:0:0:
301,151,95452,1,8,0:0:0:0:
165,231,95619,5,8,3:0:0:0:
226,151,95785,1,8,3:0:0:0:
362,231,95951,1,8,0:0:0:0:
317,82,96117,1,8,0:0:0:0:
114,160,96283,6,0,P|78:229|110:301,1,162,8|8,3:0|0:0,0:0:0:0:
165,231,96782,2,0,P|200:160|169:88,1,162,8|8,3:0|3:0,0:0:0:0:
212,10,97281,1,8,0:0:0:0:
463,53,97613,2,0,L|504:132,1,81,8|0,3:0|0:0,0:0:0:0:
410,124,97946,2,0,L|369:203,1,81,8|8,0:0|3:0,0:0:0:0:
460,206,98278,2,0,L|501:285,1,81,0|8,0:0|3:0,0:0:0:0:
407,272,98611,2,0,L|366:351,1,81,8|0,0:0|0:0,0:0:0:0:
271,268,98943,6,0,B|247:250|216:252|195:268|195:268|172:285|141:283|120:268,1,162,8|8,3:0|0:0,0:0:0:0:
42,223,99442,2,0,L|67:59,1,162,8|8,3:0|3:0,0:0:0:0:
144,19,99941,1,8,0:0:0:0:
304,96,100273,2,0,P|322:47|320:14,1,81,8|0,3:0|0:0,0:0:0:0:
220,87,100606,2,0,P|202:136|204:169,1,81,8|8,0:0|3:0,0:0:0:0:
267,270,100938,2,0,P|285:221|283:188,1,81,0|8,0:0|3:0,0:0:0:0:
183,263,101270,2,0,P|165:312|167:345,1,81,8|0,0:0|0:0,0:0:0:0:
352,368,101603,6,0,B|363:309|363:309|351:266|351:266|362:207,1,162,8|8,3:0|0:0,0:0:0:0:
436,257,102102,2,0,B|447:198|447:198|435:155|435:155|446:96,1,162,8|8,3:0|3:0,0:0:0:0:
466,12,102600,1,8,0:0:0:0:
305,90,102933,2,0,L|228:119,1,81,8|0,3:0|0:0,0:0:0:0:
242,30,103265,2,0,L|165:59,1,81,8|8,0:0|3:0,0:0:0:0:
153,147,103598,2,0,L|230:118,1,81,0|8,0:0|3:0,0:0:0:0:
216,207,103930,2,0,L|293:178,1,81,8|0,0:0|0:0,0:0:0:0:
424,130,104263,6,0,P|477:193|476:274,1,162,8|8,3:0|0:0,0:0:0:0:
419,337,104761,2,0,B|395:354|364:352|343:337|343:337|320:319|289:321|268:337,1,162,8|8,3:0|3:0,0:0:0:0:
184,371,105260,1,8,0:0:0:0:
140,197,105593,2,0,L|57:215,1,81,8|0,3:0|0:0,0:0:0:0:
113,106,105925,2,0,L|95:23,1,81,8|8,0:0|3:0,0:0:0:0:
203,80,106257,2,0,L|286:62,1,81,0|8,0:0|3:0,0:0:0:0:
229,170,106590,2,0,L|247:253,1,81,8|0,0:0|0:0,0:0:0:0:
273,373,106922,5,8,3:0:0:0:
446,331,107255,1,10,0:0:0:0:
445,330,107421,2,0,P|394:231|484:163,1,243,8|8,3:0|0:0,0:0:0:0:
351,44,108252,2,0,L|175:61,1,162,8|8,3:0|0:0,0:0:0:0:
100,69,108751,2,0,P|127:119|105:221,1,162,8|0,3:0|0:0,0:0:0:0:
42,279,109250,1,8,0:0:0:0:
108,337,109416,1,0,0:0:0:0:
176,279,109582,6,0,B|222:263|222:263|336:286,1,162,8|8,3:0|0:0,0:0:0:0:
409,332,110081,2,0,B|429:292|419:246|391:218|391:218|359:188|354:142|373:106,1,243,8|8,3:0|0:0,0:0:0:0:
203,50,110912,1,8,3:0:0:0:
203,50,111078,2,0,L|101:42,1,81,0|8,0:0|0:0,0:0:0:0:
82,123,111411,2,0,P|152:157|228:133,1,162,8|0,3:0|0:0,0:0:0:0:
298,78,111909,1,8,0:0:0:0:
458,156,112242,6,0,B|447:215|447:215|459:258|459:258|448:317,1,162,8|8,3:0|0:0,0:0:0:0:
363,342,112741,2,0,P|302:292|226:311,1,162,8|0,3:0|0:0,0:0:0:0:
150,358,113239,1,8,0:0:0:0:
18,237,113572,1,8,3:0:0:0:
18,237,113738,2,0,L|9:155,1,81,0|8,0:0|0:0,0:0:0:0:
2,67,114070,2,0,P|62:116|138:97,1,162,8|8,3:0|3:0,0:0:0:0:
213,48,114569,1,8,0:0:0:0:
392,64,114902,6,0,P|408:132|360:208,1,162,8|8,3:0|0:0,0:0:0:0:
272,204,115400,2,0,P|256:272|304:348,1,162,8|0,3:0|0:0,0:0:0:0:
388,368,115899,1,8,0:0:0:0:
212,368,116231,2,0,B|153:357|153:357|110:369|110:369|51:358,1,162,8|8,3:0|0:0,0:0:0:0:
4,284,116730,1,8,3:0:0:0:
56,212,116896,1,0,0:0:0:0:
4,140,117063,1,8,3:0:0:0:
56,68,117229,1,8,0:0:0:0:
232,104,117561,6,0,B|312:116|312:116|382:76,1,162,8|8,3:0|0:0,0:0:0:0:
444,12,118060,2,0,B|432:92|432:92|471:162,1,162,8|0,3:0|0:0,0:0:0:0:
512,244,118559,1,8,0:0:0:0:
383,366,118891,2,0,P|341:374|302:361,1,81,8|0,3:0|0:0,0:0:0:0:
269,280,119224,2,0,P|308:272|347:284,1,81,8|8,0:0|3:0,0:0:0:0:
449,205,119556,2,0,P|407:213|368:200,1,81
335,120,119889,2,0,P|374:111|412:123,1,81,8|0,0:0|0:0,0:0:0:0:
238,61,120221,6,0,B|176:44|176:44|80:63,1,162,8|8,3:0|0:0,0:0:0:0:
17,127,120720,2,0,B|79:144|79:144|174:124,1,162,8|0,3:0|0:0,0:0:0:0:
253,165,121218,1,8,0:0:0:0:
89,237,121551,2,0,P|74:277|79:315,1,81,8|0,3:0|0:0,0:0:0:0:
162,285,121883,2,0,P|169:327|192:357,1,81,8|8,0:0|3:0,0:0:0:0:
251,290,122216,2,0,P|278:322|313:337,1,81,0|8,0:0|3:0,0:0:0:0:
329,250,122548,2,0,P|369:265|407:260,1,81,8|0,0:0|0:0,0:0:0:0:
262,38,122881,6,0,B|251:97|251:97|263:140|263:140|252:199,1,162,8|8,3:0|0:0,0:0:0:0:
214,276,123379,2,0,B|190:293|159:291|138:276|138:276|115:258|84:260|63:276,1,162,8|0,3:0|0:0,0:0:0:0:
0,340,123878,1,8,0:0:0:0:
97,190,124211,1,8,3:0:0:0:
97,190,124377,2,0,L|75:113,1,81,0|8,0:0|0:0,0:0:0:0:
124,36,124709,2,0,P|200:64|277:38,1,162,8|0,3:0|0:0,0:0:0:0:
357,6,125208,1,8,0:0:0:0:
510,95,125540,6,0,L|449:245,1,162,8|8,3:0|0:0,0:0:0:0:
390,177,126039,2,0,L|329:327,1,162,8|8,3:0|3:0,0:0:0:0:
247,364,126538,1,8,0:0:0:0:
78,306,126870,2,0,P|33:242|51:166,1,162,8|8,3:0|0:0,0:0:0:0:
118,225,127369,2,0,P|183:179|259:197,1,162,8|0,3:0|0:0,0:0:0:0:
328,252,127868,1,8,0:0:0:0:
459,75,128200,6,0,B|400:64|400:64|357:76|357:76|298:65,1,162,8|8,3:0|0:0,0:0:0:0:
211,65,128699,2,0,B|154:75|154:75|111:63|111:63|52:74,1,162,8|0,3:0|0:0,0:0:0:0:
6,151,129198,1,8,0:0:0:0:
78,313,129530,1,8,3:0:0:0:
78,313,129696,2,0,P|114:334|155:336,1,81,0|8,0:0|0:0,0:0:0:0:
220,277,130029,2,0,P|272:244|368:265,1,162,8|0,3:0|0:0,0:0:0:0:
426,328,130527,1,8,0:0:0:0:
338,172,130860,6,0,L|364:10,1,162,8|8,3:0|0:0,0:0:0:0:
274,0,131359,2,0,L|248:162,1,162,8|0,3:0|0:0,0:0:0:0:
228,246,131857,1,8,0:0:0:0:
137,92,132190,1,8,3:0:0:0:
137,92,132356,2,0,L|51:90,1,81,0|8,0:0|0:0,0:0:0:0:
7,164,132688,2,0,P|-6:235|40:317,1,162,8|8,3:0|3:0,0:0:0:0:
108,362,133187,1,8,0:0:0:0:
256,152,133520,6,0,L|256:54,1,97.1999970336915,8|8,3:0|0:0,0:0:0:0:
256,54,134018,1,8,3:0:0:0:
230,232,134517,2,0,B|182:232|182:232|147:197,2,97.1999970336915,8|8|8,0:0|3:0|0:0,0:0:0:0:
282,232,135348,2,0,B|330:232|330:232|364:197,1,97.1999970336915,8|8,3:0|3:0,0:0:0:0:
364,197,135847,1,8,0:0:0:0:
408,320,136179,6,0,L|312:356,1,97.1999970336915,8|8,3:0|0:0,0:0:0:0:
256,184,136844,2,0,L|256:288,1,97.1999970336915,0|8,0:0|0:0,0:0:0:0:
104,320,137509,2,0,L|200:356,1,97.1999970336915,8|8,3:0|0:0,0:0:0:0:
195,354,138008,1,8,3:0:0:0:
80,192,138340,1,8,3:0:0:0:
80,192,138507,1,8,0:0:0:0:
256,240,138839,6,0,L|256:344,1,97.1999970336915,8|8,3:0|0:0,0:0:0:0:
256,337,139338,1,8,3:0:0:0:
280,144,139836,2,0,P|320:120|344:72,2,97.1999970336915,8|8|8,0:0|3:0|0:0,0:0:0:0:
232,144,140668,2,0,P|192:120|168:72,1,97.1999970336915,8|8,3:0|3:0,0:0:0:0:
169,76,141166,1,8,0:0:0:0:
128,176,141499,6,0,L|112:272,1,97.1999970336915,8|8,3:0|0:0,0:0:0:0:
256,329,142164,2,0,L|256:232,1,97.1999970336915,0|8,0:0|0:0,0:0:0:0:
384,176,142829,2,0,L|400:272,1,97.1999970336915,8|8,3:0|0:0,0:0:0:0:
400,271,143327,1,8,3:0:0:0:
468,188,143660,1,8,3:0:0:0:
468,188,143826,1,8,0:0:0:0:
336,156,144158,6,0,P|320:112|336:64,2,97.1999970336915,8|8|0,3:0|0:0|0:0,0:0:0:0:
256,228,145156,1,8,0:0:0:0:
176,156,145488,2,0,P|192:112|176:64,2,97.1999970336915,8|8|0,3:0|0:0|0:0,0:0:0:0:
256,228,146486,1,8,0:0:0:0:
208,324,146818,6,0,B|256:328|256:328|304:324,1,97.1999970336915,8|8,3:0|0:0,0:0:0:0:
304,323,147317,1,8,3:0:0:0:
256,172,147816,1,8,0:0:0:0:
140,352,148148,6,0,L|92:360,1,48.5999985168458,8|0,3:0|0:0,0:0:0:0:
192,280,148481,2,0,L|240:288,1,48.5999985168458,8|8,0:0|3:0,0:0:0:0:
72,228,148813,2,0,L|24:236,1,48.5999985168458,0|8,0:0|3:0,0:0:0:0:
240,136,149145,2,0,P|280:136|312:152,1,72.8999977752686,8|0,0:0|0:0,0:0:0:0:
356,180,149478,6,0,P|416:144|400:232,1,202.5,4|8,0:0|0:0,0:0:0:0:
168,120,149977,2,0,B|8:136|8:136|52:164,1,202.5,4|0,0:0|0:0,0:0:0:0:
289,357,150475,2,0,B|320:336|332:299|323:267|323:267|313:232|329:196|357:178,1,202.5,4|0,0:0|0:0,0:0:0:0:
448,116,150974,1,8,3:0:0:0:
448,116,151140,1,12,0:0:0:0:
232,172,151473,1,8,3:0:0:0:
123,197,151639,1,8,3:0:0:0:
198,278,151805,1,8,0:0:0:0:
473,49,152138,6,0,B|365:42|365:42|307:116,1,202.5,4|0,0:0|0:0,0:0:0:0:
216,272,152636,2,0,B|212:328|256:360|256:360|300:328|296:272,1,202.5,4|0,0:0|0:0,0:0:0:0:
204,116,153135,2,0,B|147:42|147:42|39:49,1,202.5,4|0,0:0|0:0,0:0:0:0:
80,192,153634,1,8,3:0:0:0:
80,192,153800,2,0,L|184:192,1,101.25,8|0,0:0|0:0,0:0:0:0:
368,76,154132,2,0,P|320:60|272:76,1,101.25,8|8,3:0|3:0,0:0:0:0:
416,192,154465,2,0,P|464:208|512:192,1,101.25,8|0,0:0|0:0,0:0:0:0:
222,262,154797,6,0,P|123:269|48:334,1,202.5,8|8,3:0|0:0,0:0:0:0:
156,168,155296,2,0,P|255:174|330:239,1,202.5,8|8,3:0|3:0,0:0:0:0:
508,104,155795,2,0,B|534:32|460:-46|362:-9|343:69|368:121|368:121|448:307|448:307|480:208,1,607.5,8|8,3:0|3:0,0:0:0:0:
284,104,157125,1,8,0:0:0:0:
144,276,157457,6,0,L|40:276,2,101.25,8|0|8,3:0|0:0|0:0,0:0:0:0:
236,336,157956,2,0,B|312:336|312:336|360:364|360:364|430:364,1,202.5,8|8,3:0|3:0,0:0:0:0:
496,276,158454,1,8,0:0:0:0:
144,148,158787,1,0,0:0:0:0:
179,38,158953,1,8,3:0:0:0:
35,172,159119,1,8,0:0:0:0:
222,230,159286,1,8,0:0:0:0:
144,148,159452,1,8,3:0:0:0:
255,121,159618,1,8,3:0:0:0:
112,255,159784,1,8,0:0:0:0:
68,64,159951,1,8,0:0:0:0:
324,136,160117,6,0,P|404:163|342:221,1,202.5,4|8,0:0|0:0,0:0:0:0:
234,51,160616,2,0,P|154:78|216:136,1,202.5,4|8,0:0|3:0,0:0:0:0:
436,48,161114,2,0,P|497:225|336:321,1,405,4|4,0:0|0:0,0:0:0:0:
205,73,162112,1,8,3:0:0:0:
261,169,162278,1,8,3:0:0:0:
329,81,162444,1,8,0:0:0:0:
54,219,162777,6,0,B|8:264|39:351|130:352|168:294|159:248|159:248|122:5|122:5|174:34|208:76,1,607.5,4|4,0:0|0:0,0:0:0:0:
428,112,164106,1,0,0:0:0:0:
352,192,164273,1,8,3:0:0:0:
444,252,164439,1,8,0:0:0:0:
264,380,164771,1,8,3:0:0:0:
340,300,164938,1,8,3:0:0:0:
248,240,165104,1,8,0:0:0:0:
444,36,165436,6,0,L|467:237,1,202.5,8|8,3:0|0:0,0:0:0:0:
332,88,165935,2,0,L|355:289,1,202.5,8|0,3:0|0:0,0:0:0:0:
220,140,166434,2,0,L|243:341,1,202.5,8|0,3:0|0:0,0:0:0:0:
136,372,166932,1,8,3:0:0:0:
80,276,167099,1,8,0:0:0:0:
108,56,167431,1,8,3:0:0:0:
208,8,167597,1,8,3:0:0:0:
287,87,167764,2,0,P|337:97|384:81,1,101.25,8|0,0:0|0:0,0:0:0:0:
108,56,168096,6,0,B|92:136|92:136|108:176|108:176|92:252,1,202.5,8|8,3:0|0:0,0:0:0:0:
160,340,168595,1,8,3:0:0:0:
250,275,168761,2,0,P|320:272|410:361,1,202.5,0|8,0:0|0:0,0:0:0:0:
500,156,169426,1,0,0:0:0:0:
500,156,169592,2,0,L|512:49,2,101.25,8|8|0,3:0|0:0|0:0,0:0:0:0:
409,221,170091,1,8,3:0:0:0:
303,186,170257,1,8,3:0:0:0:
268,80,170423,1,8,0:0:0:0:
165,36,170589,1,8,0:0:0:0:
72,98,170756,6,0,P|37:143|59:284,1,202.5,8|8,3:0|0:0,0:0:0:0:
135,356,171254,1,8,3:0:0:0:
224,288,171421,2,0,L|429:284,1,202.5,0|8,0:0|0:0,0:0:0:0:
473,66,172086,1,0,0:0:0:0:
368,28,172252,1,8,3:0:0:0:
387,137,172418,1,8,0:0:0:0:
164,143,172750,1,8,3:0:0:0:
269,105,172917,1,8,3:0:0:0:
250,214,173083,2,0,L|238:332,1,101.25,8|0,0:0|0:0,0:0:0:0:
60,232,173415,6,0,P|34:170|83:46,1,202.5,8|8,3:0|0:0,0:0:0:0:
187,21,173914,1,8,3:0:0:0:
289,64,174080,2,0,P|315:126|266:250,1,202.5,0|8,0:0|0:0,0:0:0:0:
69,345,174745,1,0,0:0:0:0:
15,246,174912,1,8,3:0:0:0:
102,177,175078,1,8,0:0:0:0:
443,345,175410,1,8,3:0:0:0:
497,246,175576,1,8,3:0:0:0:
410,177,175743,2,0,L|440:69,1,101.25,8|0,0:0|0:0,0:0:0:0:
203,270,176075,6,0,B|120:325|120:325|18:312,1,202.5,8|8,3:0|0:0,0:0:0:0:
224,187,176574,2,0,B|217:88|217:88|279:5,1,202.5,8|8,3:0|3:0,0:0:0:0:
288,243,177073,2,0,B|376:286|376:286|417:381,1,202.5,8|0,0:0|0:0,0:0:0:0:
389,168,177571,5,8,3:0:0:0:
378,57,177737,1,8,0:0:0:0:
151,211,177904,1,8,0:0:0:0:
288,243,178070,1,8,3:0:0:0:
62,112,178236,1,8,3:0:0:0:
30,249,178402,1,8,0:0:0:0:
202,133,178569,1,8,0:0:0:0:
202,133,178652,1,0,0:0:0:0:
202,133,178735,6,0,L|194:37,1,81,8|0,3:0|0:0,0:0:0:0:
317,266,179067,1,8,0:0:0:0:
332,158,179234,1,8,3:0:0:0:
180,334,179400,1,0,0:0:0:0:
206,222,179566,1,8,3:0:0:0:
291,349,179732,1,8,0:0:0:0:
414,272,179898,1,0,0:0:0:0:
245,149,180065,6,0,P|205:140|166:150,2,81,8|0|8,3:0|0:0|0:0,0:0:0:0:
109,66,180563,2,0,L|117:227,1,162,8|8,3:0|3:0,0:0:0:0:
121,317,181062,1,8,0:0:0:0:
321,265,181228,1,0,0:0:0:0:
321,265,181311,1,0,0:0:0:0:
321,264,181395,6,0,P|361:265|399:278,1,81,8|0,3:0|0:0,0:0:0:0:
248,343,181727,1,8,0:0:0:0:
270,203,181893,1,8,3:0:0:0:
151,324,182060,1,0,0:0:0:0:
143,201,182226,1,8,3:0:0:0:
65,304,182392,1,8,0:0:0:0:
51,221,182558,1,0,0:0:0:0:
326,343,182724,6,0,P|286:352|247:342,2,81,8|0|8,3:0|0:0|0:0,0:0:0:0:
459,262,183223,2,0,B|486:179|420:195|448:107,1,162,8|8,3:0|3:0,0:0:0:0:
448,106,183722,1,8,0:0:0:0:
159,25,184054,5,8,3:0:0:0:
138,217,184221,1,0,0:0:0:0:
66,113,184387,1,8,0:0:0:0:
70,318,184553,2,0,P|146:338|219:306,1,162,8|8,3:0|3:0,0:0:0:0:
138,217,185052,1,8,0:0:0:0:
353,25,185384,5,8,3:0:0:0:
374,217,185550,1,0,0:0:0:0:
446,113,185717,1,8,0:0:0:0:
442,318,185883,2,0,P|365:338|292:306,1,162,8|8,3:0|3:0,0:0:0:0:
374,217,186382,1,8,0:0:0:0:
211,93,186548,1,0,0:0:0:0:
211,93,186631,1,0,0:0:0:0:
211,93,186714,5,8,3:0:0:0:
125,260,186880,1,0,0:0:0:0:
96,143,187046,1,8,0:0:0:0:
215,292,187213,2,0,P|160:348|81:345,1,162,8|8,3:0|3:0,0:0:0:0:
25,204,187711,1,8,0:0:0:0:
301,93,188044,5,8,3:0:0:0:
387,260,188210,1,0,0:0:0:0:
416,143,188376,1,8,0:0:0:0:
297,292,188543,2,0,P|351:348|430:345,1,162,8|8,3:0|3:0,0:0:0:0:
487,204,189041,1,8,0:0:0:0:
236,93,189374,6,0,B|110:106|110:106|143:137,1,162,4|8,0:0|0:0,0:0:0:0:
355,193,189872,2,0,P|394:153|365:45,1,162,4|8,0:0|3:0,0:0:0:0:
222,233,190371,2,0,L|204:332,1,81,4|0,0:0|0:0,0:0:0:0:
135,130,190704,6,0,P|57:107|10:171,1,162,4|8,0:0|0:0,0:0:0:0:
222,233,191202,2,0,P|300:256|347:192,1,162,4|8,0:0|3:0,0:0:0:0:
295,35,191701,2,0,L|267:121,1,81,4|0,0:0|0:0,0:0:0:0:
489,282,192033,6,0,P|457:209|443:129,1,162,4|8,0:0|0:0,0:0:0:0:
351,361,192532,2,0,P|338:281|345:200,1,162,4|8,0:0|3:0,0:0:0:0:
195,364,193031,2,0,P|197:317|208:280,1,81,4|0,0:0|0:0,0:0:0:0:
250,58,193363,5,4,0:0:0:0:
345,200,193530,1,0,0:0:0:0:
250,58,193696,1,8,0:0:0:0:
161,219,193862,2,0,B|78:246|94:180|6:208,1,162,4|8,0:0|3:0,0:0:0:0:
5,208,194361,1,4,0:0:0:0:
309,291,194693,6,0,B|469:347,1,162,8|8,3:0|0:0,0:0:0:0:
313,197,195192,2,0,B|473:253,1,162,8|8,3:0|3:0,0:0:0:0:
317,103,195691,1,8,0:0:0:0:
203,291,196023,6,0,B|43:347,1,162,8|8,3:0|0:0,0:0:0:0:
199,197,196522,2,0,B|39:253,1,162,8|8,3:0|3:0,0:0:0:0:
195,103,197020,1,8,0:0:0:0:
352,368,197353,6,0,B|363:309|363:309|351:266|351:266|362:207,1,162,8|8,3:0|0:0,0:0:0:0:
488,308,197852,2,0,B|499:249|499:249|487:206|487:206|498:147,1,162,8|8,3:0|3:0,0:0:0:0:
385,43,198350,1,8,0:0:0:0:
160,368,198683,6,0,B|149:309|149:309|161:266|161:266|150:207,1,162,8|8,3:0|0:0,0:0:0:0:
24,308,199181,2,0,B|13:249|13:249|25:206|25:206|14:147,1,162,8|8,3:0|3:0,0:0:0:0:
127,43,199680,1,8,0:0:0:0:
453,217,200005,6,0,B|477:146|477:64|477:64|446:99,1,202.5,4|8,0:0|0:0,0:0:0:0:
353,254,200503,2,0,P|425:320|520:300,1,202.5,4|0,0:0|0:0,0:0:0:0:
248,157,201001,2,0,B|175:163|175:163|127:191|127:191|54:196,1,202.5,4|0,0:0|0:0,0:0:0:0:
6,94,201499,1,8,3:0:0:0:
6,94,201665,1,12,0:0:0:0:
226,48,201997,1,8,3:0:0:0:
248,157,202163,1,8,3:0:0:0:
336,89,202329,1,8,0:0:0:0:
80,269,202661,6,0,P|94:355|171:315,1,202.5,4|0,0:0|0:0,0:0:0:0:
304,208,203159,2,0,B|272:168|256:120|256:120|240:168|208:208,1,202.5,4|0,0:0|0:0,0:0:0:0:
341,315,203657,2,0,P|418:355|432:269,1,202.5,4|0,0:0|0:0,0:0:0:0:
388,166,204155,1,8,3:0:0:0:
472,92,204321,1,8,0:0:0:0:
250,109,204653,2,0,P|262:158|256:214,1,101.25,8|8,3:0|3:0,0:0:0:0:
154,162,204985,2,0,P|142:110|148:57,1,101.25,8|0,0:0|0:0,0:0:0:0:
197,317,205317,6,0,L|-9:352,1,202.5,8|8,3:0|0:0,0:0:0:0:
257,208,205815,2,0,L|463:243,1,202.5,8|8,3:0|3:0,0:0:0:0:
181,65,206313,2,0,B|117:21|23:78|40:183|117:216|171:190|171:190|240:157|325:227|291:329|211:349|161:316,1,607.5,8|8,3:0|3:0,0:0:0:0:
378,361,207641,1,8,0:0:0:0:
444,148,207974,6,0,L|460:44,2,101.25,8|0|8,3:0|0:0|0:0,0:0:0:0:
401,251,208472,2,0,P|337:176|354:80,1,202.5,8|8,3:0|3:0,0:0:0:0:
459,47,208970,1,8,0:0:0:0:
251,128,209302,5,0,0:0:0:0:
200,28,209468,1,8,3:0:0:0:
141,197,209634,1,8,0:0:0:0:
34,32,209800,1,8,0:0:0:0:
5,260,209966,1,8,3:0:0:0:
82,137,210132,1,8,3:0:0:0:
146,281,210298,1,8,0:0:0:0:
237,126,210464,1,8,0:0:0:0:
415,331,210630,6,0,P|319:348|251:279,1,202.5,4|8,0:0|0:0,0:0:0:0:
467,167,211128,2,0,P|484:263|415:331,1,202.5,4|8,0:0|3:0,0:0:0:0:
303,114,211626,2,0,P|399:97|467:166,1,202.5,4|0,0:0|0:0,0:0:0:0:
372,223,212124,1,8,3:0:0:0:
372,223,212290,1,4,0:0:0:0:
255,33,212622,1,8,3:0:0:0:
148,68,212788,1,8,3:0:0:0:
230,142,212954,1,8,0:0:0:0:
50,353,213286,6,0,B|5:334|-7:273|30:230|77:225|109:245|109:245|195:304|195:304|203:248|225:211|225:211|320:286|410:214,1,607.5,4|4,0:0|0:0,0:0:0:0:
309,20,214614,1,0,0:0:0:0:
225,93,214780,1,8,3:0:0:0:
125,41,214946,1,8,0:0:0:0:
45,248,215278,1,8,3:0:0:0:
129,175,215444,1,8,3:0:0:0:
229,227,215610,1,8,0:0:0:0:
491,78,215943,6,0,P|393:58|302:99,1,202.5,8|8,3:0|0:0,0:0:0:0:
324,256,216441,2,0,P|421:275|512:234,1,202.5,8|0,3:0|0:0,0:0:0:0:
486,33,216939,2,0,P|388:13|297:54,1,202.5,8|0,3:0|0:0,0:0:0:0:
212,126,217437,1,8,3:0:0:0:
108,86,217603,1,8,0:0:0:0:
38,298,217935,1,8,3:0:0:0:
146,322,218101,1,8,3:0:0:0:
254,347,218267,1,8,0:0:0:0:
452,245,218599,6,0,L|241:263,1,202.5,8|8,3:0|0:0,0:0:0:0:
312,170,219097,2,0,L|101:188,1,202.5,8|0,3:0|0:0,0:0:0:0:
179,99,219595,1,8,0:0:0:0:
395,46,219927,5,0,0:0:0:0:
437,148,220093,1,8,3:0:0:0:
479,250,220259,1,8,0:0:0:0:
300,117,220591,1,8,3:0:0:0:
342,219,220757,1,8,3:0:0:0:
384,321,220923,1,8,0:0:0:0:
273,335,221089,1,8,0:0:0:0:
161,346,221255,6,0,P|168:295|199:251,2,101.25,8|0|8,3:0|0:0|0:0,0:0:0:0:
51,363,221753,1,8,3:0:0:0:
51,363,221919,2,0,P|57:263|113:179,1,202.5,0|8,0:0|0:0,0:0:0:0:
317,89,222583,5,0,0:0:0:0:
426,65,222749,1,8,3:0:0:0:
393,171,222915,1,8,0:0:0:0:
195,89,223247,1,8,3:0:0:0:
86,65,223413,1,8,3:0:0:0:
119,171,223579,1,8,0:0:0:0:
304,331,223912,6,0,P|380:268|392:170,1,202.5,8|8,3:0|0:0,0:0:0:0:
208,331,224410,2,0,P|131:268|119:170,1,202.5,8|8,3:0|3:0,0:0:0:0:
256,52,224908,1,8,0:0:0:0:
256,52,225240,5,0,0:0:0:0:
256,164,225406,1,8,3:0:0:0:
256,276,225572,1,8,0:0:0:0:
368,124,225904,2,0,B|368:72|368:72|342:30,1,101.25,8|8,3:0|3:0,0:0:0:0:
144,124,226236,2,0,B|144:72|144:72|169:30,1,101.25,8|0,0:0|0:0,0:0:0:0:
360,228,226568,6,0,B|435:278|404:414|256:415|214:313|254:250|254:250|302:326|218:437|84:378|86:268|148:227|148:227|256:136|256:136|255:70,1,911.25,8|8,3:0|3:0,0:0:0:0:
376,124,228248,1,8,0:0:0:0:
256,4,228416,1,8,0:0:0:0:
136,124,228584,1,8,3:0:0:0:
256,77,228747,1,8,3:0:0:0:
256,232,228910,1,8,0:0:0:0:
256,77,229080,1,8,0:0:0:0:
449,175,229241,6,0,L|471:335,1,162,4|8,0:0|0:0,0:0:0:0:
387,302,229738,2,0,P|323:258|247:280,1,162,8|8,3:0|3:0,0:0:0:0:
309,345,230235,1,8,0:0:0:0:
49,331,230566,2,0,L|8:252,1,81,8|0,3:0|0:0,0:0:0:0:
102,260,230898,2,0,L|143:181,1,81,8|8,0:0|3:0,0:0:0:0:
52,178,231229,2,0,L|11:99,1,81,0|8,0:0|3:0,0:0:0:0:
105,112,231561,2,0,L|146:33,1,81,8|0,0:0|0:0,0:0:0:0:
241,116,231892,6,0,B|265:134|296:132|317:116|317:116|340:99|371:101|392:116,1,162,8|8,3:0|0:0,0:0:0:0:
470,161,232390,2,0,L|445:325,1,162,8|8,3:0|3:0,0:0:0:0:
368,365,232887,1,8,0:0:0:0:
208,288,233218,2,0,P|190:337|192:370,1,81,8|0,3:0|0:0,0:0:0:0:
292,297,233550,2,0,P|310:248|308:215,1,81,8|8,0:0|3:0,0:0:0:0:
245,114,233881,2,0,P|227:163|229:196,1,81,0|8,0:0|3:0,0:0:0:0:
329,121,234213,2,0,P|347:72|345:39,1,81,8|0,0:0|0:0,0:0:0:0:
160,16,234544,6,0,B|149:75|149:75|161:118|161:118|150:177,1,162,8|8,3:0|0:0,0:0:0:0:
76,127,235042,2,0,B|65:186|65:186|77:229|77:229|66:288,1,162,8|8,3:0|3:0,0:0:0:0:
46,372,235539,1,8,0:0:0:0:
207,294,235879,2,0,L|284:265,1,81,8|0,3:0|0:0,0:0:0:0:
270,354,236212,2,0,L|347:325,1,81,8|8,0:0|3:0,0:0:0:0:
359,237,236545,2,0,L|282:266,1,81,0|8,0:0|3:0,0:0:0:0:
296,177,236879,2,0,L|219:206,1,81,8|0,0:0|0:0,0:0:0:0:
88,254,237212,6,0,P|35:191|36:110,1,162,8|8,3:0|0:0,0:0:0:0:
93,47,237709,2,0,B|117:30|148:32|169:47|169:47|192:65|223:63|244:47,1,162,8|8,3:0|3:0,0:0:0:0:
328,13,238206,1,8,0:0:0:0:
372,186,238537,2,0,P|408:169|448:167,1,81,8|0,3:0|0:0,0:0:0:0:
399,278,238869,2,0,P|416:314|418:354,1,81,8|8,0:0|3:0,0:0:0:0:
309,304,239200,2,0,P|272:321|232:323,1,81,0|8,0:0|3:0,0:0:0:0:
283,214,239532,2,0,P|265:177|263:137,1,81,8|0,0:0|0:0,0:0:0:0:
318,34,239863,6,0,P|240:23|173:64,1,162,8|8,3:0|0:0,0:0:0:0:
118,136,240361,2,0,P|106:214|147:281,1,162,8|8,3:0|3:0,0:0:0:0:
222,331,240858,1,8,0:0:0:0:
398,311,241189,2,0,L|483:342,1,81,8|0,3:0|0:0,0:0:0:0:
470,249,241521,2,0,L|385:218,1,81,8|8,0:0|3:0,0:0:0:0:
407,132,241852,2,0,L|492:163,1,81,0|8,0:0|3:0,0:0:0:0:
479,70,242184,2,0,L|394:39,1,81,8|0,0:0|0:0,0:0:0:0:
258,52,242529,6,0,L|285:224,1,162,8|8,3:0|0:0,0:0:0:0:
317,294,243036,2,0,B|255:311|218:270|218:270|179:307,1,162,8|8,3:0|3:0,0:0:0:0:
118,373,243543,1,8,0:0:0:0:
25,237,243885,2,0,P|16:193|21:153,1,81,8|0,3:0|0:0,0:0:0:0:
105,181,244244,2,0,P|96:137|101:97,1,81,8|8,0:0|3:0,0:0:0:0:
185,125,244604,2,0,P|176:81|181:41,1,81,0|8,0:0|3:0,0:0:0:0:
342,168,244964,2,0,P|298:177|258:172,1,81,8|0,0:0|0:0,0:0:0:0:
430,73,245312,6,0,B|452:92|457:122|447:146|447:146|435:173|443:202|463:219,1,162,8|8,3:0|0:0,0:0:0:0:
503,300,245874,2,0,P|426:304|375:244,1,162,8|8,3:0|3:0,0:0:0:0:
327,169,246437,2,0,P|288:158|249:170,1,81,8|0,0:0|0:0,0:0:0:0:
176,246,246808,6,0,L|180:333,1,81,8|0,3:0|0:0,0:0:0:0:
98,291,247199,2,0,L|102:378,1,81,8|8,0:0|3:0,0:0:0:0:
20,336,247591,2,0,L|16:249,1,81,0|8,0:0|3:0,0:0:0:0:
98,291,247982,2,0,L|94:204,1,81,8|0,0:0|0:0,0:0:0:0:
92,84,248388,6,0,B|140:83|165:118|165:118|167:71|201:52,1,162,8|8,3:0|0:0,0:0:0:0:
259,120,249005,2,0,L|423:98,1,162,8|8,3:0|3:0,0:0:0:0:
507,83,249631,1,8,0:0:0:0:
493,252,250075,5,8,3:0:0:0:
349,357,250505,1,8,0:0:0:0:
194,268,250954,1,0,0:0:0:0:
166,92,251387,1,8,0:0:0:0:
323,46,251834,6,0,L|312:228,1,162,8|8,3:0|0:0,0:0:0:0:
265,283,252554,2,0,P|219:306|114:273,1,162,8|8,3:0|3:0,0:0:0:0:
52,237,253274,2,0,P|63:192|53:145,1,81,8|0,0:0|0:0,0:0:0:0:
114,108,253834,5,8,3:0:0:0:
175,35,254509,1,8,0:0:0:0:
236,41,255298,1,0,0:0:0:0:
256,64,256260,2,0,B|309:34|336:142|362:29|421:79,1,170.09999480896,2|0,0:3|0:3,0:0:0:0:
347,79,283607,5,8,3:0:0:0:
380,210,283773,1,8,0:0:0:0:
380,210,284105,6,0,P|312:250|282:324,1,162,8|8,3:0|0:0,0:0:0:0:
361,365,284603,2,0,P|291:325|212:336,1,162,8|8,3:0|3:0,0:0:0:0:
129,368,285101,1,8,0:0:0:0:
62,202,285433,2,0,P|54:160|67:121,1,81,8|0,3:0|0:0,0:0:0:0:
148,88,285765,2,0,P|156:127|144:166,1,81,8|8,0:0|3:0,0:0:0:0:
223,268,286097,2,0,P|215:226|228:187,1,81,0|8,0:0|3:0,0:0:0:0:
306,154,286429,2,0,P|315:193|303:231,1,81,8|0,0:0|0:0,0:0:0:0:
287,67,286762,6,0,P|359:39|422:85,1,162,8|8,3:0|0:0,0:0:0:0:
470,161,287260,2,0,L|445:325,1,162,8|8,3:0|3:0,0:0:0:0:
368,365,287758,1,8,0:0:0:0:
208,288,288090,2,0,B|189:325|189:325|192:370,1,81,8|0,3:0|0:0,0:0:0:0:
292,297,288422,2,0,B|308:262|308:262|308:215,1,81,8|8,0:0|3:0,0:0:0:0:
245,114,288754,2,0,B|226:155|226:155|229:196,1,81,0|8,0:0|3:0,0:0:0:0:
329,121,289086,2,0,B|347:85|347:85|345:39,1,81,8|0,0:0|0:0,0:0:0:0:
160,16,289418,6,0,B|124:96|179:99|150:177,1,162,8|8,3:0|0:0,0:0:0:0:
77,124,289916,2,0,B|41:204|96:207|67:285,1,162,8|8,3:0|3:0,0:0:0:0:
46,372,290414,1,8,0:0:0:0:
207,294,290746,2,0,L|284:265,1,81,8|0,3:0|0:0,0:0:0:0:
270,354,291078,2,0,L|347:325,1,81,8|8,0:0|3:0,0:0:0:0:
359,237,291410,2,0,L|282:266,1,81,0|8,0:0|3:0,0:0:0:0:
296,177,291742,2,0,L|219:206,1,81,8|0,0:0|0:0,0:0:0:0:
88,254,292074,6,0,P|35:191|36:110,1,162,8|8,3:0|0:0,0:0:0:0:
93,47,292572,2,0,B|117:30|148:32|169:47|169:47|192:65|223:63|244:47,1,162,8|8,3:0|3:0,0:0:0:0:
328,13,293070,1,8,0:0:0:0:
372,187,293402,2,0,L|455:169,1,81,8|0,3:0|0:0,0:0:0:0:
399,278,293734,2,0,L|417:361,1,81,8|8,0:0|3:0,0:0:0:0:
309,304,294066,2,0,L|226:322,1,81,0|8,0:0|3:0,0:0:0:0:
283,214,294398,2,0,L|265:131,1,81,8|0,0:0|0:0,0:0:0:0:
143,55,294731,6,0,P|120:15|73:82,1,162,8|8,3:0|0:0,0:0:0:0:
102,163,295229,2,0,P|124:202|171:135,1,162,8|8,3:0|3:0,0:0:0:0:
232,69,295727,1,8,0:0:0:0:
438,69,296059,2,0,P|459:120|457:153,1,81,8|0,3:0|0:0,0:0:0:0:
371,130,296391,2,0,P|350:181|352:214,1,81,8|8,0:0|3:0,0:0:0:0:
433,242,296723,2,0,P|454:293|452:326,1,81,0|8,0:0|3:0,0:0:0:0:
366,303,297055,1,8,0:0:0:0:
192,341,297387,6,0,P|111:323|70:256,1,162,8|8,3:0|0:0,0:0:0:0:
63,171,297885,2,0,P|107:106|185:90,1,162,8|8,3:0|3:0,0:0:0:0:
272,106,298383,1,8,0:0:0:0:
239,282,298715,2,0,L|208:367,1,81,8|0,3:0|0:0,0:0:0:0:
301,354,299047,2,0,L|332:269,1,81,8|8,0:0|3:0,0:0:0:0:
418,291,299379,2,0,L|387:376,1,81,0|8,0:0|3:0,0:0:0:0:
480,363,299711,2,0,L|511:278,1,81,8|0,0:0|0:0,0:0:0:0:
417,190,300043,6,0,B|390:107|456:123|428:35,1,162,8|8,3:0|0:0,0:0:0:0:
346,69,300541,2,0,P|291:86|187:70,1,162,8|8,3:0|3:0,0:0:0:0:
113,26,301039,1,8,0:0:0:0:
36,187,301371,2,0,P|20:229|19:277,1,81,8|0,3:0|0:0,0:0:0:0:
66,345,301703,2,0,P|107:346|156:362,1,81,8|8,0:0|3:0,0:0:0:0:
210,299,302035,2,0,P|226:257|227:209,1,81,0|8,0:0|3:0,0:0:0:0:
305,179,302368,2,0,P|342:194|395:196,1,81,8|0,0:0|0:0,0:0:0:0:
461,98,302700,6,0,P|425:63|300:78,1,162,8|8,3:0|0:0,0:0:0:0:
249,119,303198,2,0,P|171:131|107:85,1,162,8|8,3:0|3:0,0:0:0:0:
47,20,303696,2,0,P|24:52|18:92,1,81,8|0,0:0|0:0,0:0:0:0:
54,173,304028,2,0,L|64:253,1,81,8|0,3:0|0:0,0:0:0:0:
152,235,304360,2,0,L|162:315,1,81,8|8,0:0|3:0,0:0:0:0:
252,316,304692,2,0,L|262:236,1,81,0|8,0:0|3:0,0:0:0:0:
350,254,305024,2,0,L|360:174,1,81,8|0,0:0|0:0,0:0:0:0:
250,32,305356,6,0,P|325:8|403:27,1,162,8|8,3:0|0:0,0:0:0:0:
410,115,305854,2,0,P|334:139|256:120,1,162,8|8,3:0|3:0,0:0:0:0:
174,86,306352,1,8,0:0:0:0:
51,215,306684,2,0,P|26:249|21:287,1,81,8|0,3:0|0:0,0:0:0:0:
109,280,307016,2,0,P|104:322|119:357,1,81,8|8,0:0|3:0,0:0:0:0:
193,308,307348,2,0,P|210:345|240:369,1,81,0|8,0:0|3:0,0:0:0:0:
279,290,307680,2,0,P|313:314|351:319,1,81,8|0,0:0|0:0,0:0:0:0:
507,225,308012,6,0,L|332:229,1,162,8|8,3:0|0:0,0:0:0:0:
261,198,308510,2,0,L|86:202,1,162,8|8,3:0|3:0,0:0:0:0:
14,175,309008,1,8,0:0:0:0:
133,42,309340,2,0,L|217:29,1,81,8|0,3:0|0:0,0:0:0:0:
196,117,309672,2,0,L|280:130,1,81,8|8,0:0|3:0,0:0:0:0:
301,44,310004,2,0,L|385:31,1,81,0|8,0:0|3:0,0:0:0:0:
364,119,310337,2,0,L|448:132,1,81,8|0,0:0|0:0,0:0:0:0:
273,212,310669,6,0,B|212:218|197:280|197:280|212:329,1,162,8|8,3:0|0:0,0:0:0:0:
290,372,311167,2,0,B|351:366|366:304|366:304|350:254,1,162,8|8,3:0|3:0,0:0:0:0:
349,165,311665,2,0,P|347:123|367:89,1,81,8|0,0:0|0:0,0:0:0:0:
263,31,311997,2,0,P|225:21|185:24,1,81,8|0,3:0|0:0,0:0:0:0:
155,108,312329,2,0,P|193:97|233:100,1,81,8|8,0:0|3:0,0:0:0:0:
264,184,312661,2,0,P|225:173|185:176,1,81,0|8,0:0|3:0,0:0:0:0:
155,260,312993,2,0,P|193:249|233:252,1,81,8|0,0:0|0:0,0:0:0:0:
64,374,313325,6,0,P|26:304|49:229,1,162,8|8,3:0|0:0,0:0:0:0:
127,185,313823,2,0,P|150:109|112:40,1,162,8|8,3:0|3:0,0:0:0:0:
30,7,314321,1,8,0:0:0:0:
228,136,314653,2,0,L|254:43,1,81,8|0,3:0|0:0,0:0:0:0:
356,25,314985,2,0,L|330:118,1,81,8|8,0:0|3:0,0:0:0:0:
304,197,315317,2,0,L|278:290,1,81,0|8,0:0|3:0,0:0:0:0:
388,242,315649,2,0,L|410:164,1,81,8|0,0:0|0:0,0:0:0:0:
444,330,315981,6,0,B|371:369|371:369|293:354,1,162,8|8,3:0|0:0,0:0:0:0:
216,309,316479,2,0,B|138:294|138:294|65:333,1,162,8|8,3:0|3:0,0:0:0:0:
6,266,316977,2,0,P|-5:216|2:184,1,81,8|0,0:0|0:0,0:0:0:0:
61,122,317309,2,0,L|105:195,1,81,8|0,3:0|0:0,0:0:0:0:
163,125,317641,2,0,L|207:198,1,81,8|8,0:0|3:0,0:0:0:0:
265,128,317973,2,0,L|309:201,1,81,0|8,0:0|3:0,0:0:0:0:
367,131,318306,2,0,L|411:204,1,81,8|0,0:0|0:0,0:0:0:0:
485,300,318638,6,0,P|456:238|487:150,1,162,8|8,3:0|0:0,0:0:0:0:
430,82,319136,2,0,B|370:70|370:70|327:83|327:83|267:71,1,162,8|8,3:0|3:0,0:0:0:0:
186,46,319634,1,8,0:0:0:0:
63,175,319966,2,0,P|57:209|78:275,1,81,8|0,3:0|0:0,0:0:0:0:
153,235,320298,2,0,P|147:269|168:335,1,81,8|8,0:0|3:0,0:0:0:0:
245,311,320630,2,0,P|253:271|248:231,1,81,0|8,0:0|3:0,0:0:0:0:
335,251,320962,2,0,P|343:211|338:171,1,81,8|0,0:0|0:0,0:0:0:0:
312,86,321294,1,8,3:0:0:0:
256,192,321626,12,2,326607,0:0:0:0:
