osu file format v14

[General]
AudioFilename: audio.mp3
AudioLeadIn: 0
PreviewTime: 154266
Countdown: 0
SampleSet: None
StackLeniency: 0.7
Mode: 0
LetterboxInBreaks: 0
WidescreenStoryboard: 1

[Editor]
DistanceSpacing: 1.6
BeatDivisor: 4
GridSize: 4
TimelineZoom: 1.6

[Metadata]
Title:Solo
TitleUnicode:Solo
Artist:Los Mesoneros
ArtistUnicode:Los Mesoneros
Creator:XinCrin
Version:Loco
Source:
Tags:rock indeleble caiga la noche alternativa indie
BeatmapID:1428227
BeatmapSetID:675084

[Difficulty]
HPDrainRate:8
CircleSize:4
OverallDifficulty:9
ApproachRate:8.5
SliderMultiplier:2
SliderTickRate:1

[Events]
//Background and Video events
0,0,"bg.jpg",0,0
//Break Periods
2,127862,133704
//Storyboard Layer 0 (Background)
//Storyboard Layer 1 (Fail)
//Storyboard Layer 2 (Pass)
//Storyboard Layer 3 (Foreground)
//Storyboard Sound Samples

[TimingPoints]
870,566.0377,4,3,1,80,1,0
37096,-100,4,3,1,100,0,1
37237,-100,4,3,1,100,0,0
52803,-200,4,3,1,80,0,0
55351,-100,4,3,1,80,0,0
91436,-100,4,3,1,80,0,1
107285,-100,4,3,1,80,0,0
136577,-76.9230769230769,4,3,1,80,0,0
154832,-76.92308,4,3,1,80,0,1
172803,-76.92308,4,3,1,80,0,0

[Colours]
Combo1 : 110,110,110
Combo2 : 223,223,223

[HitObjects]
296,56,18983,5,0,0:0:0:0:
192,136,19266,1,0,0:0:0:0:
312,136,19549,1,8,0:0:0:0:
216,56,19832,1,0,0:0:0:0:
312,224,20115,2,0,B|304:272|256:304|256:304|208:272|200:224,1,200,0|8,0:0|0:0,0:0:0:0:
104,192,20964,1,0,0:0:0:0:
32,120,21247,6,0,B|48:96|88:96|88:96|128:96,1,100,4|0,0:0|0:0,0:0:0:0:
200,32,21813,2,0,L|208:144,1,100,8|0,0:0|0:0,0:0:0:0:
480,120,22379,2,0,B|464:96|424:96|424:96|387:96,1,100,4|0,0:0|0:0,0:0:0:0:
312,32,22945,2,0,L|304:131,1,100,8|0,0:0|0:0,0:0:0:0:
176,304,23511,5,4,0:0:0:0:
256,240,23794,1,0,0:0:0:0:
336,304,24077,1,8,0:0:0:0:
256,360,24360,1,0,0:0:0:0:
184,192,24643,2,0,P|256:136|336:192,2,200,0|8|4,0:0|0:0|0:0,0:0:0:0:
88,176,26058,5,0,0:0:0:0:
96,272,26341,2,0,P|128:304|184:312,1,100,8|0,0:0|0:0,0:0:0:0:
256,248,26907,1,4,0:0:0:0:
415,272,27190,2,0,P|380:305|331:312,1,100,0|8,0:0|0:0,0:0:0:0:
256,248,27756,1,0,0:0:0:0:
208,104,28039,6,0,L|104:120,1,100,0|0,0:0|0:0,0:0:0:0:
57,308,28605,2,0,L|155:292,1,100,8|0,0:0|0:0,0:0:0:0:
16,160,29171,2,0,B|48:208|96:216|96:216|112:264|160:296,1,200,0|8,0:0|0:0,0:0:0:0:
200,200,30020,1,0,0:0:0:0:
312,80,30303,6,0,L|328:184,1,100,6|0,0:0|0:0,0:0:0:0:
360,272,30869,2,0,P|400:240|448:232,1,100,8|0,0:0|0:0,0:0:0:0:
344,352,31436,2,0,B|328:328|280:328|256:344|256:344|232:328|176:328|160:352,1,200,0|8,0:0|0:0,0:0:0:0:
64,336,32285,1,0,0:0:0:0:
120,248,32568,6,0,P|112:208|128:152,1,100,4|0,0:0|0:0,0:0:0:0:
216,208,33134,1,8,0:0:0:0:
200,304,33417,1,0,0:0:0:0:
36,297,33700,2,0,P|15:200|40:104,1,200,0|8,0:0|0:0,0:0:0:0:
128,56,34549,1,0,0:0:0:0:
208,116,34832,6,0,P|256:104|304:116,1,100,4|0,0:0|0:0,0:0:0:0:
376,184,35398,2,0,B|380:252|384:280|384:280|392:336|452:348,1,200,8|0,0:0|0:0,0:0:0:0:
480,252,36247,1,0,0:0:0:0:
288,192,36530,2,0,L|300:300,1,100,6|0,0:0|0:0,0:0:0:0:
60,348,37096,6,0,B|120:336|128:280|128:280|132:252|136:184,1,200,4|8,1:0|0:0,0:0:0:0:
56,124,37945,1,0,0:0:0:0:
212,216,38228,2,0,B|248:220|260:232|260:232|272:220|304:216,1,100,0|0,0:0|0:0,0:0:0:0:
324,120,38794,1,8,0:0:0:0:
256,48,39077,1,0,0:0:0:0:
188,124,39360,6,0,B|124:144|128:224|128:224|168:292,1,200,0|8,0:0|0:0,0:0:0:0:
256,332,40209,1,0,0:0:0:0:
347,286,40492,2,0,L|452:272,1,100,0|0,0:0|0:0,0:0:0:0:
347,286,41058,2,0,B|384:224|384:224|388:144|324:124,1,200,8|0,0:0|0:0,0:0:0:0:
256,52,41907,5,0,0:0:0:0:
164,92,42190,2,0,P|124:96|60:80,1,100,8|0,0:0|0:0,0:0:0:0:
60,184,42756,2,0,B|112:192|156:188|156:188|124:288,1,200,0|8,0:0|0:0,0:0:0:0:
208,344,43605,1,0,0:0:0:0:
256,256,43888,6,0,L|256:152,1,100,0|0,0:0|0:0,0:0:0:0:
304,68,44454,2,0,P|324:108|368:140,1,100,8|0,0:0|0:0,0:0:0:0:
208,68,45020,2,0,P|188:108|104:144,1,133.3333,4|0,2:0|0:0,0:0:0:0:
108,160,45586,2,0,L|144:304,1,133.3333,4|0,2:0|0:0,0:0:0:0:
148,312,46153,5,4,1:0:0:0:
48,296,46436,1,0,0:0:0:0:
36,196,46719,1,8,0:0:0:0:
108,124,47002,2,0,P|152:116|196:76,1,100,0|0,0:0|0:0,0:0:0:0:
256,156,47568,1,0,0:0:0:0:
404,124,47851,2,0,P|360:116|316:76,1,100,8|0,0:0|0:0,0:0:0:0:
164,192,48417,6,0,B|192:180|228:184|256:220|280:252|328:252|352:228,1,200,0|8,0:0|0:0,0:0:0:0:
312,140,49266,1,0,0:0:0:0:
192,268,49549,2,0,L|180:368,1,100,0|0,0:0|0:0,0:0:0:0:
312,140,50115,2,0,L|324:40,1,100,8|0,0:0|0:0,0:0:0:0:
144,112,50681,6,0,B|80:136|80:192|80:192|100:240|84:280,1,200,0|8,0:0|0:0,0:0:0:0:
12,348,51530,1,0,0:0:0:0:
168,204,51813,2,0,P|180:252|168:300,1,100,0|0,0:0|0:0,0:0:0:0:
60,168,52379,2,0,P|47:119|59:71,1,100,8|0,0:0|0:0,0:0:0:0:
344,264,52945,6,0,B|304:264|284:288|256:296|256:296|224:288|208:264|156:264,2,200,4|0|4,1:0|0:0|0:0,0:0:0:0:
400,124,55492,5,0,0:0:0:0:
312,96,55775,2,0,B|264:104|264:104|212:96,1,100,8|0,0:0|0:0,0:0:0:0:
112,124,56341,1,0,0:0:0:0:
40,192,56624,1,0,0:0:0:0:
96,308,56907,1,8,0:0:0:0:
136,216,57190,1,0,0:0:0:0:
80,320,57473,6,0,L|184:312,1,100,0|0,0:0|0:0,0:0:0:0:
432,320,58039,2,0,L|332:312,1,100,8|0,0:0|0:0,0:0:0:0:
164,208,58605,2,0,B|192:208|212:200|212:200|256:232|308:240|308:240|320:224|348:216,1,200,0|8,0:0|0:0,0:0:0:0:
392,128,59454,1,0,0:0:0:0:
256,28,59737,6,0,L|256:136,1,100,0|0,0:0|0:0,0:0:0:0:
208,216,60303,1,8,0:0:0:0:
108,224,60586,1,0,0:0:0:0:
28,156,60869,2,0,P|68:128|120:120,1,100,0|0,0:0|0:0,0:0:0:0:
140,292,61436,2,0,P|99:320|50:328,1,100,8|0,0:0|0:0,0:0:0:0:
216,364,62002,6,0,B|216:328|197:302|164:296|164:296|104:284|104:216,1,200,0|8,0:0|0:0,0:0:0:0:
164,136,62851,1,0,0:0:0:0:
348,136,63134,1,0,0:0:0:0:
256,100,63417,1,0,0:0:0:0:
372,292,63700,2,0,P|412:320|461:328,1,100,8|0,0:0|0:0,0:0:0:0:
296,364,64266,6,0,B|296:328|315:302|348:296|348:296|408:284|408:216,1,200,0|8,0:0|0:0,0:0:0:0:
332,148,65115,1,0,0:0:0:0:
256,216,65398,1,0,0:0:0:0:
180,148,65681,1,0,0:0:0:0:
208,52,65964,2,0,B|240:48|256:52|256:52|268:48|308:52,1,100,8|0,0:0|0:0,0:0:0:0:
324,348,66530,6,0,B|288:344|280:292|280:292|232:292|232:292|224:344|188:344,1,200,0|8,0:0|0:0,0:0:0:0:
256,216,67379,1,0,0:0:0:0:
172,180,67662,2,0,P|162:228|136:271,1,100,0|0,0:0|0:0,0:0:0:0:
340,180,68228,2,0,P|349:228|375:271,1,100,8|0,0:0|0:0,0:0:0:0:
172,72,68794,6,0,B|228:68|256:116|256:116|288:68|340:72,1,200,0|8,0:0|0:0,0:0:0:0:
340,172,69643,1,0,0:0:0:0:
340,272,69926,2,0,B|304:260|272:284|256:316|256:316|244:348|196:376|160:348,1,200,0|8,0:0|0:0,0:0:0:0:
104,288,70775,1,0,0:0:0:0:
192,272,71058,6,0,B|228:260|260:284|276:316|276:316|288:348|336:376|372:348,1,200,0|8,0:0|0:0,0:0:0:0:
408,288,71907,1,0,0:0:0:0:
184,136,72190,2,0,B|208:184|208:184|256:168|300:184|300:184|320:136,1,200,0|8,0:0|0:0,0:0:0:0:
256,60,73039,1,0,0:0:0:0:
112,152,73322,6,0,L|160:248,1,100,0|0,0:0|0:0,0:0:0:0:
400,152,73888,2,0,L|355:241,1,100,8|0,0:0|0:0,0:0:0:0:
256,260,74454,1,0,0:0:0:0:
180,328,74737,1,0,0:0:0:0:
128,244,75020,2,0,P|120:192|128:144,1,100,8|0,0:0|0:0,0:0:0:0:
40,96,75586,6,0,P|16:192|36:292,1,200,0|8,0:0|0:0,0:0:0:0:
128,324,76436,1,0,0:0:0:0:
192,248,76719,2,0,B|212:204|256:196|256:196|344:136|256:56|172:132|256:196|256:196|300:204|320:248,1,400,0|0,0:0|0:0,0:0:0:0:
384,324,78134,5,0,0:0:0:0:
416,228,78417,2,0,L|424:124,1,100,8|0,0:0|0:0,0:0:0:0:
392,32,78983,1,0,0:0:0:0:
336,116,79266,1,0,0:0:0:0:
256,56,79549,2,0,B|248:88|248:88|260:128|260:128|256:156,1,100,8|0,0:0|0:0,0:0:0:0:
196,232,80115,6,0,P|140:240|96:228,1,100,0|0,0:0|0:0,0:0:0:0:
16,96,80681,2,0,P|72:88|116:100,1,100,8|0,0:0|0:0,0:0:0:0:
316,232,81247,2,0,P|372:240|416:228,1,100,0|0,0:0|0:0,0:0:0:0:
496,96,81813,2,0,P|440:88|396:100,1,100,8|0,0:0|0:0,0:0:0:0:
208,336,82379,5,0,0:0:0:0:
304,236,82662,1,0,0:0:0:0:
208,236,82945,1,8,0:0:0:0:
304,336,83228,1,0,0:0:0:0:
208,148,83511,2,0,B|156:144|156:108|140:80|192:40|224:56|256:96|256:96|280:56|320:44|368:76|348:116|352:148|296:152,1,400,0|0,0:0|0:0,0:0:0:0:
160,228,84926,5,0,0:0:0:0:
76,280,85209,2,0,P|112:312|168:324,1,100,8|0,0:0|0:0,0:0:0:0:
256,292,85775,2,0,B|260:256|260:256|252:232|252:232|260:192,1,100,0|0,0:0|0:0,0:0:0:0:
436,280,86341,2,0,P|400:312|344:324,1,100,8|0,0:0|0:0,0:0:0:0:
92,132,86907,5,0,0:0:0:0:
158,59,87190,1,0,0:0:0:0:
253,31,87473,1,8,0:0:0:0:
348,58,87756,1,0,0:0:0:0:
416,144,88039,2,0,B|432:192|400:224|400:224|468:320,1,200,0|8,0:0|0:0,0:0:0:0:
372,356,88888,1,0,0:0:0:0:
304,284,89171,6,0,P|256:272|208:284,1,100,0|0,0:0|0:0,0:0:0:0:
140,356,89737,1,8,0:0:0:0:
324,196,90020,1,8,0:0:0:0:
188,196,90303,1,0,0:0:0:0:
256,120,90586,1,8,0:0:0:0:
256,336,90869,1,4,2:0:0:0:
160,120,91436,6,0,B|192:104|192:104|216:112|216:112|256:100|288:112|288:112|320:104|320:104|348:120,1,200,4|8,1:0|0:0,0:0:0:0:
360,220,92285,1,0,0:0:0:0:
428,292,92568,2,0,P|384:312|332:308,1,100,0|0,0:0|0:0,0:0:0:0:
256,248,93134,1,8,0:0:0:0:
84,292,93417,2,0,P|129:312|178:308,1,100,0|0,0:0|0:0,0:0:0:0:
316,216,93983,5,0,0:0:0:0:
256,136,94266,1,8,0:0:0:0:
196,216,94549,1,0,0:0:0:0:
108,260,94832,2,0,B|80:196|128:148|128:148|100:120|100:72,1,200,0|8,0:0|0:0,0:0:0:0:
200,72,95681,1,0,0:0:0:0:
312,72,95964,5,4,0:0:0:0:
256,152,96247,1,0,0:0:0:0:
208,244,96530,2,0,P|256:256|308:244,1,100,8|0,0:0|0:0,0:0:0:0:
128,256,97096,2,0,L|160:360,1,100,0|0,0:0|0:0,0:0:0:0:
354,351,97662,2,0,L|384:256,1,100,8|0,0:0|0:0,0:0:0:0:
160,148,98228,6,0,P|256:172|356:148,1,200,0|8,0:0|0:0,0:0:0:0:
256,32,99077,1,0,0:0:0:0:
120,288,99360,2,0,P|172:268|252:264,1,133.3333,4|0,2:0|0:0,0:0:0:0:
263,263,99926,2,0,P|329:265|392:288,1,133.3333,4|0,2:0|0:0,0:0:0:0:
412,312,100492,5,4,1:0:0:0:
448,220,100775,1,0,0:0:0:0:
412,128,101058,2,0,P|372:144|308:140,1,100,8|0,0:0|0:0,0:0:0:0:
252,64,101624,1,0,0:0:0:0:
99,127,101907,2,0,P|146:145|196:142,1,100,0|8,0:0|0:0,0:0:0:0:
256,224,102473,1,0,0:0:0:0:
204,308,102756,6,0,B|124:320|124:320|52:328|24:272,1,200,0|8,0:0|0:0,0:0:0:0:
24,172,103605,1,0,0:0:0:0:
100,108,103888,2,0,L|216:96,1,100,0|0,0:0|0:0,0:0:0:0:
224,196,104454,2,0,B|276:188|308:132|300:84|300:84|336:92|360:84,1,200,8|0,0:0|0:0,0:0:0:0:
444,56,105303,5,0,0:0:0:0:
436,156,105586,2,0,L|412:264,1,100,8|0,0:0|0:0,0:0:0:0:
388,352,106153,1,0,0:0:0:0:
309,292,106436,1,0,0:0:0:0:
211,291,106719,1,8,0:0:0:0:
131,347,107002,1,0,0:0:0:0:
132,164,107285,6,0,B|176:128|236:152|256:208|256:208|272:248|332:280|384:248,1,300,4|0,0:0|0:0,0:0:0:0:
344,156,108417,2,0,L|164:252,1,200,0|0,0:0|0:0,0:0:0:0:
120,336,109266,1,0,0:0:0:0:
28,164,109549,5,4,0:0:0:0:
80,80,109832,1,0,0:0:0:0:
190,218,110115,2,0,L|172:120,1,100,8|0,0:0|0:0,0:0:0:0:
148,308,110681,2,0,P|192:320|252:300,1,100,0|0,0:0|0:0,0:0:0:0:
308,228,111247,1,8,0:0:0:0:
400,268,111530,1,0,0:0:0:0:
356,128,111813,6,0,P|308:116|260:132,1,100
156,256,112379,2,0,P|203:268|250:252,1,100,8|0,0:0|0:0,0:0:0:0:
28,60,112945,2,0,B|12:132|64:176|64:176|40:264,1,200,0|8,0:0|0:0,0:0:0:0:
100,328,113794,1,0,0:0:0:0:
176,260,114077,6,0,L|280:312,1,100,0|0,0:0|0:0,0:0:0:0:
425,280,114643,2,0,L|336:236,1,100,8|0,0:0|0:0,0:0:0:0:
176,260,115209,2,0,P|168:308|176:368,1,100,0|0,0:0|0:0,0:0:0:0:
312,216,115775,2,0,P|320:166|314:117,1,100,8|0,0:0|0:0,0:0:0:0:
236,60,116341,6,0,B|160:60|160:60|96:60|64:128,1,200,0|8,0:0|0:0,0:0:0:0:
60,228,117190,1,0,0:0:0:0:
148,272,117473,2,0,P|160:224|148:176,1,100,0|0,0:0|0:0,0:0:0:0:
72,324,118039,1,8,0:0:0:0:
164,364,118322,1,0,0:0:0:0:
256,324,118605,6,0,L|292:228,1,100,0|0,0:0|0:0,0:0:0:0:
336,140,119171,2,0,P|392:148|436:136,1,100,8|0,0:0|0:0,0:0:0:0:
280,48,119737,2,0,P|224:40|180:52,1,100,0|0,0:0|0:0,0:0:0:0:
128,132,120303,1,8,0:0:0:0:
168,224,120586,1,0,0:0:0:0:
128,316,120869,6,0,L|20:328,1,100
168,224,121436,1,8,0:0:0:0:
264,192,121719,1,0,0:0:0:0:
377,84,122002,2,0,P|328:76|280:88,1,100,0|0,0:0|0:0,0:0:0:0:
380,248,122568,2,0,P|428:256|477:244,1,100,8|0,0:0|0:0,0:0:0:0:
328,176,123134,5,0,0:0:0:0:
256,244,123417,1,0,0:0:0:0:
160,276,123700,2,0,L|60:248,1,100,8|0,0:0|0:0,0:0:0:0:
68,148,124266,2,0,P|120:136|160:104,1,100,0|0,0:0|0:0,0:0:0:0:
256,88,124832,2,0,B|252:120|252:120|264:152|264:152|260:188,1,100,8|0,0:0|0:0,0:0:0:0:
444,148,125398,6,0,P|392:136|352:104,1,100,0|0,0:0|0:0,0:0:0:0:
436,48,125964,1,8,0:0:0:0:
460,228,126247,2,0,L|356:232,1,100,0|0,0:0|0:0,0:0:0:0:
388,328,126813,2,0,L|284:332,1,100,0|8,0:0|0:0,0:0:0:0:
208,272,127379,1,0,0:0:0:0:
256,132,127662,5,4,1:0:0:0:
256,192,134454,12,0,136153,0:0:0:0:
76,40,136719,6,0,L|68:116,1,64.9999970245363,4|0,1:0|0:0,0:0:0:0:
124,192,137002,2,0,L|116:268,1,64.9999970245363
188,332,137285,2,0,P|268:356|320:328,1,129.999994049073,8|0,0:0|0:0,0:0:0:0:
344,244,137709,1,0,0:0:0:0:
384,148,137851,2,0,L|448:148,1,64.9999970245363
352,64,138134,2,0,B|312:68|288:100|288:100|268:72|224:64,1,129.999994049073,0|8,0:0|0:0,0:0:0:0:
144,100,138558,1,0,0:0:0:0:
92,192,138700,2,0,L|96:268,1,64.9999970245363
152,344,138983,6,0,P|200:280|280:264,1,129.999994049073
344,228,139407,1,0,0:0:0:0:
408,148,139549,2,0,P|412:96|404:60,1,64.9999970245363,8|0,0:0|0:0,0:0:0:0:
320,44,139832,2,0,L|168:52,1,129.999994049073
136,140,140256,1,0,0:0:0:0:
144,244,140398,2,0,P|184:256|216:256,1,64.9999970245363
314,223,140681,2,0,L|274:351,1,129.999994049073,8|0,0:0|0:0,0:0:0:0:
276,348,141247,6,0,P|316:336|344:332,1,64.9999970245363
444,340,141530,1,0,0:0:0:0:
484,244,141671,1,0,0:0:0:0:
400,180,141813,2,0,B|300:184|300:184|252:160,1,129.999994049073,8|0,0:0|0:0,0:0:0:0:
188,112,142237,1,0,0:0:0:0:
132,200,142379,2,0,L|146:263,1,64.9999970245363
56,120,142662,1,0,0:0:0:0:
128,44,142803,1,0,0:0:0:0:
224,80,142945,2,0,P|324:108|372:96,1,129.999994049073,8|0,0:0|0:0,0:0:0:0:
452,116,143369,1,0,0:0:0:0:
352,236,143511,6,0,L|280:240,1,64.9999970245363
212,312,143794,2,0,P|176:264|168:236,1,64.9999970245363
88,316,144077,2,0,P|80:248|96:168,1,129.999994049073,8|0,0:0|0:0,0:0:0:0:
148,100,144502,1,0,0:0:0:0:
64,40,144643,1,0,0:0:0:0:
236,156,144926,2,0,P|276:136|300:112,1,64.9999970245363
328,220,145209,2,0,P|360:160|408:92,1,129.999994049073,8|0,0:0|0:0,0:0:0:0:
484,56,145634,1,0,0:0:0:0:
432,256,145775,6,0,L|420:320,1,64.9999970245363
320,348,146058,2,0,P|284:340|236:336,1,64.9999970245363
152,340,146341,2,0,P|88:352|32:320,1,129.999994049073,8|0,0:0|0:0,0:0:0:0:
28,216,146766,1,0,0:0:0:0:
92,132,146907,2,0,P|84:80|64:48,1,64.9999970245363
128,224,147190,2,0,L|212:216,1,64.9999970245363
248,132,147473,2,0,B|280:160|288:196|288:196|312:168|336:164,1,129.999994049073,8|0,0:0|0:0,0:0:0:0:
436,152,147898,1,0,0:0:0:0:
476,324,148039,6,0,P|424:284|344:276,1,129.999994049073
288,348,148464,1,0,0:0:0:0:
220,272,148605,2,0,L|80:272,1,129.999994049073,8|0,0:0|0:0,0:0:0:0:
28,188,149030,1,0,0:0:0:0:
100,112,149171,2,0,L|240:112,1,129.999994049073
328,80,149596,1,0,0:0:0:0:
428,52,149737,1,8,0:0:0:0:
428,52,150020,1,0,0:0:0:0:
428,52,150303,6,0,L|432:124,1,64.9999970245363
368,200,150586,2,0,L|380:276,1,64.9999970245363
432,356,150869,2,0,P|348:316|308:316,1,129.999994049073,8|0,0:0|0:0,0:0:0:0:
212,340,151294,1,0,0:0:0:0:
112,312,151436,2,0,P|96:268|88:236,1,64.9999970245363
48,156,151719,2,0,P|120:168|208:136,1,129.999994049073,0|8,0:0|0:0,0:0:0:0:
244,80,152143,1,0,0:0:0:0:
344,108,152285,2,0,L|416:116,1,64.9999970245363
444,312,152568,5,0,0:0:0:0:
292,200,152851,1,12,0:0:0:0:
460,280,153134,5,0,0:0:0:0:
264,220,153417,1,0,0:0:0:0:
488,240,153700,5,12,0:0:0:0:
224,260,153983,1,0,0:0:0:0:
256,84,154266,5,8,0:0:0:0:
256,109,154407,1,8,0:0:0:0:
256,134,154549,1,8,0:0:0:0:
256,159,154690,1,8,0:0:0:0:
256,184,154832,5,4,1:0:0:0:
156,268,155115,1,0,0:0:0:0:
32,232,155398,2,0,B|24:160|24:160|48:144|64:112,1,130,8|0,0:0|0:0,0:0:0:0:
168,40,155964,2,0,B|181:67|205:83|205:83|197:155,1,130,0|0,0:0|0:0,0:0:0:0:
156,280,156530,1,8,0:0:0:0:
256,364,156813,1,0,0:0:0:0:
344,268,157096,6,0,L|472:212,1,130,0|0,0:0|0:0,0:0:0:0:
344,268,157662,2,0,P|320:196|332:132,1,130,8|0,0:0|0:0,0:0:0:0:
184,143,158228,2,0,P|190:207|168:268,1,130,0|0,0:0|0:0,0:0:0:0:
48,216,158794,1,8,0:0:0:0:
44,88,159077,1,0,0:0:0:0:
176,20,159360,6,0,L|160:156,1,130,0|0,0:0|0:0,0:0:0:0:
351,149,159926,2,0,L|336:20,1,130,8|0,0:0|0:0,0:0:0:0:
176,20,160492,2,0,B|220:24|240:52|256:108|256:108|272:52|292:24|344:20,1,260,0|8,0:0|0:0,0:0:0:0:
440,104,161341,1,0,0:0:0:0:
392,324,161624,2,0,P|344:300|316:228,1,130,0|0,0:0|0:0,0:0:0:0:
120,324,162190,2,0,P|168:300|196:228,1,130,8|0,0:0|0:0,0:0:0:0:
76,188,162756,5,4,2:0:0:0:
120,324,163039,1,0,0:0:0:0:
392,324,163322,5,4,2:0:0:0:
436,188,163605,1,0,0:0:0:0:
144,112,163888,6,0,B|172:80|228:80|256:124|256:124|276:84|340:80|372:112,1,259.999988098145,4|8,1:0|0:0,0:0:0:0:
320,232,164737,2,0,B|312:280|312:280|304:348|336:364,1,130,0|0,0:0|0:0,0:0:0:0:
440,296,165303,1,0,0:0:0:0:
192,233,165586,2,0,B|200:280|200:280|208:348|185:357,1,130,8|0,0:0|0:0,0:0:0:0:
88,156,166153,5,0,0:0:0:0:
172,56,166436,1,0,0:0:0:0:
256,156,166719,2,0,B|248:204|248:204|260:252|260:252|256:284,1,130,8|0,0:0|0:0,0:0:0:0:
140,340,167285,2,0,P|88:332|40:272,1,130,0|0,0:0|0:0,0:0:0:0:
96,156,167851,1,8,0:0:0:0:
180,256,168134,1,0,0:0:0:0:
256,22,168417,6,0,L|256:152,1,130
336,232,168983,1,8,0:0:0:0:
360,104,169266,1,0,0:0:0:0:
152,104,169549,1,0,0:0:0:0:
176,232,169832,1,0,0:0:0:0:
360,104,170115,1,8,0:0:0:0:
256,24,170398,1,0,0:0:0:0:
256,332,170681,6,0,B|244:296|256:268|256:268|272:240|256:200,1,130,0|0,0:0|0:0,0:0:0:0:
176,104,171247,2,0,P|116:96|48:116,1,130,8|0,0:0|0:0,0:0:0:0:
336,280,171813,6,0,P|400:287|461:269,1,130,4|0,2:0|0:0,0:0:0:0:
176,120,172379,6,0,P|116:112|48:132,1,130,4|0,2:0|0:0,0:0:0:0:
316,212,172945,6,0,B|316:288|268:300|268:300|256:272|240:300|240:300|192:288|192:212,1,260,4|8,1:0|0:0,0:0:0:0:
256,96,173794,1,0,0:0:0:0:
104,184,174077,2,0,P|104:248|120:316,1,130,0|0,0:0|0:0,0:0:0:0:
393,312,174643,2,0,P|407:248|408:184,1,130,8|0,0:0|0:0,0:0:0:0:
192,88,175209,5,0,0:0:0:0:
256,200,175492,1,0,0:0:0:0:
320,88,175775,1,8,0:0:0:0:
256,264,176058,1,0,0:0:0:0:
188,168,176341,2,0,B|220:184|256:184|256:184|296:224|256:264|220:224|256:184|256:184|292:184|320:168,1,260,0|8,0:0|0:0,0:0:0:0:
256,60,177190,1,0,0:0:0:0:
156,248,177473,6,0,B|168:288|200:312|200:312|144:360,1,130,0|0,0:0|0:0,0:0:0:0:
350,345,178039,2,0,B|312:312|312:312|344:288|356:248,1,130,8|0,0:0|0:0,0:0:0:0:
376,120,178605,2,0,P|252:84|128:116,1,260,0|8,0:0|0:0,0:0:0:0:
28,200,179454,1,0,0:0:0:0:
124,280,179737,6,0,P|144:220|196:176,1,130,0|0,0:0|0:0,0:0:0:0:
387,279,180303,2,0,P|366:218|317:176,1,130,8|0,0:0|0:0,0:0:0:0:
212,256,180869,6,0,B|224:288|256:304|256:304|284:288|296:256,1,130,4|0,2:0|0:0,0:0:0:0:
300,128,181436,2,0,B|288:96|256:80|256:80|228:96|216:128,1,130,4|0,2:0|0:0,0:0:0:0:
76,348,182002,5,4,1:0:0:0:
20,232,182285,1,0,0:0:0:0:
48,104,182568,2,0,P|132:61|176:60,1,130,8|0,0:0|0:0,0:0:0:0:
464,104,183134,2,0,P|380:61|336:60,1,130,0|0,0:0|0:0,0:0:0:0:
256,152,183700,2,0,B|248:200|248:200|264:240|264:240|256:292,1,130,8|0,0:0|0:0,0:0:0:0:
132,240,184266,5,0,0:0:0:0:
172,116,184549,1,0,0:0:0:0:
380,144,184832,1,8,0:0:0:0:
340,268,185115,1,0,0:0:0:0:
208,152,185398,2,0,B|208:88|208:88|208:52|256:32|304:52|304:96|304:96|304:152,1,259.999988098145,0|8,0:0|0:0,0:0:0:0:
256,264,186247,1,0,0:0:0:0:
144,328,186530,6,0,P|128:268|152:200,1,130,0|0,0:0|0:0,0:0:0:0:
363,205,187096,2,0,P|383:265|368:328,1,130,8|0,0:0|0:0,0:0:0:0:
84,96,187662,2,0,P|152:88|220:128,1,130,0|0,0:0|0:0,0:0:0:0:
428,96,188228,2,0,P|360:88|292:128,1,130,8|0,0:0|0:0,0:0:0:0:
132,284,188794,6,0,B|188:320|256:296|256:296|320:320|384:284,1,259.999988098145,4|4,2:0|2:0,0:0:0:0:
256,80,189643,1,0,0:0:0:0:
196,196,189926,2,0,P|256:216|320:200,1,130,4|0,2:0|0:0,0:0:0:0:
256,80,190492,1,4,2:0:0:0:
136,284,190775,1,0,0:0:0:0:
376,284,191058,5,4,1:0:0:0:
