osu file format v14

[General]
AudioFilename: audio.mp3
AudioLeadIn: 0
PreviewTime: 154266
Countdown: 0
SampleSet: None
StackLeniency: 0.7
Mode: 0
LetterboxInBreaks: 0
WidescreenStoryboard: 1

[Editor]
DistanceSpacing: 0.8
BeatDivisor: 4
GridSize: 4
TimelineZoom: 1.6

[Metadata]
Title:Solo
TitleUnicode:Solo
Artist:Los Mesoneros
ArtistUnicode:Los Mesoneros
Creator:XinCrin
Version:Intermedio
Source:
Tags:rock indeleble caiga la noche alternativa indie
BeatmapID:1470165
BeatmapSetID:675084

[Difficulty]
HPDrainRate:5
CircleSize:4
OverallDifficulty:5
ApproachRate:5
SliderMultiplier:1.5
SliderTickRate:1

[Events]
//Background and Video events
0,0,"bg.jpg",0,0
//Break Periods
2,127862,135519
//Storyboard Layer 0 (Background)
//Storyboard Layer 1 (Fail)
//Storyboard Layer 2 (Pass)
//Storyboard Layer 3 (Foreground)
//Storyboard Sound Samples

[TimingPoints]
870,566.0377,4,3,1,80,1,0
37096,-100,4,3,1,100,0,1
37237,-100,4,3,1,100,0,0
52803,-100,4,3,1,80,0,0
55351,-100,4,3,1,80,0,0
91436,-100,4,3,1,80,0,1
107285,-100,4,3,1,80,0,0
154832,-100,4,3,1,80,0,1
172803,-100,4,3,1,80,0,0

[Colours]
Combo1 : 110,110,110
Combo2 : 223,223,223

[HitObjects]
52,336,18983,6,0,B|60:260|60:260|96:244|116:204,1,150,0|8,0:0|0:0,0:0:0:0:
128,152,19832,1,0,0:0:0:0:
152,96,20115,2,0,L|320:100,1,150,0|8,0:0|0:0,0:0:0:0:
412,48,21247,1,4,0:0:0:0:
472,152,21813,1,8,0:0:0:0:
456,272,22379,2,0,B|376:268|376:268|300:296,1,150,4|8,0:0|0:0,0:0:0:0:
192,316,23511,6,0,P|184:268|188:228,1,75,4|0,0:0|0:0,0:0:0:0:
200,184,24077,2,0,P|128:204|48:200,2,150,8|0|8,0:0|0:0|0:0,0:0:0:0:
264,84,25775,1,4,0:0:0:0:
376,44,26341,1,8,0:0:0:0:
464,124,26907,2,0,L|452:284,1,150,4|8,0:0|0:0,0:0:0:0:
348,332,28039,6,0,B|324:288|324:288|304:252|240:248|212:276,1,150,0|8,0:0|0:0,0:0:0:0:
180,284,28888,1,0,0:0:0:0:
120,300,29171,2,0,L|60:152,1,150,0|8,0:0|0:0,0:0:0:0:
112,52,30303,2,0,B|148:40|176:40|196:68|232:92|272:72,1,150,6|8,0:0|0:0,0:0:0:0:
316,80,31153,2,0,P|292:148|336:224,1,150,0|0,0:0|0:0,0:0:0:0:
380,232,32002,1,8,0:0:0:0:
300,320,32568,6,0,L|144:328,2,150,4|8|0,0:0|0:0|0:0,0:0:0:0:
416,344,34266,1,8,0:0:0:0:
472,240,34832,2,0,B|424:184|424:184|420:92,1,150,4|8,0:0|0:0,0:0:0:0:
392,56,35681,2,0,B|368:48|340:48|320:68|280:88|236:56,1,150,0|0,0:0|0:0,0:0:0:0:
192,36,36530,1,6,0:0:0:0:
84,92,37096,6,0,B|72:200|72:200|80:260,1,150,4|8,1:0|0:0,0:0:0:0:
124,280,37945,1,0,0:0:0:0:
184,272,38228,2,0,B|264:264|264:264|320:264|340:276,1,150,0|8,0:0|0:0,0:0:0:0:
432,340,39360,2,0,B|456:296|448:248|448:248|472:192,1,150,0|8,0:0|0:0,0:0:0:0:
408,96,40492,2,0,L|244:112,1,150,0|8,0:0|0:0,0:0:0:0:
200,128,41341,1,0,0:0:0:0:
144,144,41624,6,0,B|132:240|132:240|144:292,1,150,0|8,0:0|0:0,0:0:0:0:
252,344,42756,2,0,L|416:328,2,150,0|8|0,0:0|0:0|0:0,0:0:0:0:
132,352,44454,1,8,0:0:0:0:
48,264,45020,2,0,P|56:216|104:148,1,100,4|0,2:0|0:0,0:0:0:0:
116,156,45586,2,0,P|180:176|228:172,1,100,4|0,2:0|0:0,0:0:0:0:
252,184,46153,6,0,P|260:128|320:56,1,150,4|8,1:0|0:0,0:0:0:0:
420,120,47285,2,0,P|404:192|354:246,1,150,0|8,0:0|0:0,0:0:0:0:
280,340,48417,2,0,L|452:340,2,150,0|8|0,0:0|0:0|0:0,0:0:0:0:
196,252,50115,1,8,0:0:0:0:
80,276,50681,5,0,0:0:0:0:
36,164,51247,2,0,B|40:76|40:76|88:80|120:60,1,150,8|0,0:0|0:0,0:0:0:0:
216,36,52379,1,8,0:0:0:0:
300,124,52945,2,0,B|312:200|344:217|344:217|400:256|476:232|456:168|456:168|420:128|356:164|356:235|356:235|344:268|368:332,1,525,4|0,1:0|0:0,0:0:0:0:
320,364,55209,6,0,L|160:360,1,150,4|8,0:0|0:0,0:0:0:0:
68,296,56341,1,0,0:0:0:0:
44,180,56907,2,0,P|24:132|64:40,1,150,8|0,0:0|0:0,0:0:0:0:
116,64,57756,1,0,0:0:0:0:
176,76,58039,2,0,B|268:68|268:68|332:76,1,150,8|0,0:0|0:0,0:0:0:0:
436,116,59171,1,8,0:0:0:0:
480,228,59737,6,0,P|456:272|448:308,1,75,0|0,0:0|0:0,0:0:0:0:
448,356,60303,2,0,P|396:320|308:316,1,150,8|0,0:0|0:0,0:0:0:0:
192,300,61436,2,0,L|204:132,1,150,8|0,0:0|0:0,0:0:0:0:
120,64,62568,2,0,P|96:144|40:200,2,150,8|0|8,0:0|0:0|0:0,0:0:0:0:
236,32,64266,5,0,0:0:0:0:
340,92,64832,1,8,0:0:0:0:
368,208,65398,2,0,B|240:200|240:200|204:216,1,150,0|8,0:0|0:0,0:0:0:0:
136,296,66530,2,0,B|96:260|104:208|104:208|72:220|48:216,2,150,0|8|0,0:0|0:0|0:0,0:0:0:0:
240,356,68228,1,8,0:0:0:0:
360,340,68794,6,0,P|404:320|436:316,1,75,0|0,0:0|0:0,0:0:0:0:
488,324,69360,2,0,P|460:280|440:176,1,150,8|0,0:0|0:0,0:0:0:0:
372,88,70492,1,8,0:0:0:0:
256,124,71058,2,0,B|152:124|152:124|96:100,1,150,0|8,0:0|0:0,0:0:0:0:
44,204,72190,2,0,B|88:236|88:236|96:332,1,150,0|8,0:0|0:0,0:0:0:0:
148,360,73039,1,0,0:0:0:0:
208,360,73322,6,0,B|256:344|320:356|320:356|360:348,1,150,0|8,0:0|0:0,0:0:0:0:
460,284,74454,2,0,P|416:244|404:200,1,75,0|0,0:0|0:0,0:0:0:0:
412,172,75020,2,0,P|352:204|272:204,1,150,8|0,0:0|0:0,0:0:0:0:
168,144,76153,1,8,0:0:0:0:
92,236,76719,1,0,0:0:0:0:
48,124,77285,1,0,0:0:0:0:
148,56,77851,6,0,P|220:64|272:140,1,150,0|8,0:0|0:0,0:0:0:0:
252,240,78983,2,0,P|298:296|371:304,1,150,0|8,0:0|0:0,0:0:0:0:
468,236,80115,2,0,L|476:80,2,150,0|8|0,0:0|0:0|0:0,0:0:0:0:
448,356,81813,1,8,0:0:0:0:
332,332,82379,6,0,P|288:344|224:336,2,75,0|0|8,0:0|0:0|0:0,0:0:0:0:
376,292,83228,1,0,0:0:0:0:
392,232,83511,2,0,L|380:68,1,150,0|0,0:0|0:0,0:0:0:0:
268,44,84643,2,0,P|184:40|108:72,1,150,0|8,0:0|0:0,0:0:0:0:
100,116,85492,2,0,B|116:216|116:216|108:276,1,150,0|0,0:0|0:0,0:0:0:0:
72,312,86341,1,8,0:0:0:0:
188,348,86907,6,0,P|232:336|276:340,2,75,0|0|8,0:0|0:0|0:0,0:0:0:0:
128,356,87756,1,0,0:0:0:0:
80,324,88039,2,0,L|80:164,1,150,0|8,0:0|0:0,0:0:0:0:
168,92,89171,2,0,P|216:72|328:84,1,150,0|8,0:0|0:0,0:0:0:0:
352,120,90020,2,0,B|340:160|344:188|368:204|388:228|376:276,1,150,8|8,0:0|0:0,0:0:0:0:
352,316,90869,1,4,2:0:0:0:
236,344,91436,6,0,L|60:348,1,150,4|8,1:0|0:0,0:0:0:0:
12,252,92568,1,0,0:0:0:0:
92,160,93134,1,8,0:0:0:0:
36,56,93700,2,0,P|140:48|184:88,1,150,0|8,0:0|0:0,0:0:0:0:
216,116,94549,1,0,0:0:0:0:
276,108,94832,2,0,L|276:268,1,150,0|8,0:0|0:0,0:0:0:0:
364,340,95964,6,0,B|420:280|420:280|460:312|492:312,2,150,4|8|0,0:0|0:0|0:0,0:0:0:0:
244,352,97662,1,8,0:0:0:0:
176,256,98228,2,0,P|104:268|24:228,1,150,0|8,0:0|0:0,0:0:0:0:
36,180,99077,1,0,0:0:0:0:
52,124,99360,2,0,P|124:112|204:152,1,150,4|4,2:0|2:0,0:0:0:0:
288,204,100492,6,0,B|304:256|284:296|284:296|328:304|348:324,1,150,4|8,1:0|0:0,0:0:0:0:
456,336,101624,2,0,B|460:280|432:244|432:244|456:228|456:192,1,150,0|8,0:0|0:0,0:0:0:0:
488,84,102756,2,0,B|432:72|392:96|392:96|320:72,1,150,0|8,0:0|0:0,0:0:0:0:
284,68,103605,1,0,0:0:0:0:
228,52,103888,1,0,0:0:0:0:
120,108,104454,1,8,0:0:0:0:
76,220,105020,6,0,L|256:232,1,150,0|8,0:0|0:0,0:0:0:0:
280,256,105869,1,0,0:0:0:0:
340,240,106153,2,0,P|332:172|376:92,1,150,0|8,0:0|0:0,0:0:0:0:
412,60,107002,1,0,0:0:0:0:
468,40,107285,5,4,0:0:0:0:
256,192,107426,12,4,109549,0:0:0:0:
228,216,110681,6,0,P|180:248|84:240,2,150,0|8|0,0:0|0:0|0:0,0:0:0:0:
240,156,112096,1,0,0:0:0:0:
248,100,112379,1,8,0:0:0:0:
356,48,112945,2,0,B|468:64|468:64|488:104,1,150,0|8,0:0|0:0,0:0:0:0:
448,212,114077,5,0,0:0:0:0:
328,208,114643,1,8,0:0:0:0:
276,316,115209,1,0,0:0:0:0:
172,256,115775,2,0,P|92:276|24:224,2,150,8|0|8,0:0|0:0|0:0,0:0:0:0:
212,144,117473,1,0,0:0:0:0:
332,132,118039,2,0,B|332:224|332:224|340:288,1,150,8|0,0:0|0:0,0:0:0:0:
452,324,119171,6,0,B|452:232|452:232|444:174,2,150,8|0|8,0:0|0:0|0:0,0:0:0:0:
340,364,120869,1,0,0:0:0:0:
284,344,121153,1,0,0:0:0:0:
228,324,121436,2,0,P|160:312|76:324,1,150,8|0,0:0|0:0,0:0:0:0:
20,220,122568,2,0,L|180:192,1,150,8|0,0:0|0:0,0:0:0:0:
164,76,123700,6,0,P|220:80|284:168,1,150,8|0,0:0|0:0,0:0:0:0:
312,264,124832,1,8,0:0:0:0:
424,220,125398,2,0,L|432:56,2,150,0|8|0,0:0|0:0|0:0,0:0:0:0:
364,324,127096,1,8,0:0:0:0:
256,276,127662,5,4,1:0:0:0:
68,300,136719,6,0,P|112:280|156:276,1,75,4|0,1:0|0:0,0:0:0:0:
196,292,137285,2,0,P|164:232|168:148,1,150,8|0,0:0|0:0,0:0:0:0:
80,68,138417,2,0,P|136:36|232:56,1,150,8|0,0:0|0:0,0:0:0:0:
304,132,139549,1,8,0:0:0:0:
420,108,140115,1,0,0:0:0:0:
444,164,140398,1,0,0:0:0:0:
468,220,140681,1,8,0:0:0:0:
460,340,141247,6,0,P|392:328|312:340,1,150,0|8,0:0|0:0,0:0:0:0:
256,356,142096,1,0,0:0:0:0:
200,336,142379,2,0,L|196:164,1,150,0|8,0:0|0:0,0:0:0:0:
128,88,143511,2,0,B|72:104|72:104|20:188,2,150,0|8|0,0:0|0:0|0:0,0:0:0:0:
244,52,145209,1,8,0:0:0:0:
348,108,145775,6,0,P|392:124|424:124,1,75,0|0,0:0|0:0,0:0:0:0:
480,128,146341,2,0,B|448:216|448:216|456:288,1,150,8|0,0:0|0:0,0:0:0:0:
364,348,147473,1,8,0:0:0:0:
264,284,148039,2,0,P|204:288|164:288,1,75,0|0,0:0|0:0,0:0:0:0:
148,332,148605,2,0,P|160:284|148:176,1,150,8|0,0:0|0:0,0:0:0:0:
112,140,149454,1,0,0:0:0:0:
76,92,149737,1,8,0:0:0:0:
188,52,150303,6,0,L|352:48,1,150,0|8,0:0|0:0,0:0:0:0:
428,128,151436,2,0,P|452:212|424:272,1,150,0|8,0:0|0:0,0:0:0:0:
312,300,152568,2,0,L|316:380,2,75,0|12|0,0:0|0:0|0:0,0:0:0:0:
216,228,153700,2,0,L|212:153,2,75,12|0|8,0:0|0:0|0:0,0:0:0:0:
188,280,154549,1,8,0:0:0:0:
132,304,154832,5,4,1:0:0:0:
36,236,155398,1,8,0:0:0:0:
44,116,155964,2,0,B|100:116|132:88|132:88|196:88,1,150,0|8,0:0|0:0,0:0:0:0:
272,172,157096,2,0,B|316:136|304:72|304:72|320:88|368:88,2,150,0|8|0,0:0|0:0|0:0,0:0:0:0:
172,240,158794,5,8,0:0:0:0:
240,340,159360,2,0,L|396:336,1,150,0|8,0:0|0:0,0:0:0:0:
484,264,160492,2,0,P|456:216|448:168,1,75,0|0,0:0|0:0,0:0:0:0:
440,140,161058,2,0,P|376:172|296:168,1,150,8|0,0:0|0:0,0:0:0:0:
196,112,162190,1,8,0:0:0:0:
92,172,162756,2,0,B|112:200|112:228|96:244|72:268|88:316,1,150,4|4,2:0|2:0,0:0:0:0:
200,360,163888,6,0,L|360:348,1,150,4|8,1:0|0:0,0:0:0:0:
464,316,165020,2,0,P|448:228|384:176,1,150,0|8,0:0|0:0,0:0:0:0:
296,136,166153,2,0,B|320:80|368:68|368:68|396:28,2,150,0|8|0,0:0|0:0|0:0,0:0:0:0:
216,224,167851,2,0,P|160:240|136:240,1,75,8|0,0:0|0:0,0:0:0:0:
108,288,168417,6,0,P|116:224|96:128,1,150,0|8,0:0|0:0,0:0:0:0:
148,32,169549,2,0,L|332:48,1,150,0|8,0:0|0:0,0:0:0:0:
304,164,170681,1,0,0:0:0:0:
400,236,171247,1,8,0:0:0:0:
452,344,171813,2,0,P|368:360|304:316,1,150,4|4,2:0|2:0,0:0:0:0:
216,264,172945,6,0,L|52:268,2,150,4|8|0,1:0|0:0|0:0,0:0:0:0:
328,216,174643,1,8,0:0:0:0:
436,164,175209,2,0,P|440:116|428:76,1,75,0|0,0:0|0:0,0:0:0:0:
376,72,175775,2,0,B|280:80|280:80|216:68,1,150,8|0,0:0|0:0,0:0:0:0:
112,36,176907,1,8,0:0:0:0:
60,144,177473,6,0,B|124:144|144:160|144:160|128:204|136:240,1,150,0|8,0:0|0:0,0:0:0:0:
196,324,178605,2,0,B|240:288|244:236|244:236|260:252|304:256,1,150,0|8,0:0|0:0,0:0:0:0:
344,268,179454,1,0,0:0:0:0:
404,264,179737,1,0,0:0:0:0:
468,164,180303,1,8,0:0:0:0:
400,64,180869,2,0,P|332:32|256:48,1,150,4|4,2:0|2:0,0:0:0:0:
188,140,182002,6,0,L|36:140,1,150,4|8,1:0|0:0,0:0:0:0:
12,256,183134,2,0,L|164:256,1,150,0|8,0:0|0:0,0:0:0:0:
280,244,184266,2,0,P|296:280|324:308,1,75,0|0,0:0|0:0,0:0:0:0:
300,364,184832,2,0,P|360:328|456:320,2,150,8|0|8,0:0|0:0|0:0,0:0:0:0:
184,328,186530,5,0,0:0:0:0:
64,336,187096,1,8,0:0:0:0:
40,220,187662,2,0,P|28:156|76:72,1,150,0|8,0:0|0:0,0:0:0:0:
180,48,188794,1,4,2:0:0:0:
300,60,189360,1,4,2:0:0:0:
376,152,189926,2,0,L|368:312,1,150,4|4,2:0|2:0,0:0:0:0:
256,340,191058,5,4,1:0:0:0:
