osu file format v14

[General]
AudioFilename: audio.mp3
AudioLeadIn: 0
PreviewTime: 154266
Countdown: 0
SampleSet: None
StackLeniency: 0.7
Mode: 0
LetterboxInBreaks: 0
WidescreenStoryboard: 1

[Editor]
DistanceSpacing: 0.7
BeatDivisor: 4
GridSize: 4
TimelineZoom: 1.6

[Metadata]
Title:Solo
TitleUnicode:Solo
Artist:Los Mesoneros
ArtistUnicode:Los Mesoneros
Creator:XinCrin
Version:Facil
Source:
Tags:rock indeleble caiga la noche alternativa indie
BeatmapID:1445930
BeatmapSetID:675084

[Difficulty]
HPDrainRate:3
CircleSize:3
OverallDifficulty:3
ApproachRate:3
SliderMultiplier:1.3
SliderTickRate:1

[Events]
//Background and Video events
0,0,"bg.jpg",0,0
//Break Periods
2,127862,135279
//Storyboard Layer 0 (Background)
//Storyboard Layer 1 (Fail)
//Storyboard Layer 2 (Pass)
//Storyboard Layer 3 (Foreground)
//Storyboard Sound Samples

[TimingPoints]
870,566.0377,4,3,1,80,1,0
37096,-100,4,3,1,100,0,1
37237,-100,4,3,1,100,0,0
52803,-100,4,3,1,80,0,0
55351,-100,4,3,1,80,0,0
91436,-100,4,3,1,80,0,1
107285,-100,4,3,1,80,0,0
154832,-100,4,3,1,80,0,1
172803,-100,4,3,1,80,0,0

[Colours]
Combo1 : 110,110,110
Combo2 : 223,223,223

[HitObjects]
60,156,18983,6,0,B|120:184|196:136|180:72|180:72|272:64,1,260,0|0,0:0|0:0,0:0:0:0:
348,76,20681,1,8,0:0:0:0:
432,108,21247,2,0,L|424:244,1,130,4|8,0:0|0:0,0:0:0:0:
480,308,22379,2,0,P|416:328|356:300,1,130,4|8,0:0|0:0,0:0:0:0:
288,248,23511,6,0,B|256:216|204:224|180:256|180:256|148:296|92:300|56:268,1,260,4|4,0:0|0:0,0:0:0:0:
36,180,25209,1,8,0:0:0:0:
32,88,25775,2,0,B|76:92|104:120|104:120|124:92|148:80,1,130,4|8,0:0|0:0,0:0:0:0:
228,92,26907,2,0,L|360:96,1,130,4|8,0:0|0:0,0:0:0:0:
416,24,28039,6,0,B|472:60|468:144|412:176|412:176|444:196|452:244,1,260,0|0,0:0|0:0,0:0:0:0:
400,316,29737,1,8,0:0:0:0:
320,272,30303,2,0,L|292:132,1,130,6|8,0:0|0:0,0:0:0:0:
324,60,31436,2,0,P|264:56|208:116,1,130,0|8,0:0|0:0,0:0:0:0:
184,184,32568,5,4,0:0:0:0:
100,216,33134,1,8,0:0:0:0:
52,292,33700,2,0,P|108:308|172:272,1,130,0|8,0:0|0:0,0:0:0:0:
236,216,34832,2,0,B|268:252|252:304|252:304|328:344|416:304,1,260,4|0,0:0|0:0,0:0:0:0:
476,240,36530,1,6,0:0:0:0:
416,172,37096,6,0,L|400:40,1,130,4|8,1:0|0:0,0:0:0:0:
312,32,38228,2,0,B|276:56|224:40|224:40|176:48,1,130,0|8,0:0|0:0,0:0:0:0:
148,128,39360,1,0,0:0:0:0:
64,160,39926,1,8,0:0:0:0:
32,244,40492,2,0,B|76:252|104:240|104:240|120:300,1,130,0|8,0:0|0:0,0:0:0:0:
184,360,41624,6,0,B|216:320|204:276|204:276|228:256|260:248,1,130,0|8,0:0|0:0,0:0:0:0:
328,264,42756,1,0,0:0:0:0:
416,280,43322,1,8,0:0:0:0:
396,192,43888,2,0,B|356:164|292:172|292:172|292:148,1,130,0|8,0:0|0:0,0:0:0:0:
352,84,45020,2,0,P|292:64|228:84,1,130,4|4,2:0|2:0,0:0:0:0:
192,168,46153,5,4,1:0:0:0:
100,168,46719,1,8,0:0:0:0:
44,240,47285,2,0,B|80:260|124:256|124:256|136:308,1,130,0|8,0:0|0:0,0:0:0:0:
208,252,48417,2,0,B|216:292|236:320|236:320|272:312|296:320,1,130,0|8,0:0|0:0,0:0:0:0:
380,340,49549,2,0,B|384:296|368:268|368:268|400:268|424:252,1,130,0|8,0:0|0:0,0:0:0:0:
368,180,50681,6,0,B|328:168|296:180|296:180|292:156|264:128,1,130,0|8,0:0|0:0,0:0:0:0:
188,176,51813,2,0,B|168:144|176:104|176:104|152:112|120:108,1,130,0|8,0:0|0:0,0:0:0:0:
64,40,52945,2,0,B|20:60|28:144|56:168|56:168|92:216|64:280,1,260,4|0,1:0|0:0,0:0:0:0:
40,364,54643,1,0,0:0:0:0:
132,360,55209,6,0,L|264:344,1,130,4|8,0:0|0:0,0:0:0:0:
296,260,56341,2,0,B|332:280|344:320|344:320|364:304|392:296,1,130,0|8,0:0|0:0,0:0:0:0:
464,244,57473,2,0,L|472:96,1,130,0|8,0:0|0:0,0:0:0:0:
412,44,58605,2,0,B|376:64|328:56|328:56|336:76|332:100,1,130,0|8,0:0|0:0,0:0:0:0:
284,176,59737,6,0,P|216:200|156:184,1,130,0|8,0:0|0:0,0:0:0:0:
72,192,60869,2,0,B|64:116|64:116|84:52,1,130,0|8,0:0|0:0,0:0:0:0:
168,40,62002,1,0,0:0:0:0:
244,88,62568,1,8,0:0:0:0:
332,60,63134,2,0,P|392:44|460:64,1,130,0|8,0:0|0:0,0:0:0:0:
460,152,64266,6,0,B|428:192|484:232|452:284,1,130,0|8,0:0|0:0,0:0:0:0:
368,260,65398,1,0,0:0:0:0:
296,316,65964,1,8,0:0:0:0:
220,268,66530,2,0,L|72:288,2,130,0|8|0,0:0|0:0|0:0,0:0:0:0:
268,188,68228,1,8,0:0:0:0:
196,132,68794,6,0,P|252:100|324:112,1,130,0|8,0:0|0:0,0:0:0:0:
384,48,69926,2,0,L|448:172,1,130,0|8,0:0|0:0,0:0:0:0:
412,248,71058,1,0,0:0:0:0:
336,296,71624,1,8,0:0:0:0:
244,308,72190,2,0,B|188:316|152:300|152:300|120:268,1,130,0|8,0:0|0:0,0:0:0:0:
56,216,73322,5,0,0:0:0:0:
60,124,73888,2,0,B|108:120|144:132|144:132|156:116|184:96,1,130,8|0,0:0|0:0,0:0:0:0:
256,56,75020,1,8,0:0:0:0:
328,112,75586,2,0,B|392:124|392:124|460:120,2,130,0|8|0,0:0|0:0|0:0,0:0:0:0:
248,148,77285,2,0,P|216:192|144:212,1,130,8|0,0:0|0:0,0:0:0:0:
64,252,78417,5,8,0:0:0:0:
116,328,78983,1,0,0:0:0:0:
196,288,79549,1,8,0:0:0:0:
284,264,80115,2,0,B|328:256|352:264|352:264|364:240|396:216,1,130,0|8,0:0|0:0,0:0:0:0:
476,180,81247,2,0,P|436:140|360:136,1,130,0|8,0:0|0:0,0:0:0:0:
276,136,82379,5,0,0:0:0:0:
200,88,82945,1,8,0:0:0:0:
112,104,83511,2,0,B|88:168|88:168|92:240,1,130,0|0,0:0|0:0,0:0:0:0:
52,312,84643,2,0,P|116:320|172:280,1,130,0|8,0:0|0:0,0:0:0:0:
252,252,85775,2,0,L|392:264,1,130,0|8,0:0|0:0,0:0:0:0:
468,240,86907,5,0,0:0:0:0:
472,148,87473,1,8,0:0:0:0:
400,92,88039,2,0,B|376:60|344:44|344:44|284:56,1,130,0|8,0:0|0:0,0:0:0:0:
232,124,89171,1,0,0:0:0:0:
144,104,89737,1,8,0:0:0:0:
84,172,90303,2,0,L|76:304,1,130,0|4,0:0|2:0,0:0:0:0:
156,344,91436,6,0,B|236:364|304:336|304:336|320:280|340:256|376:252,1,260,4|0,1:0|0:0,0:0:0:0:
452,216,93134,1,8,0:0:0:0:
412,136,93700,2,0,P|360:112|320:48,1,130,0|8,0:0|0:0,0:0:0:0:
232,56,94832,2,0,L|240:196,1,130,0|8,0:0|0:0,0:0:0:0:
176,252,95964,6,0,P|96:268|48:240,2,130,4|8|0,0:0|0:0|0:0,0:0:0:0:
268,244,97662,1,8,0:0:0:0:
356,216,98228,2,0,B|368:144|368:144|356:68,1,130,0|8,0:0|0:0,0:0:0:0:
280,44,99360,2,0,B|240:76|192:24|144:52,1,130,4|4,2:0|2:0,0:0:0:0:
112,128,100492,5,4,1:0:0:0:
164,204,101058,1,8,0:0:0:0:
104,272,101624,2,0,P|156:292|232:264,1,130,0|8,0:0|0:0,0:0:0:0:
284,340,102756,2,0,L|436:320,1,130,0|8,0:0|0:0,0:0:0:0:
460,244,103888,1,0,0:0:0:0:
464,152,104454,1,8,0:0:0:0:
432,68,105020,6,0,B|388:56|352:72|352:72|296:72,1,130,0|8,0:0|0:0,0:0:0:0:
248,144,106153,2,0,B|264:196|264:196|244:280,1,130,0|8,0:0|0:0,0:0:0:0:
172,320,107285,2,0,B|224:292|296:296|340:348|340:348|420:344,1,260,4|0,0:0|0:0,0:0:0:0:
444,256,108983,1,0,0:0:0:0:
472,168,109549,6,0,P|448:112|432:40,1,130,4|8,0:0|0:0,0:0:0:0:
340,48,110681,2,0,L|340:196,1,130,0|8,0:0|0:0,0:0:0:0:
272,236,111813,1,0,0:0:0:0:
184,220,112379,2,0,P|128:204|60:240,1,130,8|0,0:0|0:0,0:0:0:0:
132,296,113511,1,8,0:0:0:0:
208,344,114077,6,0,P|269:359|326:330,1,130,0|8,0:0|0:0,0:0:0:0:
360,248,115209,2,0,L|496:260,2,130,0|8|0,0:0|0:0|0:0,0:0:0:0:
296,184,116907,1,8,0:0:0:0:
208,208,117473,2,0,B|180:144|180:144|112:116,1,130,0|8,0:0|0:0,0:0:0:0:
76,44,118605,6,0,B|100:152|100:152|48:300,1,260,0|0,0:0|0:0,0:0:0:0:
128,344,120303,1,8,0:0:0:0:
220,344,120869,2,0,P|288:328|352:340,1,130,0|8,0:0|0:0,0:0:0:0:
432,312,122002,2,0,B|424:244|424:244|400:232|372:200,1,130,0|8,0:0|0:0,0:0:0:0:
292,168,123134,6,0,P|336:124|408:124,2,130,0|8|0,0:0|0:0|0:0,0:0:0:0:
248,248,124832,2,0,L|112:248,1,130,8|0,0:0|0:0,0:0:0:0:
56,184,125964,1,8,0:0:0:0:
52,92,126530,2,0,P|136:80|176:48,1,130,0|8,0:0|0:0,0:0:0:0:
256,28,127662,5,4,1:0:0:0:
88,88,136719,6,0,P|104:140|88:212,1,130,4|8,1:0|0:0,0:0:0:0:
96,304,137851,2,0,B|144:292|164:260|164:260|212:260,1,130,0|8,0:0|0:0,0:0:0:0:
268,332,138983,2,0,P|304:268|284:212,1,130,0|8,0:0|0:0,0:0:0:0:
272,128,140115,2,0,L|408:140,2,130,0|8|0,0:0|0:0|0:0,0:0:0:0:
196,80,141813,5,8,0:0:0:0:
116,124,142379,2,0,B|100:168|48:184|48:184|64:224,1,130,0|8,0:0|0:0,0:0:0:0:
116,292,143511,2,0,L|272:288,1,130,0|8,0:0|0:0,0:0:0:0:
316,344,144643,2,0,P|336:284|308:224,1,130,0|8,0:0|0:0,0:0:0:0:
232,180,145775,6,0,P|296:136|360:148,1,130,0|8,0:0|0:0,0:0:0:0:
424,184,146907,2,0,B|440:128|412:88|412:88|424:56,2,130,0|8|0,0:0|0:0|0:0,0:0:0:0:
392,268,148605,1,8,0:0:0:0:
308,304,149171,1,0,0:0:0:0:
228,264,149737,2,0,P|172:240|96:236,1,130,8|0,0:0|0:0,0:0:0:0:
32,180,150869,5,8,0:0:0:0:
100,120,151436,2,0,L|276:112,1,130,0|8,0:0|0:0,0:0:0:0:
316,148,152568,2,0,B|304:212|304:212|306:252|304:288,2,130,0|0|12,0:0|0:0|0:0,0:0:0:0:
364,68,154266,1,8,0:0:0:0:
276,48,154832,6,0,P|188:32|112:64,1,130,4|8,1:0|0:0,0:0:0:0:
104,120,155964,2,0,L|100:264,1,130,0|8,0:0|0:0,0:0:0:0:
28,308,157096,2,0,B|68:264|160:276|184:336|184:336|216:328|264:332,1,260,0|0,0:0|0:0,0:0:0:0:
344,296,158794,1,8,0:0:0:0:
420,244,159360,6,0,P|416:160|416:104,1,130,0|8,0:0|0:0,0:0:0:0:
340,60,160492,1,0,0:0:0:0:
256,96,161058,1,8,0:0:0:0:
184,152,161624,2,0,P|116:136|56:152,1,130,0|8,0:0|0:0,0:0:0:0:
60,240,162756,2,0,P|128:256|188:240,1,130,4|4,2:0|2:0,0:0:0:0:
260,188,163888,6,0,B|304:156|388:180|400:248|400:248|388:292|412:340,1,260,4|0,1:0|0:0,0:0:0:0:
488,284,165586,1,8,0:0:0:0:
476,192,166153,2,0,P|440:132|380:92,1,130,0|8,0:0|0:0,0:0:0:0:
324,40,167285,2,0,L|184:40,1,130,0|8,0:0|0:0,0:0:0:0:
108,68,168417,6,0,B|112:136|112:136|40:176|72:304|176:292,1,260,0|0,0:0|0:0,0:0:0:0:
220,268,170115,1,8,0:0:0:0:
304,304,170681,2,0,L|440:324,1,130,0|8,0:0|0:0,0:0:0:0:
488,252,171813,1,4,2:0:0:0:
496,160,172379,1,4,2:0:0:0:
448,84,172945,6,0,P|384:112|316:96,1,130,4|8,1:0|0:0,0:0:0:0:
240,124,174077,1,0,0:0:0:0:
188,200,174643,1,8,0:0:0:0:
108,244,175209,2,0,P|100:184|140:116,1,130,0|8,0:0|0:0,0:0:0:0:
92,40,176341,2,0,L|252:36,1,130,0|8,0:0|0:0,0:0:0:0:
288,100,177473,5,0,0:0:0:0:
376,80,178039,1,8,0:0:0:0:
452,132,178605,2,0,B|460:196|460:196|444:264,1,130,0|8,0:0|0:0,0:0:0:0:
484,340,179737,2,0,P|416:348|368:308,1,130,0|8,0:0|0:0,0:0:0:0:
292,356,180869,2,0,L|160:352,1,130,4|4,2:0|2:0,0:0:0:0:
72,336,182002,6,0,B|144:324|188:260|188:260|124:248|88:192,1,260,4|0,1:0|0:0,0:0:0:0:
96,108,183700,1,8,0:0:0:0:
172,56,184266,2,0,B|236:56|236:56|300:32,1,130,0|8,0:0|0:0,0:0:0:0:
380,68,185398,2,0,L|364:208,1,130,0|8,0:0|0:0,0:0:0:0:
380,288,186530,6,0,P|432:312|504:292,2,130,0|8|0,0:0|0:0|0:0,0:0:0:0:
320,356,188228,2,0,L|184:340,1,130,8|4,0:0|2:0,0:0:0:0:
100,324,189360,1,4,2:0:0:0:
40,256,189926,2,0,P|92:236|172:260,1,130,4|4,2:0|2:0,0:0:0:0:
256,236,191058,5,4,1:0:0:0:
