osu file format v14

[General]
AudioFilename: audio.mp3
AudioLeadIn: 0
PreviewTime: 154266
Countdown: 0
SampleSet: None
StackLeniency: 0.7
Mode: 0
LetterboxInBreaks: 0
WidescreenStoryboard: 1

[Editor]
DistanceSpacing: 1
BeatDivisor: 4
GridSize: 4
TimelineZoom: 1.6

[Metadata]
Title:Solo
TitleUnicode:Solo
Artist:Los Mesoneros
ArtistUnicode:Los Mesoneros
Creator:XinCrin
Version:Dificil
Source:
Tags:rock indeleble caiga la noche alternativa indie
BeatmapID:1433187
BeatmapSetID:675084

[Difficulty]
HPDrainRate:7
CircleSize:4
OverallDifficulty:7
ApproachRate:7
SliderMultiplier:1.8
SliderTickRate:1

[Events]
//Background and Video events
0,0,"bg.jpg",0,0
//Break Periods
2,127862,133554
//Storyboard Layer 0 (Background)
//Storyboard Layer 1 (Fail)
//Storyboard Layer 2 (Pass)
//Storyboard Layer 3 (Foreground)
//Storyboard Sound Samples

[TimingPoints]
870,566.0377,4,3,1,80,1,0
37096,-100,4,3,1,100,0,1
37237,-100,4,3,1,100,0,0
52803,-100,4,3,1,80,0,0
55351,-100,4,3,1,80,0,0
91436,-100,4,3,1,80,0,1
107285,-100,4,3,1,80,0,0
154832,-100,4,3,1,80,0,1
172803,-100,4,3,1,80,0,0

[Colours]
Combo1 : 110,110,110
Combo2 : 223,223,223

[HitObjects]
72,136,18983,5,0,0:0:0:0:
72,136,19266,2,0,L|72:232,1,90,0|8,0:0|0:0,0:0:0:0:
104,312,19832,1,0,0:0:0:0:
192,332,20115,2,0,B|252:320|276:260|276:260|340:272,1,180,0|8,0:0|0:0,0:0:0:0:
412,220,20964,1,0,0:0:0:0:
404,132,21247,6,0,P|384:84|388:32,1,90,4|0,0:0|0:0,0:0:0:0:
296,40,21813,2,0,L|196:56,1,90,8|0,0:0|0:0,0:0:0:0:
116,64,22379,1,4,0:0:0:0:
68,140,22662,1,0,0:0:0:0:
140,192,22945,2,0,L|240:192,1,90,8|0,0:0|0:0,0:0:0:0:
308,152,23511,5,4,0:0:0:0:
268,72,23794,1,0,0:0:0:0:
192,28,24077,2,0,P|184:80|200:124,1,90,8|0,0:0|0:0,0:0:0:0:
214,271,24643,2,0,B|184:268|156:280|156:280|176:216|124:172,1,180,0|8,0:0|0:0,0:0:0:0:
72,248,25492,1,0,0:0:0:0:
84,336,25775,6,0,P|124:364|168:364,1,90,4|0,0:0|0:0,0:0:0:0:
252,348,26341,2,0,L|344:336,1,90,8|0,0:0|0:0,0:0:0:0:
428,316,26907,2,0,B|408:244|408:244|424:124,1,180,4|8,0:0|0:0,0:0:0:0:
380,60,27756,1,0,0:0:0:0:
292,68,28039,6,0,L|280:168,1,90,0|0,0:0|0:0,0:0:0:0:
212,212,28605,2,0,P|160:216|116:204,1,90,8|0,0:0|0:0,0:0:0:0:
36,192,29171,2,0,B|52:128|116:116|116:116|88:104|76:68,1,180,0|8,0:0|0:0,0:0:0:0:
160,40,30020,1,0,0:0:0:0:
248,64,30303,6,0,L|348:64,1,90,6|0,0:0|0:0,0:0:0:0:
404,124,30869,2,0,P|408:168|400:216,1,90,8|0,0:0|0:0,0:0:0:0:
416,304,31436,2,0,P|372:244|268:244,1,180,0|8,0:0|0:0,0:0:0:0:
208,304,32285,1,0,0:0:0:0:
136,248,32568,6,0,L|152:160,1,90,4|0,0:0|0:0,0:0:0:0:
108,80,33134,1,8,0:0:0:0:
188,36,33417,1,0,0:0:0:0:
264,84,33700,2,0,B|320:100|372:68|372:68|448:72,1,180,0|8,0:0|0:0,0:0:0:0:
484,152,34549,1,0,0:0:0:0:
436,228,34832,6,0,L|340:244,1,90,4|0,0:0|0:0,0:0:0:0:
344,332,35398,2,0,P|296:324|260:292,1,90,8|0,0:0|0:0,0:0:0:0:
180,332,35964,2,0,B|160:272|204:220|204:220|192:156,1,180,0|6,0:0|0:0,0:0:0:0:
128,100,36813,1,0,0:0:0:0:
304,152,37096,6,0,L|404:144,1,90,4|0,1:0|0:0,0:0:0:0:
480,172,37662,2,0,P|492:220|488:272,1,90,8|0,0:0|0:0,0:0:0:0:
440,336,38228,1,0,0:0:0:0:
352,308,38511,1,0,0:0:0:0:
272,348,38794,2,0,L|176:352,1,90,8|0,0:0|0:0,0:0:0:0:
100,312,39360,5,0,0:0:0:0:
136,228,39643,1,0,0:0:0:0:
80,156,39926,2,0,P|120:140|176:144,1,90,8|0,0:0|0:0,0:0:0:0:
204,60,40492,2,0,L|268:128,1,90,0|0,0:0|0:0,0:0:0:0:
356,136,41058,2,0,P|356:88|384:44,1,90,8|0,0:0|0:0,0:0:0:0:
440,116,41624,5,0,0:0:0:0:
420,204,41907,1,0,0:0:0:0:
352,260,42190,2,0,L|256:268,1,90,8|0,0:0|0:0,0:0:0:0:
180,228,42756,1,0,0:0:0:0:
96,256,43039,1,0,0:0:0:0:
108,344,43322,2,0,L|197:336,1,90,8|0,0:0|0:0,0:0:0:0:
288,328,43888,6,0,P|336:332|376:348,1,90,0|0,0:0|0:0,0:0:0:0:
456,312,44454,2,0,L|440:216,1,90,8|0,0:0|0:0,0:0:0:0:
356,104,45020,2,0,B|280:128|280:128|240:120|228:88,1,135,4|0,2:0|0:0,0:0:0:0:
192,84,45586,2,0,P|104:80|44:120,1,135,4|0,2:0|0:0,0:0:0:0:
44,140,46153,5,4,1:0:0:0:
116,192,46436,1,0,0:0:0:0:
92,280,46719,1,8,0:0:0:0:
180,292,47002,1,0,0:0:0:0:
268,276,47285,2,0,P|320:268|360:272,1,90,0|0,0:0|0:0,0:0:0:0:
448,272,47851,2,0,P|452:216|444:176,1,90,8|0,0:0|0:0,0:0:0:0:
376,124,48417,5,0,0:0:0:0:
292,156,48700,1,0,0:0:0:0:
224,96,48983,2,0,P|164:96|128:108,1,90,8|0,0:0|0:0,0:0:0:0:
48,132,49549,2,0,L|4:40,2,90,0|0|8,0:0|0:0|0:0,0:0:0:0:
92,208,50398,1,0,0:0:0:0:
48,288,50681,6,0,P|92:296|136:288,1,90,0|0,0:0|0:0,0:0:0:0:
220,256,51247,2,0,P|256:284|276:324,1,90,8|0,0:0|0:0,0:0:0:0:
364,328,51813,2,0,L|348:112,1,180,0|8,0:0|0:0,0:0:0:0:
292,80,52662,1,0,0:0:0:0:
204,68,52945,6,0,B|168:120|180:192|180:192|96:300|8:180|112:88|168:160|180:192|180:192|160:284|204:320,1,540,4|0,1:0|0:0,0:0:0:0:
288,292,54926,1,0,0:0:0:0:
448,212,55209,6,0,P|452:160|440:124,1,90,4|0,0:0|0:0,0:0:0:0:
352,100,55775,1,8,0:0:0:0:
312,180,56058,1,0,0:0:0:0:
232,136,56341,2,0,L|132:148,1,90,0|0,0:0|0:0,0:0:0:0:
52,136,56907,2,0,P|36:92|44:40,2,90,8|0|0,0:0|0:0|0:0,0:0:0:0:
104,208,57756,5,0,0:0:0:0:
64,288,58039,1,8,0:0:0:0:
144,328,58322,1,0,0:0:0:0:
224,284,58605,2,0,P|268:268|320:272,1,90,0|0,0:0|0:0,0:0:0:0:
396,296,59171,1,8,0:0:0:0:
468,244,59454,1,0,0:0:0:0:
448,156,59737,6,0,P|452:96|440:64,1,90,0|0,0:0|0:0,0:0:0:0:
352,84,60303,2,0,L|248:104,1,90,8|0,0:0|0:0,0:0:0:0:
172,100,60869,1,0,0:0:0:0:
84,112,61153,1,0,0:0:0:0:
72,200,61436,2,0,L|40:296,2,90,8|0|0,0:0|0:0|0:0,0:0:0:0:
160,184,62285,6,0,P|216:188|264:172,1,90,0|8,0:0|0:0,0:0:0:0:
336,164,62851,1,0,0:0:0:0:
420,200,63134,1,0,0:0:0:0:
428,288,63417,1,0,0:0:0:0:
344,320,63700,2,0,L|244:328,1,90,8|0,0:0|0:0,0:0:0:0:
172,288,64266,5,0,0:0:0:0:
84,316,64549,1,0,0:0:0:0:
48,232,64832,2,0,P|44:152|72:52,1,180,8|0,0:0|0:0,0:0:0:0:
160,40,65681,1,0,0:0:0:0:
240,84,65964,2,0,L|336:80,1,90,8|0,0:0|0:0,0:0:0:0:
416,108,66530,6,0,P|424:152|416:200,1,90,0|0,0:0|0:0,0:0:0:0:
336,236,67096,1,8,0:0:0:0:
252,268,67379,1,0,0:0:0:0:
176,220,67662,2,0,P|169:175|177:131,1,90,0|0,0:0|0:0,0:0:0:0:
88,116,68228,2,0,L|72:220,1,90,8|0,0:0|0:0,0:0:0:0:
84,296,68794,5,0,0:0:0:0:
160,344,69077,1,0,0:0:0:0:
240,300,69360,2,0,P|228:252|236:204,1,90,8|0,0:0|0:0,0:0:0:0:
240,300,69926,2,0,B|288:276|356:288|356:288|352:256|368:220,1,180,0|8,0:0|0:0,0:0:0:0:
432,168,70775,1,0,0:0:0:0:
376,96,71058,6,0,P|416:80|472:88,2,90,0|0|8,0:0|0:0|0:0,0:0:0:0:
320,164,71907,1,0,0:0:0:0:
232,140,72190,1,0,0:0:0:0:
144,164,72473,1,0,0:0:0:0:
60,196,72756,2,0,P|56:152|72:104,1,90,8|0,0:0|0:0,0:0:0:0:
144,60,73322,6,0,L|248:60,1,90,0|0,0:0|0:0,0:0:0:0:
320,88,73888,1,8,0:0:0:0:
408,64,74171,1,0,0:0:0:0:
456,140,74454,2,0,B|440:164|440:200|460:220|476:240|476:280|456:312,1,180,0|8,0:0|0:0,0:0:0:0:
372,348,75303,1,0,0:0:0:0:
300,296,75586,6,0,P|248:292|208:304,1,90,0|0,0:0|0:0,0:0:0:0:
120,308,76153,2,0,L|120:204,1,90,8|0,0:0|0:0,0:0:0:0:
76,140,76719,1,0,0:0:0:0:
148,84,77002,1,0,0:0:0:0:
236,88,77285,2,0,P|288:96|344:84,1,90,0|0,0:0|0:0,0:0:0:0:
412,108,77851,6,0,L|416:208,1,90,0|0,0:0|0:0,0:0:0:0:
340,244,78417,1,8,0:0:0:0:
392,316,78700,1,0,0:0:0:0:
308,344,78983,2,0,B|252:328|240:264|240:264|212:288|172:284,1,180,0|8,0:0|0:0,0:0:0:0:
88,268,79832,1,0,0:0:0:0:
48,188,80115,6,0,L|64:88,1,90,0|0,0:0|0:0,0:0:0:0:
148,72,80681,2,0,P|192:92|240:92,1,90,8|0,0:0|0:0,0:0:0:0:
324,84,81247,2,0,B|312:184|312:184|336:268,1,180,0|8,0:0|0:0,0:0:0:0:
404,320,82096,1,0,0:0:0:0:
232,328,82379,6,0,P|180:336|144:328,1,90,0|0,0:0|0:0,0:0:0:0:
72,272,82945,1,8,0:0:0:0:
76,184,83228,1,0,0:0:0:0:
148,128,83511,2,0,B|236:160|236:160|264:128|260:76,1,180,0|0,0:0|0:0,0:0:0:0:
344,44,84360,1,0,0:0:0:0:
392,120,84643,6,0,P|388:164|400:208,1,90,0|0,0:0|0:0,0:0:0:0:
380,296,85209,2,0,L|284:304,1,90,8|0,0:0|0:0,0:0:0:0:
224,244,85775,1,0,0:0:0:0:
140,272,86058,1,0,0:0:0:0:
76,336,86341,2,0,P|52:280|120:184,1,180,8|0,0:0|0:0,0:0:0:0:
164,116,87190,5,0,0:0:0:0:
228,52,87473,2,0,L|344:48,1,90,8|0,0:0|0:0,0:0:0:0:
396,92,88039,2,0,P|404:140|396:184,1,90,0|0,0:0|0:0,0:0:0:0:
312,212,88605,2,0,P|303:256|310:300,1,90,8|0,0:0|0:0,0:0:0:0:
400,320,89171,6,0,L|212:336,1,180,0|8,0:0|0:0,0:0:0:0:
144,292,90020,1,8,0:0:0:0:
80,228,90303,2,0,L|68:136,1,90,0|8,0:0|0:0,0:0:0:0:
156,152,90869,2,0,P|144:100|152:60,1,90,4|0,2:0|0:0,0:0:0:0:
208,224,91436,6,0,B|280:220|300:164|300:164|362:164,1,180,4|8,1:0|0:0,0:0:0:0:
448,132,92285,1,0,0:0:0:0:
384,68,92568,2,0,L|292:68,1,90,0|0,0:0|0:0,0:0:0:0:
204,76,93134,1,8,0:0:0:0:
124,120,93417,1,0,0:0:0:0:
44,160,93700,6,0,B|68:200|112:208|112:208|100:312,1,180,0|8,0:0|0:0,0:0:0:0:
180,348,94549,1,0,0:0:0:0:
264,316,94832,2,0,L|272:220,1,90,0|0,0:0|0:0,0:0:0:0:
332,160,95398,2,0,P|384:156|436:164,1,90,8|0,0:0|0:0,0:0:0:0:
332,160,95964,6,0,P|240:148|176:92,1,180,4|8,0:0|0:0,0:0:0:0:
88,104,96813,1,0,0:0:0:0:
52,184,97096,2,0,L|72:272,1,90,0|0,0:0|0:0,0:0:0:0:
140,328,97662,2,0,P|188:320|228:288,1,90,8|0,0:0|0:0,0:0:0:0:
284,232,98228,6,0,P|344:240|440:320,1,180,0|8,0:0|0:0,0:0:0:0:
356,356,99077,1,0,0:0:0:0:
480,200,99360,2,0,L|468:60,1,135,4|0,2:0|0:0,0:0:0:0:
428,48,99926,2,0,P|356:68|288:52,1,135,4|0,2:0|0:0,0:0:0:0:
256,68,100492,6,0,L|272:168,1,90,4|0,1:0|0:0,0:0:0:0:
212,228,101058,2,0,P|160:244|120:236,1,90,8|0,0:0|0:0,0:0:0:0:
44,200,101624,1,0,0:0:0:0:
44,112,101907,1,0,0:0:0:0:
96,40,102190,2,0,P|137:24|182:29,1,90,8|0,0:0|0:0,0:0:0:0:
264,64,102756,6,0,B|300:112|300:112|436:108,1,180,0|8,0:0|0:0,0:0:0:0:
476,180,103605,1,0,0:0:0:0:
412,244,103888,2,0,L|316:248,1,90,0|0,0:0|0:0,0:0:0:0:
232,264,104454,2,0,P|168:280|136:308,1,90,8|0,0:0|0:0,0:0:0:0:
64,320,105020,6,0,B|84:220|84:220|68:140,1,180,0|8,0:0|0:0,0:0:0:0:
136,84,105869,1,0,0:0:0:0:
224,72,106153,2,0,P|276:88|308:112,1,90,0|0,0:0|0:0,0:0:0:0:
384,148,106719,2,0,L|404:48,1,90,8|0,0:0|0:0,0:0:0:0:
464,164,107285,6,0,L|428:348,1,180,4|0,0:0|0:0,0:0:0:0:
340,344,108134,1,0,0:0:0:0:
252,336,108417,2,0,B|228:328|208:312|208:312|152:328|92:304|92:260,1,180,0|0,0:0|0:0,0:0:0:0:
72,188,109266,1,0,0:0:0:0:
144,40,109549,6,0,P|184:60|212:100,1,90,4|0,0:0|0:0,0:0:0:0:
292,136,110115,2,0,P|340:120|364:80,1,90,8|0,0:0|0:0,0:0:0:0:
440,128,110681,2,0,L|424:216,2,90,0|0|8,0:0|0:0|0:0,0:0:0:0:
404,48,111530,1,0,0:0:0:0:
316,56,111813,5,0,0:0:0:0:
236,100,112096,1,0,0:0:0:0:
148,76,112379,2,0,P|100:76|56:96,1,90,8|0,0:0|0:0,0:0:0:0:
60,180,112945,2,0,L|92:268,1,90,0|0,0:0|0:0,0:0:0:0:
180,252,113511,1,8,0:0:0:0:
252,304,113794,1,0,0:0:0:0:
328,256,114077,6,0,P|376:268|420:256,1,90,0|0,0:0|0:0,0:0:0:0:
444,172,114643,2,0,L|440:72,1,90,8|0,0:0|0:0,0:0:0:0:
352,80,115209,1,0,0:0:0:0:
264,60,115492,1,0,0:0:0:0:
192,112,115775,2,0,P|136:128|92:124,1,90,8|0,0:0|0:0,0:0:0:0:
76,212,116341,6,0,L|180:204,1,90,0|0,0:0|0:0,0:0:0:0:
252,224,116907,2,0,P|288:260|304:304,1,90,8|0,0:0|0:0,0:0:0:0:
392,308,117473,2,0,L|388:208,1,90,0|0,0:0|0:0,0:0:0:0:
332,148,118039,1,8,0:0:0:0:
244,136,118322,1,0,0:0:0:0:
164,176,118605,6,0,P|156:128|168:80,2,90,0|0|8,0:0|0:0|0:0,0:0:0:0:
212,252,119454,1,0,0:0:0:0:
156,320,119737,2,0,L|52:332,1,90,0|0,0:0|0:0,0:0:0:0:
24,252,120303,1,8,0:0:0:0:
72,176,120586,1,0,0:0:0:0:
28,96,120869,6,0,P|68:88|120:96,1,90,0|0,0:0|0:0,0:0:0:0:
172,24,121436,2,0,L|252:96,1,90,8|0,0:0|0:0,0:0:0:0:
264,172,122002,1,0,0:0:0:0:
352,176,122285,1,0,0:0:0:0:
420,120,122568,2,0,P|436:164|432:212,1,90,8|0,0:0|0:0,0:0:0:0:
364,264,123134,5,0,0:0:0:0:
344,352,123417,1,0,0:0:0:0:
256,340,123700,2,0,L|152:332,1,90,8|0,0:0|0:0,0:0:0:0:
80,312,124266,1,0,0:0:0:0:
48,228,124549,1,0,0:0:0:0:
24,140,124832,2,0,P|68:140|120:168,1,90,8|0,0:0|0:0,0:0:0:0:
124,72,125398,6,0,L|216:132,1,90,0|0,0:0|0:0,0:0:0:0:
252,192,125964,1,8,0:0:0:0:
336,160,126247,1,0,0:0:0:0:
416,116,126530,2,0,P|424:168|412:212,1,90,0|0,0:0|0:0,0:0:0:0:
352,268,127096,1,8,0:0:0:0:
436,300,127379,1,0,0:0:0:0:
272,316,127662,5,4,1:0:0:0:
256,192,134454,12,0,136153,0:0:0:0:
84,244,136719,6,0,L|92:300,3,45,4|0|0|0,1:0|0:0|0:0|0:0,0:0:0:0:
120,324,137285,2,0,L|232:312,1,90,8|0,0:0|0:0,0:0:0:0:
300,308,137851,2,0,P|344:320|380:352,1,90,0|0,0:0|0:0,0:0:0:0:
460,316,138417,2,0,L|436:208,1,90,8|0,0:0|0:0,0:0:0:0:
440,228,138841,1,0,0:0:0:0:
440,228,138983,5,0,0:0:0:0:
392,152,139266,1,0,0:0:0:0:
308,116,139549,2,0,L|312:64,2,45,8|0|0,0:0|0:0|0:0,0:0:0:0:
228,160,140115,2,0,P|192:160|144:136,1,90,0|0,0:0|0:0,0:0:0:0:
56,152,140681,2,0,L|88:256,1,90,8|0,0:0|0:0,0:0:0:0:
79,327,141247,6,0,L|124:320,3,45,0|0|0|0,0:0|0:0|0:0|0:0,0:0:0:0:
168,316,141813,2,0,P|216:316|264:336,1,90,8|0,0:0|0:0,0:0:0:0:
340,308,142379,2,0,L|324:204,1,90,0|0,0:0|0:0,0:0:0:0:
248,176,142945,1,8,0:0:0:0:
208,96,143228,1,0,0:0:0:0:
280,40,143511,6,0,L|392:32,1,90,0|0,0:0|0:0,0:0:0:0:
452,72,144077,2,0,P|472:112|476:168,1,90,8|0,0:0|0:0,0:0:0:0:
400,204,144643,1,0,0:0:0:0:
408,292,144926,1,0,0:0:0:0:
324,324,145209,2,0,L|224:328,1,90,8|0,0:0|0:0,0:0:0:0:
153,304,145775,6,0,L|152:252,3,45,0|0|0|0,0:0|0:0|0:0|0:0,0:0:0:0:
136,216,146341,2,0,P|84:224|40:212,1,90,8|0,0:0|0:0,0:0:0:0:
48,215,146766,1,0,0:0:0:0:
48,215,146907,1,0,0:0:0:0:
16,132,147190,1,0,0:0:0:0:
52,48,147473,2,0,P|95:39|139:48,1,90,8|0,0:0|0:0,0:0:0:0:
208,108,148039,5,0,0:0:0:0:
284,156,148322,1,0,0:0:0:0:
360,200,148605,2,0,L|352:304,1,90,8|0,0:0|0:0,0:0:0:0:
440,268,149171,2,0,L|446:178,1,90,0|0,0:0|0:0,0:0:0:0:
446,178,149596,1,0,0:0:0:0:
446,178,149737,1,8,0:0:0:0:
396,104,150020,1,0,0:0:0:0:
318,56,150303,6,0,L|308:100,3,45,0|0|0|0,0:0|0:0|0:0|0:0,0:0:0:0:
288,140,150869,2,0,P|240:152|184:144,1,90,8|0,0:0|0:0,0:0:0:0:
120,188,151436,2,0,L|152:272,1,90,0|0,0:0|0:0,0:0:0:0:
96,344,152002,2,0,L|64:260,1,90,8|0,0:0|0:0,0:0:0:0:
80,112,152568,5,0,0:0:0:0:
164,80,152851,1,12,0:0:0:0:
248,116,153134,2,0,P|252:72|240:24,1,90,0|0,0:0|0:0,0:0:0:0:
168,180,153700,2,0,P|164:224|176:272,1,90,12|0,0:0|0:0,0:0:0:0:
264,288,154266,2,0,L|324:280,3,45,8|8|8|8,0:0|0:0|0:0|0:0,0:0:0:0:
352,284,154832,6,0,P|344:232|352:192,1,90,4|0,1:0|0:0,0:0:0:0:
392,116,155398,2,0,L|488:112,1,90,8|0,0:0|0:0,0:0:0:0:
396,40,155964,2,0,L|212:44,1,180,0|8,0:0|0:0,0:0:0:0:
144,96,156813,1,0,0:0:0:0:
80,160,157096,6,0,P|72:208|80:256,1,90,0|0,0:0|0:0,0:0:0:0:
132,320,157662,1,8,0:0:0:0:
220,296,157945,1,0,0:0:0:0:
304,264,158228,2,0,P|360:272|392:304,1,90,0|0,0:0|0:0,0:0:0:0:
472,272,158794,2,0,L|472:152,1,90,8|0,0:0|0:0,0:0:0:0:
408,120,159360,5,0,0:0:0:0:
320,132,159643,1,0,0:0:0:0:
236,168,159926,2,0,P|228:128|240:80,1,90,8|0,0:0|0:0,0:0:0:0:
160,36,160492,2,0,P|140:96|160:212,1,180,0|8,0:0|0:0,0:0:0:0:
232,260,161341,1,0,0:0:0:0:
316,296,161624,6,0,L|412:292,1,90,0|0,0:0|0:0,0:0:0:0:
464,224,162190,2,0,P|464:176|448:136,1,90,8|0,0:0|0:0,0:0:0:0:
308,124,162756,1,4,2:0:0:0:
384,76,163039,1,0,0:0:0:0:
224,96,163322,2,0,L|128:112,1,90,4|0,2:0|0:0,0:0:0:0:
36,228,163888,6,0,P|76:207|120:198,1,90,4|0,1:0|0:0,0:0:0:0:
204,220,164454,2,0,L|184:312,1,90,8|0,0:0|0:0,0:0:0:0:
272,320,165020,2,0,L|291:232,1,90,0|0,0:0|0:0,0:0:0:0:
356,168,165586,1,8,0:0:0:0:
444,176,165869,1,0,0:0:0:0:
404,96,166153,6,0,P|332:84|268:160,1,180,0|8,0:0|0:0,0:0:0:0:
184,188,167002,1,0,0:0:0:0:
96,176,167285,2,0,L|112:80,2,90,0|0|8,0:0|0:0|0:0,0:0:0:0:
76,264,168134,1,0,0:0:0:0:
152,316,168417,6,0,P|200:324|252:308,1,90,0|0,0:0|0:0,0:0:0:0:
324,284,168983,2,0,P|372:292|412:320,1,90,8|0,0:0|0:0,0:0:0:0:
492,292,169549,2,0,B|500:176|500:176|476:104,1,180,0|8,0:0|0:0,0:0:0:0:
404,68,170398,1,0,0:0:0:0:
328,112,170681,5,0,0:0:0:0:
264,48,170964,1,0,0:0:0:0:
192,104,171247,2,0,P|152:52|116:32,1,90,8|0,0:0|0:0,0:0:0:0:
48,72,171813,2,0,L|52:172,1,90,4|0,2:0|0:0,0:0:0:0:
155,285,172379,2,0,L|152:196,1,90,4|0,2:0|0:0,0:0:0:0:
72,324,172945,6,0,B|160:300|160:300|264:320,1,180,4|8,1:0|0:0,0:0:0:0:
328,280,173794,1,0,0:0:0:0:
408,240,174077,2,0,L|392:144,1,90,0|0,0:0|0:0,0:0:0:0:
312,108,174643,2,0,P|272:128|224:124,1,90,8|0,0:0|0:0,0:0:0:0:
136,124,175209,5,0,0:0:0:0:
72,188,175492,1,0,0:0:0:0:
104,272,175775,2,0,L|212:276,1,90,8|0,0:0|0:0,0:0:0:0:
284,272,176341,2,0,P|336:296|360:336,1,90,0|0,0:0|0:0,0:0:0:0:
440,348,176907,1,8,0:0:0:0:
460,260,177190,1,0,0:0:0:0:
416,180,177473,6,0,B|336:204|336:204|272:184|264:144,1,180,0|8,0:0|0:0,0:0:0:0:
196,88,178322,1,0,0:0:0:0:
112,116,178605,2,0,P|64:144|40:184,1,90,0|0,0:0|0:0,0:0:0:0:
84,252,179171,2,0,L|196:244,1,90,8|0,0:0|0:0,0:0:0:0:
228,316,179737,6,0,P|220:264|244:136,1,180,0|8,0:0|0:0,0:0:0:0:
312,80,180586,1,0,0:0:0:0:
396,52,180869,2,0,P|440:44|496:56,1,90,4|0,2:0|0:0,0:0:0:0:
356,188,181436,2,0,P|311:196|267:188,1,90,4|0,2:0|0:0,0:0:0:0:
272,280,182002,6,0,P|244:196|164:160,1,180,4|8,1:0|0:0,0:0:0:0:
84,200,182851,1,0,0:0:0:0:
36,276,183134,2,0,L|56:364,1,90,0|0,0:0|0:0,0:0:0:0:
84,200,183700,2,0,L|64:112,1,90,8|0,0:0|0:0,0:0:0:0:
128,48,184266,5,0,0:0:0:0:
216,36,184549,1,0,0:0:0:0:
272,108,184832,2,0,P|328:168|420:164,1,180,8|0,0:0|0:0,0:0:0:0:
484,100,185681,1,0,0:0:0:0:
504,188,185964,2,0,L|492:288,1,90,8|0,0:0|0:0,0:0:0:0:
412,320,186530,6,0,P|360:324|312:308,1,90,0|0,0:0|0:0,0:0:0:0:
256,256,187096,1,8,0:0:0:0:
168,280,187379,1,0,0:0:0:0:
88,324,187662,2,0,B|64:280|88:228|88:228|44:240|4:228,1,180,0|8,0:0|0:0,0:0:0:0:
44,148,188511,1,0,0:0:0:0:
124,108,188794,6,0,P|168:104|216:112,1,90,4|0,2:0|0:0,0:0:0:0:
276,176,189360,2,0,L|260:272,1,90,4|0,2:0|0:0,0:0:0:0:
348,296,189926,2,0,L|362:207,1,90,4|0,2:0|0:0,0:0:0:0:
188,217,190492,2,0,B|220:253|220:253|264:265,1,90,4|0,2:0|0:0,0:0:0:0:
444,248,191058,5,4,1:0:0:0:
