osu file format v14

[General]
AudioFilename: audio.mp3
AudioLeadIn: 0
PreviewTime: 30455
Countdown: 0
SampleSet: None
StackLeniency: 0.7
Mode: 2
LetterboxInBreaks: 0
WidescreenStoryboard: 0

[Editor]
DistanceSpacing: 1.3
BeatDivisor: 4
GridSize: 32
TimelineZoom: 2.6

[Metadata]
Title:Halloween
TitleUnicode:Halloween
Artist:Los Fix
ArtistUnicode:Los Fix
Creator:Ponchiwi
Version:Salad
Source:
Tags:Jusenkyo Necesitamos Cambiar
BeatmapID:1116462
BeatmapSetID:512281

[Difficulty]
HPDrainRate:4
CircleSize:3
OverallDifficulty:7
ApproachRate:7
SliderMultiplier:1.3
SliderTickRate:1

[Events]
//Background and Video events
0,0,"LosFixwallpaper2.jpg",0,0
//Break Periods
//Storyboard Layer 0 (Background)
//Storyboard Layer 1 (Fail)
//Storyboard Layer 2 (Pass)
//Storyboard Layer 3 (Foreground)
//Storyboard Sound Samples

[TimingPoints]
662,413.793103448276,4,3,1,75,1,0
13903,-133.333333333333,4,3,1,75,0,0
20524,-100,4,3,1,75,0,0
30455,-83.3333333333333,4,3,1,90,0,1
35420,-90.9090909090909,4,3,1,75,0,0
37075,-83.3333333333333,4,3,1,90,0,1
43696,-100,4,3,1,75,0,0
56937,-100,4,3,1,75,0,0
70179,-90.9090909090909,4,3,1,75,0,0
73489,-83.3333333333333,4,3,1,90,0,1
78455,-100,4,3,1,75,0,0
80110,-83.3333333333333,4,3,1,90,0,1
85075,-83.3333333333333,4,3,1,75,0,0
86730,-83.3333333333333,4,3,1,90,0,1
91696,-83.3333333333333,4,3,1,75,0,0
93351,-83.3333333333333,4,3,1,90,0,1
98317,-83.3333333333333,4,3,1,75,0,0
99972,-83.3333333333333,4,3,1,90,0,1
103282,444.444444444444,4,3,1,75,1,0
103282,-133.333333333333,4,3,1,75,0,0
104170,451.127819548872,4,3,1,75,1,0
105297,-133.333333333333,4,3,1,65,0,0
106425,-133.333333333333,4,3,1,55,0,0
107779,-133.333333333333,4,3,1,45,0,0
109583,-133.333333333333,4,3,1,35,0,0
111388,-133.333333333333,4,3,1,25,0,0
113192,-133.333333333333,4,3,1,15,0,0
114997,-133.333333333333,4,3,1,10,0,0

[Colours]
Combo1 : 107,228,254
Combo2 : 243,41,86
Combo3 : 255,242,115
Combo4 : 7,227,149
Combo5 : 255,149,224

[HitObjects]
352,96,662,6,0,L|256:96,1,65,0|8,0:0|0:0,0:0:0:0:
128,96,1282,1,8,0:0:0:0:
224,96,1489,2,0,L|320:96,1,65,2|8,0:0|0:0,0:0:0:0:
448,96,2110,1,8,0:0:0:0:
352,96,2317,6,0,L|256:96,1,65,0|8,0:0|0:0,0:0:0:0:
128,192,2937,1,8,0:0:0:0:
224,256,3144,2,0,L|288:256,2,65,2|8|0,0:0|0:0|0:0,0:0:0:0:
448,256,3972,6,0,L|383:256,1,65,6|8,2:0|0:0,0:0:0:0:
192,128,4593,1,8,0:0:0:0:
288,128,4799,2,0,L|384:128,1,65,2|8,0:0|0:0,0:0:0:0:
480,128,5420,1,8,0:0:0:0:
384,128,5627,6,0,L|286:128,2,97.5,6|0|8,2:0|0:0|0:0,0:0:0:0:
480,128,6455,1,6,2:0:0:0:
352,128,6868,1,8,0:0:0:0:
32,128,7282,6,0,L|97:128,1,65,6|8,2:0|0:0,0:0:0:0:
288,256,7903,2,0,L|192:256,2,65,8|0|8,0:0|0:0|0:0,0:0:0:0:
160,256,8627,1,0,0:0:0:0:
0,128,8937,6,0,L|65:128,1,65,6|8,2:0|0:0,0:0:0:0:
288,256,9558,1,8,0:0:0:0:
192,256,9764,1,0,0:0:0:0:
288,256,9972,2,0,L|352:256,2,65,8|0|8,0:0|0:0|0:0,0:0:0:0:
192,256,10592,6,0,L|96:256,1,65,6|8,2:0|0:0,0:0:0:0:
320,192,11213,1,8,0:0:0:0:
416,192,11420,2,0,L|351:192,1,65,0|8,0:0|0:0,0:0:0:0:
256,128,12041,1,8,0:0:0:0:
384,128,12248,6,0,L|449:128,1,65,6|8,2:0|0:0,0:0:0:0:
352,128,12662,2,0,L|287:128,1,65,0|8,0:0|0:0,0:0:0:0:
192,128,13075,1,2,0:0:0:0:
288,128,13282,1,8,0:0:0:0:
192,128,13489,1,8,0:0:0:0:
96,128,13695,1,8,0:0:0:0:
304,128,13903,6,0,L|450:128,1,146.250005578995,2|0,0:0|0:0,0:0:0:0:
288,192,14937,1,0,0:0:0:0:
352,192,15144,2,0,L|416:192,2,48.750001859665,0|0|0,0:0|0:0|0:0,0:0:0:0:
256,192,15868,1,0,0:0:0:0:
160,192,16179,5,0,0:0:0:0:
288,288,16593,2,0,L|352:288,2,48.750001859665,0|0|0,0:0|0:0|0:0,0:0:0:0:
224,288,17213,1,0,0:0:0:0:
320,288,17524,1,0,0:0:0:0:
416,288,17834,6,0,L|480:288,2,48.750001859665,0|0|0,0:0|0:0|0:0,0:0:0:0:
320,288,18455,1,0,0:0:0:0:
224,288,18662,1,0,0:0:0:0:
320,288,18868,1,0,0:0:0:0:
224,288,19179,1,0,0:0:0:0:
321,224,19489,6,0,L|385:224,1,48.750001859665,0|0,0:0|0:0,0:0:0:0:
480,128,20110,1,8,0:0:0:0:
160,128,20524,6,0,L|95:128,1,65,4|8,2:0|0:0,0:0:0:0:
288,256,21041,2,0,L|321:256,1,32.5,0|8,0:0|0:0,0:0:0:0:
384,160,21351,2,0,L|288:160,1,65,2|8,0:0|0:0,0:0:0:0:
160,160,21868,6,0,L|128:160,1,32.5,0|8,0:0|0:0,0:0:0:0:
64,256,22179,2,0,L|160:256,1,65,2|8,0:0|0:0,0:0:0:0:
288,128,22696,2,0,L|256:128,1,32.5,0|8,0:0|0:0,0:0:0:0:
160,128,23006,2,0,L|95:128,1,65,2|8,0:0|0:0,0:0:0:0:
256,224,23524,6,0,L|256:256,1,32.5,0|0,0:0|0:0,0:0:0:0:
352,320,23834,2,0,L|287:320,1,65,2|8,0:0|0:0,0:0:0:0:
128,160,24351,2,0,L|128:192,1,32.5,0|8,0:0|0:0,0:0:0:0:
64,256,24662,2,0,L|160:256,1,65,2|8,0:0|0:0,0:0:0:0:
256,256,25179,6,0,L|288:256,1,32.5,0|0,0:0|0:0,0:0:0:0:
384,256,25489,2,0,L|480:256,1,65,2|8,0:0|0:0,0:0:0:0:
288,96,26006,2,0,L|256:96,1,32.5,0|8,0:0|0:0,0:0:0:0:
320,96,26317,1,2,2:0:0:0:
415,96,26524,5,8,0:0:0:0:
320,96,26730,1,8,0:0:0:0:
224,96,26937,1,8,0:0:0:0:
32,160,27144,2,0,L|96:160,1,65,4|8,2:0|0:0,0:0:0:0:
288,160,27662,6,0,L|320:160,1,32.5,0|8,0:0|0:0,0:0:0:0:
256,160,27972,2,0,L|191:160,1,65,2|8,0:0|0:0,0:0:0:0:
352,288,28489,2,0,L|384:288,1,32.5,0|8,0:0|0:0,0:0:0:0:
480,288,28799,2,0,L|384:288,1,65,2|8,0:0|0:0,0:0:0:0:
256,128,29213,6,0,L|321:128,1,65,0|8,0:0|0:0,0:0:0:0:
416,128,29627,1,6,2:0:0:0:
288,128,29834,2,0,L|223:128,2,65,8|8|8,0:0|0:0|0:0,0:0:0:0:
496,192,30455,6,0,L|340:192,1,155.999995239258,4|0,2:0|0:0,0:0:0:0:
128,256,31282,2,0,L|50:256,2,77.999997619629,0|8|0,0:0|0:0|0:0,0:0:0:0:
320,256,32110,2,0,L|412:256,1,77.999997619629,4|0,2:0|0:0,0:0:0:0:
320,160,32524,2,0,L|224:160,1,77.999997619629,0|8,0:0|0:0,0:0:0:0:
160,160,32937,2,0,L|82:160,2,77.999997619629,0|8|0,0:0|0:0|0:0,0:0:0:0:
416,160,33765,6,0,L|299:160,2,116.999996429443,4|0|8,2:0|0:0|0:0,0:0:0:0:
320,160,34593,2,0,L|164:160,2,155.999995239258,0|0|4,0:0|0:0|2:0,0:0:0:0:
160,160,35834,2,0,L|88:160,1,71.5000021820069,0|8,0:0|0:0,0:0:0:0:
205,160,36248,1,4,2:0:0:0:
320,160,36455,2,0,L|391:160,2,71.5000021820069,8|8|8,0:0|0:0|0:0,0:0:0:0:
96,160,37075,6,0,L|252:160,1,155.999995239258,4|0,2:0|0:0,0:0:0:0:
416,160,37903,2,0,L|524:160,2,77.999997619629,0|8|0,0:0|0:0|0:0,0:0:0:0:
224,288,38730,2,0,L|128:288,1,77.999997619629,4|8,2:0|0:0,0:0:0:0:
64,192,39144,2,0,L|142:192,1,77.999997619629,0|8,0:0|0:0,0:0:0:0:
224,288,39558,2,0,L|302:288,2,77.999997619629,0|8|0,0:0|0:0|0:0,0:0:0:0:
437,160,40386,6,0,L|320:160,2,116.999996429443,4|0|0,2:0|0:0|0:0,0:0:0:0:
352,256,41213,2,0,L|192:256,1,155.999995239258,4|0,2:2|0:0,0:0:0:0:
32,128,42041,2,0,L|188:128,1,155.999995239258,4|0,2:0|0:0,0:0:0:0:
384,128,42868,1,4,2:0:0:0:
272,128,43075,2,0,L|192:128,2,77.999997619629,8|0|0,0:0|0:0|0:0,0:0:0:0:
496,128,43696,6,0,L|431:128,1,65,4|8,2:0|0:0,0:0:0:0:
256,96,44316,1,8,0:0:0:0:
160,96,44523,2,0,L|96:96,2,65,0|8|0,0:0|0:0|0:0,0:0:0:0:
256,96,45144,1,8,0:0:0:0:
400,96,45351,6,0,L|304:96,1,65,4|8,2:0|0:0,0:0:0:0:
160,192,45971,1,8,0:0:0:0:
256,192,46179,2,0,L|320:192,2,65,0|8|0,0:0|0:0|0:0,0:0:0:0:
160,192,46799,1,8,0:0:0:0:
15,256,47006,6,0,L|80:256,1,65,4|8,2:0|0:0,0:0:0:0:
320,256,47627,1,8,0:0:0:0:
224,256,47834,2,0,L|128:256,2,65,0|8|0,0:0|0:0|0:0,0:0:0:0:
320,256,48454,1,8,0:0:0:0:
448,192,48661,6,0,L|384:192,1,65,4|8,2:0|0:0,0:0:0:0:
160,192,49282,2,0,L|64:192,2,65,8|4|8,0:0|2:1|0:0,0:0:0:0:
352,192,50110,1,8,0:0:0:0:
128,192,50317,6,0,L|63:192,1,65,4|8,2:0|0:0,0:0:0:0:
256,320,50936,1,0,0:0:0:0:
352,224,51144,2,0,L|448:224,2,65,0|8|0,0:0|0:0|0:0,0:0:0:0:
256,224,51764,1,0,0:0:0:0:
112,288,51972,6,0,L|186:288,1,65,4|0,2:0|0:0,0:0:0:0:
351,256,52592,1,8,0:0:0:0:
448,256,52798,1,0,0:0:0:0:
352,256,53006,2,0,L|288:256,2,65,8|0|8,0:0|0:0|0:0,0:0:0:0:
490,256,53627,6,0,L|394:256,1,65,4|8,2:0|0:0,0:0:0:0:
224,256,54247,1,8,0:0:0:0:
128,256,54455,2,0,L|63:256,1,65,0|8,0:0|0:0,0:0:0:0:
192,192,55074,1,8,0:0:0:0:
352,192,55282,6,0,L|417:192,1,65,4|8,2:0|0:0,0:0:0:0:
224,128,55903,1,8,0:0:0:0:
128,128,56110,1,4,2:0:0:0:
224,128,56317,2,0,L|288:128,2,65,8|8|8,0:0|0:0|0:0,0:0:0:0:
16,128,56937,6,0,L|81:128,1,65,4|8,2:0|0:0,0:0:0:0:
192,160,57454,2,0,L|225:160,1,32.5,0|8,0:0|0:0,0:0:0:0:
160,224,57765,2,0,L|95:224,1,65,2|8,0:0|0:0,0:0:0:0:
288,224,58282,2,0,L|320:224,1,32.5,0|8,0:0|0:0,0:0:0:0:
416,224,58593,6,0,L|481:224,1,65,2|8,0:0|0:0,0:0:0:0:
288,160,59109,2,0,L|256:160,1,32.5,0|8,0:0|0:0,0:0:0:0:
128,96,59420,2,0,L|193:96,1,65,2|8,0:0|0:0,0:0:0:0:
384,96,59937,2,0,L|352:96,1,32.5,0|8,0:0|0:0,0:0:0:0:
256,96,60248,6,0,L|191:96,1,65,2|8,0:0|0:0,0:0:0:0:
384,192,60764,2,0,L|352:192,1,32.5,0|8,0:0|0:0,0:0:0:0:
224,288,61075,2,0,L|289:288,1,65,2|8,0:0|0:0,0:0:0:0:
382,128,61592,2,0,L|414:128,1,32.5,0|8,0:0|0:0,0:0:0:0:
272,128,61903,6,0,L|207:128,1,65,2|8,0:0|0:0,0:0:0:0:
96,256,62420,2,0,L|64:256,1,32.5,0|8,0:0|0:0,0:0:0:0:
192,256,62730,2,0,L|288:256,1,65,2|8,0:0|0:0,0:0:0:0:
64,160,63248,2,0,L|96:160,1,32.5,0|0,0:0|0:0,0:0:0:0:
304,96,63558,6,0,L|369:96,1,65,4|8,2:0|0:0,0:0:0:0:
256,192,64075,2,0,L|288:192,1,32.5,0|8,0:0|0:0,0:0:0:0:
384,192,64386,2,0,L|480:192,1,65,2|8,0:0|0:0,0:0:0:0:
288,192,64902,2,0,L|256:192,1,32.5,0|8,0:0|0:0,0:0:0:0:
352,96,65213,6,0,L|256:96,1,65,2|8,0:0|0:0,0:0:0:0:
128,224,65730,2,0,L|160:224,1,32.5,0|8,0:0|0:0,0:0:0:0:
256,224,66041,2,0,L|352:224,1,65,2|8,0:0|0:0,0:0:0:0:
448,256,66558,2,0,L|480:256,1,32.5,0|8,0:0|0:0,0:0:0:0:
384,320,66868,6,0,L|288:320,1,65,2|8,0:0|0:0,0:0:0:0:
192,288,67386,2,0,L|192:256,1,32.5,0|8,0:0|0:0,0:0:0:0:
64,224,67696,2,0,L|129:224,1,65,2|8,0:0|0:0,0:0:0:0:
288,192,68213,2,0,L|288:160,1,32.5,0|8,0:0|0:0,0:0:0:0:
418,96,68524,6,0,L|353:96,1,65,2|8,0:0|0:0,0:0:0:0:
192,160,69041,2,0,L|224:160,1,32.5,0|8,0:0|0:0,0:0:0:0:
353,96,69351,2,0,L|449:96,1,65,2|8,0:0|0:0,0:0:0:0:
256,256,69868,2,0,L|224:256,1,32.5,0|8,0:0|0:0,0:0:0:0:
16,256,70179,6,0,L|176:256,1,143.000004364014,4|0,2:0|0:0,0:0:0:0:
352,256,71006,2,0,L|495:256,1,143.000004364014,2|0,0:0|0:0,0:0:0:0:
384,160,71834,2,0,L|241:160,2,143.000004364014,2|0|4,0:0|0:0|2:0,0:0:0:0:
288,160,72868,1,8,0:0:0:0:
192,160,73075,1,8,0:0:0:0:
288,160,73282,1,8,0:0:0:0:
496,96,73489,6,0,L|340:96,1,155.999995239258,4|0,2:0|0:0,0:0:0:0:
96,96,74316,2,0,L|18:96,2,77.999997619629,0|8|0,0:0|0:0|0:0,0:0:0:0:
256,192,75144,2,0,L|160:192,1,77.999997619629,4|8,2:0|0:0,0:0:0:0:
256,192,75558,2,0,L|352:192,1,77.999997619629,0|8,0:0|0:0,0:0:0:0:
416,192,75972,2,0,L|320:192,2,77.999997619629,0|8|0,0:0|0:0|0:0,0:0:0:0:
192,192,76799,6,0,L|64:192,2,116.999996429443,4|0|8,2:0|0:0|0:0,0:0:0:0:
288,160,77627,2,0,L|128:160,2,155.999995239258,0|0|4,0:0|0:0|2:0,0:0:0:0:
448,160,78868,1,0,0:0:0:0:
256,224,79282,1,4,2:0:0:0:
160,224,79489,2,0,L|95:224,2,65,8|8|8,0:0|0:0|0:0,0:0:0:0:
384,224,80110,6,0,L|493:111,1,155.999995239258,4|0,2:0|0:0,0:0:0:0:
224,160,80937,2,0,L|146:160,2,77.999997619629,4|8|0,2:0|0:0|0:0,0:0:0:0:
352,160,81765,2,0,L|256:160,1,77.999997619629,4|8,2:0|0:0,0:0:0:0:
192,256,82179,2,0,L|288:256,1,77.999997619629,0|8,0:0|0:0,0:0:0:0:
370,256,82592,2,0,L|448:256,2,77.999997619629,0|8|0,0:0|0:0|0:0,0:0:0:0:
160,192,83420,6,0,L|32:192,2,116.999996429443,4|0|8,2:0|0:0|0:0,0:0:0:0:
288,192,84248,2,0,L|448:192,2,155.999995239258,4|0|4,2:0|0:0|2:0,0:0:0:0:
64,256,85489,1,0,0:0:0:0:
256,64,85903,2,0,L|352:64,1,77.999997619629,8|8,0:0|0:0,0:0:0:0:
416,64,86317,2,0,L|494:64,1,77.999997619629,8|8,0:0|0:0,0:0:0:0:
276,128,86730,6,0,L|120:128,1,155.999995239258,4|0,2:0|0:0,0:0:0:0:
352,288,87558,2,0,L|430:288,2,77.999997619629,0|8|0,0:0|0:0|0:0,0:0:0:0:
146,288,88386,2,0,L|224:288,1,77.999997619629,4|8,2:0|0:0,0:0:0:0:
288,224,88799,2,0,L|192:224,1,77.999997619629,0|8,0:0|0:0,0:0:0:0:
96,160,89213,2,0,L|18:160,2,77.999997619629,0|8|0,0:0|0:0|0:0,0:0:0:0:
320,96,90041,6,0,L|192:96,2,116.999996429443,4|0|8,2:0|0:0|0:0,0:0:0:0:
224,160,90868,2,0,L|384:160,2,155.999995239258,4|0|4,2:0|0:0|2:0,0:0:0:0:
64,128,92109,1,0,0:0:0:0:
256,128,92524,1,4,2:0:0:0:
352,128,92730,2,0,L|448:128,2,77.999997619629,8|8|8,0:0|0:0|0:0,0:0:0:0:
144,288,93351,6,0,L|300:288,1,155.999995239258,4|0,2:0|0:0,0:0:0:0:
242,128,94179,2,0,L|320:128,2,77.999997619629,0|8|0,0:0|0:0|0:0,0:0:0:0:
96,288,95006,2,0,L|192:288,1,77.999997619629,4|8,2:0|0:0,0:0:0:0:
256,224,95420,2,0,L|160:224,1,77.999997619629,0|8,0:0|0:0,0:0:0:0:
288,224,95834,2,0,L|366:224,2,77.999997619629,0|8|0,0:0|0:0|0:0,0:0:0:0:
96,160,96661,6,0,L|213:160,2,116.999996429443,4|0|8,2:0|0:0|0:0,0:0:0:0:
224,288,97489,2,0,L|384:288,2,155.999995239258,4|0|4,2:0|0:0|2:0,0:0:0:0:
64,160,98730,1,0,0:0:0:0:
256,288,99144,2,0,L|178:288,1,77.999997619629,8|8,0:0|0:0,0:0:0:0:
64,288,99558,2,0,L|142:288,1,77.999997619629,8|8,0:0|0:0,0:0:0:0:
352,224,99972,6,0,L|512:224,1,155.999995239258,4|0,2:0|0:0,0:0:0:0:
256,224,100799,2,0,L|412:224,1,155.999995239258,4|0,2:0|0:0,0:0:0:0:
256,128,101627,2,0,L|100:128,1,155.999995239258,4|0,2:0|0:0,0:0:0:0:
224,256,102455,2,0,L|302:256,1,77.999997619629,8|8,0:0|0:0,0:0:0:0:
384,256,102868,2,0,L|306:256,1,77.999997619629,8|8,0:0|0:0,0:0:0:0:
80,256,103282,5,4,2:2:0:0:
400,128,104170,1,4,2:2:0:0:
256,192,105072,12,0,114997,0:0:0:0:
