osu file format v14

[General]
AudioFilename: audio.mp3
AudioLeadIn: 0
PreviewTime: 30455
Countdown: 0
SampleSet: None
StackLeniency: 0.7
Mode: 2
LetterboxInBreaks: 0
WidescreenStoryboard: 0

[Editor]
DistanceSpacing: 1
BeatDivisor: 2
GridSize: 32
TimelineZoom: 2.6

[Metadata]
Title:Halloween
TitleUnicode:Halloween
Artist:Los Fix
ArtistUnicode:Los Fix
Creator:Ponchiwi
Version:Cup
Source:
Tags:Jusenkyo Necesitamos Cambiar
BeatmapID:1088710
BeatmapSetID:512281

[Difficulty]
HPDrainRate:3
CircleSize:2.5
OverallDifficulty:6
ApproachRate:6
SliderMultiplier:1
SliderTickRate:1

[Events]
//Background and Video events
0,0,"LosFixwallpaper2.jpg",0,0
//Break Periods
//Storyboard Layer 0 (Background)
//Storyboard Layer 1 (Fail)
//Storyboard Layer 2 (Pass)
//Storyboard Layer 3 (Foreground)
//Storyboard Sound Samples

[TimingPoints]
662,413.793103448276,4,3,1,75,1,0
13903,-133.333333333333,4,3,1,75,0,0
20524,-100,4,3,1,75,0,0
30455,-83.3333333333333,4,3,1,90,0,1
35420,-90.9090909090909,4,3,1,75,0,0
37075,-83.3333333333333,4,3,1,90,0,1
43696,-100,4,3,1,75,0,0
70179,-90.9090909090909,4,3,1,75,0,0
73489,-83.3333333333333,4,3,1,90,0,1
78455,-100,4,3,1,75,0,0
80110,-83.3333333333333,4,3,1,90,0,1
85075,-83.3333333333333,4,3,1,75,0,0
86730,-83.3333333333333,4,3,1,90,0,1
91696,-83.3333333333333,4,3,1,75,0,0
93351,-83.3333333333333,4,3,1,90,0,1
98317,-83.3333333333333,4,3,1,75,0,0
99972,-83.3333333333333,4,3,1,90,0,1
103282,444.444444444444,4,3,1,75,1,0
103282,-133.333333333333,4,3,1,75,0,0
104170,451.127819548872,4,3,1,75,1,0
105297,-133.333333333333,4,3,1,65,0,0
106425,-133.333333333333,4,3,1,55,0,0
107779,-133.333333333333,4,3,1,45,0,0
109583,-133.333333333333,4,3,1,35,0,0
111388,-133.333333333333,4,3,1,25,0,0
113192,-133.333333333333,4,3,1,15,0,0
114997,-133.333333333333,4,3,1,10,0,0

[Colours]
Combo1 : 107,228,254
Combo2 : 243,41,86
Combo3 : 255,242,115
Combo4 : 7,227,149
Combo5 : 255,149,224

[HitObjects]
152,192,662,6,0,L|280:192,1,100,0|0,0:0|0:0,0:0:0:0:
384,192,1489,1,2,0:0:0:0:
192,192,1903,1,0,0:0:0:0:
352,192,2317,2,0,L|224:192,2,100,0|0|2,0:0|0:0|0:0,0:0:0:0:
480,192,3558,1,0,0:0:0:0:
320,256,3972,6,0,L|192:256,1,100,6|0,2:0|0:0,0:0:0:0:
128,256,4799,1,2,0:0:0:0:
288,256,5213,1,0,0:0:0:0:
128,128,5627,2,0,L|28:128,2,100,6|0|6,2:0|0:0|2:0,0:0:0:0:
256,128,6868,1,8,0:0:0:0:
96,256,7282,6,0,L|224:256,1,100,6|0,2:0|0:0,0:0:0:0:
352,256,8110,1,0,0:0:0:0:
256,160,8524,1,0,0:0:0:0:
128,64,8937,2,0,L|0:64,2,100,6|0|0,2:0|0:0|0:0,0:0:0:0:
288,64,10179,1,0,0:0:0:0:
496,160,10593,6,0,L|368:160,1,100,6|0,2:0|0:0,0:0:0:0:
224,224,11420,1,0,0:0:0:0:
384,224,11834,1,0,0:0:0:0:
216,288,12248,2,0,L|88:288,2,100,6|0|2,2:0|0:0|0:0,0:0:0:0:
320,288,13489,1,8,0:0:0:0:
480,224,13903,6,0,L|352:224,2,112.500004291535,2|0|0,0:0|0:0|0:0,0:0:0:0:
320,128,15558,2,0,L|192:128,1,112.500004291535,0|0,0:0|0:0,0:0:0:0:
32,224,16799,1,0,0:0:0:0:
192,288,17213,6,0,L|320:288,1,112.500004291535,0|0,0:0|0:0,0:0:0:0:
192,192,18455,1,0,0:0:0:0:
96,192,18868,6,0,L|224:192,2,112.500004291535,0|0|8,0:0|0:0|0:0,0:0:0:0:
288,160,20524,5,4,2:0:0:0:
128,160,20937,1,0,0:0:0:0:
288,256,21351,2,0,L|388:256,1,100,2|0,0:0|0:0,0:0:0:0:
224,256,22179,2,0,L|124:256,1,100,2|0,0:0|0:0,0:0:0:0:
224,256,23006,1,2,0:0:0:0:
64,256,23420,1,0,0:0:0:0:
192,160,23834,6,0,L|64:160,1,100,2|0,0:0|0:0,0:0:0:0:
224,192,24662,1,2,0:0:0:0:
352,192,25075,1,0,0:0:0:0:
160,256,25489,2,0,L|32:256,2,100,2|0|2,0:0|0:0|2:0,0:0:0:0:
288,256,26730,1,8,0:0:0:0:
448,160,27144,6,0,L|320:160,1,100,4|0,2:0|0:0,0:0:0:0:
160,160,27972,1,2,0:0:0:0:
320,160,28386,1,0,0:0:0:0:
160,256,28799,2,0,L|288:256,2,100,2|0|6,0:0|0:0|2:0,0:0:0:0:
320,192,30041,1,8,0:0:0:0:
480,96,30455,6,0,L|360:96,1,119.999996337891,4|0,2:0|0:0,0:0:0:0:
160,96,31282,2,0,L|100:96,2,59.9999981689454,0|8|0,0:0|0:0|0:0,0:0:0:0:
288,192,32110,6,0,L|168:192,1,119.999996337891,4|0,2:0|0:0,0:0:0:0:
320,192,32937,2,0,L|384:192,2,59.9999981689454,0|8|0,0:0|0:0|0:0,0:0:0:0:
128,192,33765,6,0,L|32:288,1,119.999996337891,4|0,2:0|0:0,0:0:0:0:
224,288,34593,2,0,L|352:288,1,119.999996337891,0|0,0:0|0:0,0:0:0:0:
256,288,35420,1,4,2:0:0:0:
128,288,35834,1,0,0:0:0:0:
288,224,36248,2,0,L|178:224,1,110.000003356934,4|8,2:0|0:0,0:0:0:0:
32,292,37075,6,0,L|158:292,1,119.999996337891,4|0,2:0|0:0,0:0:0:0:
340,256,37903,2,0,L|404:256,2,59.9999981689454,0|8|0,0:0|0:0|0:0,0:0:0:0:
160,256,38730,6,0,L|280:256,1,119.999996337891,4|0,2:0|0:0,0:0:0:0:
192,160,39558,2,0,L|132:160,2,59.9999981689454,0|8|0,0:0|0:0|0:0,0:0:0:0:
384,256,40386,6,0,L|512:256,1,119.999996337891,4|0,2:0|0:0,0:0:0:0:
352,320,41213,1,4,2:2:0:0:
224,320,41627,1,0,0:0:0:0:
416,256,42041,2,0,L|256:256,1,119.999996337891,4|0,2:0|0:0,0:0:0:0:
160,256,42868,2,0,L|288:256,1,119.999996337891,4|8,2:0|0:0,0:0:0:0:
416,192,43696,6,0,L|316:192,1,100,4|0,2:0|0:0,0:0:0:0:
160,192,44524,1,0,0:0:0:0:
288,192,44937,1,0,0:0:0:0:
452,192,45351,6,0,L|352:192,2,100,4|0|0,2:0|0:0|0:0,0:0:0:0:
320,192,46592,1,0,0:0:0:0:
192,192,47006,6,0,L|64:192,1,100,4|0,2:0|0:0,0:0:0:0:
224,288,47834,1,0,0:0:0:0:
352,288,48248,1,0,0:0:0:0:
160,192,48661,2,0,L|60:192,2,100,4|0|4,2:0|0:0|2:1,0:0:0:0:
28,192,49902,1,0,0:0:0:0:
224,256,50316,6,0,L|324:256,1,100,4|0,2:0|0:0,0:0:0:0:
160,256,51144,1,0,0:0:0:0:
352,256,51558,1,0,0:0:0:0:
192,320,51971,2,0,L|292:320,2,100,4|0|0,2:0|0:0|0:0,0:0:0:0:
64,320,53213,1,0,0:0:0:0:
256,224,53627,6,0,L|356:224,1,100,4|0,2:0|0:0,0:0:0:0:
256,320,54455,1,0,0:0:0:0:
448,320,54868,1,0,0:0:0:0:
256,288,55282,2,0,L|128:288,2,100,4|0|4,2:0|0:0|2:0,0:0:0:0:
128,320,56523,1,8,0:0:0:0:
0,224,56937,6,0,L|128:224,1,100,4|0,2:0|0:0,0:0:0:0:
256,128,57765,1,2,0:0:0:0:
96,128,58179,1,0,0:0:0:0:
256,192,58592,2,0,L|356:192,1,100,2|0,0:0|0:0,0:0:0:0:
256,192,59420,1,2,0:0:0:0:
128,192,59833,1,0,0:0:0:0:
284,288,60248,6,0,L|384:288,1,100,2|0,0:0|0:0,0:0:0:0:
496,192,61075,1,2,0:0:0:0:
384,192,61489,1,0,0:0:0:0:
224,128,61902,2,0,L|124:128,2,100,2|0|2,0:0|0:0|0:0,0:0:0:0:
396,128,63143,1,0,0:0:0:0:
224,224,63558,6,0,L|160:320,1,100,4|0,2:0|0:0,0:0:0:0:
352,288,64386,1,2,0:0:0:0:
192,288,64799,1,0,0:0:0:0:
320,320,65213,2,0,L|448:320,1,100,2|0,0:0|0:0,0:0:0:0:
288,320,66041,1,2,0:0:0:0:
428,320,66454,1,0,0:0:0:0:
288,224,66868,6,0,L|188:224,1,100,2|0,0:0|0:0,0:0:0:0:
64,128,67696,1,2,0:0:0:0:
224,128,68110,1,0,0:0:0:0:
384,256,68523,2,0,P|288:320|192:256,1,200,2|8,0:0|0:0,0:0:0:0:
448,160,70179,6,0,L|338:160,1,110.000003356934,4|0,2:0|0:0,0:0:0:0:
192,224,71006,1,2,0:0:0:0:
64,224,71420,1,0,0:0:0:0:
224,224,71834,2,0,L|384:224,2,110.000003356934,2|0|4,0:0|0:0|2:0,0:0:0:0:
96,224,73075,1,8,0:0:0:0:
288,160,73489,6,0,L|416:160,1,119.999996337891,4|0,2:0|0:0,0:0:0:0:
224,256,74316,2,0,L|160:256,2,59.9999981689454,0|8|0,0:0|0:0|0:0,0:0:0:0:
352,320,75144,6,0,L|480:320,1,119.999996337891,4|0,2:0|0:0,0:0:0:0:
320,192,75972,2,0,L|224:192,2,59.9999981689454,0|8|0,0:0|0:0|0:0,0:0:0:0:
480,288,76799,6,0,L|360:288,1,119.999996337891,4|0,2:0|0:0,0:0:0:0:
192,224,77627,2,0,L|72:224,1,119.999996337891,0|0,0:0|0:0,0:0:0:0:
192,224,78455,1,4,2:0:0:0:
320,224,78868,1,0,0:0:0:0:
448,320,79282,2,0,L|320:320,1,100,4|8,2:0|0:0,0:0:0:0:
160,320,80110,6,0,L|280:320,1,119.999996337891,4|0,2:0|0:0,0:0:0:0:
416,192,80937,2,0,L|480:192,2,59.9999981689454,4|8|0,2:0|0:0|0:0,0:0:0:0:
288,64,81765,6,0,L|168:64,1,119.999996337891,4|0,2:0|0:0,0:0:0:0:
352,160,82592,2,0,L|412:160,2,59.9999981689454,0|8|0,0:0|0:0|0:0,0:0:0:0:
160,288,83420,6,0,L|40:288,1,119.999996337891,4|0,2:0|0:0,0:0:0:0:
160,224,84248,2,0,L|280:224,2,119.999996337891,4|0|4,2:0|0:0|2:0,0:0:0:0:
288,224,85489,1,0,0:0:0:0:
192,288,85903,2,0,L|320:288,1,119.999996337891,8|8,0:0|0:0,0:0:0:0:
480,224,86730,6,0,L|352:224,1,119.999996337891,4|0,2:0|0:0,0:0:0:0:
188,224,87558,2,0,L|128:224,2,59.9999981689454,0|8|0,0:0|0:0|0:0,0:0:0:0:
320,288,88385,6,0,L|200:288,1,119.999996337891,4|0,2:0|0:0,0:0:0:0:
320,224,89213,2,0,L|384:224,2,59.9999981689454,0|8|0,0:0|0:0|0:0,0:0:0:0:
128,224,90041,6,0,L|8:224,1,119.999996337891,4|0,2:0|0:0,0:0:0:0:
160,224,90868,2,0,L|288:224,1,119.999996337891,4|0,2:0|0:0,0:0:0:0:
416,224,91696,1,4,2:0:0:0:
288,224,92109,1,0,0:0:0:0:
160,128,92523,2,0,L|280:128,1,119.999996337891,4|8,2:0|0:0,0:0:0:0:
480,128,93351,6,0,L|360:128,1,119.999996337891,4|0,2:0|0:0,0:0:0:0:
224,128,94179,2,0,L|164:128,2,59.9999981689454,0|8|0,0:0|0:0|0:0,0:0:0:0:
384,256,95006,6,0,L|264:256,1,119.999996337891,4|0,2:0|0:0,0:0:0:0:
416,160,95834,2,0,L|476:160,2,59.9999981689454,0|8|0,0:0|0:0|0:0,0:0:0:0:
288,160,96661,6,0,L|168:160,1,119.999996337891,4|0,2:0|0:0,0:0:0:0:
384,288,97489,2,0,L|264:288,1,119.999996337891,4|0,2:0|0:0,0:0:0:0:
128,288,98317,1,4,2:0:0:0:
320,288,98730,1,0,0:0:0:0:
192,128,99144,2,0,L|64:128,1,119.999996337891,8|8,0:0|0:0,0:0:0:0:
256,192,99972,6,0,L|384:192,1,119.999996337891,4|0,2:0|0:0,0:0:0:0:
288,288,100799,1,4,2:0:0:0:
160,288,101213,1,0,0:0:0:0:
320,256,101627,2,0,L|440:256,1,119.999996337891,4|0,2:0|0:0,0:0:0:0:
312,256,102454,2,0,L|192:256,1,119.999996337891,8|8,0:0|0:0,0:0:0:0:
64,256,103282,5,4,2:2:0:0:
288,256,104170,1,4,2:2:0:0:
256,192,105072,12,0,114997,0:0:0:0:
