osu file format v14

[General]
AudioFilename: audio.mp3
AudioLeadIn: 0
PreviewTime: 30455
Countdown: 0
SampleSet: None
StackLeniency: 0.7
Mode: 2
LetterboxInBreaks: 0
WidescreenStoryboard: 0

[Editor]
DistanceSpacing: 1
BeatDivisor: 4
GridSize: 16
TimelineZoom: 3.899999

[Metadata]
Title:Halloween
TitleUnicode:Halloween
Artist:Los Fix
ArtistUnicode:Los Fix
Creator:Ponchiwi
Version:Platter
Source:
Tags:Jusenkyo Necesitamos Cambiar
BeatmapID:1088709
BeatmapSetID:512281

[Difficulty]
HPDrainRate:5
CircleSize:3.5
OverallDifficulty:8
ApproachRate:8
SliderMultiplier:1.6
SliderTickRate:1

[Events]
//Background and Video events
0,0,"LosFixwallpaper2.jpg",0,0
//Break Periods
//Storyboard Layer 0 (Background)
//Storyboard Layer 1 (Fail)
//Storyboard Layer 2 (Pass)
//Storyboard Layer 3 (Foreground)
//Storyboard Sound Samples

[TimingPoints]
662,413.793103448276,4,3,1,75,1,0
7282,-100,4,3,1,75,0,0
13903,-133.333333333333,4,3,1,75,0,0
20524,-100,4,3,1,75,0,0
30455,-83.3333333333333,4,3,1,90,0,1
35420,-90.9090909090909,4,3,1,75,0,0
37075,-83.3333333333333,4,3,1,90,0,1
43696,-100,4,3,1,75,0,0
70179,-90.9090909090909,4,3,1,75,0,0
73489,-83.3333333333333,4,3,1,90,0,1
78455,-100,4,3,1,75,0,0
80110,-83.3333333333333,4,3,1,90,0,1
85075,-83.3333333333333,4,3,1,75,0,0
86730,-83.3333333333333,4,3,1,90,0,1
91696,-83.3333333333333,4,3,1,75,0,0
93351,-83.3333333333333,4,3,1,90,0,1
98317,-83.3333333333333,4,3,1,75,0,0
99972,-83.3333333333333,4,3,1,90,0,1
103282,444.444444444444,4,3,1,75,1,0
103282,-133.333333333333,4,3,1,75,0,0
104170,451.127819548872,4,3,1,75,1,0
105297,-133.333333333333,4,3,1,65,0,0
106425,-133.333333333333,4,3,1,55,0,0
107779,-133.333333333333,4,3,1,45,0,0
109583,-133.333333333333,4,3,1,35,0,0
111388,-133.333333333333,4,3,1,25,0,0
113192,-133.333333333333,4,3,1,15,0,0
114997,-133.333333333333,4,3,1,10,0,0

[Colours]
Combo1 : 107,228,254
Combo2 : 243,41,86
Combo3 : 255,242,115
Combo4 : 7,227,149
Combo5 : 255,149,224

[HitObjects]
256,288,662,6,0,L|336:288,1,80,0|8,0:0|0:0,0:0:0:0:
96,224,1179,2,0,L|136:224,1,40,0|8,0:0|0:0,0:0:0:0:
256,128,1489,2,0,L|176:128,1,80,2|8,0:0|0:0,0:0:0:0:
376,160,2006,2,0,L|416:160,1,40,0|8,0:0|0:0,0:0:0:0:
288,96,2317,6,0,L|208:96,1,80,0|8,0:0|0:0,0:0:0:0:
416,192,2834,2,0,L|376:192,1,40,0|8,0:0|0:0,0:0:0:0:
224,320,3144,2,0,L|304:320,1,80,2|8,0:0|0:0,0:0:0:0:
64,192,3662,2,0,L|104:192,1,40,0|8,0:0|0:0,0:0:0:0:
256,160,3972,6,4,L|176:160,1,80,6|8,2:0|0:0,0:0:0:0:
392,256,4489,2,0,L|352:256,1,40,0|8,0:0|0:0,0:0:0:0:
224,256,4799,2,0,L|144:256,1,80,2|8,0:0|0:0,0:0:0:0:
280,160,5317,2,0,L|320:160,1,40,0|8,0:0|0:0,0:0:0:0:
160,256,5627,6,0,L|256:256,1,80,6|8,2:0|0:0,0:0:0:0:
320,320,6144,2,0,L|256:320,1,40,0|8,0:0|0:0,0:0:0:0:
160,256,6455,2,0,L|256:256,1,80,6|8,2:0|0:0,0:0:0:0:
288,288,6765,1,8,0:0:0:0:
332,289,6868,1,8,0:0:0:0:
368,264,6971,1,8,0:0:0:0:
384,224,7075,1,8,0:0:0:0:
116,96,7282,6,0,L|36:96,1,80,6|8,2:0|0:0,0:0:0:0:
192,256,7799,2,0,L|256:256,1,40,0|8,0:0|0:0,0:0:0:0:
352,128,8110,2,0,L|448:128,1,80,0|8,0:0|0:0,0:0:0:0:
384,128,8420,1,0,0:0:0:0:
224,128,8627,2,0,L|272:128,1,40,0|8,0:0|0:0,0:0:0:0:
416,288,8937,6,0,L|336:288,1,80,6|8,2:0|0:0,0:0:0:0:
224,224,9455,2,0,L|160:224,1,40,0|8,0:0|0:0,0:0:0:0:
320,224,9765,1,0,0:0:0:0:
224,128,9972,2,0,L|160:128,1,40,8|0,0:0|0:0,0:0:0:0:
32,64,10282,2,0,L|96:64,1,40,0|8,0:0|0:0,0:0:0:0:
256,64,10593,6,4,L|336:64,1,80,6|8,2:0|0:0,0:0:0:0:
104,160,11110,2,0,L|64:160,1,40,0|8,0:0|0:0,0:0:0:0:
224,160,11420,2,0,L|128:160,1,80,0|8,0:0|0:0,0:0:0:0:
96,160,11730,1,0,0:0:0:0:
192,64,11937,2,0,L|256:64,1,40,0|8,0:0|0:0,0:0:0:0:
448,64,12248,6,0,L|368:64,1,80,6|8,2:0|0:0,0:0:0:0:
192,192,12765,2,0,L|256:192,1,40,0|8,0:0|0:0,0:0:0:0:
352,192,13075,5,2,0:0:0:0:
480,160,13282,1,8,0:0:0:0:
487,121,13385,1,8,0:0:0:0:
472,84,13488,1,8,0:0:0:0:
440,61,13592,1,8,0:0:0:0:
401,58,13695,1,8,0:0:0:0:
128,288,13903,6,0,L|38:288,1,90.0000034332277,2|0,0:0|0:0,0:0:0:0:
256,288,14524,1,0,0:0:0:0:
128,224,14937,1,0,0:0:0:0:
32,160,15144,1,0,0:0:0:0:
128,96,15351,1,0,0:0:0:0:
336,160,15558,6,0,L|368:64,1,90.0000034332277,0|0,0:0|0:0,0:0:0:0:
192,160,16179,1,0,0:0:0:0:
288,192,16593,1,0,0:0:0:0:
384,192,16799,1,0,0:0:0:0:
448,128,17006,1,0,0:0:0:0:
256,64,17213,6,0,L|144:64,1,90.0000034332277,0|0,0:0|0:0,0:0:0:0:
304,128,17834,1,0,0:0:0:0:
32,192,18248,1,0,0:0:0:0:
288,288,18662,1,0,0:0:0:0:
192,288,18868,6,0,L|96:288,1,90.0000034332277,0|0,0:0|0:0,0:0:0:0:
352,192,19489,1,0,0:0:0:0:
448,192,19696,1,0,0:0:0:0:
192,192,20110,1,8,0:0:0:0:
448,320,20524,6,0,L|352:320,1,80,4|8,2:0|0:0,0:0:0:0:
256,224,20937,2,0,L|192:224,2,40,0|0|8,0:0|0:0|0:0,0:0:0:0:
352,64,21351,2,0,L|448:64,1,80,2|8,0:0|0:0,0:0:0:0:
320,160,21765,1,0,0:0:0:0:
288,160,21868,1,0,0:0:0:0:
256,160,21972,1,8,0:0:0:0:
160,288,22179,6,0,L|64:288,1,80,2|8,0:0|0:0,0:0:0:0:
192,224,22593,1,0,0:0:0:0:
237,224,22696,1,0,0:0:0:0:
282,224,22799,1,8,0:0:0:0:
128,128,23006,2,0,L|208:128,1,80,2|8,0:0|0:0,0:0:0:0:
320,128,23420,1,0,0:0:0:0:
352,128,23524,1,0,0:0:0:0:
320,128,23627,1,8,0:0:0:0:
224,288,23834,6,0,L|304:288,1,80,2|8,0:0|0:0,0:0:0:0:
416,288,24248,1,0,0:0:0:0:
448,288,24351,1,0,0:0:0:0:
416,288,24454,1,8,0:0:0:0:
288,224,24662,2,0,L|208:224,1,80,2|8,0:0|0:0,0:0:0:0:
96,224,25075,1,0,0:0:0:0:
64,224,25178,1,0,0:0:0:0:
96,224,25281,1,8,0:0:0:0:
224,224,25489,6,0,L|144:224,1,80,2|8,0:0|0:0,0:0:0:0:
288,288,25903,1,0,0:0:0:0:
320,288,26006,1,0,0:0:0:0:
288,288,26110,1,8,0:0:0:0:
160,288,26317,5,2,2:0:0:0:
64,256,26524,1,8,0:0:0:0:
32,225,26628,1,8,0:0:0:0:
25,181,26731,1,8,0:0:0:0:
44,141,26835,1,0,0:0:0:0:
84,121,26938,1,8,0:0:0:0:
352,128,27144,6,0,L|432:128,1,80,4|8,2:0|0:0,0:0:0:0:
256,320,27558,2,0,L|192:320,2,40,0|0|8,0:0|0:0|0:0,0:0:0:0:
384,320,27972,2,0,L|480:320,1,80,2|8,0:0|0:0,0:0:0:0:
304,240,28386,1,0,0:0:0:0:
272,240,28489,1,0,0:0:0:0:
304,240,28593,1,8,0:0:0:0:
432,128,28799,6,0,L|336:128,1,80,2|8,0:0|0:0,0:0:0:0:
205,128,29213,2,0,L|160:128,1,40,0|0,0:0|0:0,0:0:0:0:
128,64,29420,2,0,L|224:64,1,80,8|6,0:0|2:0,0:0:0:0:
352,64,29834,5,8,0:0:0:0:
390,56,29937,1,8,0:0:0:0:
427,71,30040,1,8,0:0:0:0:
450,103,30144,1,8,0:0:0:0:
453,142,30247,1,8,0:0:0:0:
160,288,30455,6,0,P|64:256|96:192,1,191.999994140625,4|0,2:0|0:0,0:0:0:0:
192,160,31075,1,8,0:0:0:0:
320,128,31282,1,0,0:0:0:0:
192,96,31489,2,0,L|96:64,2,95.9999970703126,8|0|8,0:0|0:0|0:0,0:0:0:0:
464,256,32110,5,4,2:0:0:0:
368,256,32317,2,0,L|240:256,1,95.9999970703126
224,256,32627,1,0,0:0:0:0:
176,256,32730,1,8,0:0:0:0:
320,160,32937,2,0,L|224:160,1,95.9999970703126,0|8,0:0|0:0,0:0:0:0:
256,160,33248,1,0,0:0:0:0:
384,160,33455,1,0,0:0:0:0:
352,160,33558,1,8,0:0:0:0:
32,96,33765,5,4,2:0:0:0:
128,96,33972,2,0,L|224:96,1,95.9999970703126,8|0,0:0|0:0,0:0:0:0:
272,96,34282,1,0,0:0:0:0:
240,96,34386,1,8,0:0:0:0:
96,192,34593,1,0,0:0:0:0:
224,256,34799,1,8,0:0:0:0:
192,256,34903,1,0,0:0:0:0:
80,256,35110,1,0,0:0:0:0:
48,256,35213,1,8,0:0:0:0:
384,240,35420,5,4,2:0:0:0:
288,240,35627,2,0,L|192:240,1,88.000002685547,8|0,0:0|0:0,0:0:0:0:
128,240,35937,2,0,L|177:240,1,44.0000013427735,0|8,0:0|0:0,0:0:0:0:
288,288,36248,1,4,2:0:0:0:
400,304,36455,5,8,0:0:0:0:
440,318,36558,1,8,0:0:0:0:
479,301,36661,1,8,0:0:0:0:
497,262,36765,1,8,0:0:0:0:
482,222,36868,1,8,0:0:0:0:
160,64,37075,6,0,L|64:64,1,95.9999970703126,4|8,2:0|0:0,0:0:0:0:
192,192,37593,1,0,0:0:0:0:
224,192,37696,1,8,0:0:0:0:
352,272,37903,2,0,L|256:272,1,95.9999970703126,0|8,0:0|0:0,0:0:0:0:
208,272,38213,1,0,0:0:0:0:
64,224,38420,1,0,0:0:0:0:
32,224,38524,1,8,0:0:0:0:
320,224,38730,5,4,2:0:0:0:
224,224,38937,2,0,L|128:224,1,95.9999970703126,8|0,0:0|0:0,0:0:0:0:
64,224,39248,1,0,0:0:0:0:
112,224,39351,1,8,0:0:0:0:
272,160,39558,2,0,L|176:160,1,95.9999970703126,0|8,0:0|0:0,0:0:0:0:
128,160,39868,1,0,0:0:0:0:
32,64,40075,1,0,0:0:0:0:
64,64,40179,1,8,0:0:0:0:
384,96,40386,5,4,2:0:0:0:
288,96,40593,2,0,L|192:96,1,95.9999970703126,8|0,0:0|0:0,0:0:0:0:
240,96,40903,1,0,0:0:0:0:
288,96,41006,1,8,0:0:0:0:
432,192,41213,1,4,2:2:0:0:
304,288,41420,2,0,L|400:288,1,95.9999970703126,8|0,0:0|0:0,0:0:0:0:
464,288,41730,1,0,0:0:0:0:
400,288,41834,1,8,0:0:0:0:
128,224,42041,5,4,2:0:0:0:
48,176,42248,2,0,L|144:176,1,95.9999970703126,8|0,0:0|0:0,0:0:0:0:
192,176,42558,1,0,0:0:0:0:
240,176,42662,1,8,0:0:0:0:
160,80,42868,1,4,2:0:0:0:
320,80,43075,5,8,0:0:0:0:
360,57,43178,1,8,0:0:0:0:
405,69,43281,1,8,0:0:0:0:
428,110,43385,1,8,0:0:0:0:
415,155,43488,1,8,0:0:0:0:
144,224,43696,6,0,L|64:224,1,80,4|8,2:0|0:0,0:0:0:0:
192,224,44213,2,0,L|256:224,1,40,0|8,0:0|0:0,0:0:0:0:
400,160,44523,2,0,L|304:160,1,80,0|8,0:0|0:0,0:0:0:0:
272,160,44834,1,0,0:0:0:0:
400,224,45041,2,0,L|360:224,1,40,0|8,0:0|0:0,0:0:0:0:
176,224,45351,6,0,L|256:224,1,80,4|8,2:0|0:0,0:0:0:0:
384,224,45868,2,0,L|424:224,1,40,0|8,0:0|0:0,0:0:0:0:
320,320,46179,2,0,L|224:320,1,80,0|8,0:0|0:0,0:0:0:0:
192,320,46489,1,0,0:0:0:0:
56,224,46696,2,0,L|96:224,1,40,0|8,0:0|0:0,0:0:0:0:
288,224,47006,6,4,L|368:224,1,80,4|8,2:0|0:0,0:0:0:0:
128,192,47524,2,0,L|168:192,1,40,0|8,0:0|0:0,0:0:0:0:
288,192,47834,2,0,L|192:192,1,80,0|8,0:0|0:0,0:0:0:0:
160,256,48144,2,0,L|240:256,1,80,0|0,0:0|0:0,0:0:0:0:
288,256,48454,1,8,0:0:0:0:
455,128,48662,6,0,L|375:128,1,80,4|8,2:0|0:0,0:0:0:0:
192,128,49179,2,0,L|152:128,1,40,0|8,0:0|0:0,0:0:0:0:
288,128,49489,2,0,L|368:128,1,80,4|8,2:1|0:0,0:0:0:0:
160,192,50006,1,0,0:0:0:0:
192,192,50109,1,8,0:0:0:0:
384,288,50317,6,0,L|288:288,1,80,4|8,2:0|0:0,0:0:0:0:
96,288,50834,2,0,L|136:288,1,40,0|8,0:0|0:0,0:0:0:0:
272,160,51144,2,0,L|192:160,1,80,0|8,0:0|0:0,0:0:0:0:
240,96,51455,2,0,L|320:96,1,80,0|0,0:0|0:0,0:0:0:0:
256,96,51764,1,0,0:0:0:0:
64,288,51972,6,0,L|160:288,1,80,4|0,2:0|0:0,0:0:0:0:
320,288,52489,2,0,L|384:288,1,40,0|8,0:0|0:0,0:0:0:0:
192,192,52799,2,0,L|272:192,1,80,0|8,0:0|0:0,0:0:0:0:
320,192,53109,1,0,0:0:0:0:
160,192,53317,2,0,L|120:192,1,40,0|8,0:0|0:0,0:0:0:0:
320,288,53627,6,4,L|224:288,1,80,4|8,2:0|0:0,0:0:0:0:
96,192,54144,2,0,L|56:192,1,40,0|8,0:0|0:0,0:0:0:0:
224,192,54455,2,0,L|144:192,1,80,0|8,0:0|0:0,0:0:0:0:
64,96,54765,2,0,L|160:96,1,80,0|0,0:0|0:0,0:0:0:0:
192,96,55075,1,8,0:0:0:0:
384,96,55282,6,0,L|304:96,1,80,4|8,2:0|0:0,0:0:0:0:
160,192,55799,1,0,0:0:0:0:
128,192,55903,1,8,0:0:0:0:
288,192,56109,1,4,2:0:0:0:
128,96,56317,5,8,0:0:0:0:
90,88,56420,1,8,0:0:0:0:
53,103,56523,1,8,0:0:0:0:
30,135,56627,1,8,0:0:0:0:
64,160,56730,1,8,0:0:0:0:
352,288,56937,6,0,L|432:288,1,80,4|8,2:0|0:0,0:0:0:0:
256,288,57351,1,0,0:0:0:0:
224,288,57454,1,0,0:0:0:0:
256,288,57557,1,8,0:0:0:0:
384,224,57765,2,0,L|304:224,1,80,2|8,0:0|0:0,0:0:0:0:
192,224,58179,1,0,0:0:0:0:
160,224,58281,1,0,0:0:0:0:
128,224,58385,1,8,0:0:0:0:
256,128,58592,6,0,L|176:128,1,80,2|8,0:0|0:0,0:0:0:0:
64,128,59006,1,0,0:0:0:0:
32,128,59109,1,0,0:0:0:0:
64,128,59212,1,8,0:0:0:0:
192,224,59420,2,0,L|304:224,1,80,2|8,0:0|0:0,0:0:0:0:
96,128,59834,1,0,0:0:0:0:
128,128,59937,1,0,0:0:0:0:
160,128,60041,1,8,0:0:0:0:
288,128,60248,6,0,L|368:128,1,80,2|8,0:0|0:0,0:0:0:0:
224,224,60662,1,0,0:0:0:0:
192,224,60765,1,0,0:0:0:0:
224,224,60868,1,8,0:0:0:0:
352,224,61075,2,0,L|432:224,1,80,2|8,0:0|0:0,0:0:0:0:
256,160,61489,1,0,0:0:0:0:
224,160,61593,1,0,0:0:0:0:
192,160,61695,1,8,0:0:0:0:
384,128,61903,6,0,L|304:128,1,80,2|8,0:0|0:0,0:0:0:0:
176,128,62317,1,0,0:0:0:0:
144,128,62421,1,0,0:0:0:0:
112,128,62523,1,8,0:0:0:0:
0,224,62730,2,0,L|80:224,1,80,2|8,0:0|0:0,0:0:0:0:
208,224,63144,1,0,0:0:0:0:
240,224,63248,1,0,0:0:0:0:
208,224,63351,1,8,0:0:0:0:
48,288,63558,6,0,L|160:288,1,80,4|8,2:0|0:0,0:0:0:0:
272,288,63972,1,0,0:0:0:0:
304,288,64076,1,0,0:0:0:0:
336,288,64179,1,8,0:0:0:0:
208,176,64386,2,0,L|112:176,1,80,2|8,0:0|0:0,0:0:0:0:
304,176,64799,1,0,0:0:0:0:
336,176,64902,1,0,0:0:0:0:
304,176,65006,1,8,0:0:0:0:
176,176,65213,6,0,L|256:176,1,80,2|8,0:0|0:0,0:0:0:0:
384,176,65627,1,0,0:0:0:0:
416,176,65731,1,0,0:0:0:0:
384,176,65834,1,8,0:0:0:0:
256,160,66041,2,0,L|336:160,1,80,2|8,0:0|0:0,0:0:0:0:
448,96,66455,1,0,0:0:0:0:
416,96,66558,1,0,0:0:0:0:
384,96,66662,1,8,0:0:0:0:
256,96,66868,6,0,L|176:96,1,80,2|8,0:0|0:0,0:0:0:0:
304,208,67282,1,0,0:0:0:0:
272,208,67386,1,0,0:0:0:0:
240,208,67489,1,8,0:0:0:0:
128,208,67696,2,0,L|48:208,1,80,2|8,0:0|0:0,0:0:0:0:
224,288,68110,1,0,0:0:0:0:
256,288,68214,1,0,0:0:0:0:
224,288,68317,1,8,0:0:0:0:
80,96,68524,6,0,L|160:96,1,80,2|8,0:0|0:0,0:0:0:0:
288,96,68937,1,0,0:0:0:0:
320,96,69041,1,0,0:0:0:0:
288,96,69144,1,8,0:0:0:0:
160,224,69351,2,0,L|240:224,1,80,2|8,0:0|0:0,0:0:0:0:
352,192,69765,1,0,0:0:0:0:
384,192,69868,1,0,0:0:0:0:
416,192,69972,1,8,0:0:0:0:
128,160,70179,6,0,L|17:160,1,88.000002685547,4|8,2:0|0:0,0:0:0:0:
224,224,70593,2,0,L|288:224,2,44.0000013427735,0|0|8,0:0|0:0|0:0,0:0:0:0:
384,224,71006,2,0,L|296:224,1,88.000002685547,2|8,0:0|0:0,0:0:0:0:
160,224,71420,2,0,L|116:224,2,44.0000013427735,0|0|8,0:0|0:0|0:0,0:0:0:0:
256,128,71834,6,0,L|128:128,1,88.000002685547,2|8,0:0|0:0,0:0:0:0:
320,64,72248,2,0,L|384:64,2,44.0000013427735,0|0|8,0:0|0:0|0:0,0:0:0:0:
160,224,72662,6,0,L|32:224,1,88.000002685547,4|8,2:0|0:0,0:0:0:0:
32,192,72972,1,8,0:0:0:0:
19,151,73075,1,8,0:0:0:0:
46,118,73178,1,8,0:0:0:0:
88,121,73282,1,8,0:0:0:0:
362,64,73489,6,0,L|458:64,1,95.9999970703126,4|0,2:0|0:0,0:0:0:0:
224,192,74006,1,0,0:0:0:0:
192,192,74109,1,8,0:0:0:0:
336,112,74317,2,0,L|224:112,1,95.9999970703126,0|8,0:0|0:0,0:0:0:0:
192,112,74627,1,0,0:0:0:0:
64,288,74833,1,0,0:0:0:0:
96,288,74937,1,8,0:0:0:0:
384,224,75144,5,4,2:0:0:0:
288,224,75351,2,0,L|192:224,1,95.9999970703126,8|0,0:0|0:0,0:0:0:0:
144,224,75661,1,0,0:0:0:0:
176,224,75765,1,8,0:0:0:0:
304,192,75972,2,0,L|208:192,1,95.9999970703126,0|8,0:0|0:0,0:0:0:0:
176,192,76282,1,0,0:0:0:0:
320,96,76489,1,0,0:0:0:0:
288,96,76592,1,8,0:0:0:0:
20,96,76799,5,4,2:0:0:0:
112,144,77006,2,0,L|208:144,1,95.9999970703126,8|0,0:0|0:0,0:0:0:0:
272,144,77316,1,0,0:0:0:0:
240,144,77420,1,8,0:0:0:0:
112,224,77627,1,0,0:0:0:0:
224,96,77833,1,8,0:0:0:0:
192,96,77937,1,0,0:0:0:0:
32,96,78144,1,0,0:0:0:0:
64,96,78248,1,8,0:0:0:0:
336,192,78454,5,4,2:0:0:0:
256,192,78661,2,0,L|176:192,1,80,8|0,0:0|0:0,0:0:0:0:
112,192,78972,1,0,0:0:0:0:
176,192,79075,1,8,0:0:0:0:
288,64,79282,1,4,2:0:0:0:
128,96,79489,5,8,0:0:0:0:
89,98,79592,1,8,0:0:0:0:
63,128,79695,1,8,0:0:0:0:
67,167,79799,1,8,0:0:0:0:
97,192,79902,1,8,0:0:0:0:
384,256,80110,6,0,L|480:256,1,95.9999970703126,4|8,2:0|0:0,0:0:0:0:
256,160,80627,1,0,0:0:0:0:
192,160,80730,2,8,L|96:160,1,95.9999970703126,8|4,0:0|2:0,0:0:0:0:
224,288,81144,1,8,0:0:0:0:
256,288,81247,1,0,0:0:0:0:
112,288,81454,1,0,0:0:0:0:
80,288,81558,1,8,0:0:0:0:
416,80,81764,5,4,2:0:0:0:
320,80,81972,2,0,L|224:80,1,95.9999970703126,8|0,0:0|0:0,0:0:0:0:
160,80,82282,1,0,0:0:0:0:
224,80,82385,1,8,0:0:0:0:
368,80,82593,2,0,L|448:160,1,95.9999970703126,0|8,0:0|0:0,0:0:0:0:
480,176,82903,1,0,0:0:0:0:
368,288,83109,1,0,0:0:0:0:
336,288,83213,1,8,0:0:0:0:
48,288,83420,5,4,2:0:0:0:
144,288,83627,2,0,L|240:288,1,95.9999970703126,8|0,0:0|0:0,0:0:0:0:
192,288,83937,1,0,0:0:0:0:
144,288,84041,1,8,0:0:0:0:
416,192,84247,1,4,2:0:0:0:
320,192,84455,2,0,L|224:192,1,95.9999970703126,8|0,0:0|0:0,0:0:0:0:
176,192,84764,1,0,0:0:0:0:
128,192,84868,1,8,0:0:0:0:
464,192,85075,5,4,2:0:0:0:
384,256,85282,2,0,L|256:256,1,95.9999970703126,8|0,0:0|0:0,0:0:0:0:
224,256,85593,1,0,0:0:0:0:
256,256,85696,1,8,0:0:0:0:
384,320,85903,5,8,0:0:0:0:
431,318,86006,1,8,0:0:0:0:
473,294,86109,1,8,0:0:0:0:
499,255,86213,1,8,0:0:0:0:
505,208,86316,1,8,0:0:0:0:
488,163,86420,1,8,0:0:0:0:
454,131,86523,1,8,0:0:0:0:
144,64,86730,6,0,L|48:64,1,95.9999970703126,4|8,2:0|0:0,0:0:0:0:
256,192,87248,2,0,L|304:192,1,47.9999985351563,0|8,0:0|0:0,0:0:0:0:
416,192,87557,1,0,0:0:0:0:
288,288,87765,2,0,L|384:288,1,95.9999970703126,8|0,0:0|0:0,0:0:0:0:
416,288,88074,1,0,0:0:0:0:
384,288,88179,1,8,0:0:0:0:
112,288,88385,5,4,2:0:0:0:
192,224,88592,2,0,L|96:224,1,95.9999970703126,8|0,0:0|0:0,0:0:0:0:
48,224,88902,1,0,0:0:0:0:
96,224,89005,1,8,0:0:0:0:
240,208,89213,2,0,L|336:208,1,95.9999970703126,0|8,0:0|0:0,0:0:0:0:
304,208,89524,1,0,0:0:0:0:
128,288,89730,1,0,0:0:0:0:
160,288,89833,1,8,0:0:0:0:
448,288,90040,5,4,2:0:0:0:
384,224,90248,2,0,L|480:224,1,95.9999970703126,8|0,0:0|0:0,0:0:0:0:
432,160,90557,1,0,0:0:0:0:
384,160,90661,1,8,0:0:0:0:
80,160,90868,1,4,2:0:0:0:
208,192,91074,1,8,0:0:0:0:
176,192,91178,1,0,0:0:0:0:
48,256,91385,1,0,0:0:0:0:
80,256,91489,1,8,0:0:0:0:
352,256,91695,5,4,2:0:0:0:
256,256,91903,2,0,L|160:256,1,95.9999970703126,8|0,0:0|0:0,0:0:0:0:
112,256,92212,1,0,0:0:0:0:
144,256,92317,1,8,0:0:0:0:
272,256,92523,1,4,2:0:0:0:
384,96,92730,5,8,0:0:0:0:
427,79,92833,1,8,0:0:0:0:
468,101,92936,1,8,0:0:0:0:
479,146,93040,1,8,0:0:0:0:
452,184,93143,1,8,0:0:0:0:
160,96,93351,6,0,L|64:96,1,95.9999970703126,4|8,2:0|0:0,0:0:0:0:
192,288,93868,1,0,0:0:0:0:
224,288,93972,1,8,0:0:0:0:
352,288,94178,1,0,0:0:0:0:
224,160,94385,1,8,0:0:0:0:
256,160,94488,1,0,0:0:0:0:
384,160,94695,1,0,0:0:0:0:
416,160,94799,1,8,0:0:0:0:
128,160,95006,5,4,2:0:0:0:
224,160,95213,2,0,L|320:160,1,95.9999970703126,8|0,0:0|0:0,0:0:0:0:
368,160,95523,1,0,0:0:0:0:
416,160,95627,1,8,0:0:0:0:
304,256,95833,1,0,0:0:0:0:
208,192,96040,1,8,0:0:0:0:
176,192,96143,1,0,0:0:0:0:
336,192,96350,1,0,0:0:0:0:
368,192,96455,1,8,0:0:0:0:
40,160,96661,5,4,2:0:0:0:
144,160,96868,2,0,L|240:160,1,95.9999970703126,8|0,0:0|0:0,0:0:0:0:
272,160,97178,1,0,0:0:0:0:
304,160,97281,1,8,0:0:0:0:
32,288,97488,1,4,2:0:0:0:
128,288,97696,2,0,L|224:288,1,95.9999970703126,8|0,0:0|0:0,0:0:0:0:
272,288,98005,1,0,0:0:0:0:
304,288,98110,1,8,0:0:0:0:
32,224,98316,5,4,2:0:0:0:
128,224,98523,2,0,L|224:224,1,95.9999970703126,8|0,0:0|0:0,0:0:0:0:
288,224,98833,1,0,0:0:0:0:
240,224,98937,1,8,0:0:0:0:
128,64,99144,5,8,0:0:0:0:
81,65,99247,1,8,0:0:0:0:
39,89,99350,1,8,0:0:0:0:
13,128,99454,1,8,0:0:0:0:
7,175,99557,1,8,0:0:0:0:
24,220,99661,1,8,0:0:0:0:
58,252,99764,1,8,0:0:0:0:
352,256,99972,6,0,L|480:256,1,95.9999970703126,4|8,2:0|0:0,0:0:0:0:
320,128,100489,1,0,0:0:0:0:
288,128,100592,1,8,0:0:0:0:
20,128,100799,1,4,2:0:0:0:
112,128,101006,2,0,L|208:128,1,95.9999970703126,8|0,0:0|0:0,0:0:0:0:
160,128,101317,1,0,0:0:0:0:
96,128,101420,1,8,0:0:0:0:
368,128,101627,5,4,2:0:0:0:
464,128,101834,2,0,L|384:128,1,95.9999970703126,8|0,0:0|0:0,0:0:0:0:
320,128,102144,1,0,0:0:0:0:
256,128,102248,1,8,0:0:0:0:
80,96,102455,5,8,0:0:0:0:
56,137,102558,1,8,0:0:0:0:
57,184,102661,1,8,0:0:0:0:
81,225,102765,1,8,0:0:0:0:
123,248,102868,1,8,0:0:0:0:
170,248,102972,1,8,0:0:0:0:
211,223,103075,1,8,0:0:0:0:
480,64,103282,5,4,2:2:0:0:
128,192,104170,1,4,2:2:0:0:
416,240,104621,1,0,0:0:0:0:
80,208,105072,1,4,3:3:0:0:
256,192,105297,12,0,114997,0:0:0:0:
