osu file format v14

[General]
AudioFilename: audio.mp3
AudioLeadIn: 0
PreviewTime: 55389
Countdown: 0
SampleSet: Soft
StackLeniency: 0.7
Mode: 0
LetterboxInBreaks: 0
WidescreenStoryboard: 1

[Editor]
Bookmarks: 755,16364,24169,31974,39779,55389,70998,78803,86608,102218,117828
DistanceSpacing: 0.8
BeatDivisor: 2
GridSize: 8
TimelineZoom: 1

[Metadata]
Title:Fight Club
TitleUnicode:Fight Club
Artist:Lorne Balfe
ArtistUnicode:Lorne Balfe
Creator:greatnathyboy
Version:Normal
Source:Assassin's Creed 3
Tags:assassin's creed 3 fight club
BeatmapID:1025099
BeatmapSetID:480004

[Difficulty]
HPDrainRate:2
CircleSize:3
OverallDifficulty:2
ApproachRate:2
SliderMultiplier:1.4
SliderTickRate:1

[Events]
//Background and Video events
0,0,"assassin_s_creed_3_wallpaper_by_murtxazi-d5vplul.jpg",0,0
//Break Periods
//Storyboard Layer 0 (Background)
//Storyboard Layer 1 (Fail)
//Storyboard Layer 2 (Pass)
//Storyboard Layer 3 (Foreground)
//Storyboard Sound Samples

[TimingPoints]
755,487.80487804878,4,2,0,50,1,0
755,-133.333333333333,4,2,0,50,0,0
16364,-125,4,2,0,55,0,0
24169,-117.647058823529,4,2,0,60,0,0
31974,-111.111111111111,4,2,0,65,0,0
39779,-117.647058823529,4,2,0,70,0,0
55389,-100,4,2,0,80,0,1
71120,-117.647058823529,4,2,0,70,0,0
86608,-100,4,2,0,80,0,1
102218,-117.647058823529,4,2,0,70,0,0

[HitObjects]
64,128,755,6,0,P|96:96|160:80,1,105.000004005432
152,184,1730,1,0,0:0:0:0:
64,240,2218,2,0,L|64:296,1,52.5000020027161
64,344,2706,1,0,0:0:0:0:
168,344,3194,1,0,0:0:0:0:
272,344,3681,1,0,0:0:0:0:
312,312,3925,1,0,0:0:0:0:
312,256,4169,1,0,0:0:0:0:
272,216,4413,1,0,0:0:0:0:
216,216,4657,6,0,B|160:216|160:216|120:176,1,105.000004005432
152,80,5633,1,0,0:0:0:0:
64,24,6120,2,0,L|64:80,1,52.5000020027161
64,128,6608,5,0,0:0:0:0:
136,208,7096,1,0,0:0:0:0:
208,128,7584,2,0,L|256:176,3,52.5000020027161
280,200,8559,5,0,0:0:0:0:
208,272,9047,2,0,P|264:304|320:296,1,105.000004005432
400,264,10023,2,0,P|416:240|416:208,1,52.5000020027161
416,168,10511,5,0,0:0:0:0:
368,72,10998,1,0,0:0:0:0:
264,72,11486,2,0,L|152:72,1,105.000004005432
104,72,12218,1,0,0:0:0:0:
48,72,12462,6,0,L|48:192,1,105.000004005432
48,280,13437,2,0,P|112:280|152:256,1,105.000004005432
192,232,14169,1,0,0:0:0:0:
232,200,14413,6,0,P|272:176|336:176,1,105.000004005432
360,272,15389,2,4,L|416:216,3,52.5000020027161
432,192,16364,5,0,0:0:0:0:
432,88,16852,2,0,P|384:112|336:88,1,112
224,56,17828,2,0,L|152:56,1,56
168,112,18315,6,0,L|168:264,1,112
224,312,19291,1,0,0:0:0:0:
280,312,19535,1,0,0:0:0:0:
336,312,19779,1,0,0:0:0:0:
392,312,20023,1,0,0:0:0:0:
448,312,20267,6,0,L|448:192,1,112
448,88,21242,2,0,P|384:104|344:152,1,112
328,184,21974,1,0,0:0:0:0:
304,232,22218,6,0,B|280:280|280:280|208:280,1,112
112,280,23194,1,0,0:0:0:0:
72,240,23437,1,0,0:0:0:0:
72,184,23681,1,4,0:0:0:0:
112,144,23925,1,0,0:0:0:0:
168,144,24169,5,0,0:0:0:0:
288,144,24657,2,0,P|328:200|336:264,1,119.000002269745
440,304,25633,2,0,L|440:232,1,59.5000011348725
440,184,26120,1,0,0:0:0:0:
440,64,26608,1,0,0:0:0:0:
320,64,27096,2,0,L|248:64,3,59.5000011348725
200,64,28072,5,0,0:0:0:0:
80,64,28559,2,0,P|96:136|160:176,1,119.000002269745
232,216,29535,6,0,L|296:152,2,59.5000011348725
152,304,30511,1,0,0:0:0:0:
272,304,30998,2,0,L|344:304,1,59.5000011348725
392,304,31486,2,0,L|392:240,1,59.5000011348725
392,184,31974,5,0,0:0:0:0:
400,56,32462,1,0,0:0:0:0:
272,56,32950,2,0,P|208:88|192:144,1,125.999996154785
176,264,33925,6,0,P|152:312|80:328,1,125.999996154785
88,200,34901,2,0,L|88:64,1,125.999996154785
152,72,35633,1,0,0:0:0:0:
216,72,35876,6,0,P|280:104|296:192,1,125.999996154785
288,280,36852,2,0,P|360:264|376:208,1,125.999996154785
376,160,37584,1,0,0:0:0:0:
376,96,37828,6,0,B|376:32|376:32|304:32,1,125.999996154785
192,16,38803,2,0,L|144:64,3,62.9999980773926
104,104,39779,6,0,P|64:168|64:224,1,119.000002269745
120,312,40754,2,0,L|248:312,1,119.000002269745
296,312,41486,1,0,0:0:0:0:
352,312,41730,6,0,B|424:312|424:312|424:248,1,119.000002269745
424,144,42706,2,0,L|336:144,3,59.5000011348725
304,144,43681,6,0,P|240:120|224:56,1,119.000002269745
104,80,44657,2,0,L|104:208,1,119.000002269745
104,256,45389,1,0,0:0:0:0:
104,312,45633,5,0,0:0:0:0:
224,312,46120,1,0,0:0:0:0:
344,312,46608,2,0,L|344:240,1,59.5000011348725
344,192,47096,2,0,L|344:120,1,59.5000011348725
344,72,47584,6,0,P|280:80|232:128,1,119.000002269745
128,144,48559,2,0,P|160:208|256:232,1,119.000002269745
256,240,49291,1,0,0:0:0:0:
312,248,49535,6,0,P|368:272|400:328,1,119.000002269745
464,216,50511,1,0,0:0:0:0:
424,176,50754,1,0,0:0:0:0:
384,136,50998,1,0,0:0:0:0:
344,96,51242,1,0,0:0:0:0:
296,64,51486,6,0,L|176:64,1,119.000002269745
56,64,52462,1,0,0:0:0:0:
56,64,52950,2,0,L|56:136,1,59.5000011348725
56,184,53437,6,0,P|80:256|160:280,1,119.000002269745
232,296,54413,2,0,L|304:296,3,59.5000011348725
344,296,55389,6,0,P|336:216|272:176,1,140
240,168,56120,1,0,0:0:0:0:
184,168,56364,2,0,L|112:168,1,70
