osu file format v14

[General]
AudioFilename: audio.mp3
AudioLeadIn: 0
PreviewTime: 121504
Countdown: 0
SampleSet: Drum
StackLeniency: 0.7
Mode: 2
LetterboxInBreaks: 0
WidescreenStoryboard: 0

[Editor]
Bookmarks: 447,44754,74293,89062,106908,121677,136446,151215,169677,195523,210292,225062,239831,254600,269369,284138,298908
DistanceSpacing: 1
BeatDivisor: 4
GridSize: 8
TimelineZoom: 3.800004

[Metadata]
Title:To the Hellfire
TitleUnicode:To the Hellfire
Artist:Lorna Shore
ArtistUnicode:Lorna Shore
Creator:Daletto
Version:Daletto & Du5t's Final Breath
Source:
Tags:...And I Return To Nothingness blackened symphonic deathcore metal rock english Will Ramos du5t dust idu5t idust NyalettOwO x3
BeatmapID:3341088
BeatmapSetID:1637105

[Difficulty]
HPDrainRate:4
CircleSize:4.3
OverallDifficulty:9.9
ApproachRate:9.9
SliderMultiplier:2.1
SliderTickRate:2

[Events]
//Background and Video events
0,0,"bg.jpg",0,0
//Break Periods
2,87416,88597
2,166185,168750
2,273262,279981
2,343665,350106
//Storyboard Layer 0 (Background)
//Storyboard Layer 1 (Fail)
//Storyboard Layer 2 (Pass)
//Storyboard Layer 3 (Foreground)
//Storyboard Layer 4 (Overlay)
//Storyboard Sound Samples

[TimingPoints]
447,230.769230769231,4,3,1,69,1,0
41062,-100,4,3,1,60,0,0
41754,-100,4,3,2,60,0,0
41812,-100,4,3,1,60,0,0
42908,-100,4,3,2,60,0,0
42966,-100,4,3,1,60,0,0
44754,-100,4,3,3,71,0,1
44812,-100,4,3,1,70,0,0
58139,-100,4,3,2,70,0,0
58600,-100,4,3,1,70,0,0
58947,-100,4,3,2,70,0,0
59523,-100,4,3,1,70,0,0
70543,-100,4,3,1,5,0,0
70600,-100,4,3,2,65,0,0
70773,-100,4,3,2,5,0,0
70831,-100,4,3,2,65,0,0
71004,-100,4,3,2,5,0,0
71062,-100,4,3,2,65,0,0
71235,-100,4,3,2,5,0,0
71293,-100,4,3,2,65,0,0
71466,-100,4,3,2,5,0,0
71523,-100,4,3,1,65,0,0
72447,-100,4,3,2,70,0,0
89062,285.714285714286,4,3,1,75,1,1
95919,-100,4,3,2,75,0,1
98204,-100,4,3,1,75,0,1
99347,-100,4,3,2,75,0,1
102776,-100,4,3,1,75,0,1
105062,230.769230769231,4,3,2,70,1,1
105985,-100,4,3,1,70,0,1
106158,-100,4,3,1,5,0,1
106215,-100,4,3,2,70,0,1
106388,-100,4,3,2,5,0,1
106446,-100,4,3,2,70,0,1
106908,-333.333333333333,4,3,1,65,0,0
108292,-100,4,3,1,60,0,0
108754,-100,4,3,1,70,0,0
111523,-100,4,3,2,70,0,0
112908,-100,4,3,2,65,0,0
113369,-100,4,3,1,70,0,0
114292,-100,4,3,2,60,0,0
114754,-100,4,3,2,70,0,0
117523,-100,4,3,2,65,0,0
117985,-100,4,3,2,70,0,0
118908,-100,4,3,1,75,0,0
119369,-100,4,3,2,65,0,0
119831,-100,4,3,2,70,0,0
120754,-100,4,3,1,70,0,0
120927,-100,4,3,1,5,0,0
120985,-100,4,3,2,70,0,0
121158,-100,4,3,2,5,0,0
121215,-100,4,3,1,70,0,0
121388,-100,4,3,1,5,0,0
121446,-100,4,3,2,70,0,0
121619,-100,4,3,2,5,0,0
121677,-100,4,3,8,85,0,1
121735,-100,4,3,1,80,0,1
124619,-100,4,3,1,5,0,1
124677,-100,4,3,2,80,0,1
124850,-100,4,3,2,5,0,1
124908,-100,4,3,1,80,0,1
125081,-100,4,3,1,5,0,1
125138,-100,4,3,2,80,0,1
125312,-100,4,3,2,5,0,1
125369,-100,4,3,1,80,0,1
132004,-100,4,3,1,5,0,1
132062,-100,4,3,2,80,0,1
132235,-100,4,3,2,5,0,1
132292,-100,4,3,1,80,0,1
132465,-100,4,3,1,5,0,1
132523,-100,4,3,2,80,0,1
132696,-100,4,3,2,5,0,1
132754,-100,4,3,1,80,0,1
134600,-100,4,3,2,70,0,0
135985,-100,4,3,2,75,0,0
136446,-100,4,3,3,80,0,1
136504,-100,4,3,1,80,0,1
140138,-100,4,3,1,75,0,1
141985,-100,4,3,2,75,0,1
143831,-100,4,3,1,80,0,1
146773,-100,4,3,1,5,0,1
146831,-100,4,3,2,80,0,1
147004,-100,4,3,2,5,0,1
147062,-100,4,3,1,80,0,1
147235,-100,4,3,1,5,0,1
147292,-100,4,3,2,80,0,1
147465,-100,4,3,2,5,0,1
147523,-100,4,3,1,80,0,1
151158,-100,4,3,1,70,0,0
151215,-100,4,3,3,80,0,1
151273,-100,4,3,1,80,0,1
157215,-100,4,3,2,75,0,1
157388,-100,4,3,2,5,0,1
157446,-100,4,3,2,75,0,1
157619,-100,4,3,2,5,0,1
157677,-100,4,3,1,80,0,1
164600,-100,4,3,2,80,0,1
165523,-100,4,3,2,75,0,1
165985,-100,4,3,1,70,0,0
169215,-100,4,3,1,60,0,0
169619,-100,4,3,1,5,0,0
169677,-100,4,3,1,70,0,0
177004,-100,4,3,1,5,0,0
177062,-100,4,3,1,70,0,0
179831,-100,4,3,1,65,0,0
180177,-100,4,3,2,65,0,0
180754,-100,4,3,1,75,0,0
187215,-100,4,3,1,65,0,0
187562,-100,4,3,2,65,0,0
188138,-100,4,3,1,75,0,0
190908,-100,4,3,2,69,0,0
191831,-100,4,3,1,70,0,0
194138,-100,4,3,2,65,0,0
194312,-100,4,3,2,5,0,0
194369,-100,4,3,2,65,0,0
194542,-100,4,3,2,5,0,0
194600,-1000,4,3,1,50,0,0
195465,-1000,4,3,1,5,0,0
195523,-100,4,3,1,80,0,1
201062,-153.846153846153,4,3,1,80,0,1
202215,-153.846153846153,4,3,1,60,0,1
202908,-100,4,3,1,80,0,1
206600,-100,4,3,1,80,0,1
209369,-100,4,3,2,75,0,1
209600,-100,4,3,2,10,0,1
209677,-100,4,3,2,75,0,1
209908,-100,4,3,2,10,0,1
209985,-100,4,3,2,75,0,1
210215,-100,4,3,2,10,0,1
210292,-250,4,3,1,70,0,0
211677,-100,4,3,1,60,0,0
212138,-100,4,3,1,70,0,0
214908,-100,4,3,2,70,0,0
216292,-100,4,3,2,65,0,0
216754,-100,4,3,1,70,0,0
217677,-100,4,3,2,60,0,0
218138,-100,4,3,1,70,0,0
220908,-100,4,3,1,65,0,0
221369,-100,4,3,2,70,0,0
222292,-100,4,3,1,75,0,0
222754,-100,4,3,1,65,0,0
223215,-100,4,3,2,70,0,0
224138,-100,4,3,1,70,0,0
224312,-100,4,3,1,5,0,0
224369,-100,4,3,2,70,0,0
224542,-100,4,3,2,5,0,0
224600,-100,4,3,1,70,0,0
224773,-100,4,3,1,5,0,0
224831,-100,4,3,2,70,0,0
225004,-100,4,3,2,5,0,0
225062,-100,4,3,8,85,0,1
225119,-100,4,3,1,80,0,1
228004,-100,4,3,1,5,0,1
228062,-100,4,3,2,80,0,1
228235,-100,4,3,2,5,0,1
228292,-100,4,3,1,80,0,1
228465,-100,4,3,1,5,0,1
228523,-100,4,3,2,80,0,1
228696,-100,4,3,2,5,0,1
228754,-100,4,3,1,80,0,1
235388,-100,4,3,1,5,0,1
235446,-100,4,3,2,80,0,1
235619,-100,4,3,2,5,0,1
235677,-100,4,3,1,80,0,1
235850,-100,4,3,1,5,0,1
235908,-100,4,3,2,80,0,1
236081,-100,4,3,2,5,0,1
236138,-100,4,3,1,80,0,1
237985,-100,4,3,2,70,0,0
239369,-100,4,3,2,75,0,0
239831,-100,4,3,3,80,0,1
239888,-100,4,3,1,80,0,1
243523,-100,4,3,1,75,0,1
245369,-100,4,3,2,75,0,1
247215,-100,4,3,1,80,0,1
250158,-100,4,3,1,5,0,1
250215,-100,4,3,2,80,0,1
250388,-100,4,3,2,5,0,1
250446,-100,4,3,1,80,0,1
250619,-100,4,3,1,5,0,1
250677,-100,4,3,2,80,0,1
250850,-100,4,3,2,5,0,1
250908,-100,4,3,1,80,0,1
254542,-100,4,3,1,70,0,0
254600,-100,4,3,3,80,0,1
254658,-100,4,3,1,80,0,1
260600,-100,4,3,2,75,0,1
260773,-100,4,3,2,5,0,1
260831,-100,4,3,2,75,0,1
261004,-100,4,3,2,5,0,1
261062,-100,4,3,1,80,0,1
267523,-100,4,3,2,80,0,1
268446,-100,4,3,1,80,0,1
269369,-100,4,3,1,65,0,0
269600,-100,4,3,1,60,0,0
270292,-100,4,3,1,50,0,0
271215,-100,4,3,1,40,0,0
272138,-100,4,3,1,30,0,0
273062,-100,4,3,1,19,0,0
280446,-100,4,3,1,70,0,0
281773,-100,4,3,1,5,0,0
281831,-100,4,3,1,70,0,0
283158,-100,4,3,1,5,0,0
283215,-100,4,3,2,70,0,0
284081,-100,4,3,2,5,0,0
284138,-100,4,3,3,80,0,1
284196,-100,4,3,1,80,0,1
287831,-100,4,3,2,80,0,1
291523,-100,4,3,1,80,0,1
297062,-100,4,3,2,80,0,1
298908,-100,4,3,1,80,0,1
301677,-100,4,3,2,80,0,1
302600,-100,4,3,1,80,0,1
305831,-100,4,3,2,75,0,1
306292,-100,4,3,1,80,0,1
309985,-100,4,3,1,65,0,0
310158,-100,4,3,1,5,0,0
310215,-100,4,3,2,65,0,0
310388,-100,4,3,2,5,0,0
310446,-100,4,3,2,65,0,0
310619,-100,4,3,2,5,0,0
310677,-100,4,3,2,65,0,0
310850,-100,4,3,2,5,0,0
310908,-100,4,3,1,70,0,0
311138,-100,4,3,1,65,0,0
311831,-100,4,3,2,65,0,0
313215,-100,4,3,2,70,0,0
313677,600,4,3,3,80,1,1
313677,-500,4,3,3,80,0,1
313827,-500,4,3,1,5,0,0
316077,-500,4,3,1,10,0,0
318477,-500,4,3,1,20,0,0
320877,-500,4,3,1,30,0,0
321477,-500,4,3,1,35,0,0
322077,-500,4,3,1,40,0,0
322677,-500,4,3,1,50,0,0
323277,-100,4,3,1,80,0,1
323427,-100,4,3,1,70,0,0
325677,-100,4,3,1,80,0,1
325727,-100,4,3,1,70,0,1
325827,-100,4,3,1,70,0,0
328077,-66.6666666666667,4,3,1,80,0,1
328227,-100,4,3,1,70,0,0
328610,-100,4,3,1,5,0,0
328677,-57.1428571428571,4,3,1,70,0,0
328810,-57.1428571428571,4,3,1,5,0,0
328877,-57.1428571428571,4,3,1,70,0,0
329010,-57.1428571428571,4,3,1,5,0,0
329077,-57.1428571428571,4,3,1,70,0,0
329210,-57.1428571428571,4,3,1,5,0,0
329277,-57.1428571428571,4,3,1,70,0,0
330477,-100,4,3,1,80,0,1
330527,-100,4,3,1,70,0,1
330627,-100,4,3,1,70,0,0
332277,-100,4,3,2,60,0,0
332877,705.882352941176,4,3,1,80,1,1
333053,-100,4,3,1,70,0,0
335700,-100,4,3,1,80,0,1
335759,-100,4,3,1,70,0,1
335877,-100,4,3,1,70,0,0
338524,-50,4,3,1,80,0,1
338700,-100,4,3,1,70,0,0
339151,-100,4,3,1,5,0,0
339229,-50,4,3,1,70,0,0
339386,-50,4,3,1,5,0,0
339465,-50,4,3,1,70,0,0
339622,-50,4,3,1,5,0,0
339700,-50,4,3,1,70,0,0
339857,-50,4,3,1,5,0,0
339935,-50,4,3,1,70,0,0
340092,-50,4,3,1,5,0,0
340171,-50,4,3,1,70,0,0
340327,-50,4,3,1,5,0,0
340406,-50,4,3,1,70,0,0
340563,-50,4,3,1,5,0,0
340641,-50,4,3,1,70,0,0
340798,-50,4,3,1,5,0,0
340877,-50,4,3,1,70,0,0
341033,-50,4,3,1,5,0,0
341112,-50,4,3,1,70,0,0
341269,-50,4,3,1,5,0,0
341347,-100,4,3,1,80,0,1
341406,-100,4,3,1,70,0,1
341524,-100,4,3,1,70,0,0
343465,-100,4,3,2,60,0,0
344171,800,4,3,1,100,1,0
350571,-100,4,3,1,80,0,1
350771,-100,4,3,1,70,0,0
353771,-100,4,3,1,80,0,1
353837,-100,4,3,1,70,0,1
353971,-100,4,3,1,70,0,0
356971,-47.6190476190476,4,3,1,80,0,1
357171,-100,4,3,1,70,0,0
357682,-100,4,3,1,5,0,0
357771,-47.6190476190476,4,3,1,70,0,0
357948,-47.6190476190476,4,3,1,5,0,0
358037,-47.6190476190476,4,3,1,70,0,0
358215,-47.6190476190476,4,3,1,5,0,0
358304,-47.6190476190476,4,3,1,70,0,0
358482,-47.6190476190476,4,3,1,5,0,0
358571,-47.6190476190476,4,3,1,70,0,0
360171,-100,4,3,1,80,0,1
360237,-100,4,3,1,70,0,1
360371,-100,4,3,1,70,0,0
362571,-100,4,3,2,50,0,0

[Colours]
Combo1 : 95,95,95
Combo2 : 128,64,64
Combo3 : 191,191,191
Combo4 : 0,128,128
Combo5 : 255,43,43
Combo6 : 191,0,0

[HitObjects]
176,184,41062,6,0,L|64:184,1,105,4|0,0:0|0:0,0:0:0:0:
248,136,41293,2,0,L|304:136,1,52.5,8|8,0:0|0:0,0:0:0:0:
168,120,41408,2,0,L|240:120,1,52.5,8|8,0:0|0:0,0:0:0:0:
352,208,41523,6,0,L|456:208,1,105,0|0,0:0|0:0,0:0:0:0:
344,200,41754,1,0,0:0:0:0:
400,200,41812,1,0,0:0:0:0:
456,200,41870,1,0,0:0:0:0:
200,200,41985,5,8,0:0:0:0:
264,200,42043,1,8,0:0:0:0:
296,176,42100,1,8,0:0:0:0:
200,192,42216,1,0,0:0:0:0:
456,136,42331,5,8,0:0:0:0:
392,136,42389,1,8,0:0:0:0:
360,112,42447,1,8,0:0:0:0:
456,128,42562,1,0,0:0:0:0:
200,112,42677,1,0,0:0:0:0:
136,112,42735,1,0,0:0:0:0:
104,88,42793,1,0,0:0:0:0:
136,112,42850,1,0,0:0:0:0:
344,176,42908,6,0,L|416:176,1,52.5,4|0,0:0|0:0,0:0:0:0:
456,160,43023,2,0,L|448:104,1,52.5,0|0,0:0|0:0,0:0:0:0:
384,112,43139,2,0,L|376:56,1,52.5,0|0,0:0|0:0,0:0:0:0:
440,96,43254,2,0,L|432:152,1,52.5,0|0,0:0|0:0,0:0:0:0:
248,80,43370,6,0,L|256:136,1,52.5,8|8,0:0|0:0,0:0:0:0:
440,224,43485,2,0,L|448:168,1,52.5,8|8,0:0|0:0,0:0:0:0:
288,144,43600,2,0,L|216:144,1,52.5,0|0,0:0|0:0,0:0:0:0:
296,136,43716,2,0,L|360:136,1,52.5,0|0,0:0|0:0,0:0:0:0:
192,240,43831,5,8,0:0:0:0:
128,240,43889,1,8,0:0:0:0:
72,208,43947,1,8,0:0:0:0:
48,160,44004,2,0,L|40:104,2,52.5,8|0|0,0:0|0:0|0:0,0:0:0:0:
216,144,44177,6,0,L|272:144,1,52.5,8|8,0:0|0:0,0:0:0:0:
208,136,44293,2,0,L|144:136,1,52.5,0|0,0:0|0:0,0:0:0:0:
216,128,44408,2,0,L|272:128,1,52.5,0|0,0:0|0:0,0:0:0:0:
432,112,44523,6,0,L|368:112,1,52.5,8|8,0:0|0:0,0:0:0:0:
208,112,44639,2,0,L|136:112,1,52.5,0|0,0:0|0:0,0:0:0:0:
364,335,44754,5,4,0:0:0:0:
415,324,44812,1,0,0:0:0:0:
462,301,44870,1,0,0:0:0:0:
493,259,44927,1,0,0:0:0:0:
500,206,44985,1,0,0:0:0:0:
486,154,45043,1,0,0:0:0:0:
439,130,45100,1,0,0:0:0:0:
386,122,45158,1,0,0:0:0:0:
216,180,45216,5,2,0:0:0:0:
164,175,45273,1,0,0:0:0:0:
216,176,45331,1,0,0:0:0:0:
268,175,45389,1,0,0:0:0:0:
431,206,45447,1,2,0:0:0:0:
483,201,45504,1,0,0:0:0:0:
431,202,45562,1,0,0:0:0:0:
379,201,45620,1,0,0:0:0:0:
216,54,45677,5,2,0:0:0:0:
274,52,45735,1,0,0:0:0:0:
332,50,45793,1,0,0:0:0:0:
274,52,45850,1,0,0:0:0:0:
105,121,45908,1,2,0:0:0:0:
83,169,45966,1,0,0:0:0:0:
104,216,46023,1,0,0:0:0:0:
153,232,46081,1,0,0:0:0:0:
319,123,46139,5,2,0:0:0:0:
261,121,46197,1,0,0:0:0:0:
203,119,46254,1,0,0:0:0:0:
261,121,46312,1,0,0:0:0:0:
430,190,46370,1,2,0:0:0:0:
452,238,46427,1,0,0:0:0:0:
431,285,46485,1,0,0:0:0:0:
382,301,46543,1,0,0:0:0:0:
222,51,46600,5,2,0:0:0:0:
201,97,46658,1,0,0:0:0:0:
224,143,46716,1,0,0:0:0:0:
265,173,46773,1,0,0:0:0:0:
313,194,46831,1,0,0:0:0:0:
365,198,46889,1,0,0:0:0:0:
199,143,46947,5,2,0:0:0:0:
178,189,47004,1,0,0:0:0:0:
201,235,47062,1,0,0:0:0:0:
242,265,47120,1,0,0:0:0:0:
290,286,47177,1,0,0:0:0:0:
342,290,47235,1,0,0:0:0:0:
180,52,47293,5,2,0:0:0:0:
123,57,47350,1,0,0:0:0:0:
73,86,47408,1,0,0:0:0:0:
33,128,47466,1,0,0:0:0:0:
19,183,47523,1,0,0:0:0:0:
40,236,47581,1,0,0:0:0:0:
90,265,47639,1,0,0:0:0:0:
146,279,47697,1,0,0:0:0:0:
312,134,47754,1,8,0:0:0:0:
370,134,47812,1,8,0:0:0:0:
208,200,47870,1,8,0:0:0:0:
151,195,47927,1,8,0:0:0:0:
317,238,47985,5,0,0:0:0:0:
369,212,48043,1,0,0:0:0:0:
308,76,48100,1,0,0:0:0:0:
300,133,48158,1,0,0:0:0:0:
247,155,48216,1,0,0:0:0:0:
239,212,48273,1,0,0:0:0:0:
186,224,48331,1,0,0:0:0:0:
178,281,48389,1,0,0:0:0:0:
389,345,48447,6,0,L|394:284,7,52.5,4|0|0|0|0|0|0|0,0:0|0:0|0:0|0:0|0:0|0:0|0:0|0:0,0:0:0:0:
234,264,48908,6,0,L|232:203,3,52.5,2|0|0|0,0:0|0:0|0:0|0:0,0:0:0:0:
396,170,49139,2,0,L|401:110,3,52.5,2|0|0|0,0:0|0:0|0:0|0:0,0:0:0:0:
237,47,49370,6,0,L|233:113,7,52.5,2|0|0|0|0|0|0|0,0:0|0:0|0:0|0:0|0:0|0:0|0:0|0:0,0:0:0:0:
74,143,49831,6,0,L|71:208,3,52.5,2|0|0|0,0:0|0:0|0:0|0:0,0:0:0:0:
238,183,50062,1,2,0:0:0:0:
245,234,50120,1,0,0:0:0:0:
87,278,50177,1,0,0:0:0:0:
80,329,50235,1,0,0:0:0:0:
238,87,50293,5,8,0:0:0:0:
245,138,50350,1,0,0:0:0:0:
187,150,50408,1,8,0:0:0:0:
194,201,50466,1,0,0:0:0:0:
354,235,50523,1,10,0:0:0:0:
370,284,50581,1,0,0:0:0:0:
210,296,50639,1,8,0:0:0:0:
226,343,50697,1,0,0:0:0:0:
383,184,50754,5,8,0:0:0:0:
420,190,50812,1,0,0:0:0:0:
254,290,50870,1,8,0:0:0:0:
291,294,50927,1,0,0:0:0:0:
447,62,50985,1,10,0:0:0:0:
499,62,51043,1,0,0:0:0:0:
447,66,51100,1,8,0:0:0:0:
394,71,51158,1,0,0:0:0:0:
238,87,51216,5,10,0:0:0:0:
231,138,51273,1,0,0:0:0:0:
289,150,51331,1,8,0:0:0:0:
282,201,51389,1,0,0:0:0:0:
116,205,51447,1,8,0:0:0:0:
64,209,51504,1,0,0:0:0:0:
226,327,51562,1,10,0:0:0:0:
278,331,51620,1,0,0:0:0:0:
113,45,51677,5,8,0:0:0:0:
61,54,51735,1,0,0:0:0:0:
25,92,51793,1,8,0:0:0:0:
15,142,51850,1,0,0:0:0:0:
34,191,51908,1,10,0:0:0:0:
76,222,51966,1,0,0:0:0:0:
125,237,52023,1,8,0:0:0:0:
177,240,52081,1,0,0:0:0:0:
403,81,52139,5,6,0:0:0:0:
382,129,52197,1,0,0:0:0:0:
341,161,52254,1,0,0:0:0:0:
291,180,52312,1,0,0:0:0:0:
256,219,52370,1,0,0:0:0:0:
246,270,52427,1,0,0:0:0:0:
269,317,52485,1,0,0:0:0:0:
317,337,52543,1,0,0:0:0:0:
491,177,52600,5,2,0:0:0:0:
480,228,52658,1,0,0:0:0:0:
443,266,52716,1,0,0:0:0:0:
392,277,52773,1,0,0:0:0:0:
229,116,52831,1,2,0:0:0:0:
177,127,52889,1,0,0:0:0:0:
152,173,52947,1,0,0:0:0:0:
176,218,53004,1,0,0:0:0:0:
345,170,53062,5,2,0:0:0:0:
334,221,53120,1,0,0:0:0:0:
297,259,53177,1,0,0:0:0:0:
246,270,53235,1,0,0:0:0:0:
83,109,53293,1,2,0:0:0:0:
31,120,53350,1,0,0:0:0:0:
6,166,53408,1,0,0:0:0:0:
30,211,53466,1,0,0:0:0:0:
193,51,53523,5,2,0:0:0:0:
245,62,53581,1,0,0:0:0:0:
270,108,53639,1,0,0:0:0:0:
246,153,53697,1,0,0:0:0:0:
82,218,53754,1,2,0:0:0:0:
59,265,53812,1,0,0:0:0:0:
85,310,53870,1,0,0:0:0:0:
135,321,53927,1,0,0:0:0:0:
303,117,53985,5,2,0:0:0:0:
245,126,54043,1,0,0:0:0:0:
197,158,54100,1,0,0:0:0:0:
176,210,54158,1,0,0:0:0:0:
197,263,54216,1,0,0:0:0:0:
250,283,54273,1,0,0:0:0:0:
415,148,54331,5,2,0:0:0:0:
465,176,54389,1,0,0:0:0:0:
489,228,54447,1,0,0:0:0:0:
472,282,54504,1,0,0:0:0:0:
423,313,54562,1,0,0:0:0:0:
365,317,54620,1,0,0:0:0:0:
201,50,54677,5,2,0:0:0:0:
144,55,54735,1,0,0:0:0:0:
94,84,54793,1,0,0:0:0:0:
54,126,54850,1,0,0:0:0:0:
40,181,54908,1,0,0:0:0:0:
61,234,54966,1,0,0:0:0:0:
111,263,55023,1,0,0:0:0:0:
167,277,55081,1,0,0:0:0:0:
328,143,55139,1,8,0:0:0:0:
386,143,55197,1,8,0:0:0:0:
224,209,55254,1,8,0:0:0:0:
167,204,55312,1,8,0:0:0:0:
327,225,55370,5,0,0:0:0:0:
379,199,55427,1,0,0:0:0:0:
318,63,55485,1,0,0:0:0:0:
310,120,55543,1,0,0:0:0:0:
251,124,55600,1,0,0:0:0:0:
243,181,55658,1,0,0:0:0:0:
299,186,55716,1,0,0:0:0:0:
291,243,55773,1,0,0:0:0:0:
83,345,55831,5,12,0:0:0:0:
74,293,55889,1,0,0:0:0:0:
143,280,55947,1,8,0:0:0:0:
152,228,56004,1,0,0:0:0:0:
84,222,56062,1,8,0:0:0:0:
75,170,56120,1,0,0:0:0:0:
144,157,56177,1,8,0:0:0:0:
153,105,56235,1,0,0:0:0:0:
303,44,56293,5,10,0:0:0:0:
310,96,56350,1,0,0:0:0:0:
243,103,56408,1,8,0:0:0:0:
236,155,56466,1,0,0:0:0:0:
411,167,56523,1,10,0:0:0:0:
436,214,56581,1,0,0:0:0:0:
415,262,56639,1,8,0:0:0:0:
366,280,56697,1,0,0:0:0:0:
210,356,56754,5,10,0:0:0:0:
203,302,56812,1,0,0:0:0:0:
273,301,56870,1,8,0:0:0:0:
280,247,56927,1,0,0:0:0:0:
211,233,56985,1,8,0:0:0:0:
190,188,57043,1,0,0:0:0:0:
124,180,57100,1,8,0:0:0:0:
81,150,57158,1,0,0:0:0:0:
247,215,57216,5,10,0:0:0:0:
254,161,57273,1,0,0:0:0:0:
185,157,57331,1,8,0:0:0:0:
178,103,57389,1,0,0:0:0:0:
246,92,57447,1,8,0:0:0:0:
267,47,57504,1,0,0:0:0:0:
333,39,57562,1,8,0:0:0:0:
376,9,57620,1,0,0:0:0:0:
213,351,57677,5,6,0:0:0:0:
158,346,57735,1,0,0:0:0:0:
321,274,57793,1,0,0:0:0:0:
375,270,57850,1,0,0:0:0:0:
214,258,57908,1,0,0:0:0:0:
159,254,57966,1,0,0:0:0:0:
319,180,58023,1,0,0:0:0:0:
374,176,58081,1,0,0:0:0:0:
215,167,58139,1,4,0:0:0:0:
160,163,58197,1,0,0:0:0:0:
320,89,58254,1,0,0:0:0:0:
375,85,58312,1,0,0:0:0:0:
214,91,58370,1,0,0:0:0:0:
160,87,58427,1,0,0:0:0:0:
319,13,58485,1,0,0:0:0:0:
374,17,58543,1,0,0:0:0:0:
169,43,58600,5,12,0:0:0:0:
150,92,58658,1,0,0:0:0:0:
171,140,58716,1,0,0:0:0:0:
217,165,58773,1,0,0:0:0:0:
265,188,58831,1,0,0:0:0:0:
317,197,58889,1,0,0:0:0:0:
105,174,58947,5,12,0:0:0:0:
86,223,59004,1,0,0:0:0:0:
107,271,59062,1,0,0:0:0:0:
153,296,59120,1,0,0:0:0:0:
201,319,59177,1,0,0:0:0:0:
253,328,59235,1,0,0:0:0:0:
407,228,59293,5,12,0:0:0:0:
356,228,59350,1,0,0:0:0:0:
196,221,59408,1,0,0:0:0:0:
145,221,59466,1,0,0:0:0:0:
357,106,59523,5,4,0:0:0:0:
408,117,59581,1,0,0:0:0:0:
444,154,59639,1,0,0:0:0:0:
458,204,59697,1,0,0:0:0:0:
437,251,59754,1,0,0:0:0:0:
388,270,59812,1,0,0:0:0:0:
335,275,59870,1,0,0:0:0:0:
283,276,59927,1,0,0:0:0:0:
230,274,59985,5,2,0:0:0:0:
250,225,60043,1,0,0:0:0:0:
288,190,60100,1,0,0:0:0:0:
339,180,60158,1,0,0:0:0:0:
389,164,60216,1,0,0:0:0:0:
416,119,60273,1,0,0:0:0:0:
402,68,60331,1,0,0:0:0:0:
350,56,60389,1,0,0:0:0:0:
297,59,60447,5,2,0:0:0:0:
337,91,60504,1,0,0:0:0:0:
359,138,60562,1,0,0:0:0:0:
364,190,60620,1,0,0:0:0:0:
332,231,60677,1,0,0:0:0:0:
281,245,60735,1,0,0:0:0:0:
281,245,60793,1,0,0:0:0:0:
275,193,60850,1,0,0:0:0:0:
254,144,60908,5,2,0:0:0:0:
215,107,60966,1,0,0:0:0:0:
166,87,61023,1,0,0:0:0:0:
114,76,61081,1,0,0:0:0:0:
61,84,61139,1,0,0:0:0:0:
44,134,61197,1,0,0:0:0:0:
61,182,61254,1,0,0:0:0:0:
101,216,61312,1,0,0:0:0:0:
257,287,61370,5,8,0:0:0:0:
308,283,61427,1,0,0:0:0:0:
358,269,61485,1,0,0:0:0:0:
393,229,61543,1,0,0:0:0:0:
409,179,61600,1,0,0:0:0:0:
383,132,61658,1,0,0:0:0:0:
333,112,61716,1,0,0:0:0:0:
281,112,61773,1,0,0:0:0:0:
254,138,61831,5,2,0:0:0:0:
238,171,61889,1,0,0:0:0:0:
230,207,61947,1,0,0:0:0:0:
232,243,62004,1,0,0:0:0:0:
248,276,62062,1,0,0:0:0:0:
272,304,62120,1,0,0:0:0:0:
301,325,62177,1,0,0:0:0:0:
335,337,62235,1,0,0:0:0:0:
276,339,62293,5,2,0:0:0:0:
218,336,62350,1,0,0:0:0:0:
170,312,62408,1,0,0:0:0:0:
127,280,62466,1,0,0:0:0:0:
107,231,62523,1,0,0:0:0:0:
100,178,62581,1,0,0:0:0:0:
123,130,62639,1,0,0:0:0:0:
160,93,62697,1,0,0:0:0:0:
218,336,62754,5,2,0:0:0:0:
276,333,62812,1,0,0:0:0:0:
324,309,62870,1,0,0:0:0:0:
367,277,62927,1,0,0:0:0:0:
387,228,62985,1,0,0:0:0:0:
394,175,63043,1,0,0:0:0:0:
371,127,63100,1,0,0:0:0:0:
334,90,63158,1,0,0:0:0:0:
134,40,63216,5,4,0:0:0:0:
93,72,63273,1,0,0:0:0:0:
78,122,63331,1,0,0:0:0:0:
90,173,63389,1,0,0:0:0:0:
129,208,63447,1,0,0:0:0:0:
175,230,63504,1,0,0:0:0:0:
226,240,63562,1,0,0:0:0:0:
278,244,63620,1,0,0:0:0:0:
329,245,63677,5,2,0:0:0:0:
316,193,63735,1,0,0:0:0:0:
276,157,63793,1,0,0:0:0:0:
226,142,63850,1,0,0:0:0:0:
173,138,63908,1,0,0:0:0:0:
186,86,63966,1,0,0:0:0:0:
226,50,64023,1,0,0:0:0:0:
276,35,64081,1,0,0:0:0:0:
328,38,64139,5,2,0:0:0:0:
277,53,64197,1,0,0:0:0:0:
230,75,64254,1,0,0:0:0:0:
188,107,64312,1,0,0:0:0:0:
166,155,64370,1,0,0:0:0:0:
170,206,64427,1,0,0:0:0:0:
199,250,64485,1,0,0:0:0:0:
246,273,64543,1,0,0:0:0:0:
298,61,64600,5,2,0:0:0:0:
349,76,64658,1,0,0:0:0:0:
396,98,64716,1,0,0:0:0:0:
438,130,64773,1,0,0:0:0:0:
460,178,64831,1,0,0:0:0:0:
456,229,64888,1,0,0:0:0:0:
427,273,64946,1,0,0:0:0:0:
380,296,65004,1,0,0:0:0:0:
233,331,65062,5,8,0:0:0:0:
182,327,65120,1,0,0:0:0:0:
132,313,65177,1,0,0:0:0:0:
97,273,65235,1,0,0:0:0:0:
81,223,65293,1,0,0:0:0:0:
107,176,65350,1,0,0:0:0:0:
157,156,65408,1,0,0:0:0:0:
146,197,65466,1,0,0:0:0:0:
117,227,65523,5,2,0:0:0:0:
78,243,65581,1,0,0:0:0:0:
39,226,65639,1,0,0:0:0:0:
21,187,65697,1,0,0:0:0:0:
28,146,65754,1,0,0:0:0:0:
54,112,65812,1,0,0:0:0:0:
89,89,65870,1,0,0:0:0:0:
129,80,65927,1,0,0:0:0:0:
192,85,65985,5,2,0:0:0:0:
254,96,66043,1,0,0:0:0:0:
287,135,66100,1,0,0:0:0:0:
302,185,66158,1,0,0:0:0:0:
282,234,66216,1,0,0:0:0:0:
234,255,66273,1,0,0:0:0:0:
176,262,66331,1,0,0:0:0:0:
112,267,66389,1,0,0:0:0:0:
279,338,66447,5,2,0:0:0:0:
330,330,66504,1,0,0:0:0:0:
379,311,66562,1,0,0:0:0:0:
409,267,66620,1,0,0:0:0:0:
418,215,66677,1,0,0:0:0:0:
401,164,66735,1,0,0:0:0:0:
356,136,66793,1,0,0:0:0:0:
304,126,66850,1,0,0:0:0:0:
91,205,66908,5,6,0:0:0:0:
33,200,66966,1,0,0:0:0:0:
89,196,67023,1,0,0:0:0:0:
146,190,67081,1,0,0:0:0:0:
203,184,67139,1,0,0:0:0:0:
260,180,67197,1,0,0:0:0:0:
203,176,67254,1,0,0:0:0:0:
145,167,67312,1,0,0:0:0:0:
87,159,67370,5,2,0:0:0:0:
30,154,67427,1,0,0:0:0:0:
87,151,67485,1,0,0:0:0:0:
144,148,67543,1,0,0:0:0:0:
200,145,67600,1,0,0:0:0:0:
257,140,67658,1,0,0:0:0:0:
315,138,67716,1,0,0:0:0:0:
258,131,67773,1,0,0:0:0:0:
200,124,67831,5,2,0:0:0:0:
258,121,67889,1,0,0:0:0:0:
314,117,67947,1,0,0:0:0:0:
371,111,68004,1,0,0:0:0:0:
428,105,68062,1,0,0:0:0:0:
485,101,68120,1,0,0:0:0:0:
428,97,68177,1,0,0:0:0:0:
370,88,68235,1,0,0:0:0:0:
312,80,68293,5,2,0:0:0:0:
255,75,68350,1,0,0:0:0:0:
312,72,68408,1,0,0:0:0:0:
369,69,68466,1,0,0:0:0:0:
425,66,68523,1,0,0:0:0:0:
482,61,68581,1,0,0:0:0:0:
423,59,68639,1,0,0:0:0:0:
365,56,68697,1,0,0:0:0:0:
198,243,68754,5,10,0:0:0:0:
139,243,68812,1,0,0:0:0:0:
196,240,68870,1,0,0:0:0:0:
252,237,68927,1,0,0:0:0:0:
310,235,68985,1,0,0:0:0:0:
368,232,69043,1,0,0:0:0:0:
311,224,69100,1,0,0:0:0:0:
253,216,69158,1,0,0:0:0:0:
311,213,69216,5,2,0:0:0:0:
367,208,69273,1,0,0:0:0:0:
424,204,69331,1,0,0:0:0:0:
482,201,69389,1,0,0:0:0:0:
424,195,69447,1,0,0:0:0:0:
367,187,69504,1,0,0:0:0:0:
309,179,69562,1,0,0:0:0:0:
251,173,69620,1,0,0:0:0:0:
307,167,69677,5,2,0:0:0:0:
364,159,69735,1,0,0:0:0:0:
306,153,69793,1,0,0:0:0:0:
249,145,69850,1,0,0:0:0:0:
191,136,69908,1,0,0:0:0:0:
133,129,69966,1,0,0:0:0:0:
76,122,70023,1,0,0:0:0:0:
133,114,70081,1,0,0:0:0:0:
190,109,70139,6,0,P|224:161|44:370,1,367.5,2|0,0:0|0:0,0:0:0:0:
245,317,70600,6,0,L|391:215,1,157.5,4|0,0:0|0:0,0:0:0:0:
223,148,70831,2,0,L|93:238,1,157.5,4|0,0:0|0:0,0:0:0:0:
245,317,71062,6,0,L|391:215,1,157.5,4|0,0:0|0:0,0:0:0:0:
223,148,71293,2,0,P|181:189|238:268,1,157.5,4|0,0:0|0:0,0:0:0:0:
381,83,71523,5,12,0:0:0:0:
323,79,71581,1,8,0:0:0:0:
169,73,71639,1,8,0:0:0:0:
111,69,71697,1,8,0:0:0:0:
273,296,71754,5,0,0:0:0:0:
324,282,71812,1,0,0:0:0:0:
347,234,71870,1,0,0:0:0:0:
323,187,71927,1,0,0:0:0:0:
274,166,71985,1,0,0:0:0:0:
156,107,72100,1,0,0:0:0:0:
139,157,72158,1,0,0:0:0:0:
162,204,72216,1,0,0:0:0:0:
203,235,72273,1,0,0:0:0:0:
253,250,72331,1,0,0:0:0:0:
305,253,72389,1,0,0:0:0:0:
97,25,72447,5,6,0:0:0:0:
113,79,72504,1,0,0:0:0:0:
149,123,72562,1,0,0:0:0:0:
203,144,72620,1,0,0:0:0:0:
258,158,72677,1,0,0:0:0:0:
306,189,72735,1,0,0:0:0:0:
328,242,72793,1,0,0:0:0:0:
298,290,72850,1,0,0:0:0:0:
97,25,72908,5,2,0:0:0:0:
113,79,72966,1,0,0:0:0:0:
149,123,73023,1,0,0:0:0:0:
203,144,73081,1,0,0:0:0:0:
258,158,73139,1,0,0:0:0:0:
306,189,73197,1,0,0:0:0:0:
328,242,73254,1,0,0:0:0:0:
298,290,73312,1,0,0:0:0:0:
97,25,73370,5,2,0:0:0:0:
113,79,73427,1,0,0:0:0:0:
149,123,73485,1,0,0:0:0:0:
203,144,73543,1,0,0:0:0:0:
258,158,73600,1,0,0:0:0:0:
306,189,73658,1,0,0:0:0:0:
328,242,73716,1,0,0:0:0:0:
298,290,73773,1,0,0:0:0:0:
84,206,73831,5,10,0:0:0:0:
31,205,73889,1,8,0:0:0:0:
192,73,73947,1,8,0:0:0:0:
250,71,74004,1,8,0:0:0:0:
192,73,74062,1,0,0:0:0:0:
133,75,74120,1,0,0:0:0:0:
352,151,74177,1,0,0:0:0:0:
415,149,74235,1,0,0:0:0:0:
136,320,74293,6,0,L|80:312,1,52.5,4|0,0:0|0:0,0:0:0:0:
152,304,74408,2,0,L|208:296,1,52.5,0|0,0:0|0:0,0:0:0:0:
272,272,74523,2,0,L|280:216,1,52.5,2|0,0:0|0:0,0:0:0:0:
216,152,74639,2,0,L|160:144,1,52.5,0|0,0:0|0:0,0:0:0:0:
352,200,74754,5,2,0:0:0:0:
408,176,74812,1,0,0:0:0:0:
432,136,74870,2,0,L|424:192,1,52.5,0|0,0:0|0:0,0:0:0:0:
232,64,74985,2,0,L|160:64,1,52.5,10|0,0:0|0:0,0:0:0:0:
368,64,75100,2,0,L|448:64,1,52.5,10|0,0:0|0:0,0:0:0:0:
176,184,75216,6,0,L|104:184,1,52.5,2|0,0:0|0:0,0:0:0:0:
192,160,75331,2,0,L|200:104,1,52.5,0|0,0:0|0:0,0:0:0:0:
136,88,75447,1,2,0:0:0:0:
112,88,75504,1,0,0:0:0:0:
136,88,75562,1,0,0:0:0:0:
192,88,75620,1,0,0:0:0:0:
336,80,75677,5,2,0:0:0:0:
392,80,75735,1,0,0:0:0:0:
336,80,75793,1,0,0:0:0:0:
280,80,75850,1,0,0:0:0:0:
424,200,75908,2,0,L|432:144,1,52.5,10|8,0:0|0:0,0:0:0:0:
248,192,76023,2,0,L|176:192,1,52.5,0|0,0:0|0:0,0:0:0:0:
432,232,76139,6,0,L|488:232,1,52.5,2|0,0:0|0:0,0:0:0:0:
424,208,76254,2,0,L|416:152,1,52.5,0|0,0:0|0:0,0:0:0:0:
352,160,76370,2,0,L|304:112,1,52.5,0|0,0:0|0:0,0:0:0:0:
248,120,76485,2,0,L|184:120,1,52.5,0|0,0:0|0:0,0:0:0:0:
384,80,76600,5,2,0:0:0:0:
440,80,76658,1,0,0:0:0:0:
384,80,76716,1,0,0:0:0:0:
328,80,76773,1,0,0:0:0:0:
144,64,76831,2,0,L|56:64,1,52.5,2|0,0:0|0:0,0:0:0:0:
280,72,76947,2,0,L|360:72,1,52.5,0|0,0:0|0:0,0:0:0:0:
128,160,77062,5,10,0:0:0:0:
248,160,77216,1,2,0:0:0:0:
32,160,77370,1,2,0:0:0:0:
328,152,77523,1,2,0:0:0:0:
208,152,77677,1,2,0:0:0:0:
424,152,77831,1,2,0:0:0:0:
64,272,77985,6,0,L|72:168,1,105,4|0,0:0|0:0,0:0:0:0:
200,216,78216,1,2,0:0:0:0:
96,216,78331,1,0,0:0:0:0:
208,216,78447,1,2,0:0:0:0:
312,216,78562,1,0,0:0:0:0:
104,80,78677,1,2,0:0:0:0:
312,80,78793,1,2,0:0:0:0:
40,224,78908,6,0,L|32:112,1,105,10|0,0:0|0:0,0:0:0:0:
160,176,79139,2,0,L|168:72,1,105,2|0,0:0|0:0,0:0:0:0:
288,72,79370,1,2,0:0:0:0:
168,71,79485,1,0,0:0:0:0:
440,168,79600,2,0,L|432:64,1,105,2|0,0:0|0:0,0:0:0:0:
80,144,79831,6,0,L|72:88,1,52.5,2|0,0:0|0:0,0:0:0:0:
144,128,79947,2,0,L|136:72,1,52.5,0|0,0:0|0:0,0:0:0:0:
64,88,80062,2,0,L|56:32,1,52.5,0|0,0:0|0:0,0:0:0:0:
272,136,80177,6,0,L|264:80,1,52.5,2|0,0:0|0:0,0:0:0:0:
192,120,80293,2,0,L|184:64,1,52.5,0|0,0:0|0:0,0:0:0:0:
256,88,80408,2,0,L|248:32,1,52.5,0|0,0:0|0:0,0:0:0:0:
32,192,80523,6,0,L|24:136,1,52.5,2|0,0:0|0:0,0:0:0:0:
208,168,80639,2,0,L|272:168,1,52.5,0|0,0:0|0:0,0:0:0:0:
440,128,80754,5,10,0:0:0:0:
464,128,80812,1,0,0:0:0:0:
440,128,80870,1,0,0:0:0:0:
384,128,80927,1,0,0:0:0:0:
312,128,80985,2,0,L|304:72,1,52.5,0|0,0:0|0:0,0:0:0:0:
376,80,81100,2,0,L|368:24,1,52.5,0|0,0:0|0:0,0:0:0:0:
152,152,81216,1,2,0:0:0:0:
272,152,81370,1,2,0:0:0:0:
64,152,81523,1,2,0:0:0:0:
424,208,81677,6,0,L|432:104,1,105,4|0,0:0|0:0,0:0:0:0:
312,128,81908,2,0,L|200:128,1,105,2|0,0:0|0:0,0:0:0:0:
328,88,82139,2,0,L|216:88,1,105,2|0,0:0|0:0,0:0:0:0:
104,88,82370,2,0,L|224:88,1,105,2|0,0:0|0:0,0:0:0:0:
448,240,82600,6,0,L|440:136,1,105,10|0,0:0|0:0,0:0:0:0:
312,176,82831,2,0,L|320:72,1,105,2|0,0:0|0:0,0:0:0:0:
192,232,83062,2,0,L|184:128,1,105,2|0,0:0|0:0,0:0:0:0:
312,112,83293,1,2,0:0:0:0:
320,104,83350,1,0,0:0:0:0:
328,96,83408,1,0,0:0:0:0:
336,88,83466,1,0,0:0:0:0:
152,192,83523,6,0,L|48:192,1,105,2|0,0:0|0:0,0:0:0:0:
168,160,83754,2,0,L|56:160,1,105,2|0,0:0|0:0,0:0:0:0:
184,160,83985,2,0,L|192:56,1,105,2|0,0:0|0:0,0:0:0:0:
72,128,84216,2,0,L|80:232,1,105,0|0,0:0|0:0,0:0:0:0:
328,96,84447,5,10,0:0:0:0:
384,96,84504,2,0,L|424:56,1,52.5,0|0,0:0|0:0,0:0:0:0:
232,72,84620,1,2,0:0:0:0:
176,72,84677,2,0,L|136:32,1,52.5,0|0,0:0|0:0,0:0:0:0:
328,40,84793,1,2,0:0:0:0:
384,40,84850,1,0,0:0:0:0:
200,168,84908,1,2,0:0:0:0:
320,168,85062,1,2,0:0:0:0:
104,168,85216,1,2,0:0:0:0:
400,296,85370,5,4,0:0:0:0:
424,280,85427,1,0,0:0:0:0:
400,296,85485,1,0,0:0:0:0:
344,296,85543,1,0,0:0:0:0:
288,296,85600,1,0,0:0:0:0:
344,296,85658,1,0,0:0:0:0:
400,296,85716,1,0,0:0:0:0:
344,296,85773,1,0,0:0:0:0:
176,168,85831,6,0,L|184:112,1,52.5,2|0,0:0|0:0,0:0:0:0:
256,120,85947,2,0,L|248:64,1,52.5,0|0,0:0|0:0,0:0:0:0:
80,152,86062,1,2,0:0:0:0:
56,136,86120,1,0,0:0:0:0:
80,152,86177,1,0,0:0:0:0:
136,152,86235,1,0,0:0:0:0:
376,216,86293,6,0,L|384:112,1,105,10|0,0:0|0:0,0:0:0:0:
264,184,86523,2,0,L|272:80,1,105,2|0,0:0|0:0,0:0:0:0:
152,176,86754,2,0,L|160:72,1,105,2|0,0:0|0:0,0:0:0:0:
376,216,86985,2,0,L|384:112,1,105,2|0,0:0|0:0,0:0:0:0:
152,112,87216,5,2,0:0:0:0:
360,112,89062,5,12,0:0:0:0:
192,120,89633,5,0,0:0:0:0:
20,122,90204,5,2,0:0:0:0:
62,120,90252,1,0,0:0:0:0:
104,122,90300,1,0,0:0:0:0:
145,121,90347,1,0,0:0:0:0:
187,122,90395,1,0,0:0:0:0:
228,122,90442,1,0,0:0:0:0:
270,123,90490,1,0,0:0:0:0:
312,124,90538,1,0,0:0:0:0:
353,123,90585,1,0,0:0:0:0:
395,124,90633,1,0,0:0:0:0:
437,125,90681,1,0,0:0:0:0:
478,125,90728,1,0,0:0:0:0:
310,255,90776,6,0,L|306:348,1,70,2|0,0:0|0:0,0:0:0:0:
405,242,90966,2,0,L|408:159,1,70,2|0,0:0|0:0,0:0:0:0:
309,168,91157,1,2,0:0:0:0:
32,143,91347,6,0,L|145:359,2,210,10|2|2,0:0|0:0|0:0,0:0:0:0:
143,134,92204,1,2,0:0:0:0:
32,142,92347,1,2,0:0:0:0:
334,274,92490,5,2,0:0:0:0:
376,268,92538,1,0,0:0:0:0:
417,262,92585,1,0,0:0:0:0:
458,253,92633,1,0,0:0:0:0:
416,242,92681,1,0,0:0:0:0:
375,234,92728,1,0,0:0:0:0:
333,227,92776,1,0,0:0:0:0:
119,181,93062,5,10,0:0:0:0:
330,223,93204,1,0,0:0:0:0:
215,174,93347,1,0,0:0:0:0:
328,112,93490,1,0,0:0:0:0:
47,102,93633,5,4,0:0:0:0:
251,70,94204,6,0,P|252:130|509:351,1,420,2|10,0:0|0:0,0:0:0:0:
455,348,94823,1,0,0:0:0:0:
412,347,94871,1,0,0:0:0:0:
369,346,94919,1,0,0:0:0:0:
327,346,94966,1,0,0:0:0:0:
284,345,95014,1,0,0:0:0:0:
241,345,95062,1,0,0:0:0:0:
199,346,95109,1,0,0:0:0:0:
156,346,95157,1,0,0:0:0:0:
114,345,95204,1,0,0:0:0:0:
71,343,95252,1,0,0:0:0:0:
28,343,95300,1,0,0:0:0:0:
213,240,95347,6,0,L|290:234,1,70,2|0,0:0|0:0,0:0:0:0:
191,164,95538,2,0,L|275:158,1,70,2|0,0:0|0:0,0:0:0:0:
170,81,95728,1,2,0:0:0:0:
452,107,95919,6,0,L|390:316,1,210,6|0,0:0|0:0,0:0:0:0:
202,72,96490,2,0,L|264:281,1,210,2|0,0:0|0:0,0:0:0:0:
73,39,97062,6,0,L|11:248,1,210,10|0,0:0|0:0,0:0:0:0:
40,319,97442,1,0,0:0:0:0:
108,368,97519,1,0,0:0:0:0:
160,368,97576,1,0,0:0:0:0:
286,41,97633,2,0,B|315:110|373:67|373:67|479:159,1,210,10|0,0:0|0:0,0:0:0:0:
47,66,98204,6,0,L|26:106,5,35,6|0|0|0|0|0,0:0|0:0|0:0|0:0|0:0|0:0,0:0:0:0:
38,142,98490,1,0,0:0:0:0:
56,199,98538,1,0,0:0:0:0:
80,252,98585,1,0,0:0:0:0:
122,294,98633,1,0,0:0:0:0:
178,314,98681,1,0,0:0:0:0:
236,319,98728,1,0,0:0:0:0:
178,314,98776,6,0,L|162:273,5,35,2|0|0|0|0|0,0:0|0:0|0:0|0:0|0:0|0:0,0:0:0:0:
161,229,99062,1,0,0:0:0:0:
179,172,99109,1,0,0:0:0:0:
203,118,99157,1,0,0:0:0:0:
245,77,99204,1,0,0:0:0:0:
301,57,99252,1,0,0:0:0:0:
359,52,99300,1,0,0:0:0:0:
255,25,99347,5,6,0:0:0:0:
201,41,99395,1,0,0:0:0:0:
161,78,99442,1,0,0:0:0:0:
142,133,99490,1,0,0:0:0:0:
158,185,99538,1,0,0:0:0:0:
205,214,99585,1,0,0:0:0:0:
243,200,99633,1,0,0:0:0:0:
291,221,99681,1,0,0:0:0:0:
313,267,99728,1,0,0:0:0:0:
293,316,99776,1,0,0:0:0:0:
244,337,99823,1,0,0:0:0:0:
191,331,99871,1,0,0:0:0:0:
138,335,99919,5,2,0:0:0:0:
154,286,99967,1,0,0:0:0:0:
186,253,100014,1,0,0:0:0:0:
232,237,100062,1,0,0:0:0:0:
289,192,100110,1,2,0:0:0:0:
273,143,100157,1,0,0:0:0:0:
241,110,100204,1,0,0:0:0:0:
195,94,100252,1,0,0:0:0:0:
138,167,100300,1,2,0:0:0:0:
154,118,100347,1,0,0:0:0:0:
186,85,100394,1,0,0:0:0:0:
232,69,100442,1,0,0:0:0:0:
339,266,100490,5,10,0:0:0:0:
384,255,100538,1,0,0:0:0:0:
422,230,100585,1,0,0:0:0:0:
436,186,100633,1,0,0:0:0:0:
418,146,100681,1,0,0:0:0:0:
379,132,100728,1,0,0:0:0:0:
323,135,100776,2,0,L|318:81,5,35,2|0|0|0|0|0,0:0|0:0|0:0|0:0|0:0|0:0,0:0:0:0:
268,267,101062,5,2,0:0:0:0:
223,256,101109,1,0,0:0:0:0:
185,231,101157,1,0,0:0:0:0:
171,187,101204,1,0,0:0:0:0:
189,147,101252,1,0,0:0:0:0:
228,133,101300,1,0,0:0:0:0:
284,136,101347,2,0,L|289:82,5,35,2|0|0|0|0|0,0:0|0:0|0:0|0:0|0:0|0:0,0:0:0:0:
147,23,101633,6,0,L|143:73,5,35,6|0|0|0|0|0,0:0|0:0|0:0|0:0|0:0|0:0,0:0:0:0:
148,103,101919,1,0,0:0:0:0:
159,146,101966,1,0,0:0:0:0:
179,187,102014,1,0,0:0:0:0:
211,220,102062,1,0,0:0:0:0:
250,242,102109,1,0,0:0:0:0:
295,251,102157,1,0,0:0:0:0:
400,216,102204,5,2,0:0:0:0:
288,216,102347,1,2,0:0:0:0:
488,152,102490,1,2,0:0:0:0:
376,152,102633,1,2,0:0:0:0:
116,72,102776,6,0,B|13:103|13:103|129:141,1,210,6|0,0:0|0:0,0:0:0:0:
327,139,103347,2,0,B|430:170|430:170|314:208,1,210,2|0,0:0|0:0,0:0:0:0:
280,207,103704,1,0,0:0:0:0:
228,210,103776,1,0,0:0:0:0:
176,211,103847,1,0,0:0:0:0:
357,283,103919,5,10,0:0:0:0:
252,284,104062,1,0,0:0:0:0:
355,271,104204,1,0,0:0:0:0:
459,259,104347,1,0,0:0:0:0:
193,73,104490,1,2,0:0:0:0:
66,167,104669,1,0,0:0:0:0:
192,247,104847,1,0,0:0:0:0:
469,54,105062,5,6,0:0:0:0:
427,51,105119,1,0,0:0:0:0:
295,65,105177,1,0,0:0:0:0:
280,110,105235,1,0,0:0:0:0:
437,134,105292,5,0,0:0:0:0:
395,131,105350,1,0,0:0:0:0:
263,145,105408,1,0,0:0:0:0:
248,190,105465,1,0,0:0:0:0:
408,230,105523,5,0,0:0:0:0:
366,227,105581,1,0,0:0:0:0:
234,241,105638,1,0,0:0:0:0:
219,286,105696,1,0,0:0:0:0:
381,288,105754,5,0,0:0:0:0:
339,285,105812,1,0,0:0:0:0:
207,299,105869,1,0,0:0:0:0:
154,299,105927,1,0,0:0:0:0:
320,176,105985,6,0,P|376:176|376:88,1,157.5,2|0,0:0|0:0,0:0:0:0:
216,88,106215,2,0,L|32:88,1,157.5,2|0,0:0|0:0,0:0:0:0:
224,192,106446,1,10,0:0:0:0:
280,192,106504,2,0,L|328:144,1,52.5
128,120,106677,2,0,L|240:120,1,105,2|0,0:0|0:0,0:0:0:0:
453,384,106908,6,0,L|462:1,1,377.999988464356,2|0,0:0|0:0,0:0:0:0:
419,23,108350,1,0,0:0:0:0:
377,24,108408,1,0,0:0:0:0:
329,24,108465,1,0,0:0:0:0:
273,24,108523,1,0,0:0:0:0:
209,24,108581,1,0,0:0:0:0:
137,24,108638,1,0,0:0:0:0:
261,65,108696,1,0,0:0:0:0:
392,216,108754,5,4,0:0:0:0:
448,192,108812,1,0,0:0:0:0:
472,152,108869,2,0,L|464:208,1,52.5,0|0,0:0|0:0,0:0:0:0:
288,168,108985,2,0,L|280:112,1,52.5,2|0,0:0|0:0,0:0:0:0:
352,120,109100,2,0,L|344:64,1,52.5,0|0,0:0|0:0,0:0:0:0:
168,120,109215,5,2,0:0:0:0:
144,120,109273,1,0,0:0:0:0:
168,120,109331,1,0,0:0:0:0:
224,120,109388,1,0,0:0:0:0:
296,112,109446,2,0,L|288:56,1,52.5,2|0,0:0|0:0,0:0:0:0:
216,64,109562,2,0,L|208:8,1,52.5,0|0,0:0|0:0,0:0:0:0:
384,120,109677,5,2,0:0:0:0:
440,120,109735,1,0,0:0:0:0:
384,120,109792,1,0,0:0:0:0:
328,120,109850,1,0,0:0:0:0:
152,208,109908,1,2,0:0:0:0:
96,208,109965,1,0,0:0:0:0:
152,208,110023,1,0,0:0:0:0:
208,208,110081,1,0,0:0:0:0:
32,152,110138,6,0,L|40:96,1,52.5,2|0,0:0|0:0,0:0:0:0:
104,104,110254,2,0,L|112:48,1,52.5,0|0,0:0|0:0,0:0:0:0:
48,48,110369,2,0,L|112:48,1,52.5,2|0,0:0|0:0,0:0:0:0:
288,48,110485,2,0,L|360:48,1,52.5,0|0,0:0|0:0,0:0:0:0:
128,288,110600,6,0,L|56:288,1,52.5,4|0,0:0|0:0,0:0:0:0:
144,272,110715,2,0,L|208:272,1,52.5,0|0,0:0|0:0,0:0:0:0:
264,272,110831,2,0,L|200:272,1,52.5,0|0,0:0|0:0,0:0:0:0:
144,256,110946,2,0,L|216:256,1,52.5,0|0,0:0|0:0,0:0:0:0:
384,192,111062,6,0,L|376:136,1,52.5,10|0,0:0|0:0,0:0:0:0:
192,136,111177,2,0,L|184:80,1,52.5,8|0,0:0|0:0,0:0:0:0:
368,112,111292,2,0,L|328:72,1,52.5,10|0,0:0|0:0,0:0:0:0:
144,80,111408,2,0,L|104:40,1,52.5,8|0,0:0|0:0,0:0:0:0:
320,192,111523,5,14,0:0:0:0:
376,192,111581,1,0,0:0:0:0:
400,152,111638,1,0,0:0:0:0:
376,192,111696,1,0,0:0:0:0:
216,128,111754,1,14,0:0:0:0:
272,128,111812,1,0,0:0:0:0:
296,88,111869,1,0,0:0:0:0:
272,128,111927,1,0,0:0:0:0:
112,240,111985,5,14,0:0:0:0:
56,240,112042,1,0,0:0:0:0:
32,200,112100,1,0,0:0:0:0:
56,240,112158,1,0,0:0:0:0:
216,176,112215,1,14,0:0:0:0:
160,176,112273,1,0,0:0:0:0:
136,136,112331,1,0,0:0:0:0:
160,176,112388,1,0,0:0:0:0:
320,160,112446,6,0,L|384:160,1,52.5,6|0,0:0|0:0,0:0:0:0:
304,144,112562,2,0,L|312:88,1,52.5,0|0,0:0|0:0,0:0:0:0:
376,112,112677,2,0,L|368:56,1,52.5,2|0,0:0|0:0,0:0:0:0:
184,112,112792,2,0,L|120:112,1,52.5,0|0,0:0|0:0,0:0:0:0:
320,128,112908,6,0,L|424:128,1,105,2|0,0:0|0:0,0:0:0:0:
360,88,113081,1,0,0:0:0:0:
296,88,113138,2,0,L|288:32,1,52.5,0|0,0:0|0:0,0:0:0:0:
352,40,113254,2,0,L|288:40,1,52.5,0|0,0:0|0:0,0:0:0:0:
48,232,113369,6,0,L|56:176,1,52.5,14|0,0:0|0:0,0:0:0:0:
240,200,113485,2,0,L|248:144,1,52.5,8|0,0:0|0:0,0:0:0:0:
64,176,113600,2,0,L|88:120,1,52.5,10|0,0:0|0:0,0:0:0:0:
264,152,113715,2,0,L|288:96,1,52.5,8|0,0:0|0:0,0:0:0:0:
96,128,113831,6,0,L|136:88,1,52.5,10|0,0:0|0:0,0:0:0:0:
320,104,113946,2,0,L|360:64,1,52.5,8|0,0:0|0:0,0:0:0:0:
168,112,114062,2,0,L|232:112,1,52.5,10|0,0:0|0:0,0:0:0:0:
408,104,114177,2,0,L|464:104,1,52.5,8|0,0:0|0:0,0:0:0:0:
248,248,114292,6,0,L|192:248,1,52.5,4|0,0:0|0:0,0:0:0:0:
264,240,114408,2,0,L|272:184,5,52.5,0|0|0|0|0|0,0:0|0:0|0:0|0:0|0:0|0:0,0:0:0:0:
56,184,114754,2,0,L|48:80,1,105,2|8,0:0|0:0,0:0:0:0:
176,96,114985,2,0,L|184:200,1,105,2|8,0:0|0:0,0:0:0:0:
360,104,115215,6,0,L|256:104,1,105,2|8,0:0|0:0,0:0:0:0:
376,96,115446,2,0,L|488:96,1,105,2|8,0:0|0:0,0:0:0:0:
304,168,115677,2,0,L|296:112,2,52.5,2|0|8,0:0|0:0|0:0,0:0:0:0:
432,128,115908,1,2,0:0:0:0:
256,72,116023,2,0,L|200:72,1,52.5,8|0,0:0|0:0,0:0:0:0:
416,216,116138,6,0,L|424:160,3,52.5,0|0|8|0,0:0|0:0|0:0|0:0,0:0:0:0:
256,200,116369,2,0,L|248:144,3,52.5,0|0|8|0,0:0|0:0|0:0|0:0,0:0:0:0:
80,192,116600,2,0,L|88:136,3,52.5,0|0|8|0,0:0|0:0|0:0|0:0,0:0:0:0:
256,128,116831,5,2,0:0:0:0:
312,104,116888,1,0,0:0:0:0:
336,64,116946,2,0,L|328:120,1,52.5,8|0,0:0|0:0,0:0:0:0:
160,216,117062,1,2,0:0:0:0:
104,192,117119,1,0,0:0:0:0:
80,152,117177,2,0,L|88:208,1,52.5,8|0,0:0|0:0,0:0:0:0:
256,176,117292,6,0,L|264:120,1,52.5,2|0,0:0|0:0,0:0:0:0:
200,136,117408,2,0,L|192:80,1,52.5,8|0,0:0|0:0,0:0:0:0:
360,112,117523,2,0,L|472:112,1,105,2|8,0:0|0:0,0:0:0:0:
336,200,117754,2,0,L|344:144,1,52.5,2|0,0:0|0:0,0:0:0:0:
408,152,117869,2,0,L|416:96,1,52.5,0|0,0:0|0:0,0:0:0:0:
200,216,117985,5,4,0:0:0:0:
144,192,118042,1,0,0:0:0:0:
120,152,118100,2,0,L|128:208,1,52.5,0|0,0:0|0:0,0:0:0:0:
200,136,118215,2,0,L|208:192,1,52.5,2|0,0:0|0:0,0:0:0:0:
40,120,118331,2,0,L|112:120,1,52.5,0|0,0:0|0:0,0:0:0:0:
280,96,118446,6,0,L|336:96,1,52.5,10|8,0:0|0:0,0:0:0:0:
144,72,118562,2,0,L|208:72,1,52.5,8|8,0:0|0:0,0:0:0:0:
384,184,118677,1,0,0:0:0:0:
440,160,118735,1,0,0:0:0:0:
464,120,118792,2,0,L|456:176,1,52.5,0|0,0:0|0:0,0:0:0:0:
184,144,118908,5,14,0:0:0:0:
472,136,119138,2,0,P|472:192|368:296,1,210,6|0,0:0|0:0,0:0:0:0:
352,264,119427,1,0,0:0:0:0:
368,248,119485,1,0,0:0:0:0:
352,232,119542,1,0,0:0:0:0:
400,112,119600,1,0,0:0:0:0:
448,112,119658,1,0,0:0:0:0:
400,112,119715,1,0,0:0:0:0:
352,112,119773,1,0,0:0:0:0:
136,192,119831,5,4,0:0:0:0:
80,192,119888,1,0,0:0:0:0:
56,152,119946,1,0,0:0:0:0:
80,192,120004,1,0,0:0:0:0:
264,96,120062,2,0,L|320:96,1,52.5,2|0,0:0|0:0,0:0:0:0:
136,88,120177,2,0,L|80:88,1,52.5,0|0,0:0|0:0,0:0:0:0:
280,120,120292,6,0,L|384:120,1,105,2|0,0:0|0:0,0:0:0:0:
168,64,120523,2,0,L|160:176,1,105,2|0,0:0|0:0,0:0:0:0:
376,224,120754,6,0,P|432:224|432:136,1,157.5,6|0,0:0|0:0,0:0:0:0:
256,168,120985,2,0,P|200:168|200:80,1,157.5,6|0,0:0|0:0,0:0:0:0:
376,48,121215,2,0,L|208:48,1,157.5,6|0,0:0|0:0,0:0:0:0:
32,64,121446,2,0,L|200:64,1,157.5,6|0,0:0|0:0,0:0:0:0:
459,83,121677,6,0,P|472:146|298:314,1,315,12|0,0:1|0:0,0:0:0:0:
260,313,122081,1,0,0:0:0:0:
417,151,122138,1,2,0:0:0:0:
474,148,122196,1,0,0:0:0:0:
417,151,122254,1,0,0:0:0:0:
359,153,122312,1,0,0:0:0:0:
195,67,122369,1,2,0:0:0:0:
137,75,122427,1,0,0:0:0:0:
111,127,122485,1,0,0:0:0:0:
136,177,122542,1,0,0:0:0:0:
348,291,122600,6,0,P|403:276|337:172,1,210,10|0,0:0|0:0,0:0:0:0:
171,90,123062,2,0,L|348:205,1,210,0|0,0:0|0:0,0:0:0:0:
115,140,123523,6,0,P|59:240|139:307,1,210,2|0,0:0|0:0,0:0:0:0:
300,51,123985,1,0,0:0:0:0:
356,55,124042,1,0,0:0:0:0:
411,71,124100,1,0,0:0:0:0:
455,108,124158,1,0,0:0:0:0:
478,159,124215,1,0,0:0:0:0:
491,215,124273,1,0,0:0:0:0:
477,269,124331,1,0,0:0:0:0:
421,282,124388,1,0,0:0:0:0:
289,314,124446,6,0,L|111:306,1,157.5,6|0,0:0|0:0,0:0:0:0:
336,224,124677,2,0,P|406:217|447:134,1,157.5,6|0,0:0|0:0,0:0:0:0:
236,68,124908,2,0,P|179:79|202:179,1,157.5,6|0,0:0|0:0,0:0:0:0:
415,101,125138,2,0,P|466:81|398:27,1,157.5,6|0,0:0|0:0,0:0:0:0:
155,325,125369,6,0,P|114:293|236:124,1,315,6|0,0:0|0:0,0:0:0:0:
276,126,125773,1,0,0:0:0:0:
119,60,125831,1,2,0:0:0:0:
62,57,125888,1,0,0:0:0:0:
119,60,125946,1,0,0:0:0:0:
176,66,126004,1,0,0:0:0:0:
336,64,126062,1,2,0:0:0:0:
327,120,126119,1,0,0:0:0:0:
290,165,126177,1,0,0:0:0:0:
232,175,126235,1,0,0:0:0:0:
32,353,126292,6,0,P|19:301|129:205,1,210,10|0,0:0|0:0,0:0:0:0:
312,146,126754,2,0,L|131:264,1,210,0|0,0:0|0:0,0:0:0:0:
372,286,127215,5,2,0:0:0:0:
266,277,127331,1,0,0:0:0:0:
372,145,127446,1,0,0:0:0:0:
382,250,127562,1,0,0:0:0:0:
253,210,127677,5,2,0:0:0:0:
359,201,127792,1,0,0:0:0:0:
253,69,127908,1,0,0:0:0:0:
243,174,128023,1,0,0:0:0:0:
461,67,128138,5,10,0:0:0:0:
470,172,128254,1,0,0:0:0:0:
345,163,128369,1,0,0:0:0:0:
337,269,128485,1,0,0:0:0:0:
210,180,128600,5,2,0:0:0:0:
183,122,128658,1,0,0:0:0:0:
209,65,128715,1,0,0:0:0:0:
267,41,128773,1,0,0:0:0:0:
328,57,128831,1,0,0:0:0:0:
363,108,128888,1,0,0:0:0:0:
341,167,128946,1,0,0:0:0:0:
287,201,129004,1,0,0:0:0:0:
75,320,129062,6,0,P|34:277|182:120,1,315,6|0,0:0|0:0,0:0:0:0:
210,115,129465,1,0,0:0:0:0:
374,135,129523,1,2,0:0:0:0:
431,142,129581,1,0,0:0:0:0:
456,192,129638,1,0,0:0:0:0:
431,244,129696,1,0,0:0:0:0:
269,288,129754,1,2,0:0:0:0:
210,286,129812,1,0,0:0:0:0:
152,286,129869,1,0,0:0:0:0:
210,286,129927,1,0,0:0:0:0:
381,337,129985,6,0,P|436:321|367:227,1,210,10|0,0:0|0:0,0:0:0:0:
207,263,130446,2,0,L|205:38,1,210,0|0,0:0|0:0,0:0:0:0:
439,62,130908,6,0,P|441:135|305:193,1,210,2|0,0:0|0:0,0:0:0:0:
95,281,131369,1,0,0:0:0:0:
107,224,131427,1,0,0:0:0:0:
139,175,131485,1,0,0:0:0:0:
194,161,131542,1,0,0:0:0:0:
251,153,131600,1,0,0:0:0:0:
308,148,131658,1,0,0:0:0:0:
361,128,131715,1,0,0:0:0:0:
384,75,131773,1,0,0:0:0:0:
222,341,131831,6,0,P|170:305|226:255,1,157.5,6|0,0:0|0:0,0:0:0:0:
404,244,132062,2,0,P|465:234|447:141,1,157.5,6|0,0:0|0:0,0:0:0:0:
251,153,132292,2,0,P|193:150|144:49,1,157.5,6|0,0:0|0:0,0:0:0:0:
373,64,132523,2,0,L|512:168,1,157.5,6|0,0:0|0:0,0:0:0:0:
235,317,132754,6,0,P|175:312|237:138,1,315,6|0,0:0|0:0,0:0:0:0:
267,136,133158,1,0,0:0:0:0:
256,192,133215,1,2,0:0:0:0:
216,234,133273,1,0,0:0:0:0:
166,263,133331,1,0,0:0:0:0:
143,315,133388,1,0,0:0:0:0:
174,363,133446,1,2,0:0:0:0:
234,368,133504,1,0,0:0:0:0:
294,367,133562,1,0,0:0:0:0:
353,368,133619,1,0,0:0:0:0:
141,57,133677,5,10,0:0:0:0:
81,79,133735,1,0,0:0:0:0:
50,133,133792,1,0,0:0:0:0:
62,195,133850,1,0,0:0:0:0:
108,238,133908,1,0,0:0:0:0:
166,263,133965,1,0,0:0:0:0:
224,263,134023,1,0,0:0:0:0:
282,263,134081,1,0,0:0:0:0:
338,260,134138,1,2,0:0:0:0:
321,204,134196,1,0,0:0:0:0:
275,168,134254,1,0,0:0:0:0:
218,155,134312,1,0,0:0:0:0:
158,156,134369,1,0,0:0:0:0:
175,100,134427,1,0,0:0:0:0:
221,64,134485,1,0,0:0:0:0:
278,51,134542,1,0,0:0:0:0:
433,127,134600,6,0,P|474:180|407:303,1,210,6|0,0:0|0:0,0:0:0:0:
190,105,135062,2,0,P|158:162|227:285,1,210,2|0,0:0|0:0,0:0:0:0:
270,287,135350,1,0,0:0:0:0:
322,290,135408,1,0,0:0:0:0:
270,287,135465,1,0,0:0:0:0:
141,249,135523,1,10,0:0:0:0:
14,243,135581,1,8,0:0:0:0:
152,334,135638,1,8,0:0:0:0:
208,321,135696,1,8,0:0:0:0:
230,267,135754,1,0,0:0:0:0:
203,215,135812,1,0,0:0:0:0:
148,198,135869,1,0,0:0:0:0:
202,178,135927,1,0,0:0:0:0:
383,180,135985,5,10,0:0:0:0:
487,175,136100,1,10,0:0:0:0:
255,95,136215,1,10,0:0:0:0:
24,86,136331,1,10,0:0:0:0:
392,288,136446,5,4,0:0:0:0:
416,264,136504,1,0,0:0:0:0:
392,248,136562,1,0,0:0:0:0:
328,248,136619,1,0,0:0:0:0:
256,216,136677,2,0,L|320:216,1,52.5,2|0,0:0|0:0,0:0:0:0:
384,216,136792,2,0,L|320:216,1,52.5,0|0,0:0|0:0,0:0:0:0:
136,264,136908,5,2,0:0:0:0:
112,240,136965,1,0,0:0:0:0:
136,224,137023,1,0,0:0:0:0:
200,224,137081,1,0,0:0:0:0:
392,120,137138,2,0,L|320:120,1,52.5,2|0,0:0|0:0,0:0:0:0:
144,120,137254,2,0,L|80:120,1,52.5,0|0,0:0|0:0,0:0:0:0:
288,96,137369,6,0,L|344:96,1,52.5,10|0,0:0|0:0,0:0:0:0:
272,88,137485,2,0,L|216:88,1,52.5,0|0,0:0|0:0,0:0:0:0:
416,96,137600,2,0,L|472:96,1,52.5,2|0,0:0|0:0,0:0:0:0:
400,88,137715,2,0,L|344:88,1,52.5,0|0,0:0|0:0,0:0:0:0:
152,208,137831,6,0,L|160:152,1,52.5,2|0,0:0|0:0,0:0:0:0:
224,152,137946,2,0,L|232:96,1,52.5,0|0,0:0|0:0,0:0:0:0:
40,104,138062,2,0,L|48:48,1,52.5,2|0,0:0|0:0,0:0:0:0:
232,64,138177,2,0,L|288:64,1,52.5,0|0,0:0|0:0,0:0:0:0:
472,176,138292,6,0,L|464:120,1,52.5,2|0,0:0|0:0,0:0:0:0:
392,120,138408,2,0,L|336:120,1,52.5,0|0,0:0|0:0,0:0:0:0:
408,88,138523,2,0,L|480:88,1,52.5,2|0,0:0|0:0,0:0:0:0:
392,56,138638,2,0,L|336:56,1,52.5,0|0,0:0|0:0,0:0:0:0:
144,88,138754,6,0,L|152:32,1,52.5,2|0,0:0|0:0,0:0:0:0:
224,32,138869,2,0,L|304:32,1,52.5,0|0,0:0|0:0,0:0:0:0:
472,40,138985,2,0,L|408:40,1,52.5,2|0,0:0|0:0,0:0:0:0:
224,64,139100,2,0,L|168:64,1,52.5,0|0,0:0|0:0,0:0:0:0:
368,200,139215,5,10,0:0:0:0:
424,176,139273,1,0,0:0:0:0:
448,136,139331,2,0,L|440:192,1,52.5,0|0,0:0|0:0,0:0:0:0:
240,224,139446,1,2,0:0:0:0:
184,200,139504,1,0,0:0:0:0:
160,160,139562,2,0,L|168:216,1,52.5,0|0,0:0|0:0,0:0:0:0:
360,184,139677,6,0,L|352:128,1,52.5,2|0,0:0|0:0,0:0:0:0:
160,120,139792,2,0,L|168:64,1,52.5,2|0,0:0|0:0,0:0:0:0:
368,80,139908,2,0,L|312:80,1,52.5,2|0,0:0|0:0,0:0:0:0:
120,72,140023,2,0,L|64:72,1,52.5,2|0,0:0|0:0,0:0:0:0:
320,192,140138,5,6,0:0:0:0:
424,192,140254,1,0,0:0:0:0:
320,144,140369,1,0,0:0:0:0:
312,136,140485,1,0,0:0:0:0:
440,104,140600,5,2,0:0:0:0:
336,104,140715,1,0,0:0:0:0:
440,72,140831,1,2,0:0:0:0:
448,64,140946,1,0,0:0:0:0:
232,160,141062,5,10,0:0:0:0:
336,160,141177,1,0,0:0:0:0:
232,144,141292,1,2,0:0:0:0:
224,136,141408,1,0,0:0:0:0:
328,112,141523,5,2,0:0:0:0:
224,112,141638,1,0,0:0:0:0:
328,112,141754,1,0,0:0:0:0:
432,112,141869,1,0,0:0:0:0:
216,200,141985,5,4,0:0:0:0:
208,184,142100,1,0,0:0:0:0:
312,160,142215,1,0,0:0:0:0:
320,152,142331,1,0,0:0:0:0:
104,104,142446,5,2,0:0:0:0:
208,104,142562,1,0,0:0:0:0:
424,88,142677,1,2,0:0:0:0:
432,80,142792,1,0,0:0:0:0:
216,160,142908,5,10,0:0:0:0:
112,160,143023,1,0,0:0:0:0:
328,96,143138,1,2,0:0:0:0:
112,96,143254,1,0,0:0:0:0:
328,248,143369,5,2,0:0:0:0:
392,248,143427,1,0,0:0:0:0:
440,232,143485,1,0,0:0:0:0:
472,200,143542,1,0,0:0:0:0:
480,168,143600,1,0,0:0:0:0:
472,200,143658,1,0,0:0:0:0:
440,232,143715,1,0,0:0:0:0:
280,104,143773,1,0,0:0:0:0:
120,232,143831,6,0,P|80:192|240:104,1,315,14|0,0:0|0:0,0:0:0:0:
280,88,144235,1,0,0:0:0:0:
120,224,144292,1,2,0:0:0:0:
64,192,144350,1,0,0:0:0:0:
40,152,144408,1,0,0:0:0:0:
64,192,144465,1,0,0:0:0:0:
224,112,144523,1,2,0:0:0:0:
280,112,144581,1,0,0:0:0:0:
224,112,144638,1,0,0:0:0:0:
168,112,144696,1,0,0:0:0:0:
328,208,144754,6,0,P|384:208|384:80,1,210,10|0,0:0|0:0,0:0:0:0:
200,184,145215,2,0,P|144:184|144:56,1,210,0|0,0:0|0:0,0:0:0:0:
344,48,145677,6,0,L|167:163,1,210,2|0,0:0|0:0,0:0:0:0:
376,200,146138,1,2,0:0:0:0:
432,168,146196,1,0,0:0:0:0:
456,120,146254,1,0,0:0:0:0:
432,168,146312,1,0,0:0:0:0:
376,200,146369,1,0,0:0:0:0:
320,168,146427,1,0,0:0:0:0:
376,200,146485,1,0,0:0:0:0:
432,168,146542,1,0,0:0:0:0:
248,104,146600,6,0,L|80:216,1,157.5,6|0,0:0|0:0,0:0:0:0:
304,224,146831,2,0,P|360:208|384:120,1,157.5,6|0,0:0|0:0,0:0:0:0:
168,208,147062,2,0,P|112:192|88:104,1,157.5,6|0,0:0|0:0,0:0:0:0:
323,85,147292,2,0,L|491:197,1,157.5,6|0,0:0|0:0,0:0:0:0:
184,232,147523,6,0,P|160:184|328:56,1,315,6|0,0:0|0:0,0:0:0:0:
265,57,147927,1,0,0:0:0:0:
208,56,147985,1,2,0:0:0:0:
184,16,148042,1,0,0:0:0:0:
208,56,148100,1,0,0:0:0:0:
265,57,148158,1,0,0:0:0:0:
320,56,148215,1,2,0:0:0:0:
344,24,148273,1,0,0:0:0:0:
320,56,148331,1,0,0:0:0:0:
265,57,148388,1,0,0:0:0:0:
80,296,148446,5,10,0:0:0:0:
64,272,148504,1,0,0:0:0:0:
80,296,148562,1,0,0:0:0:0:
120,296,148619,1,0,0:0:0:0:
168,296,148677,1,0,0:0:0:0:
224,296,148735,1,0,0:0:0:0:
280,296,148792,1,0,0:0:0:0:
336,296,148850,1,0,0:0:0:0:
400,280,148908,6,0,L|408:224,1,52.5,2|0,0:0|0:0,0:0:0:0:
344,208,149023,2,0,L|288:208,1,52.5,0|0,0:0|0:0,0:0:0:0:
104,136,149138,2,0,L|96:80,1,52.5,0|0,0:0|0:0,0:0:0:0:
288,112,149254,2,0,L|352:112,1,52.5,0|0,0:0|0:0,0:0:0:0:
120,200,149369,5,2,0:0:0:0:
64,176,149427,1,0,0:0:0:0:
40,136,149485,2,0,L|48:192,1,52.5,0|0,0:0|0:0,0:0:0:0:
240,144,149600,2,0,L|248:88,1,52.5,2|0,0:0|0:0,0:0:0:0:
184,96,149715,2,0,L|192:40,1,52.5,0|0,0:0|0:0,0:0:0:0:
384,152,149831,5,2,0:0:0:0:
440,128,149888,1,0,0:0:0:0:
464,88,149946,2,0,L|472:144,1,52.5,0|0,0:0|0:0,0:0:0:0:
280,80,150062,2,0,L|216:80,1,52.5,2|0,0:0|0:0,0:0:0:0:
416,72,150177,2,0,L|360:72,1,52.5,0|0,0:0|0:0,0:0:0:0:
152,224,150292,5,10,0:0:0:0:
40,224,150408,1,8,0:0:0:0:
144,192,150523,1,8,0:0:0:0:
128,160,150581,1,0,0:0:0:0:
88,136,150638,1,0,0:0:0:0:
32,136,150696,1,0,0:0:0:0:
184,104,150754,5,10,0:0:0:0:
288,96,150869,1,10,0:0:0:0:
176,96,150985,1,10,0:0:0:0:
392,96,151100,1,10,0:0:0:0:
98,322,151215,5,4,0:0:0:0:
41,309,151273,1,0,0:0:0:0:
16,256,151331,1,0,0:0:0:0:
42,205,151388,1,0,0:0:0:0:
94,201,151446,1,0,0:0:0:0:
146,199,151504,1,0,0:0:0:0:
93,189,151562,1,0,0:0:0:0:
41,182,151619,1,0,0:0:0:0:
224,162,151677,5,2,0:0:0:0:
276,158,151735,1,0,0:0:0:0:
327,156,151792,1,0,0:0:0:0:
276,158,151850,1,0,0:0:0:0:
114,83,151908,1,2,0:0:0:0:
62,79,151965,1,0,0:0:0:0:
11,77,152023,1,0,0:0:0:0:
62,79,152081,1,0,0:0:0:0:
239,291,152138,5,2,0:0:0:0:
291,289,152196,1,0,0:0:0:0:
238,287,152254,1,0,0:0:0:0:
185,284,152312,1,0,0:0:0:0:
363,235,152369,1,2,0:0:0:0:
415,233,152427,1,0,0:0:0:0:
362,231,152485,1,0,0:0:0:0:
309,228,152542,1,0,0:0:0:0:
134,129,152600,5,2,0:0:0:0:
108,175,152658,1,0,0:0:0:0:
134,219,152715,1,0,0:0:0:0:
185,228,152773,1,0,0:0:0:0:
360,23,152831,1,2,0:0:0:0:
386,69,152888,1,0,0:0:0:0:
360,113,152946,1,0,0:0:0:0:
309,122,153004,1,0,0:0:0:0:
144,304,153062,5,10,0:0:0:0:
249,302,153177,1,8,0:0:0:0:
144,304,153292,1,8,0:0:0:0:
249,302,153408,1,8,0:0:0:0:
72,192,153523,1,10,0:0:0:0:
124,190,153581,1,8,0:0:0:0:
281,178,153638,1,8,0:0:0:0:
334,175,153696,1,8,0:0:0:0:
175,122,153754,1,10,0:0:0:0:
122,119,153812,1,8,0:0:0:0:
278,93,153869,1,8,0:0:0:0:
331,90,153927,1,8,0:0:0:0:
172,333,153985,5,2,0:0:0:0:
122,317,154042,1,0,0:0:0:0:
86,278,154100,1,0,0:0:0:0:
71,227,154158,1,0,0:0:0:0:
86,177,154215,1,0,0:0:0:0:
120,136,154273,1,0,0:0:0:0:
167,113,154331,1,0,0:0:0:0:
218,106,154388,1,0,0:0:0:0:
396,117,154446,5,10,0:0:0:0:
290,174,154562,1,10,0:0:0:0:
395,229,154677,1,10,0:0:0:0:
174,271,154792,1,10,0:0:0:0:
467,326,154908,5,6,0:0:0:0:
492,280,154965,1,0,0:0:0:0:
469,232,155023,1,0,0:0:0:0:
416,227,155081,1,0,0:0:0:0:
364,227,155138,1,0,0:0:0:0:
314,208,155196,1,0,0:0:0:0:
282,165,155254,1,0,0:0:0:0:
275,112,155312,1,0,0:0:0:0:
444,86,155369,5,2,0:0:0:0:
427,136,155427,1,0,0:0:0:0:
390,174,155485,1,0,0:0:0:0:
339,185,155542,1,0,0:0:0:0:
166,181,155600,1,2,0:0:0:0:
183,231,155658,1,0,0:0:0:0:
220,269,155715,1,0,0:0:0:0:
271,280,155773,1,0,0:0:0:0:
96,93,155831,5,2,0:0:0:0:
44,90,155888,1,0,0:0:0:0:
96,91,155946,1,0,0:0:0:0:
148,93,156004,1,0,0:0:0:0:
326,143,156062,1,2,0:0:0:0:
378,140,156119,1,0,0:0:0:0:
326,141,156177,1,0,0:0:0:0:
274,143,156235,1,0,0:0:0:0:
101,208,156292,5,2,0:0:0:0:
48,212,156350,1,0,0:0:0:0:
25,259,156408,1,0,0:0:0:0:
49,304,156465,1,0,0:0:0:0:
225,150,156523,1,2,0:0:0:0:
172,154,156581,1,0,0:0:0:0:
149,201,156638,1,0,0:0:0:0:
173,246,156696,1,0,0:0:0:0:
352,336,156754,6,0,L|360:280,1,52.5,2|0,0:0|0:0,0:0:0:0:
184,240,156869,1,0,0:0:0:0:
131,240,156927,1,0,0:0:0:0:
304,272,156985,2,0,L|312:216,1,52.5,2|0,0:0|0:0,0:0:0:0:
136,176,157100,1,0,0:0:0:0:
192,176,157158,1,0,0:0:0:0:
446,170,157215,6,0,P|496:150|427:89,1,157.5,6|0,0:0|0:0,0:0:0:0:
270,83,157446,2,0,L|94:89,1,157.5,6|0,0:0|0:0,0:0:0:0:
328,314,157677,5,10,0:0:0:0:
385,311,157735,1,8,0:0:0:0:
436,286,157792,1,8,0:0:0:0:
463,234,157850,1,8,0:0:0:0:
442,179,157908,1,0,0:0:0:0:
389,157,157965,1,0,0:0:0:0:
255,155,158023,1,0,0:0:0:0:
202,157,158081,1,0,0:0:0:0:
328,314,158138,5,2,0:0:0:0:
385,311,158196,1,0,0:0:0:0:
436,286,158254,1,0,0:0:0:0:
459,228,158312,1,0,0:0:0:0:
433,177,158369,1,0,0:0:0:0:
381,165,158427,1,0,0:0:0:0:
323,160,158485,1,0,0:0:0:0:
266,155,158542,1,0,0:0:0:0:
65,117,158600,5,6,0:0:0:0:
122,123,158658,1,0,0:0:0:0:
170,152,158715,1,0,0:0:0:0:
190,206,158773,1,0,0:0:0:0:
170,260,158831,1,0,0:0:0:0:
123,292,158888,1,0,0:0:0:0:
65,299,158946,1,0,0:0:0:0:
122,307,159004,1,0,0:0:0:0:
305,76,159062,5,10,0:0:0:0:
361,82,159119,1,0,0:0:0:0:
227,143,159177,1,8,0:0:0:0:
216,200,159235,1,0,0:0:0:0:
394,177,159292,1,10,0:0:0:0:
451,183,159350,1,0,0:0:0:0:
317,244,159408,1,8,0:0:0:0:
306,301,159465,1,0,0:0:0:0:
492,335,159523,5,10,0:0:0:0:
482,277,159581,1,0,0:0:0:0:
348,244,159638,1,8,0:0:0:0:
290,238,159696,1,0,0:0:0:0:
474,197,159754,1,10,0:0:0:0:
464,139,159812,1,0,0:0:0:0:
330,106,159869,1,8,0:0:0:0:
272,100,159927,1,0,0:0:0:0:
89,60,159985,5,10,0:0:0:0:
77,115,160042,1,0,0:0:0:0:
210,172,160100,1,8,0:0:0:0:
268,173,160158,1,0,0:0:0:0:
447,60,160215,1,10,0:0:0:0:
459,115,160273,1,0,0:0:0:0:
326,172,160331,1,8,0:0:0:0:
268,173,160388,1,0,0:0:0:0:
84,263,160446,5,10,0:0:0:0:
265,270,160562,1,8,0:0:0:0:
444,278,160677,1,8,0:0:0:0:
265,270,160792,1,8,0:0:0:0:
444,278,160908,5,10,0:0:0:0:
392,275,160965,1,8,0:0:0:0:
258,214,161023,1,8,0:0:0:0:
200,211,161081,1,8,0:0:0:0:
62,135,161138,1,10,0:0:0:0:
119,139,161196,1,8,0:0:0:0:
252,92,161254,1,8,0:0:0:0:
193,92,161312,1,8,0:0:0:0:
50,64,161369,5,2,0:0:0:0:
25,116,161427,1,0,0:0:0:0:
47,169,161485,1,0,0:0:0:0:
97,196,161542,1,0,0:0:0:0:
151,175,161600,1,0,0:0:0:0:
177,123,161658,1,0,0:0:0:0:
154,70,161715,1,0,0:0:0:0:
98,54,161773,1,0,0:0:0:0:
245,135,161831,5,10,0:0:0:0:
360,100,161946,1,10,0:0:0:0:
244,45,162062,1,10,0:0:0:0:
457,52,162177,1,10,0:0:0:0:
185,275,162292,5,6,0:0:0:0:
132,267,162350,1,0,0:0:0:0:
107,220,162408,1,0,0:0:0:0:
132,174,162465,1,0,0:0:0:0:
184,165,162523,1,0,0:0:0:0:
236,159,162581,1,0,0:0:0:0:
287,150,162638,1,0,0:0:0:0:
236,159,162696,1,0,0:0:0:0:
65,55,162754,5,10,0:0:0:0:
42,102,162812,1,0,0:0:0:0:
66,147,162869,1,8,0:0:0:0:
116,163,162927,1,0,0:0:0:0:
302,204,162985,1,10,0:0:0:0:
352,218,163042,1,0,0:0:0:0:
376,265,163100,1,8,0:0:0:0:
352,313,163158,1,0,0:0:0:0:
186,270,163215,5,10,0:0:0:0:
133,270,163273,1,0,0:0:0:0:
185,270,163331,1,8,0:0:0:0:
236,269,163388,1,0,0:0:0:0:
66,147,163446,1,10,0:0:0:0:
13,147,163504,1,0,0:0:0:0:
65,147,163562,1,8,0:0:0:0:
116,146,163619,1,0,0:0:0:0:
296,73,163677,5,10,0:0:0:0:
346,87,163735,1,0,0:0:0:0:
383,122,163792,1,8,0:0:0:0:
399,172,163850,1,0,0:0:0:0:
223,165,163908,1,10,0:0:0:0:
173,179,163965,1,0,0:0:0:0:
136,214,164023,1,8,0:0:0:0:
120,264,164081,1,0,0:0:0:0:
303,331,164138,5,14,0:0:0:0:
280,283,164196,1,8,0:0:0:0:
233,258,164254,1,8,0:0:0:0:
180,253,164312,1,8,0:0:0:0:
337,197,164369,1,0,0:0:0:0:
389,197,164427,1,0,0:0:0:0:
230,110,164485,1,2,0:0:0:0:
178,110,164542,1,0,0:0:0:0:
394,44,164600,5,14,0:0:0:0:
448,48,164658,1,8,0:0:0:0:
469,98,164715,1,8,0:0:0:0:
444,144,164773,1,8,0:0:0:0:
273,163,164831,1,0,0:0:0:0:
215,164,164888,1,0,0:0:0:0:
386,233,164946,1,2,0:0:0:0:
445,232,165004,1,0,0:0:0:0:
184,216,165062,6,0,L|176:160,1,52.5,14|8,0:0|0:0,0:0:0:0:
414,190,165177,1,2,0:0:0:0:
362,191,165235,1,0,0:0:0:0:
154,91,165292,1,0,0:0:0:0:
286,89,165350,1,0,0:0:0:0:
418,88,165408,1,0,0:0:0:0:
286,89,165465,1,0,0:0:0:0:
144,104,165523,6,0,L|152:208,1,105,10|0,0:0|0:0,0:0:0:0:
336,128,165754,2,0,L|232:128,1,105
48,144,165985,1,2,0:0:0:0:
264,336,169215,6,0,P|264:232|88:56,1,367.5,2|0,0:0|0:0,0:0:0:0:
376,216,169677,6,0,L|432:208,1,52.5,4|0,0:0|0:0,0:0:0:0:
480,184,169792,2,0,L|472:128,1,52.5,0|0,0:0|0:0,0:0:0:0:
416,128,169908,2,0,L|360:120,1,52.5,0|0,0:0|0:0,0:0:0:0:
312,120,170023,2,0,L|368:112,1,52.5,0|0,0:0|0:0,0:0:0:0:
432,112,170138,6,0,L|424:56,1,52.5,2|0,0:0|0:0,0:0:0:0:
368,56,170254,2,0,L|312:48,1,52.5,0|0,0:0|0:0,0:0:0:0:
264,56,170369,2,0,L|320:48,1,52.5,0|0,0:0|0:0,0:0:0:0:
368,56,170485,2,0,L|312:48,1,52.5,0|0,0:0|0:0,0:0:0:0:
248,144,170600,6,0,L|240:88,1,52.5,2|0,0:0|0:0,0:0:0:0:
296,152,170715,2,0,L|352:144,1,52.5,0|0,0:0|0:0,0:0:0:0:
400,120,170831,2,0,L|344:112,1,52.5,0|0,0:0|0:0,0:0:0:0:
296,120,170946,2,0,L|240:112,1,52.5,0|0,0:0|0:0,0:0:0:0:
312,96,171062,6,0,L|320:40,1,52.5,2|0,0:0|0:0,0:0:0:0:
264,72,171177,2,0,L|208:64,1,52.5,0|0,0:0|0:0,0:0:0:0:
160,96,171292,2,0,L|216:88,1,52.5,0|0,0:0|0:0,0:0:0:0:
264,96,171408,2,0,L|320:88,1,52.5,0|0,0:0|0:0,0:0:0:0:
104,224,171523,6,0,L|48:216,1,52.5,10|0,0:0|0:0,0:0:0:0:
104,208,171638,2,0,L|160:200,1,52.5,0|0,0:0|0:0,0:0:0:0:
208,192,171754,2,0,L|216:136,1,52.5,0|0,0:0|0:0,0:0:0:0:
160,136,171869,2,0,L|168:80,1,52.5,0|0,0:0|0:0,0:0:0:0:
240,120,171985,6,0,L|296:112,1,52.5,2|0,0:0|0:0,0:0:0:0:
344,96,172100,2,0,L|288:88,1,52.5,0|0,0:0|0:0,0:0:0:0:
240,128,172215,2,0,L|296:120,1,52.5,0|0,0:0|0:0,0:0:0:0:
344,104,172331,2,0,L|288:96,1,52.5,0|0,0:0|0:0,0:0:0:0:
216,96,172446,6,0,L|224:40,1,52.5,2|0,0:0|0:0,0:0:0:0:
280,48,172562,2,0,L|288:104,1,52.5,0|0,0:0|0:0,0:0:0:0:
232,72,172677,2,0,L|176:64,1,52.5,0|0,0:0|0:0,0:0:0:0:
232,48,172792,2,0,L|288:40,1,52.5,0|0,0:0|0:0,0:0:0:0:
152,280,172908,6,0,L|96:272,1,52.5,2|0,0:0|0:0,0:0:0:0:
48,240,173023,2,0,L|40:184,1,52.5,0|0,0:0|0:0,0:0:0:0:
88,144,173138,2,0,L|96:88,1,52.5,0|0,0:0|0:0,0:0:0:0:
152,88,173254,2,0,L|208:80,1,52.5,0|0,0:0|0:0,0:0:0:0:
421,205,173369,5,6,0:0:0:0:
479,200,173427,1,0,0:0:0:0:
423,196,173485,1,0,0:0:0:0:
366,190,173542,1,0,0:0:0:0:
309,184,173600,1,0,0:0:0:0:
252,180,173658,1,0,0:0:0:0:
309,176,173715,1,0,0:0:0:0:
367,167,173773,1,0,0:0:0:0:
425,159,173831,5,2,0:0:0:0:
482,154,173888,1,0,0:0:0:0:
425,151,173946,1,0,0:0:0:0:
368,148,174004,1,0,0:0:0:0:
312,145,174062,1,0,0:0:0:0:
255,140,174119,1,0,0:0:0:0:
197,138,174177,1,0,0:0:0:0:
254,131,174235,1,0,0:0:0:0:
312,124,174292,5,2,0:0:0:0:
254,121,174350,1,0,0:0:0:0:
198,117,174408,1,0,0:0:0:0:
141,111,174465,1,0,0:0:0:0:
84,105,174523,1,0,0:0:0:0:
27,101,174581,1,0,0:0:0:0:
84,97,174638,1,0,0:0:0:0:
142,88,174696,1,0,0:0:0:0:
200,80,174754,5,2,0:0:0:0:
257,75,174812,1,0,0:0:0:0:
200,72,174869,1,0,0:0:0:0:
143,69,174927,1,0,0:0:0:0:
87,66,174985,1,0,0:0:0:0:
30,61,175042,1,0,0:0:0:0:
89,59,175100,1,0,0:0:0:0:
147,56,175158,1,0,0:0:0:0:
314,243,175215,5,10,0:0:0:0:
373,243,175273,1,0,0:0:0:0:
316,240,175331,1,0,0:0:0:0:
260,237,175388,1,0,0:0:0:0:
202,235,175446,1,0,0:0:0:0:
144,232,175504,1,0,0:0:0:0:
201,224,175562,1,0,0:0:0:0:
259,216,175619,1,0,0:0:0:0:
201,213,175677,5,2,0:0:0:0:
145,208,175735,1,0,0:0:0:0:
88,204,175792,1,0,0:0:0:0:
30,201,175850,1,0,0:0:0:0:
88,195,175908,1,0,0:0:0:0:
145,187,175965,1,0,0:0:0:0:
203,179,176023,1,0,0:0:0:0:
261,173,176081,1,0,0:0:0:0:
205,167,176138,5,2,0:0:0:0:
148,159,176196,1,0,0:0:0:0:
206,153,176254,1,0,0:0:0:0:
263,145,176312,1,0,0:0:0:0:
321,136,176369,1,0,0:0:0:0:
379,129,176427,1,0,0:0:0:0:
436,122,176485,1,0,0:0:0:0:
379,114,176542,1,0,0:0:0:0:
322,109,176600,6,0,P|288:161|468:370,1,367.5,2|0,0:0|0:0,0:0:0:0:
248,200,177062,5,2,0:0:0:0:
144,200,177177,1,0,0:0:0:0:
248,184,177292,1,2,0:0:0:0:
256,176,177408,1,0,0:0:0:0:
152,160,177523,5,2,0:0:0:0:
160,152,177638,1,0,0:0:0:0:
336,160,177754,1,2,0:0:0:0:
440,160,177869,1,0,0:0:0:0:
264,96,177985,5,2,0:0:0:0:
160,96,178100,1,0,0:0:0:0:
272,88,178215,1,8,0:0:0:0:
168,88,178331,1,8,0:0:0:0:
344,112,178446,5,2,0:0:0:0:
448,112,178562,1,0,0:0:0:0:
336,104,178677,1,8,0:0:0:0:
440,104,178792,1,8,0:0:0:0:
248,200,178908,5,2,0:0:0:0:
144,200,179023,1,0,0:0:0:0:
256,192,179138,1,0,0:0:0:0:
360,192,179254,1,0,0:0:0:0:
248,184,179369,1,2,0:0:0:0:
240,176,179485,1,0,0:0:0:0:
416,120,179600,1,8,0:0:0:0:
312,120,179715,1,0,0:0:0:0:
136,136,179831,6,0,L|128:80,1,52.5,6|0,0:0|0:0,0:0:0:0:
192,88,179946,2,0,L|200:32,1,52.5,0|0,0:0|0:0,0:0:0:0:
136,40,180062,2,0,L|200:40,1,52.5,0|0,0:0|0:0,0:0:0:0:
368,96,180177,6,0,L|440:96,1,52.5,6|0,0:0|0:0,0:0:0:0:
352,88,180292,2,0,L|296:88,1,52.5,0|0,0:0|0:0,0:0:0:0:
232,88,180408,2,0,L|304:88,1,52.5,0|0,0:0|0:0,0:0:0:0:
464,72,180523,6,0,L|408:72,1,52.5,6|0,0:0|0:0,0:0:0:0:
200,64,180638,2,0,L|136:64,1,52.5,0|0,0:0|0:0,0:0:0:0:
416,176,180754,6,0,L|480:176,1,52.5,6|0,0:0|0:0,0:0:0:0:
408,168,180869,2,0,L|352:168,1,52.5,0|0,0:0|0:0,0:0:0:0:
192,144,180985,2,0,L|128:144,1,52.5,2|0,0:0|0:0,0:0:0:0:
200,136,181100,2,0,L|256:136,1,52.5,0|0,0:0|0:0,0:0:0:0:
96,152,181215,6,0,L|32:152,1,52.5,2|0,0:0|0:0,0:0:0:0:
104,144,181331,2,0,L|160:144,1,52.5,0|0,0:0|0:0,0:0:0:0:
320,144,181446,2,0,L|384:144,1,52.5,2|0,0:0|0:0,0:0:0:0:
312,136,181562,2,0,L|256:136,1,52.5,0|0,0:0|0:0,0:0:0:0:
424,144,181677,5,2,0:0:0:0:
448,112,181735,1,0,0:0:0:0:
424,144,181792,1,0,0:0:0:0:
368,144,181850,1,0,0:0:0:0:
208,272,181908,2,0,L|144:272,1,52.5,2|0,0:0|0:0,0:0:0:0:
320,264,182023,2,0,L|376:264,1,52.5,0|0,0:0|0:0,0:0:0:0:
208,104,182138,5,2,0:0:0:0:
184,72,182196,1,0,0:0:0:0:
208,104,182254,1,0,0:0:0:0:
264,104,182312,1,0,0:0:0:0:
104,112,182369,2,0,L|48:112,1,52.5,2|0,0:0|0:0,0:0:0:0:
112,104,182485,2,0,L|176:104,1,52.5,0|0,0:0|0:0,0:0:0:0:
328,184,182600,6,0,L|320:128,1,52.5,2|0,0:0|0:0,0:0:0:0:
256,136,182715,2,0,L|248:80,1,52.5,0|0,0:0|0:0,0:0:0:0:
416,112,182831,2,0,L|472:112,1,52.5,2|0,0:0|0:0,0:0:0:0:
408,104,182946,2,0,L|344:104,1,52.5,0|0,0:0|0:0,0:0:0:0:
192,96,183062,5,2,0:0:0:0:
136,96,183119,1,0,0:0:0:0:
112,72,183177,2,0,L|120:16,1,52.5,0|0,0:0|0:0,0:0:0:0:
272,160,183292,2,0,L|336:160,1,52.5,2|0,0:0|0:0,0:0:0:0:
264,144,183408,2,0,L|256:88,1,52.5,0|0,0:0|0:0,0:0:0:0:
408,144,183523,5,2,0:0:0:0:
464,144,183581,1,0,0:0:0:0:
488,120,183638,2,0,L|480:64,1,52.5,0|0,0:0|0:0,0:0:0:0:
312,80,183754,2,0,L|248:80,1,52.5,2|0,0:0|0:0,0:0:0:0:
424,56,183869,2,0,L|480:56,1,52.5,0|0,0:0|0:0,0:0:0:0:
312,256,183985,6,0,L|304:200,1,52.5,2|0,0:0|0:0,0:0:0:0:
368,200,184100,2,0,L|376:144,1,52.5,0|0,0:0|0:0,0:0:0:0:
312,144,184215,2,0,L|304:88,1,52.5,2|0,0:0|0:0,0:0:0:0:
368,120,184331,2,0,L|304:120,1,52.5,0|0,0:0|0:0,0:0:0:0:
96,192,184446,6,0,L|40:192,1,52.5,6|0,0:0|0:0,0:0:0:0:
208,168,184562,2,0,L|216:112,1,52.5,10|0,0:0|0:0,0:0:0:0:
56,136,184677,2,0,L|48:80,1,52.5,10|0,0:0|0:0,0:0:0:0:
232,112,184792,2,0,L|288:112,1,52.5,10|0,0:0|0:0,0:0:0:0:
448,112,184908,6,0,L|392:112,1,52.5,10|0,0:0|0:0,0:0:0:0:
232,88,185023,2,0,L|160:88,1,52.5,10|0,0:0|0:0,0:0:0:0:
344,64,185138,2,0,L|416:64,1,52.5,10|0,0:0|0:0,0:0:0:0:
232,224,185254,2,0,L|224:168,1,52.5,10|0,0:0|0:0,0:0:0:0:
384,176,185369,6,0,L|392:120,1,52.5,10|0,0:0|0:0,0:0:0:0:
224,120,185485,2,0,L|168:120,1,52.5,10|0,0:0|0:0,0:0:0:0:
8,120,185600,2,0,L|64:120,1,52.5,10|0,0:0|0:0,0:0:0:0:
224,104,185715,2,0,L|288:104,1,52.5,10|0,0:0|0:0,0:0:0:0:
440,104,185831,6,0,L|368:104,1,52.5,10|0,0:0|0:0,0:0:0:0:
224,120,185946,2,0,L|160:120,1,52.5,10|0,0:0|0:0,0:0:0:0:
336,120,186062,2,0,L|344:64,1,52.5,10|0,0:0|0:0,0:0:0:0:
184,64,186177,2,0,L|112:64,1,52.5,10|0,0:0|0:0,0:0:0:0:
296,192,186292,5,2,0:0:0:0:
400,192,186408,1,0,0:0:0:0:
288,184,186523,1,0,0:0:0:0:
392,184,186638,1,0,0:0:0:0:
184,168,186754,5,2,0:0:0:0:
80,168,186869,1,0,0:0:0:0:
288,184,186985,1,0,0:0:0:0:
392,184,187100,1,0,0:0:0:0:
184,200,187215,6,0,L|88:192,1,52.5,6|0,0:0|0:0,0:0:0:0:
72,184,187331,2,0,L|80:128,1,52.5,0|0,0:0|0:0,0:0:0:0:
136,136,187446,2,0,L|232:128,1,52.5,0|0,0:0|0:0,0:0:0:0:
352,192,187562,6,0,L|448:184,1,52.5,6|0,0:0|0:0,0:0:0:0:
464,176,187677,2,0,L|456:120,1,52.5,0|0,0:0|0:0,0:0:0:0:
400,128,187792,2,0,L|304:120,1,52.5,0|0,0:0|0:0,0:0:0:0:
184,192,187908,6,0,L|280:184,1,52.5,6|0,0:0|0:0,0:0:0:0:
296,168,188023,2,0,L|392:160,1,52.5
128,112,188138,6,0,L|64:112,1,52.5,6|0,0:0|0:0,0:0:0:0:
240,88,188254,2,0,L|320:88,1,52.5,10|0,0:0|0:0,0:0:0:0:
456,80,188369,2,0,L|392:80,1,52.5,10|0,0:0|0:0,0:0:0:0:
240,72,188485,2,0,L|176:72,1,52.5,10|0,0:0|0:0,0:0:0:0:
352,192,188600,6,0,L|360:136,1,52.5,10|0,0:0|0:0,0:0:0:0:
200,144,188715,2,0,L|192:88,1,52.5,10|0,0:0|0:0,0:0:0:0:
360,80,188831,2,0,L|424:80,1,52.5,10|0,0:0|0:0,0:0:0:0:
288,48,188946,1,10,0:0:0:0:
160,48,189004,1,0,0:0:0:0:
32,72,189062,6,0,L|120:72,1,52.5,10|0,0:0|0:0,0:0:0:0:
248,120,189177,2,0,L|320:120,1,52.5,10|0,0:0|0:0,0:0:0:0:
464,120,189292,2,0,L|400:120,1,52.5,10|0,0:0|0:0,0:0:0:0:
248,120,189408,2,0,L|192:120,1,52.5,10|0,0:0|0:0,0:0:0:0:
360,184,189523,6,0,L|368:128,1,52.5,10|0,0:0|0:0,0:0:0:0:
208,192,189638,2,0,L|216:136,1,52.5,10|0,0:0|0:0,0:0:0:0:
384,136,189754,2,0,L|448:136,1,52.5,10|0,0:0|0:0,0:0:0:0:
312,80,189869,1,10,0:0:0:0:
184,80,189927,1,0,0:0:0:0:
56,104,189985,6,0,L|128:104,1,52.5,10|0,0:0|0:0,0:0:0:0:
272,96,190100,2,0,L|336:96,1,52.5,10|0,0:0|0:0,0:0:0:0:
160,72,190215,2,0,L|88:72,1,52.5,10|0,0:0|0:0,0:0:0:0:
272,216,190331,2,0,L|280:160,1,52.5,10|0,0:0|0:0,0:0:0:0:
120,160,190446,6,0,L|112:104,1,52.5,10|0,0:0|0:0,0:0:0:0:
280,152,190562,2,0,L|336:152,1,52.5,10|0,0:0|0:0,0:0:0:0:
496,112,190677,2,0,L|440:112,1,52.5,10|0,0:0|0:0,0:0:0:0:
280,112,190792,2,0,L|208:112,1,52.5,10|0,0:0|0:0,0:0:0:0:
64,216,190908,6,0,P|56:160|136:120,1,157.5,14|0,0:0|0:0,0:0:0:0:
280,104,191138,1,8,0:0:0:0:
424,104,191196,1,8,0:0:0:0:
280,104,191254,1,8,0:0:0:0:
136,104,191312,1,8,0:0:0:0:
280,280,191369,6,0,L|336:272,1,52.5,2|0,0:0|0:0,0:0:0:0:
384,256,191484,2,0,L|392:200,1,52.5,0|0,0:0|0:0,0:0:0:0:
336,192,191600,2,0,L|280:184,1,52.5,0|0,0:0|0:0,0:0:0:0:
96,176,191715,2,0,L|152:168,1,52.5,0|0,0:0|0:0,0:0:0:0:
368,320,191831,6,0,L|424:312,1,52.5,6|0,0:0|0:0,0:0:0:0:
472,280,191946,2,0,L|480:224,1,52.5,0|0,0:0|0:0,0:0:0:0:
432,184,192062,2,0,L|424:128,1,52.5
368,128,192177,2,0,L|312:120,1,52.5
240,128,192292,6,0,L|296:120,1,52.5,2|0,0:0|0:0,0:0:0:0:
344,128,192408,2,0,L|336:72,1,52.5
288,112,192523,2,0,L|296:56,1,52.5
344,88,192638,2,0,L|400:80,1,52.5
232,144,192754,6,0,L|176:136,1,52.5,10|0,0:0|0:0,0:0:0:0:
128,128,192869,2,0,L|184:120,1,52.5,0|0,0:0|0:0,0:0:0:0:
232,120,192985,2,0,L|224:64,1,52.5,0|0,0:0|0:0,0:0:0:0:
176,96,193100,2,0,L|168:40,1,52.5,0|0,0:0|0:0,0:0:0:0:
248,72,193215,6,0,L|304:64,1,52.5,2|0,0:0|0:0,0:0:0:0:
248,56,193331,2,0,L|192:48,1,52.5,0|0,0:0|0:0,0:0:0:0:
144,48,193446,2,0,L|200:40,1,52.5,0|0,0:0|0:0,0:0:0:0:
248,40,193562,2,0,L|304:48,1,52.5,0|0,0:0|0:0,0:0:0:0:
376,288,193677,6,0,L|320:280,1,52.5,2|0,0:0|0:0,0:0:0:0:
264,280,193792,2,0,L|320:272,1,52.5,0|0,0:0|0:0,0:0:0:0:
376,264,193908,2,0,L|320:256,1,52.5,0|0,0:0|0:0,0:0:0:0:
264,256,194023,2,0,L|208:248,1,52.5,0|0,0:0|0:0,0:0:0:0:
400,200,194138,6,0,P|456:200|456:112,1,157.5,6|0,0:0|0:0,0:0:0:0:
280,168,194369,2,0,P|224:168|224:80,1,157.5,6|0,0:0|0:0,0:0:0:0:
432,344,194600,6,0,L|440:264,1,78.75,10|0,0:0|0:0,0:0:0:0:
61,328,195523,5,6,0:0:0:0:
49,295,195581,1,0,0:0:0:0:
61,267,195638,1,0,0:0:0:0:
117,250,195696,1,0,0:0:0:0:
174,246,195754,1,0,0:0:0:0:
218,209,195812,1,0,0:0:0:0:
231,153,195869,1,0,0:0:0:0:
205,100,195927,1,0,0:0:0:0:
147,90,195985,1,0,0:0:0:0:
329,328,196908,5,0,0:0:0:0:
272,323,196965,1,0,0:0:0:0:
217,310,197023,1,0,0:0:0:0:
166,282,197081,1,0,0:0:0:0:
125,240,197138,1,0,0:0:0:0:
103,186,197196,1,0,0:0:0:0:
123,132,197254,1,0,0:0:0:0:
176,107,197312,1,0,0:0:0:0:
335,99,197369,1,8,0:0:0:0:
217,310,197831,6,0,L|215:249,3,52.5,0|0|0|0,0:0|0:0|0:0|0:0,0:0:0:0:
291,241,198062,2,0,L|298:180,1,52.5,0|0,0:0|0:0,0:0:0:0:
223,194,198177,2,0,L|219:136,1,52.5,0|0,0:0|0:0,0:0:0:0:
295,310,198292,6,0,L|297:249,3,52.5,0|0|0|0,0:0|0:0|0:0|0:0,0:0:0:0:
221,241,198523,2,0,L|214:180,1,52.5,0|0,0:0|0:0,0:0:0:0:
289,194,198638,2,0,L|293:136,1,52.5,0|0,0:0|0:0,0:0:0:0:
72,116,199215,5,12,0:0:0:0:
227,113,199273,1,0,0:0:0:0:
390,289,199331,1,0,0:0:0:0:
382,228,199388,1,0,0:0:0:0:
249,257,199446,1,0,0:0:0:0:
257,198,199504,1,0,0:0:0:0:
390,154,199562,1,0,0:0:0:0:
382,93,199619,1,0,0:0:0:0:
249,122,199677,5,0,0:0:0:0:
257,63,199735,1,0,0:0:0:0:
392,45,199792,1,0,0:0:0:0:
450,43,199850,1,0,0:0:0:0:
317,178,199908,1,0,0:0:0:0:
259,176,199965,1,0,0:0:0:0:
128,172,200023,1,0,0:0:0:0:
70,170,200081,1,0,0:0:0:0:
202,287,200138,5,0,0:0:0:0:
260,285,200196,1,0,0:0:0:0:
393,230,200254,1,0,0:0:0:0:
451,228,200312,1,0,0:0:0:0:
321,36,200369,1,0,0:0:0:0:
263,34,200427,1,0,0:0:0:0:
129,47,200485,1,0,0:0:0:0:
137,108,200542,1,0,0:0:0:0:
270,100,200600,5,0,0:0:0:0:
262,160,200658,1,0,0:0:0:0:
129,182,200716,1,0,0:0:0:0:
137,243,200773,1,0,0:0:0:0:
271,236,200831,1,0,0:0:0:0:
263,295,200889,1,0,0:0:0:0:
129,328,200946,1,0,0:0:0:0:
70,330,201004,1,0,0:0:0:0:
256,369,201062,6,0,P|323:362|200:0,1,682.499968757631,8|0,0:0|0:0,0:0:0:0:
107,44,202908,5,12,0:0:0:0:
233,43,202965,1,0,0:0:0:0:
360,41,203023,1,0,0:0:0:0:
396,92,203081,1,0,0:0:0:0:
415,151,203138,1,0,0:0:0:0:
394,210,203196,1,0,0:0:0:0:
341,244,203254,1,0,0:0:0:0:
279,259,203312,1,0,0:0:0:0:
153,244,203369,5,0,0:0:0:0:
299,192,203523,1,0,0:0:0:0:
153,139,203677,1,0,0:0:0:0:
299,92,203831,1,0,0:0:0:0:
152,40,203985,1,0,0:0:0:0:
297,7,204138,1,0,0:0:0:0:
152,40,204292,5,0,0:0:0:0:
204,40,204350,1,0,0:0:0:0:
336,137,204408,1,0,0:0:0:0:
388,137,204466,1,0,0:0:0:0:
258,206,204523,1,0,0:0:0:0:
206,206,204581,1,0,0:0:0:0:
339,342,204639,1,0,0:0:0:0:
286,342,204697,1,0,0:0:0:0:
84,330,204754,5,8,0:0:0:0:
408,80,206600,5,12,0:0:0:0:
248,64,206658,1,0,0:0:0:0:
90,90,206715,1,0,0:0:0:0:
142,92,206773,1,0,0:0:0:0:
294,156,206831,1,0,0:0:0:0:
258,160,206888,1,0,0:0:0:0:
113,177,206946,1,0,0:0:0:0:
149,181,207003,1,0,0:0:0:0:
285,241,207062,5,0,0:0:0:0:
265,242,207119,1,0,0:0:0:0:
115,266,207177,1,0,0:0:0:0:
135,267,207234,1,0,0:0:0:0:
267,331,207292,1,0,0:0:0:0:
259,332,207350,1,0,0:0:0:0:
132,366,207408,1,0,0:0:0:0:
140,367,207466,1,0,0:0:0:0:
267,331,207523,5,0,0:0:0:0:
275,327,207581,1,0,0:0:0:0:
125,292,207638,1,0,0:0:0:0:
117,288,207696,1,0,0:0:0:0:
280,240,207754,1,0,0:0:0:0:
307,239,207812,1,0,0:0:0:0:
118,199,207869,1,0,0:0:0:0:
92,197,207927,1,0,0:0:0:0:
291,154,207985,5,0,0:0:0:0:
339,152,208043,1,0,0:0:0:0:
117,112,208100,1,0,0:0:0:0:
69,110,208158,1,0,0:0:0:0:
313,77,208215,1,0,0:0:0:0:
371,74,208273,1,0,0:0:0:0:
103,26,208331,1,0,0:0:0:0:
45,23,208389,1,0,0:0:0:0:
337,22,208446,5,8,0:0:0:0:
136,168,208908,1,2,0:0:0:0:
275,187,209062,1,2,0:0:0:0:
136,168,209215,1,2,0:0:0:0:
454,47,209369,6,0,P|493:118|425:251,1,210,6|0,0:0|0:0,0:0:0:0:
57,47,209677,2,0,P|18:118|86:251,1,210,6|0,0:0|0:0,0:0:0:0:
282,331,209985,2,0,L|447:184,1,210,6|0,0:0|0:0,0:0:0:0:
88,0,210292,6,0,P|88:24|400:336,1,504,6|0,0:0|0:0,0:0:0:0:
336,272,211735,1,0,0:0:0:0:
296,248,211792,1,0,0:0:0:0:
280,200,211850,1,0,0:0:0:0:
296,248,211908,1,0,0:0:0:0:
336,272,211965,1,0,0:0:0:0:
392,272,212023,1,0,0:0:0:0:
248,144,212081,1,0,0:0:0:0:
104,216,212138,5,4,0:0:0:0:
48,192,212196,1,0,0:0:0:0:
24,152,212254,2,0,L|32:208,1,52.5,0|0,0:0|0:0,0:0:0:0:
208,128,212369,2,0,L|272:128,1,52.5,2|0,0:0|0:0,0:0:0:0:
200,112,212485,2,0,L|192:56,1,52.5,0|0,0:0|0:0,0:0:0:0:
368,128,212600,6,0,L|440:128,1,52.5,2|0,0:0|0:0,0:0:0:0:
352,120,212715,2,0,L|296:120,1,52.5,0|0,0:0|0:0,0:0:0:0:
368,96,212831,2,0,L|424:96,1,52.5,2|0,0:0|0:0,0:0:0:0:
488,96,212946,2,0,L|424:96,1,52.5,0|0,0:0|0:0,0:0:0:0:
248,168,213062,5,2,0:0:0:0:
192,144,213120,1,0,0:0:0:0:
168,104,213177,2,0,L|176:160,1,52.5,0|0,0:0|0:0,0:0:0:0:
360,216,213292,1,2,0:0:0:0:
416,192,213350,1,0,0:0:0:0:
440,152,213407,2,0,L|432:208,1,52.5,0|0,0:0|0:0,0:0:0:0:
240,224,213523,6,0,L|232:168,1,52.5,2|0,0:0|0:0,0:0:0:0:
296,176,213638,2,0,L|288:120,1,52.5,0|0,0:0|0:0,0:0:0:0:
224,120,213754,2,0,L|160:120,1,52.5,2|0,0:0|0:0,0:0:0:0:
352,88,213869,2,0,L|424:88,1,52.5,0|0,0:0|0:0,0:0:0:0:
184,224,213985,5,6,0:0:0:0:
128,224,214042,1,0,0:0:0:0:
104,192,214100,1,0,0:0:0:0:
128,224,214158,1,0,0:0:0:0:
192,224,214215,2,0,L|264:224,1,52.5,0|0,0:0|0:0,0:0:0:0:
176,216,214331,2,0,L|240:216,1,52.5,0|0,0:0|0:0,0:0:0:0:
416,216,214446,6,0,L|480:216,1,52.5,10|0,0:0|0:0,0:0:0:0:
280,168,214562,2,0,L|224:168,1,52.5,8|0,0:0|0:0,0:0:0:0:
408,136,214677,2,0,L|352:136,1,52.5,10|0,0:0|0:0,0:0:0:0:
176,128,214792,2,0,L|112:128,1,52.5,8|0,0:0|0:0,0:0:0:0:
312,200,214908,5,14,0:0:0:0:
368,200,214966,1,0,0:0:0:0:
312,200,215023,1,0,0:0:0:0:
256,200,215081,1,0,0:0:0:0:
440,144,215138,1,14,0:0:0:0:
496,144,215196,1,0,0:0:0:0:
440,144,215253,1,0,0:0:0:0:
384,144,215312,1,0,0:0:0:0:
200,192,215369,5,14,0:0:0:0:
144,192,215427,1,0,0:0:0:0:
200,192,215484,1,0,0:0:0:0:
256,192,215542,1,0,0:0:0:0:
72,136,215599,1,14,0:0:0:0:
16,136,215657,1,0,0:0:0:0:
72,136,215714,1,0,0:0:0:0:
128,136,215772,1,0,0:0:0:0:
320,96,215831,5,6,0:0:0:0:
312,160,215888,1,0,0:0:0:0:
272,208,215946,1,0,0:0:0:0:
216,216,216004,1,0,0:0:0:0:
160,208,216062,2,0,L|216:208,1,52.5,2|0,0:0|0:0,0:0:0:0:
400,128,216177,2,0,L|456:128,1,52.5,0|0,0:0|0:0,0:0:0:0:
272,96,216292,6,0,L|168:96,1,105,2|0,0:0|0:0,0:0:0:0:
224,72,216465,1,0,0:0:0:0:
248,48,216523,1,0,0:0:0:0:
224,72,216581,1,0,0:0:0:0:
40,64,216638,2,0,L|104:64,1,52.5,0|0,0:0|0:0,0:0:0:0:
344,176,216754,6,0,L|416:176,1,52.5,6|0,0:0|0:0,0:0:0:0:
208,152,216869,2,0,L|200:96,1,52.5,8|0,0:0|0:0,0:0:0:0:
392,80,216985,2,0,L|336:80,1,52.5,10|0,0:0|0:0,0:0:0:0:
152,80,217100,2,0,L|96:80,1,52.5,8|0,0:0|0:0,0:0:0:0:
288,152,217215,6,0,L|296:96,1,52.5,10|0,0:0|0:0,0:0:0:0:
104,120,217331,2,0,L|160:120,1,52.5,8|0,0:0|0:0,0:0:0:0:
344,112,217446,2,0,L|408:112,1,52.5,10|0,0:0|0:0,0:0:0:0:
208,88,217562,2,0,L|144:88,1,52.5,8|0,0:0|0:0,0:0:0:0:
344,248,217677,6,0,L|408:248,1,52.5,4|0,0:0|0:0,0:0:0:0:
432,232,217792,2,0,L|424:176,5,52.5,0|0|0|0|0|0,0:0|0:0|0:0|0:0|0:0|0:0,0:0:0:0:
208,176,218138,2,0,L|104:176,1,105,2|8,0:0|0:0,0:0:0:0:
224,168,218369,2,0,L|336:168,1,105,2|8,0:0|0:0,0:0:0:0:
152,144,218600,6,0,L|48:144,1,105,2|8,0:0|0:0,0:0:0:0:
168,128,218831,2,0,L|56:128,1,105,2|8,0:0|0:0,0:0:0:0:
240,200,219062,1,2,0:0:0:0:
296,200,219119,1,0,0:0:0:0:
352,200,219177,1,8,0:0:0:0:
232,128,219292,1,2,0:0:0:0:
408,72,219408,1,8,0:0:0:0:
352,72,219466,1,0,0:0:0:0:
144,160,219523,6,0,L|136:104,3,52.5,0|0|8|0,0:0|0:0|0:0|0:0,0:0:0:0:
304,128,219754,2,0,L|312:72,1,52.5,0|0,0:0|0:0,0:0:0:0:
248,80,219869,2,0,L|240:24,1,52.5,8|0,0:0|0:0,0:0:0:0:
408,168,219985,2,0,L|416:112,3,52.5,2|0|8|0,0:0|0:0|0:0|0:0,0:0:0:0:
256,224,220215,5,2,0:0:0:0:
200,216,220273,1,0,0:0:0:0:
160,168,220331,1,8,0:0:0:0:
152,104,220388,1,0,0:0:0:0:
320,80,220446,1,2,0:0:0:0:
312,144,220503,1,0,0:0:0:0:
272,192,220561,1,8,0:0:0:0:
216,200,220619,1,0,0:0:0:0:
376,136,220677,5,2,0:0:0:0:
432,136,220735,1,0,0:0:0:0:
376,136,220792,1,8,0:0:0:0:
320,136,220850,1,0,0:0:0:0:
160,80,220908,2,0,L|48:80,1,105,2|0,0:0|0:0,0:0:0:0:
176,200,221138,2,0,L|168:144,1,52.5,2|0,0:0|0:0,0:0:0:0:
104,152,221254,2,0,L|96:96,1,52.5,0|0,0:0|0:0,0:0:0:0:
288,216,221369,5,4,0:0:0:0:
312,192,221427,1,0,0:0:0:0:
288,216,221485,1,0,0:0:0:0:
232,216,221542,1,0,0:0:0:0:
168,216,221600,2,0,L|232:216,1,52.5,2|0,0:0|0:0,0:0:0:0:
408,208,221715,2,0,L|416:152,1,52.5,0|0,0:0|0:0,0:0:0:0:
224,128,221831,6,0,L|160:128,1,52.5,10|8,0:0|0:0,0:0:0:0:
360,112,221946,2,0,L|416:112,1,52.5,8|8,0:0|0:0,0:0:0:0:
224,176,222062,1,2,0:0:0:0:
168,152,222120,1,0,0:0:0:0:
144,112,222177,2,0,L|152:168,1,52.5,0|0,0:0|0:0,0:0:0:0:
368,136,222292,5,14,0:0:0:0:
80,128,222523,2,0,L|72:344,1,210,6|0,0:0|0:0,0:0:0:0:
88,160,222812,1,0,0:0:0:0:
112,160,222869,1,0,0:0:0:0:
152,160,222927,1,0,0:0:0:0:
216,160,222985,2,0,L|208:104,1,52.5,0|0,0:0|0:0,0:0:0:0:
144,104,223100,2,0,L|136:48,1,52.5,0|0,0:0|0:0,0:0:0:0:
352,112,223215,6,0,L|360:56,1,52.5,6|0,0:0|0:0,0:0:0:0:
296,64,223331,2,0,L|240:64,1,52.5,0|0,0:0|0:0,0:0:0:0:
56,56,223446,2,0,L|136:56,1,52.5,2|0,0:0|0:0,0:0:0:0:
296,40,223562,2,0,L|368:40,1,52.5,0|0,0:0|0:0,0:0:0:0:
136,224,223677,6,0,L|32:224,1,105,2|0,0:0|0:0,0:0:0:0:
272,160,223908,2,0,L|376:160,1,105,2|0,0:0|0:0,0:0:0:0:
144,200,224138,6,0,L|136:40,1,157.5,4|0,0:0|0:0,0:0:0:0:
328,208,224369,2,0,P|384:208|384:120,1,157.5,4|0,0:0|0:0,0:0:0:0:
200,208,224600,2,0,P|144:208|144:120,1,157.5,4|0,0:0|0:0,0:0:0:0:
328,128,224831,2,0,L|488:128,1,157.5,4|0,0:0|0:0,0:0:0:0:
216,30,225062,6,0,P|152:51|215:244,1,315,12|0,0:1|0:0,0:0:0:0:
246,243,225465,1,0,0:0:0:0:
91,295,225523,1,2,0:0:0:0:
64,243,225581,1,0,0:0:0:0:
89,192,225638,1,0,0:0:0:0:
144,173,225696,1,0,0:0:0:0:
307,178,225754,1,2,0:0:0:0:
365,178,225812,1,0,0:0:0:0:
392,127,225869,1,0,0:0:0:0:
365,75,225927,1,0,0:0:0:0:
151,26,225985,6,0,P|96:46|164:152,1,210,10|0,0:0|0:0,0:0:0:0:
328,220,226446,2,0,L|151:335,1,210,0|0,0:0|0:0,0:0:0:0:
386,57,226908,6,0,P|439:163|367:219,1,210,2|0,0:0|0:0,0:0:0:0:
200,78,227369,1,0,0:0:0:0:
143,85,227426,1,0,0:0:0:0:
89,106,227484,1,0,0:0:0:0:
42,141,227542,1,0,0:0:0:0:
20,189,227599,1,0,0:0:0:0:
40,237,227657,1,0,0:0:0:0:
68,283,227715,1,0,0:0:0:0:
114,299,227772,1,0,0:0:0:0:
256,312,227831,6,0,L|410:263,1,157.5,6|0,0:0|0:0,0:0:0:0:
164,82,228062,2,0,P|104:99|90:205,1,157.5,6|0,0:0|0:0,0:0:0:0:
286,54,228292,2,0,P|346:71|360:177,1,157.5,6|0,0:0|0:0,0:0:0:0:
135,315,228523,2,0,P|92:281|163:229,1,157.5,6|0,0:0|0:0,0:0:0:0:
422,287,228754,6,0,P|430:224|259:57,1,315,6|0,0:0|0:0,0:0:0:0:
212,58,229158,1,0,0:0:0:0:
371,338,229215,1,2,0:0:0:0:
399,287,229273,1,0,0:0:0:0:
371,235,229331,1,0,0:0:0:0:
315,223,229388,1,0,0:0:0:0:
156,149,229446,1,2,0:0:0:0:
97,146,229504,1,0,0:0:0:0:
155,148,229562,1,0,0:0:0:0:
211,150,229619,1,0,0:0:0:0:
421,253,229677,6,0,P|471:230|396:128,1,210,10|0,0:0|0:0,0:0:0:0:
219,218,230138,2,0,L|400:336,1,210,0|0,0:0|0:0,0:0:0:0:
175,166,230600,5,2,0:0:0:0:
279,168,230715,1,0,0:0:0:0:
173,92,230831,1,0,0:0:0:0:
68,92,230946,1,0,0:0:0:0:
195,187,231062,5,2,0:0:0:0:
91,189,231177,1,0,0:0:0:0:
197,113,231293,1,0,0:0:0:0:
302,113,231408,1,0,0:0:0:0:
84,263,231523,5,10,0:0:0:0:
188,256,231638,1,0,0:0:0:0:
308,251,231754,1,0,0:0:0:0:
315,146,231869,1,0,0:0:0:0:
185,60,231985,5,2,0:0:0:0:
181,111,232042,1,0,0:0:0:0:
246,116,232100,1,0,0:0:0:0:
242,167,232157,1,0,0:0:0:0:
177,173,232215,1,0,0:0:0:0:
128,191,232272,1,0,0:0:0:0:
104,239,232331,1,0,0:0:0:0:
129,284,232388,1,0,0:0:0:0:
350,347,232446,6,0,P|421:298|326:126,1,315,6|0,0:0|0:0,0:0:0:0:
281,126,232850,1,0,0:0:0:0:
116,68,232908,1,2,0:0:0:0:
90,119,232965,1,0,0:0:0:0:
114,171,233023,1,0,0:0:0:0:
169,186,233081,1,0,0:0:0:0:
330,191,233138,1,2,0:0:0:0:
382,189,233196,1,0,0:0:0:0:
434,188,233254,1,0,0:0:0:0:
382,189,233312,1,0,0:0:0:0:
176,344,233369,6,0,P|125:334|181:236,1,210,10|0,0:0|0:0,0:0:0:0:
364,241,233831,2,0,P|425:234|452:94,1,210,0|0,0:0|0:0,0:0:0:0:
231,89,234292,6,0,L|413:193,1,210,2|0,0:0|0:0,0:0:0:0:
206,305,234754,1,0,0:0:0:0:
154,300,234812,1,0,0:0:0:0:
103,294,234869,1,0,0:0:0:0:
53,278,234927,1,0,0:0:0:0:
22,235,234985,1,0,0:0:0:0:
9,184,235042,1,0,0:0:0:0:
27,134,235100,1,0,0:0:0:0:
75,111,235158,1,0,0:0:0:0:
241,95,235215,6,0,P|324:115|349:202,1,157.5,6|0,0:0|0:0,0:0:0:0:
169,258,235446,2,0,P|116:254|88:157,1,157.5,6|0,0:0|0:0,0:0:0:0:
301,313,235677,2,0,L|461:242,1,157.5,6|0,0:0|0:0,0:0:0:0:
211,115,235908,2,0,L|46:48,1,157.5,6|0,0:0|0:0,0:0:0:0:
305,305,236138,6,0,P|365:300|303:126,1,315,6|0,0:0|0:0,0:0:0:0:
273,124,236542,1,0,0:0:0:0:
284,180,236599,1,2,0:0:0:0:
324,222,236657,1,0,0:0:0:0:
374,251,236715,1,0,0:0:0:0:
397,303,236772,1,0,0:0:0:0:
366,351,236830,1,2,0:0:0:0:
306,356,236888,1,0,0:0:0:0:
246,355,236946,1,0,0:0:0:0:
187,356,237003,1,0,0:0:0:0:
399,45,237061,5,10,0:0:0:0:
459,67,237119,1,0,0:0:0:0:
490,121,237176,1,0,0:0:0:0:
478,183,237234,1,0,0:0:0:0:
432,226,237292,1,0,0:0:0:0:
374,251,237349,1,0,0:0:0:0:
316,251,237407,1,0,0:0:0:0:
258,251,237465,1,0,0:0:0:0:
202,248,237522,5,2,0:0:0:0:
219,192,237580,1,0,0:0:0:0:
265,156,237638,1,0,0:0:0:0:
322,143,237696,1,0,0:0:0:0:
382,144,237753,1,0,0:0:0:0:
365,88,237811,1,0,0:0:0:0:
319,52,237869,1,0,0:0:0:0:
262,39,237926,1,0,0:0:0:0:
73,146,237985,6,0,P|42:189|98:344,1,210,6|0,0:0|0:0,0:0:0:0:
303,85,238446,2,0,P|334:128|278:283,1,210,2|0,0:0|0:0,0:0:0:0:
245,269,238735,1,0,0:0:0:0:
298,269,238792,1,0,0:0:0:0:
350,269,238850,1,0,0:0:0:0:
189,172,238908,5,10,0:0:0:0:
137,170,238965,1,8,0:0:0:0:
303,46,239023,1,8,0:0:0:0:
354,58,239081,1,8,0:0:0:0:
385,99,239138,1,0,0:0:0:0:
396,150,239196,1,0,0:0:0:0:
379,200,239254,1,0,0:0:0:0:
327,209,239312,1,0,0:0:0:0:
142,229,239369,5,10,0:0:0:0:
36,224,239485,1,10,0:0:0:0:
266,306,239600,1,10,0:0:0:0:
496,312,239715,1,10,0:0:0:0:
120,288,239831,5,4,0:0:0:0:
64,264,239889,1,0,0:0:0:0:
40,248,239947,1,0,0:0:0:0:
64,248,240004,1,0,0:0:0:0:
128,208,240062,2,0,L|192:208,1,52.5,2|0,0:0|0:0,0:0:0:0:
120,192,240177,2,0,L|184:192,1,52.5,0|0,0:0|0:0,0:0:0:0:
368,160,240292,6,0,L|424:160,1,52.5,2|0,0:0|0:0,0:0:0:0:
360,152,240408,2,0,L|288:152,1,52.5,0|0,0:0|0:0,0:0:0:0:
112,112,240523,2,0,L|32:112,1,52.5,2|0,0:0|0:0,0:0:0:0:
256,104,240638,2,0,L|320:104,1,52.5,0|0,0:0|0:0,0:0:0:0:
112,288,240754,5,8,0:0:0:0:
56,264,240812,1,0,0:0:0:0:
32,248,240870,1,0,0:0:0:0:
56,248,240927,1,0,0:0:0:0:
240,168,240985,2,0,L|184:168,1,52.5,2|0,0:0|0:0,0:0:0:0:
128,168,241100,2,0,L|200:168,1,52.5,0|0,0:0|0:0,0:0:0:0:
368,288,241215,5,2,0:0:0:0:
424,264,241273,1,0,0:0:0:0:
448,248,241331,1,0,0:0:0:0:
424,248,241388,1,0,0:0:0:0:
240,152,241446,2,0,L|232:96,1,52.5,2|0,0:0|0:0,0:0:0:0:
424,96,241562,2,0,L|360:96,1,52.5,0|0,0:0|0:0,0:0:0:0:
176,232,241677,6,0,L|184:176,1,52.5,2|0,0:0|0:0,0:0:0:0:
256,176,241792,2,0,L|336:176,1,52.5,0|0,0:0|0:0,0:0:0:0:
376,192,241908,2,0,L|368:136,1,52.5,2|0,0:0|0:0,0:0:0:0:
296,136,242023,2,0,L|216:136,1,52.5,0|0,0:0|0:0,0:0:0:0:
56,128,242138,5,2,0:0:0:0:
64,192,242195,1,0,0:0:0:0:
104,240,242253,1,0,0:0:0:0:
160,248,242311,1,0,0:0:0:0:
344,200,242369,2,0,L|280:200,1,52.5,2|0,0:0|0:0,0:0:0:0:
104,184,242485,2,0,L|184:184,1,52.5,0|0,0:0|0:0,0:0:0:0:
336,184,242600,6,0,L|328:128,1,52.5,10|0,0:0|0:0,0:0:0:0:
256,128,242715,2,0,L|248:72,1,52.5,0|0,0:0|0:0,0:0:0:0:
432,88,242831,2,0,L|488:88,1,52.5,2|0,0:0|0:0,0:0:0:0:
424,80,242946,2,0,L|368:80,1,52.5,0|0,0:0|0:0,0:0:0:0:
168,64,243062,6,0,L|160:120,1,52.5,2|0,0:0|0:0,0:0:0:0:
360,56,243177,2,0,L|368:112,1,52.5,2|0,0:0|0:0,0:0:0:0:
168,192,243292,2,0,L|240:192,1,52.5,2|0,0:0|0:0,0:0:0:0:
424,176,243408,2,0,L|368:176,1,52.5,2|0,0:0|0:0,0:0:0:0:
128,280,243523,5,6,0:0:0:0:
24,280,243638,1,0,0:0:0:0:
136,216,243754,1,0,0:0:0:0:
240,216,243869,1,0,0:0:0:0:
128,208,243985,5,2,0:0:0:0:
232,208,244100,1,0,0:0:0:0:
120,152,244215,1,2,0:0:0:0:
112,144,244331,1,0,0:0:0:0:
288,136,244446,5,10,0:0:0:0:
296,128,244562,1,0,0:0:0:0:
184,104,244677,1,2,0:0:0:0:
176,96,244792,1,0,0:0:0:0:
288,136,244908,5,2,0:0:0:0:
296,128,245024,1,0,0:0:0:0:
408,96,245138,1,0,0:0:0:0:
400,88,245253,1,0,0:0:0:0:
224,256,245369,5,4,0:0:0:0:
328,256,245484,1,0,0:0:0:0:
216,248,245600,1,0,0:0:0:0:
112,248,245715,1,0,0:0:0:0:
296,168,245831,5,2,0:0:0:0:
304,160,245946,1,0,0:0:0:0:
120,136,246062,1,2,0:0:0:0:
112,128,246177,1,0,0:0:0:0:
296,120,246292,5,10,0:0:0:0:
400,120,246407,1,0,0:0:0:0:
216,56,246523,1,2,0:0:0:0:
400,56,246638,1,0,0:0:0:0:
168,280,246754,6,0,L|112:272,1,52.5,2|0,0:0|0:0,0:0:0:0:
64,240,246869,2,0,L|56:184,1,52.5,0|0,0:0|0:0,0:0:0:0:
104,144,246984,2,0,L|112:88,1,52.5,0|0,0:0|0:0,0:0:0:0:
168,104,247100,1,0,0:0:0:0:
328,72,247158,1,0,0:0:0:0:
488,240,247215,6,0,P|488:184|256:48,1,315,14|0,0:0|0:0,0:0:0:0:
248,40,247620,1,0,0:0:0:0:
408,168,247678,1,2,0:0:0:0:
464,160,247735,1,0,0:0:0:0:
488,136,247793,1,0,0:0:0:0:
464,160,247851,1,0,0:0:0:0:
304,120,247908,2,0,L|248:120,1,52.5,2|0,0:0|0:0,0:0:0:0:
312,112,248024,2,0,L|368:112,1,52.5,0|0,0:0|0:0,0:0:0:0:
208,224,248138,6,0,P|152:224|152:96,1,210,10|0,0:0|0:0,0:0:0:0:
344,224,248600,2,0,P|344:168|216:168,1,210,0|0,0:0|0:0,0:0:0:0:
24,208,249062,6,0,L|176:56,1,210,2|0,0:0|0:0,0:0:0:0:
368,120,249523,1,2,0:0:0:0:
360,184,249580,1,0,0:0:0:0:
320,232,249638,1,0,0:0:0:0:
264,240,249696,1,0,0:0:0:0:
208,192,249754,1,0,0:0:0:0:
216,256,249811,1,0,0:0:0:0:
256,304,249869,1,0,0:0:0:0:
312,312,249927,1,0,0:0:0:0:
472,264,249985,6,0,P|472:208|384:208,1,157.5,6|0,0:0|0:0,0:0:0:0:
208,208,250215,2,0,P|152:208|152:112,1,157.5,6|0,0:0|0:0,0:0:0:0:
352,208,250446,2,0,P|408:208|408:112,1,157.5,6|0,0:0|0:0,0:0:0:0:
184,152,250677,2,0,L|16:264,1,157.5,6|0,0:0|0:0,0:0:0:0:
320,256,250908,6,0,P|360:216|208:128,1,315,6|0,0:0|0:0,0:0:0:0:
264,64,251312,1,0,0:0:0:0:
304,56,251369,1,2,0:0:0:0:
320,64,251427,1,0,0:0:0:0:
304,56,251485,1,0,0:0:0:0:
264,64,251542,1,0,0:0:0:0:
208,80,251600,1,2,0:0:0:0:
152,88,251658,1,0,0:0:0:0:
208,112,251715,1,0,0:0:0:0:
264,128,251773,1,0,0:0:0:0:
424,152,251831,5,10,0:0:0:0:
416,216,251888,1,0,0:0:0:0:
376,264,251946,1,0,0:0:0:0:
320,272,252004,1,0,0:0:0:0:
264,264,252062,1,0,0:0:0:0:
224,224,252119,1,0,0:0:0:0:
208,176,252177,1,0,0:0:0:0:
224,224,252235,1,0,0:0:0:0:
264,264,252292,5,2,0:0:0:0:
320,272,252350,1,0,0:0:0:0:
376,264,252408,1,0,0:0:0:0:
320,272,252465,1,0,0:0:0:0:
136,168,252523,2,0,L|144:112,1,52.5,0|0,0:0|0:0,0:0:0:0:
328,144,252638,2,0,L|336:88,1,52.5,0|0,0:0|0:0,0:0:0:0:
120,240,252754,5,2,0:0:0:0:
64,216,252812,1,0,0:0:0:0:
40,176,252869,1,0,0:0:0:0:
64,216,252927,1,0,0:0:0:0:
240,160,252985,2,0,L|176:160,1,52.5,2|0,0:0|0:0,0:0:0:0:
135,160,253100,2,0,L|207:160,1,52.5,0|0,0:0|0:0,0:0:0:0:
360,160,253215,6,0,L|424:160,1,52.5,2|0,0:0|0:0,0:0:0:0:
465,160,253330,2,0,L|393:160,1,52.5,0|0,0:0|0:0,0:0:0:0:
232,88,253446,2,0,L|176:88,1,52.5,2|0,0:0|0:0,0:0:0:0:
360,88,253562,2,0,L|416:88,1,52.5,0|0,0:0|0:0,0:0:0:0:
200,256,253677,5,10,0:0:0:0:
88,256,253793,1,10,0:0:0:0:
208,248,253908,2,0,L|216:192,1,52.5,10|0,0:0|0:0,0:0:0:0:
287,192,254023,2,0,L|295:136,1,52.5,0|0,0:0|0:0,0:0:0:0:
135,160,254138,5,10,0:0:0:0:
127,152,254253,1,10,0:0:0:0:
231,128,254369,1,10,0:0:0:0:
439,128,254484,1,10,0:0:0:0:
71,302,254600,5,4,0:0:0:0:
44,256,254658,1,0,0:0:0:0:
72,212,254715,1,0,0:0:0:0:
121,195,254773,1,0,0:0:0:0:
173,192,254831,1,0,0:0:0:0:
150,145,254888,1,0,0:0:0:0:
103,119,254946,1,0,0:0:0:0:
51,107,255004,1,0,0:0:0:0:
226,280,255062,5,2,0:0:0:0:
277,277,255119,1,0,0:0:0:0:
315,241,255177,1,0,0:0:0:0:
334,190,255235,1,0,0:0:0:0:
166,235,255292,1,2,0:0:0:0:
115,232,255349,1,0,0:0:0:0:
77,196,255407,1,0,0:0:0:0:
58,145,255465,1,0,0:0:0:0:
233,138,255523,5,2,0:0:0:0:
261,93,255581,1,0,0:0:0:0:
235,47,255638,1,0,0:0:0:0:
183,34,255696,1,0,0:0:0:0:
358,318,255754,1,2,0:0:0:0:
386,273,255812,1,0,0:0:0:0:
360,227,255869,1,0,0:0:0:0:
308,214,255927,1,0,0:0:0:0:
131,289,255985,5,2,0:0:0:0:
79,289,256042,1,0,0:0:0:0:
131,289,256100,1,0,0:0:0:0:
183,289,256158,1,0,0:0:0:0:
354,124,256215,1,2,0:0:0:0:
406,124,256272,1,0,0:0:0:0:
354,124,256330,1,0,0:0:0:0:
302,124,256388,1,0,0:0:0:0:
125,199,256446,5,10,0:0:0:0:
230,197,256562,1,8,0:0:0:0:
334,196,256677,1,8,0:0:0:0:
438,196,256792,1,8,0:0:0:0:
267,106,256908,1,10,0:0:0:0:
215,104,256965,1,8,0:0:0:0:
70,105,257023,1,8,0:0:0:0:
18,103,257080,1,8,0:0:0:0:
165,55,257138,1,10,0:0:0:0:
217,53,257195,1,8,0:0:0:0:
362,54,257253,1,8,0:0:0:0:
369,110,257312,1,8,0:0:0:0:
206,326,257369,5,2,0:0:0:0:
156,308,257427,1,0,0:0:0:0:
133,260,257485,1,0,0:0:0:0:
154,212,257542,1,0,0:0:0:0:
202,190,257600,1,0,0:0:0:0:
254,184,257658,1,0,0:0:0:0:
305,179,257715,1,0,0:0:0:0:
325,130,257773,1,0,0:0:0:0:
155,76,257831,5,10,0:0:0:0:
259,82,257946,1,10,0:0:0:0:
155,76,258062,1,10,0:0:0:0:
362,82,258177,1,10,0:0:0:0:
76,323,258292,5,6,0:0:0:0:
32,293,258350,1,0,0:0:0:0:
16,242,258408,1,0,0:0:0:0:
39,195,258465,1,0,0:0:0:0:
86,171,258523,1,0,0:0:0:0:
96,119,258581,1,0,0:0:0:0:
32,144,258638,1,0,0:0:0:0:
42,92,258696,1,0,0:0:0:0:
220,246,258754,5,2,0:0:0:0:
271,234,258812,1,0,0:0:0:0:
294,187,258869,1,0,0:0:0:0:
270,139,258927,1,0,0:0:0:0:
101,126,258985,1,2,0:0:0:0:
50,114,259043,1,0,0:0:0:0:
27,67,259100,1,0,0:0:0:0:
51,19,259158,1,0,0:0:0:0:
223,304,259215,5,2,0:0:0:0:
170,301,259273,1,0,0:0:0:0:
117,295,259331,1,0,0:0:0:0:
170,301,259388,1,0,0:0:0:0:
347,142,259446,1,2,0:0:0:0:
400,139,259504,1,0,0:0:0:0:
453,133,259562,1,0,0:0:0:0:
400,139,259619,1,0,0:0:0:0:
223,67,259677,5,2,0:0:0:0:
197,113,259735,1,0,0:0:0:0:
221,158,259792,1,0,0:0:0:0:
270,177,259850,1,0,0:0:0:0:
444,208,259908,1,2,0:0:0:0:
470,254,259966,1,0,0:0:0:0:
446,299,260023,1,0,0:0:0:0:
401,319,260081,1,0,0:0:0:0:
225,253,260138,5,2,0:0:0:0:
213,304,260196,1,0,0:0:0:0:
348,186,260254,1,0,0:0:0:0:
336,237,260312,1,0,0:0:0:0:
157,147,260369,1,2,0:0:0:0:
145,198,260427,1,0,0:0:0:0:
280,80,260485,1,0,0:0:0:0:
268,131,260543,1,0,0:0:0:0:
82,337,260600,6,0,P|89:277|173:233,1,157.5,6|0,0:0|0:0,0:0:0:0:
356,213,260831,2,0,P|417:209|431:106,1,157.5,6|0,0:0|0:0,0:0:0:0:
216,285,261062,5,10,0:0:0:0:
159,282,261120,1,8,0:0:0:0:
108,257,261177,1,8,0:0:0:0:
81,205,261235,1,8,0:0:0:0:
102,150,261293,1,0,0:0:0:0:
155,128,261350,1,0,0:0:0:0:
289,126,261408,1,0,0:0:0:0:
342,128,261466,1,0,0:0:0:0:
201,311,261523,5,0,0:0:0:0:
144,308,261581,1,0,0:0:0:0:
93,283,261639,1,0,0:0:0:0:
70,225,261697,1,0,0:0:0:0:
96,174,261754,1,0,0:0:0:0:
148,162,261812,1,0,0:0:0:0:
206,157,261870,1,0,0:0:0:0:
263,152,261927,1,0,0:0:0:0:
483,70,261985,5,6,0:0:0:0:
426,73,262042,1,0,0:0:0:0:
380,108,262100,1,0,0:0:0:0:
358,161,262158,1,0,0:0:0:0:
386,210,262215,1,0,0:0:0:0:
439,231,262273,1,0,0:0:0:0:
469,179,262331,1,0,0:0:0:0:
441,131,262388,1,0,0:0:0:0:
278,330,262446,5,10,0:0:0:0:
270,272,262504,1,0,0:0:0:0:
400,202,262562,1,8,0:0:0:0:
408,144,262620,1,0,0:0:0:0:
222,231,262677,1,10,0:0:0:0:
214,173,262735,1,0,0:0:0:0:
344,103,262793,1,8,0:0:0:0:
352,45,262851,1,0,0:0:0:0:
164,61,262908,5,10,0:0:0:0:
172,112,262965,1,0,0:0:0:0:
310,143,263023,1,8,0:0:0:0:
302,194,263080,1,0,0:0:0:0:
117,163,263138,1,10,0:0:0:0:
125,214,263195,1,0,0:0:0:0:
263,245,263253,1,8,0:0:0:0:
255,296,263312,1,0,0:0:0:0:
63,324,263369,5,10,0:0:0:0:
10,317,263427,1,0,0:0:0:0:
170,348,263485,1,8,0:0:0:0:
223,341,263543,1,0,0:0:0:0:
382,288,263600,1,10,0:0:0:0:
435,281,263658,1,0,0:0:0:0:
275,312,263716,1,8,0:0:0:0:
222,305,263774,1,0,0:0:0:0:
84,263,263831,5,10,0:0:0:0:
265,270,263947,1,8,0:0:0:0:
444,278,264062,1,8,0:0:0:0:
265,270,264177,1,8,0:0:0:0:
444,278,264292,5,10,0:0:0:0:
392,275,264349,1,8,0:0:0:0:
258,214,264407,1,8,0:0:0:0:
200,211,264465,1,8,0:0:0:0:
62,135,264522,1,10,0:0:0:0:
119,139,264580,1,8,0:0:0:0:
252,92,264638,1,8,0:0:0:0:
193,92,264696,1,8,0:0:0:0:
50,64,264753,5,2,0:0:0:0:
25,116,264811,1,0,0:0:0:0:
47,169,264869,1,0,0:0:0:0:
97,196,264926,1,0,0:0:0:0:
151,175,264984,1,0,0:0:0:0:
177,123,265042,1,0,0:0:0:0:
154,70,265099,1,0,0:0:0:0:
98,54,265157,1,0,0:0:0:0:
256,83,265215,5,10,0:0:0:0:
371,90,265331,1,10,0:0:0:0:
256,83,265446,1,10,0:0:0:0:
39,94,265562,1,10,0:0:0:0:
285,313,265677,5,6,0:0:0:0:
337,305,265735,1,0,0:0:0:0:
380,276,265792,1,0,0:0:0:0:
401,227,265850,1,0,0:0:0:0:
349,216,265908,1,0,0:0:0:0:
297,219,265965,1,0,0:0:0:0:
349,216,266023,1,0,0:0:0:0:
401,214,266081,1,0,0:0:0:0:
218,243,266138,5,10,0:0:0:0:
165,237,266196,1,0,0:0:0:0:
112,230,266254,1,8,0:0:0:0:
165,237,266312,1,0,0:0:0:0:
339,62,266369,1,10,0:0:0:0:
392,56,266427,1,0,0:0:0:0:
445,49,266485,1,8,0:0:0:0:
392,56,266543,1,0,0:0:0:0:
214,177,266600,5,10,0:0:0:0:
161,174,266658,1,0,0:0:0:0:
212,173,266715,1,8,0:0:0:0:
264,168,266773,1,0,0:0:0:0:
84,101,266831,1,10,0:0:0:0:
31,98,266889,1,0,0:0:0:0:
82,97,266946,1,8,0:0:0:0:
134,92,267004,1,0,0:0:0:0:
308,313,267062,5,10,0:0:0:0:
360,307,267119,1,0,0:0:0:0:
383,259,267177,1,8,0:0:0:0:
359,211,267235,1,0,0:0:0:0:
183,274,267292,1,10,0:0:0:0:
234,266,267349,1,0,0:0:0:0:
285,256,267407,1,8,0:0:0:0:
337,247,267465,1,0,0:0:0:0:
153,110,267523,5,14,0:0:0:0:
146,162,267581,1,0,0:0:0:0:
277,145,267638,1,0,0:0:0:0:
270,197,267696,1,0,0:0:0:0:
134,313,267754,1,2,0:0:0:0:
113,265,267812,1,0,0:0:0:0:
134,218,267869,1,0,0:0:0:0:
184,203,267927,1,0,0:0:0:0:
369,36,267985,5,6,0:0:0:0:
377,87,268042,1,0,0:0:0:0:
241,128,268100,1,0,0:0:0:0:
233,179,268157,1,0,0:0:0:0:
369,270,268215,1,2,0:0:0:0:
391,224,268273,1,0,0:0:0:0:
370,178,268331,1,0,0:0:0:0:
320,162,268388,1,0,0:0:0:0:
109,315,268446,5,14,0:0:0:0:
234,315,268503,1,8,0:0:0:0:
403,211,268561,1,8,0:0:0:0:
276,208,268619,1,8,0:0:0:0:
109,110,268676,1,0,0:0:0:0:
235,108,268734,1,0,0:0:0:0:
403,26,268792,1,0,0:0:0:0:
283,23,268849,1,0,0:0:0:0:
103,22,268908,5,8,0:0:0:0:
402,287,269023,1,8,0:0:0:0:
304,248,269138,1,0,0:0:0:0:
403,210,269254,1,0,0:0:0:0:
25,223,269369,5,4,0:0:0:0:
256,192,269600,12,0,273062,0:0:0:0:
344,384,280446,6,0,B|408:320|432:272|408:168|344:96|264:88|136:88|88:40|112:136|56:184|48:240|72:296|208:320|256:176|240:96|304:72|384:120|456:128|464:200|424:256|320:304|208:336|352:0,1,1207.5,6|0,0:0|0:0,0:0:0:0:
136,328,281831,6,0,B|56:232|56:160|64:104|80:64|176:24|368:80|424:168|376:264|224:264|216:136|408:88|416:88|456:176|464:216|392:328|296:336|208:296|208:296|408:248|368:120|288:144|224:144|208:152|160:216|224:232,1,1207.5,6|0,0:0|0:0,0:0:0:0:
408,240,283215,6,0,B|480:240|480:240|448:184|368:160|288:160|248:272|248:272|216:96|448:96|448:96|448:72|448:72|416:144,1,787.5,6|0,0:0|0:0,0:0:0:0:
149,365,284138,5,4,0:0:0:0:
91,358,284196,1,0,0:0:0:0:
34,342,284254,1,0,0:0:0:0:
16,286,284312,1,0,0:0:0:0:
26,229,284369,1,0,0:0:0:0:
67,188,284427,1,0,0:0:0:0:
123,175,284485,1,0,0:0:0:0:
179,171,284542,1,0,0:0:0:0:
237,172,284600,5,0,0:0:0:0:
294,176,284658,1,0,0:0:0:0:
351,177,284715,1,0,0:0:0:0:
396,141,284773,1,0,0:0:0:0:
416,86,284831,1,0,0:0:0:0:
391,34,284888,1,0,0:0:0:0:
335,17,284946,1,0,0:0:0:0:
274,12,285004,1,0,0:0:0:0:
214,37,285062,5,0,0:0:0:0:
197,93,285119,1,0,0:0:0:0:
218,149,285177,1,0,0:0:0:0:
272,185,285235,1,0,0:0:0:0:
330,193,285292,1,0,0:0:0:0:
379,163,285350,1,0,0:0:0:0:
399,108,285408,1,0,0:0:0:0:
371,58,285465,1,0,0:0:0:0:
237,63,285523,5,2,0:0:0:0:
229,120,285581,1,0,0:0:0:0:
365,127,285638,1,2,0:0:0:0:
357,184,285696,1,0,0:0:0:0:
225,210,285754,1,2,0:0:0:0:
217,267,285812,1,0,0:0:0:0:
345,247,285869,1,2,0:0:0:0:
337,304,285927,1,0,0:0:0:0:
181,357,285985,5,2,0:0:0:0:
129,332,286042,1,0,0:0:0:0:
106,278,286100,1,0,0:0:0:0:
120,221,286158,1,0,0:0:0:0:
162,182,286215,1,0,0:0:0:0:
207,173,286273,1,0,0:0:0:0:
264,170,286331,1,0,0:0:0:0:
321,170,286388,1,0,0:0:0:0:
379,171,286446,5,0,0:0:0:0:
321,168,286504,1,0,0:0:0:0:
264,170,286562,1,0,0:0:0:0:
207,173,286619,1,0,0:0:0:0:
158,204,286677,1,0,0:0:0:0:
138,256,286735,1,0,0:0:0:0:
160,309,286792,1,0,0:0:0:0:
211,338,286850,1,0,0:0:0:0:
275,293,286908,5,0,0:0:0:0:
217,291,286965,1,0,0:0:0:0:
158,289,287023,1,0,0:0:0:0:
99,286,287081,1,0,0:0:0:0:
256,48,287138,1,8,0:0:0:0:
309,49,287196,1,8,0:0:0:0:
472,64,287254,2,8,L|464:120,1,52.5
256,164,287369,6,0,L|80:170,1,157.5,2|0,0:0|0:0,0:0:0:0:
156,171,287600,1,2,0:0:0:0:
214,173,287658,1,0,0:0:0:0:
271,174,287715,1,0,0:0:0:0:
329,174,287773,1,0,0:0:0:0:
156,69,287831,5,6,0:0:0:0:
104,68,287888,1,0,0:0:0:0:
306,297,287946,1,2,0:0:0:0:
300,244,288004,1,0,0:0:0:0:
234,252,288062,1,0,0:0:0:0:
228,198,288120,1,0,0:0:0:0:
163,185,288177,1,0,0:0:0:0:
157,133,288235,1,0,0:0:0:0:
356,69,288292,5,2,0:0:0:0:
408,68,288349,1,0,0:0:0:0:
212,298,288407,1,2,0:0:0:0:
218,244,288465,1,0,0:0:0:0:
284,235,288523,1,0,0:0:0:0:
290,183,288581,1,0,0:0:0:0:
355,181,288638,1,0,0:0:0:0:
361,129,288696,1,0,0:0:0:0:
165,344,288754,6,0,L|98:337,2,52.5,2|0|0,0:0|0:0|0:0,0:0:0:0:
346,222,288927,2,0,L|413:215,2,52.5,2|0|0,0:0|0:0|0:0,0:0:0:0:
165,138,289100,1,2,0:0:0:0:
112,135,289158,1,0,0:0:0:0:
291,339,289215,5,2,0:0:0:0:
313,291,289273,1,0,0:0:0:0:
287,244,289331,1,0,0:0:0:0:
235,236,289388,1,0,0:0:0:0:
183,226,289446,1,0,0:0:0:0:
137,199,289504,1,0,0:0:0:0:
117,150,289562,1,0,0:0:0:0:
147,108,289619,1,0,0:0:0:0:
314,98,289677,5,10,0:0:0:0:
366,95,289735,1,0,0:0:0:0:
208,159,289792,1,8,0:0:0:0:
251,188,289850,1,0,0:0:0:0:
411,237,289908,1,10,0:0:0:0:
431,284,289965,1,0,0:0:0:0:
299,273,290023,1,8,0:0:0:0:
246,275,290081,1,0,0:0:0:0:
116,231,290138,5,10,0:0:0:0:
242,230,290196,1,0,0:0:0:0:
375,228,290254,1,8,0:0:0:0:
243,176,290312,1,0,0:0:0:0:
84,59,290369,5,10,0:0:0:0:
35,79,290427,1,0,0:0:0:0:
15,127,290485,1,8,0:0:0:0:
28,177,290542,1,0,0:0:0:0:
54,222,290600,1,2,0:0:0:0:
96,253,290658,1,0,0:0:0:0:
146,263,290715,1,0,0:0:0:0:
198,260,290773,1,0,0:0:0:0:
363,210,290831,5,6,0:0:0:0:
414,208,290888,1,0,0:0:0:0:
466,206,290946,1,0,0:0:0:0:
414,208,291004,1,0,0:0:0:0:
233,155,291062,1,6,0:0:0:0:
284,153,291119,1,0,0:0:0:0:
337,150,291177,1,0,0:0:0:0:
284,153,291235,1,0,0:0:0:0:
120,99,291292,1,2,0:0:0:0:
68,101,291349,1,0,0:0:0:0:
120,99,291407,1,0,0:0:0:0:
172,99,291465,1,0,0:0:0:0:
396,287,291523,5,6,0:0:0:0:
343,287,291581,1,0,0:0:0:0:
207,292,291638,1,0,0:0:0:0:
165,259,291696,1,0,0:0:0:0:
30,194,291754,1,0,0:0:0:0:
16,143,291812,1,0,0:0:0:0:
172,151,291869,1,0,0:0:0:0:
215,138,291927,1,0,0:0:0:0:
346,111,291985,1,2,0:0:0:0:
360,160,292042,1,0,0:0:0:0:
228,206,292100,1,0,0:0:0:0:
214,255,292157,1,0,0:0:0:0:
346,336,292215,5,0,0:0:0:0:
358,282,292273,1,0,0:0:0:0:
290,263,292331,1,0,0:0:0:0:
302,209,292389,1,0,0:0:0:0:
373,210,292446,1,2,0:0:0:0:
425,202,292504,1,0,0:0:0:0:
445,153,292562,1,0,0:0:0:0:
422,106,292619,1,0,0:0:0:0:
370,96,292677,1,0,0:0:0:0:
317,94,292735,1,0,0:0:0:0:
370,96,292792,1,0,0:0:0:0:
422,97,292850,1,0,0:0:0:0:
286,305,292908,5,2,0:0:0:0:
234,305,292965,1,0,0:0:0:0:
368,249,293023,1,0,0:0:0:0:
420,249,293080,1,0,0:0:0:0:
253,156,293138,1,0,0:0:0:0:
200,155,293196,1,0,0:0:0:0:
363,47,293254,1,0,0:0:0:0:
310,44,293312,1,0,0:0:0:0:
171,241,293369,5,2,0:0:0:0:
118,237,293427,1,0,0:0:0:0:
170,240,293485,1,0,0:0:0:0:
221,242,293542,1,0,0:0:0:0:
358,160,293600,1,0,0:0:0:0:
411,156,293658,1,0,0:0:0:0:
359,159,293716,1,0,0:0:0:0:
308,161,293773,1,0,0:0:0:0:
172,79,293831,5,2,0:0:0:0:
223,77,293888,1,0,0:0:0:0:
275,76,293946,1,0,0:0:0:0:
223,77,294004,1,0,0:0:0:0:
88,114,294062,1,0,0:0:0:0:
68,162,294119,1,0,0:0:0:0:
93,208,294177,1,0,0:0:0:0:
146,218,294235,1,0,0:0:0:0:
306,236,294292,5,2,0:0:0:0:
319,292,294350,1,0,0:0:0:0:
252,292,294408,1,0,0:0:0:0:
239,348,294466,1,0,0:0:0:0:
431,65,294523,1,8,0:0:0:0:
489,66,294581,1,8,0:0:0:0:
288,141,294638,1,8,0:0:0:0:
230,142,294696,1,8,0:0:0:0:
390,321,294754,5,2,0:0:0:0:
447,316,294812,1,0,0:0:0:0:
487,275,294869,1,0,0:0:0:0:
502,224,294927,1,0,0:0:0:0:
486,173,294985,1,2,0:0:0:0:
455,130,295042,1,0,0:0:0:0:
410,101,295100,1,0,0:0:0:0:
358,88,295158,1,0,0:0:0:0:
202,111,295215,5,6,0:0:0:0:
226,157,295273,1,0,0:0:0:0:
267,189,295331,1,0,0:0:0:0:
317,200,295388,1,0,0:0:0:0:
115,315,295446,1,2,0:0:0:0:
57,308,295504,1,0,0:0:0:0:
34,252,295562,1,0,0:0:0:0:
63,204,295619,1,0,0:0:0:0:
222,90,295677,5,2,0:0:0:0:
198,136,295735,1,0,0:0:0:0:
157,168,295793,1,0,0:0:0:0:
107,179,295850,1,0,0:0:0:0:
309,294,295908,1,2,0:0:0:0:
367,293,295966,1,0,0:0:0:0:
423,278,296024,1,0,0:0:0:0:
461,243,296081,1,0,0:0:0:0:
486,197,296138,1,0,0:0:0:0:
475,145,296196,1,0,0:0:0:0:
439,105,296254,1,0,0:0:0:0:
387,93,296312,1,0,0:0:0:0:
203,294,296369,5,2,0:0:0:0:
145,293,296427,1,0,0:0:0:0:
89,278,296485,1,0,0:0:0:0:
51,243,296542,1,0,0:0:0:0:
26,197,296599,1,0,0:0:0:0:
37,145,296657,1,0,0:0:0:0:
73,105,296715,1,0,0:0:0:0:
125,93,296773,1,0,0:0:0:0:
307,66,296831,5,2,0:0:0:0:
255,62,296888,1,0,0:0:0:0:
202,58,296946,1,0,0:0:0:0:
150,54,297003,1,0,0:0:0:0:
337,259,297062,5,6,0:0:0:0:
441,257,297177,1,0,0:0:0:0:
228,185,297292,1,2,0:0:0:0:
214,289,297408,1,0,0:0:0:0:
339,78,297523,5,0,0:0:0:0:
353,182,297639,1,0,0:0:0:0:
150,251,297754,1,2,0:0:0:0:
46,249,297869,1,0,0:0:0:0:
258,152,297985,5,14,0:0:0:0:
391,153,298042,1,8,0:0:0:0:
258,152,298100,1,8,0:0:0:0:
124,154,298158,2,0,L|58:153,2,52.5,0|0|0,0:0|0:0|0:0,0:0:0:0:
258,152,298331,5,12,0:0:0:0:
391,153,298388,1,8,0:0:0:0:
258,152,298446,1,8,0:0:0:0:
124,154,298504,1,0,0:0:0:0:
72,180,298562,1,0,0:0:0:0:
46,231,298619,1,0,0:0:0:0:
73,282,298677,1,6,0:0:0:0:
128,300,298735,1,0,0:0:0:0:
71,303,298792,1,0,0:0:0:0:
13,306,298850,1,0,0:0:0:0:
280,184,298908,6,0,L|352:184,1,52.5,6|0,0:0|0:0,0:0:0:0:
152,128,299023,2,0,L|88:128,1,52.5,0|0,0:0|0:0,0:0:0:0:
280,120,299138,2,0,L|288:64,1,52.5,2|0,0:0|0:0,0:0:0:0:
224,72,299254,2,0,L|216:128,1,52.5,0|0,0:0|0:0,0:0:0:0:
400,80,299369,5,2,0:0:0:0:
456,80,299427,1,0,0:0:0:0:
400,80,299485,1,0,0:0:0:0:
344,80,299542,1,0,0:0:0:0:
184,216,299600,1,2,0:0:0:0:
240,216,299658,1,0,0:0:0:0:
296,216,299715,1,0,0:0:0:0:
240,216,299773,1,0,0:0:0:0:
80,168,299831,6,0,L|72:112,1,52.5,2|0,0:0|0:0,0:0:0:0:
232,136,299946,2,0,L|296:136,1,52.5,0|0,0:0|0:0,0:0:0:0:
448,128,300062,2,0,L|392:128,1,52.5,2|0,0:0|0:0,0:0:0:0:
232,88,300177,2,0,L|160:88,1,52.5,0|0,0:0|0:0,0:0:0:0:
344,144,300292,5,2,0:0:0:0:
320,190,300350,1,0,0:0:0:0:
279,222,300408,1,0,0:0:0:0:
229,233,300465,1,0,0:0:0:0:
280,224,300523,1,0,0:0:0:0:
320,190,300581,1,0,0:0:0:0:
344,144,300638,1,0,0:0:0:0:
320,190,300696,1,0,0:0:0:0:
136,168,300754,6,0,L|80:168,1,52.5,10|0,0:0|0:0,0:0:0:0:
32,160,300869,2,0,L|40:104,1,52.5,0|0,0:0|0:0,0:0:0:0:
96,104,300985,2,0,L|152:104,1,52.5,0|0,0:0|0:0,0:0:0:0:
328,112,301100,6,0,L|392:112,1,52.5,2|0,0:0|0:0,0:0:0:0:
320,104,301215,2,0,L|264:104,1,52.5,0|0,0:0|0:0,0:0:0:0:
208,104,301331,2,0,L|280:104,1,52.5,0|0,0:0|0:0,0:0:0:0:
440,176,301446,6,0,L|448:120,1,52.5,2|0,0:0|0:0,0:0:0:0:
392,120,301562,2,0,L|336:120,1,52.5,0|0,0:0|0:0,0:0:0:0:
152,288,301677,5,6,0:0:0:0:
128,264,301735,1,0,0:0:0:0:
152,288,301792,1,0,0:0:0:0:
192,288,301850,1,0,0:0:0:0:
240,288,301908,1,0,0:0:0:0:
296,288,301965,1,0,0:0:0:0:
240,288,302023,1,0,0:0:0:0:
184,288,302081,1,0,0:0:0:0:
368,160,302138,6,0,L|432:160,1,52.5,6|0,0:0|0:0,0:0:0:0:
472,160,302254,2,0,L|480:104,1,52.5,0|0,0:0|0:0,0:0:0:0:
432,96,302369,2,0,L|424:40,1,52.5,0|0,0:0|0:0,0:0:0:0:
376,40,302485,2,0,L|320:40,1,52.5,0|0,0:0|0:0,0:0:0:0:
136,208,302600,6,0,L|128:152,1,52.5,6|0,0:0|0:0,0:0:0:0:
192,160,302715,2,0,L|248:160,1,52.5,0|0,0:0|0:0,0:0:0:0:
432,104,302831,2,0,L|368:104,1,52.5,2|0,0:0|0:0,0:0:0:0:
200,96,302946,2,0,L|136:96,1,52.5,0|0,0:0|0:0,0:0:0:0:
336,176,303062,6,0,L|400:176,1,52.5,2|0,0:0|0:0,0:0:0:0:
448,176,303177,2,0,L|392:176,1,52.5,0|0,0:0|0:0,0:0:0:0:
208,176,303292,2,0,L|200:120,1,52.5,2|0,0:0|0:0,0:0:0:0:
384,128,303408,2,0,L|448:128,1,52.5,0|0,0:0|0:0,0:0:0:0:
256,96,303523,6,0,L|192:96,1,52.5,2|0,0:0|0:0,0:0:0:0:
24,96,303638,2,0,L|88:96,1,52.5,0|0,0:0|0:0,0:0:0:0:
264,168,303754,2,0,L|320:168,1,52.5,2|0,0:0|0:0,0:0:0:0:
256,152,303869,2,0,L|248:96,1,52.5,0|0,0:0|0:0,0:0:0:0:
432,160,303985,6,0,L|504:160,1,52.5,2|0,0:0|0:0,0:0:0:0:
328,72,304100,2,0,L|256:72,1,52.5,0|0,0:0|0:0,0:0:0:0:
120,112,304215,1,2,0:0:0:0:
64,112,304273,1,0,0:0:0:0:
32,112,304331,2,0,L|40:56,1,52.5,0|0,0:0|0:0,0:0:0:0:
264,152,304446,6,0,L|328:152,1,52.5,10|0,0:0|0:0,0:0:0:0:
96,200,304562,2,0,L|24:200,1,52.5,0|0,0:0|0:0,0:0:0:0:
160,152,304677,1,2,0:0:0:0:
280,152,304735,1,0,0:0:0:0:
400,192,304792,2,0,L|408:136,1,52.5,0|0,0:0|0:0,0:0:0:0:
216,240,304908,6,0,L|208:184,1,52.5,2|0,0:0|0:0,0:0:0:0:
272,192,305023,2,0,L|280:136,1,52.5
96,160,305138,1,2,0:0:0:0:
120,206,305196,1,0,0:0:0:0:
161,238,305254,1,0,0:0:0:0:
211,249,305311,1,0,0:0:0:0:
392,224,305369,6,0,L|400:168,1,52.5,2|0,0:0|0:0,0:0:0:0:
192,120,305485,2,0,L|136:120,1,52.5,0|0,0:0|0:0,0:0:0:0:
344,96,305600,2,0,L|416:96,1,52.5,2|0,0:0|0:0,0:0:0:0:
192,80,305715,2,0,L|256:80,1,52.5,0|0,0:0|0:0,0:0:0:0:
448,256,305831,5,6,0:0:0:0:
472,232,305889,1,0,0:0:0:0:
448,256,305946,1,0,0:0:0:0:
408,256,306004,1,0,0:0:0:0:
360,256,306062,1,0,0:0:0:0:
304,256,306119,1,0,0:0:0:0:
360,256,306177,1,0,0:0:0:0:
416,256,306235,1,0,0:0:0:0:
208,208,306292,6,0,L|152:208,1,52.5,6|0,0:0|0:0,0:0:0:0:
216,184,306408,1,0,0:0:0:0:
256,160,306465,1,0,0:0:0:0:
272,120,306523,1,0,0:0:0:0:
256,160,306581,1,0,0:0:0:0:
216,184,306638,1,0,0:0:0:0:
152,184,306696,1,0,0:0:0:0:
88,184,306754,2,0,L|96:128,1,52.5,0|0,0:0|0:0,0:0:0:0:
160,120,306869,2,0,L|168:64,1,52.5,0|0,0:0|0:0,0:0:0:0:
104,72,306985,2,0,L|112:16,1,52.5,0|0,0:0|0:0,0:0:0:0:
296,72,307100,2,0,L|352:72,1,52.5
160,200,307215,6,0,L|104:200,1,52.5,2|0,0:0|0:0,0:0:0:0:
168,192,307330,2,0,L|240:192,1,52.5,0|0,0:0|0:0,0:0:0:0:
160,168,307446,1,0,0:0:0:0:
104,168,307504,1,0,0:0:0:0:
72,168,307562,2,0,L|80:112,1,52.5,0|0,0:0|0:0,0:0:0:0:
264,128,307677,6,0,L|336:128,1,52.5,2|0,0:0|0:0,0:0:0:0:
256,112,307792,2,0,L|248:56,1,52.5,0|0,0:0|0:0,0:0:0:0:
312,80,307908,2,0,L|336:24,1,52.5,0|0,0:0|0:0,0:0:0:0:
392,40,308023,2,0,L|456:104,1,52.5,0|0,0:0|0:0,0:0:0:0:
240,320,308138,5,10,0:0:0:0:
218,272,308196,1,0,0:0:0:0:
244,225,308254,1,0,0:0:0:0:
296,217,308311,1,0,0:0:0:0:
348,207,308369,1,0,0:0:0:0:
394,180,308427,1,0,0:0:0:0:
414,131,308485,1,0,0:0:0:0:
384,89,308542,1,0,0:0:0:0:
200,280,308600,5,2,0:0:0:0:
144,280,308658,1,0,0:0:0:0:
112,272,308715,2,0,L|120:216,1,52.5,0|0,0:0|0:0,0:0:0:0:
184,216,308831,2,0,L|176:160,1,52.5,0|0,0:0|0:0,0:0:0:0:
112,176,308946,2,0,L|120:120,1,52.5,0|0,0:0|0:0,0:0:0:0:
184,112,309062,2,0,L|248:112,1,52.5,0|0,0:0|0:0,0:0:0:0:
304,112,309177,2,0,L|248:112,1,52.5,0|0,0:0|0:0,0:0:0:0:
184,112,309292,2,0,L|240:112,1,52.5,0|0,0:0|0:0,0:0:0:0:
456,128,309408,2,0,L|400:128,1,52.5,0|0,0:0|0:0,0:0:0:0:
192,312,309523,5,2,0:0:0:0:
136,312,309581,1,0,0:0:0:0:
96,288,309638,1,0,0:0:0:0:
64,240,309696,1,0,0:0:0:0:
40,192,309754,1,0,0:0:0:0:
24,144,309812,1,0,0:0:0:0:
16,104,309869,1,0,0:0:0:0:
152,120,309927,1,0,0:0:0:0:
288,208,309985,6,0,P|344:208|344:120,1,157.5,6|0,0:0|0:0,0:0:0:0:
168,216,310215,2,0,P|112:216|112:128,1,157.5,6|0,0:0|0:0,0:0:0:0:
288,136,310446,2,0,L|456:136,1,157.5,6|0,0:0|0:0,0:0:0:0:
264,88,310677,2,0,L|96:88,1,157.5,6|0,0:0|0:0,0:0:0:0:
320,128,310908,6,0,L|392:128,1,52.5,14|8,0:0|0:0,0:0:0:0:
160,216,311023,2,0,L|152:160,1,52.5,8|8,0:0|0:0,0:0:0:0:
368,240,311138,1,0,0:0:0:0:
424,224,311196,1,0,0:0:0:0:
448,192,311254,1,0,0:0:0:0:
424,224,311312,1,0,0:0:0:0:
368,240,311369,1,0,0:0:0:0:
256,168,311485,2,0,L|248:112,1,52.5,0|0,0:0|0:0,0:0:0:0:
304,120,311600,2,0,L|312:64,1,52.5,0|0,0:0|0:0,0:0:0:0:
368,72,311715,2,0,L|360:16,1,52.5,0|0,0:0|0:0,0:0:0:0:
144,272,311831,6,0,L|80:272,1,52.5,6|0,0:0|0:0,0:0:0:0:
40,256,311946,2,0,L|32:200,1,52.5,0|0,0:0|0:0,0:0:0:0:
80,200,312062,2,0,L|88:144,1,52.5,0|0,0:0|0:0,0:0:0:0:
136,144,312177,2,0,L|200:144,1,52.5,0|0,0:0|0:0,0:0:0:0:
368,208,312292,6,0,L|376:152,1,52.5,2|0,0:0|0:0,0:0:0:0:
312,160,312408,2,0,L|320:104,1,52.5,0|0,0:0|0:0,0:0:0:0:
384,112,312523,1,0,0:0:0:0:
488,112,312638,2,0,L|480:56,1,52.5,0|0,0:0|0:0,0:0:0:0:
296,112,312754,6,0,L|232:112,1,52.5,2|0,0:0|0:0,0:0:0:0:
304,96,312869,1,0,0:0:0:0:
344,64,312927,1,0,0:0:0:0:
360,16,312985,1,0,0:0:0:0:
344,64,313042,1,0,0:0:0:0:
304,96,313100,1,0,0:0:0:0:
240,96,313158,1,0,0:0:0:0:
400,232,313215,6,0,L|464:232,1,52.5,10|8,0:0|0:0,0:0:0:0:
320,168,313331,1,8,0:0:0:0:
192,168,313388,1,8,0:0:0:0:
320,168,313446,1,8,0:0:0:0:
448,168,313504,1,8,0:0:0:0:
320,168,313562,1,8,0:0:0:0:
192,168,313619,1,8,0:0:0:0:
448,384,313677,6,0,P|448:296|56:296,1,630,4|0,0:0|0:0,0:0:0:0:
400,368,323277,6,0,P|400:312|160:72,1,420,4|8,0:0|0:0,0:0:0:0:
384,296,325677,5,4,0:0:0:0:
392,288,325727,1,0,0:0:0:0:
384,280,325777,1,0,0:0:0:0:
376,272,325827,1,0,0:0:0:0:
368,264,325877,1,0,0:0:0:0:
360,256,325927,1,0,0:0:0:0:
352,248,325977,1,0,0:0:0:0:
344,240,326027,1,0,0:0:0:0:
336,232,326077,1,0,0:0:0:0:
328,224,326127,1,0,0:0:0:0:
320,216,326177,1,0,0:0:0:0:
312,208,326227,1,0,0:0:0:0:
304,200,326277,1,0,0:0:0:0:
296,192,326327,1,0,0:0:0:0:
288,184,326377,1,0,0:0:0:0:
280,176,326427,1,0,0:0:0:0:
272,168,326477,1,0,0:0:0:0:
264,160,326527,1,0,0:0:0:0:
256,152,326577,1,0,0:0:0:0:
248,144,326627,1,0,0:0:0:0:
240,136,326677,1,0,0:0:0:0:
232,128,326727,1,0,0:0:0:0:
224,120,326777,1,0,0:0:0:0:
216,112,326827,1,0,0:0:0:0:
40,288,326877,5,8,0:0:0:0:
32,280,326927,1,0,0:0:0:0:
40,272,326977,1,0,0:0:0:0:
48,264,327027,1,0,0:0:0:0:
56,256,327077,1,0,0:0:0:0:
64,248,327127,1,0,0:0:0:0:
72,240,327177,1,0,0:0:0:0:
80,232,327227,1,0,0:0:0:0:
88,224,327277,1,0,0:0:0:0:
96,216,327327,1,0,0:0:0:0:
104,208,327377,1,0,0:0:0:0:
112,200,327427,1,0,0:0:0:0:
120,192,327477,1,0,0:0:0:0:
128,184,327527,1,0,0:0:0:0:
136,176,327577,1,0,0:0:0:0:
144,168,327627,1,0,0:0:0:0:
152,160,327677,1,0,0:0:0:0:
160,152,327727,1,0,0:0:0:0:
168,144,327777,1,0,0:0:0:0:
176,136,327827,1,0,0:0:0:0:
184,128,327877,1,0,0:0:0:0:
192,120,327927,1,0,0:0:0:0:
200,112,327977,1,0,0:0:0:0:
208,104,328027,1,0,0:0:0:0:
400,152,328077,6,0,P|432:184|304:312,1,280.000010681153,4|0,0:0|0:0,0:0:0:0:
152,160,328677,2,0,L|264:160,1,81.6666674455007,2|0,0:0|0:0,0:0:0:0:
376,160,328877,2,0,L|280:160,1,81.6666674455007,2|0,0:0|0:0,0:0:0:0:
152,120,329077,2,0,L|240:120,1,81.6666674455007,2|0,0:0|0:0,0:0:0:0:
376,120,329277,1,10,0:0:0:0:
192,88,329877,5,2,0:0:0:0:
496,152,330077,1,2,0:0:0:0:
40,312,330477,5,4,0:0:0:0:
32,304,330527,1,0,0:0:0:0:
40,296,330577,1,0,0:0:0:0:
48,288,330627,1,0,0:0:0:0:
56,280,330677,1,0,0:0:0:0:
64,272,330727,1,0,0:0:0:0:
72,264,330777,1,0,0:0:0:0:
80,256,330827,1,0,0:0:0:0:
88,248,330877,1,0,0:0:0:0:
96,240,330927,1,0,0:0:0:0:
104,232,330977,1,0,0:0:0:0:
112,224,331027,1,0,0:0:0:0:
120,216,331077,1,0,0:0:0:0:
128,208,331127,1,0,0:0:0:0:
136,200,331177,1,0,0:0:0:0:
144,192,331227,1,0,0:0:0:0:
152,184,331277,1,0,0:0:0:0:
160,176,331327,1,0,0:0:0:0:
168,168,331377,1,0,0:0:0:0:
176,160,331427,1,0,0:0:0:0:
184,152,331477,1,0,0:0:0:0:
192,144,331527,1,0,0:0:0:0:
200,136,331577,1,0,0:0:0:0:
208,128,331627,1,0,0:0:0:0:
384,288,331677,5,8,0:0:0:0:
392,280,331727,1,0,0:0:0:0:
384,272,331777,1,0,0:0:0:0:
376,264,331827,1,0,0:0:0:0:
368,256,331877,1,0,0:0:0:0:
360,248,331927,1,0,0:0:0:0:
352,240,331977,1,0,0:0:0:0:
344,232,332027,1,0,0:0:0:0:
336,224,332077,1,0,0:0:0:0:
328,216,332127,1,0,0:0:0:0:
320,208,332177,1,0,0:0:0:0:
312,200,332227,1,0,0:0:0:0:
200,192,332277,5,4,0:0:0:0:
360,216,332877,6,0,P|144:216|144:56,1,420,4|8,0:0|0:0,0:0:0:0:
432,160,335700,5,4,0:0:0:0:
424,152,335759,1,0,0:0:0:0:
416,144,335818,1,0,0:0:0:0:
408,136,335877,1,0,0:0:0:0:
400,128,335935,1,0,0:0:0:0:
392,120,335994,1,0,0:0:0:0:
384,112,336053,1,0,0:0:0:0:
376,104,336112,1,0,0:0:0:0:
368,96,336171,1,0,0:0:0:0:
192,152,336229,5,2,0:0:0:0:
200,144,336288,1,0,0:0:0:0:
208,136,336347,1,0,0:0:0:0:
216,128,336406,1,0,0:0:0:0:
224,120,336465,1,0,0:0:0:0:
232,112,336524,1,0,0:0:0:0:
240,104,336582,1,0,0:0:0:0:
248,96,336641,1,0,0:0:0:0:
256,88,336700,1,0,0:0:0:0:
80,144,336759,5,2,0:0:0:0:
72,136,336818,1,0,0:0:0:0:
64,128,336877,1,0,0:0:0:0:
56,120,336935,1,0,0:0:0:0:
48,112,336994,1,0,0:0:0:0:
40,104,337053,1,0,0:0:0:0:
216,176,337112,5,10,0:0:0:0:
224,168,337171,1,0,0:0:0:0:
232,160,337229,1,0,0:0:0:0:
240,152,337288,1,0,0:0:0:0:
248,144,337347,1,0,0:0:0:0:
256,136,337406,1,0,0:0:0:0:
264,128,337465,1,0,0:0:0:0:
272,120,337524,1,0,0:0:0:0:
280,112,337582,1,0,0:0:0:0:
288,104,337641,1,0,0:0:0:0:
296,96,337700,1,0,0:0:0:0:
304,88,337759,1,0,0:0:0:0:
480,192,337818,5,2,0:0:0:0:
472,184,337877,1,0,0:0:0:0:
464,176,337935,1,0,0:0:0:0:
456,168,337994,1,0,0:0:0:0:
448,160,338053,1,0,0:0:0:0:
440,152,338112,1,0,0:0:0:0:
432,144,338171,1,0,0:0:0:0:
424,136,338229,1,0,0:0:0:0:
416,128,338288,1,0,0:0:0:0:
408,120,338347,1,0,0:0:0:0:
400,112,338406,1,0,0:0:0:0:
392,104,338465,1,0,0:0:0:0:
216,88,338524,6,0,P|120:88|232:200,1,373.333333333333,4|0,0:0|0:0,0:0:0:0:
392,200,339229,2,0,L|400:104,1,93.3333333333333,2|0,0:0|0:0,0:0:0:0:
232,184,339465,2,0,L|224:88,1,93.3333333333333,2|0,0:0|0:0,0:0:0:0:
56,176,339700,2,0,L|64:80,1,93.3333333333333,2|0,0:0|0:0,0:0:0:0:
232,104,339935,6,0,L|344:104,1,93.3333333333333,10|0,0:0|0:0,0:0:0:0:
152,112,340171,2,0,L|48:112,1,93.3333333333333,2|0,0:0|0:0,0:0:0:0:
224,64,340406,2,0,L|320:64,1,93.3333333333333,2|0,0:0|0:0,0:0:0:0:
480,80,340641,2,0,L|384:80,1,93.3333333333333,2|0,0:0|0:0,0:0:0:0:
216,176,340877,2,0,L|104:176,1,93.3333333333333,2|0,0:0|0:0,0:0:0:0:
288,120,341112,2,0,L|400:120,1,93.3333333333333,2|0,0:0|0:0,0:0:0:0:
144,248,341347,5,4,0:0:0:0:
136,240,341406,1,0,0:0:0:0:
128,232,341465,1,0,0:0:0:0:
120,224,341524,1,0,0:0:0:0:
112,216,341582,1,0,0:0:0:0:
104,208,341641,1,0,0:0:0:0:
96,200,341700,1,0,0:0:0:0:
88,192,341759,1,0,0:0:0:0:
80,184,341818,1,0,0:0:0:0:
72,176,341877,1,0,0:0:0:0:
64,168,341935,1,0,0:0:0:0:
56,160,341994,1,0,0:0:0:0:
112,248,342053,1,0,0:0:0:0:
120,240,342112,1,0,0:0:0:0:
128,232,342171,1,0,0:0:0:0:
136,224,342229,1,0,0:0:0:0:
144,216,342288,1,0,0:0:0:0:
152,208,342347,1,0,0:0:0:0:
160,200,342406,1,0,0:0:0:0:
168,192,342465,1,0,0:0:0:0:
176,184,342524,1,0,0:0:0:0:
184,176,342582,1,0,0:0:0:0:
192,168,342641,1,0,0:0:0:0:
200,160,342700,1,0,0:0:0:0:
376,176,342759,5,10,0:0:0:0:
384,168,342818,1,0,0:0:0:0:
392,160,342877,1,0,0:0:0:0:
400,152,342935,1,0,0:0:0:0:
408,144,342994,1,0,0:0:0:0:
416,136,343053,1,0,0:0:0:0:
360,176,343112,1,0,0:0:0:0:
352,168,343171,1,0,0:0:0:0:
344,160,343229,1,0,0:0:0:0:
336,152,343288,1,0,0:0:0:0:
328,144,343347,1,0,0:0:0:0:
320,136,343406,1,0,0:0:0:0:
440,280,343465,5,4,0:0:0:0:
248,328,350571,6,0,P|256:184|264:328,1,420,4|8,0:0|0:0,0:0:0:0:
136,232,353771,5,4,0:0:0:0:
132,224,353821,1,0,0:0:0:0:
128,216,353871,1,0,0:0:0:0:
124,208,353921,1,0,0:0:0:0:
120,200,353971,1,0,0:0:0:0:
116,192,354021,1,0,0:0:0:0:
112,180,354071,1,0,0:0:0:0:
108,172,354121,1,0,0:0:0:0:
104,164,354171,1,0,0:0:0:0:
100,156,354221,1,0,0:0:0:0:
96,148,354271,1,0,0:0:0:0:
92,136,354321,1,0,0:0:0:0:
88,128,354371,1,0,0:0:0:0:
84,120,354421,1,0,0:0:0:0:
80,112,354471,1,0,0:0:0:0:
76,104,354521,1,0,0:0:0:0:
128,184,354571,5,0,0:0:0:0:
132,176,354621,1,0,0:0:0:0:
136,168,354671,1,0,0:0:0:0:
140,160,354721,1,0,0:0:0:0:
144,152,354771,1,0,0:0:0:0:
148,144,354821,1,0,0:0:0:0:
152,132,354871,1,0,0:0:0:0:
156,124,354921,1,0,0:0:0:0:
160,116,354971,1,0,0:0:0:0:
164,108,355021,1,0,0:0:0:0:
168,100,355071,1,0,0:0:0:0:
172,88,355121,1,0,0:0:0:0:
176,80,355171,1,0,0:0:0:0:
180,72,355221,1,0,0:0:0:0:
184,64,355271,1,0,0:0:0:0:
188,56,355321,1,0,0:0:0:0:
240,200,355371,5,0,0:0:0:0:
236,192,355421,1,0,0:0:0:0:
232,184,355471,1,0,0:0:0:0:
228,176,355521,1,0,0:0:0:0:
224,168,355571,1,0,0:0:0:0:
220,160,355621,1,0,0:0:0:0:
216,148,355671,1,0,0:0:0:0:
212,140,355721,1,0,0:0:0:0:
208,132,355771,1,0,0:0:0:0:
204,124,355821,1,0,0:0:0:0:
200,116,355871,1,0,0:0:0:0:
196,104,355921,1,0,0:0:0:0:
192,96,355971,1,0,0:0:0:0:
188,88,356021,1,0,0:0:0:0:
184,80,356071,1,0,0:0:0:0:
180,72,356121,1,0,0:0:0:0:
232,264,356171,5,0,0:0:0:0:
236,256,356221,1,0,0:0:0:0:
240,248,356271,1,0,0:0:0:0:
244,240,356321,1,0,0:0:0:0:
248,232,356371,1,0,0:0:0:0:
252,224,356421,1,0,0:0:0:0:
256,212,356471,1,0,0:0:0:0:
260,204,356521,1,0,0:0:0:0:
264,196,356571,1,0,0:0:0:0:
268,188,356621,1,0,0:0:0:0:
272,180,356671,1,0,0:0:0:0:
276,168,356721,1,0,0:0:0:0:
280,160,356771,1,0,0:0:0:0:
284,152,356821,1,0,0:0:0:0:
288,144,356871,1,0,0:0:0:0:
292,136,356921,1,0,0:0:0:0:
488,304,356971,6,0,P|488:248|264:24,1,391.99998803711,12|0,0:0|0:0,0:0:0:0:
80,80,357771,2,0,L|192:80,1,97.9999970092774,2|0,0:0|0:0,0:0:0:0:
352,80,358037,2,0,L|456:80,1,97.9999970092774,2|0,0:0|0:0,0:0:0:0:
272,128,358304,2,0,L|160:128,1,97.9999970092774,2|0,0:0|0:0,0:0:0:0:
352,136,358571,1,10,0:0:0:0:
160,264,360171,5,4,0:0:0:0:
168,256,360237,1,0,0:0:0:0:
176,248,360304,1,0,0:0:0:0:
184,240,360371,1,0,0:0:0:0:
192,232,360437,1,0,0:0:0:0:
200,224,360504,1,0,0:0:0:0:
208,216,360571,1,0,0:0:0:0:
216,208,360637,1,0,0:0:0:0:
224,200,360704,1,0,0:0:0:0:
232,192,360771,1,0,0:0:0:0:
240,184,360837,1,0,0:0:0:0:
248,176,360904,1,0,0:0:0:0:
256,168,360971,1,0,0:0:0:0:
264,160,361037,1,0,0:0:0:0:
272,152,361104,1,0,0:0:0:0:
280,144,361171,1,0,0:0:0:0:
288,136,361237,1,0,0:0:0:0:
296,128,361304,1,0,0:0:0:0:
304,120,361371,1,0,0:0:0:0:
312,112,361437,1,0,0:0:0:0:
320,104,361504,1,0,0:0:0:0:
328,96,361571,1,0,0:0:0:0:
336,88,361637,1,0,0:0:0:0:
344,80,361704,1,0,0:0:0:0:
168,256,361771,5,8,0:0:0:0:
160,248,361837,1,0,0:0:0:0:
152,240,361904,1,0,0:0:0:0:
144,232,361971,1,0,0:0:0:0:
136,224,362037,1,0,0:0:0:0:
128,216,362104,1,0,0:0:0:0:
120,208,362171,1,0,0:0:0:0:
112,200,362237,1,0,0:0:0:0:
104,192,362304,1,0,0:0:0:0:
96,184,362371,1,0,0:0:0:0:
88,176,362437,1,0,0:0:0:0:
80,168,362504,1,0,0:0:0:0:
256,192,362571,5,4,0:0:0:0:
