osu file format v14

[General]
AudioFilename: audio.ogg
AudioLeadIn: 0
PreviewTime: 110138
Countdown: 0
SampleSet: Normal
StackLeniency: 0.7
Mode: 1
LetterboxInBreaks: 0
WidescreenStoryboard: 0

[Editor]
Bookmarks: 42049,52335,81478,83192,90049,96906,102049,103763,107192,109763,110621,138049,151763,165478,263587,277301,315366
DistanceSpacing: 0.1
BeatDivisor: 4
GridSize: 32
TimelineZoom: 5.499997

[Metadata]
Title:Sun//Eater
TitleUnicode:Sun//Eater
Artist:Lorna Shore
ArtistUnicode:Lorna Shore
Creator:Raiden
Version:Fires of Rebirth
Source:
Tags:pain remains english metal deathcore symphonic blackened will ramos austin archey andrew o'connor michael yager adam de micco
BeatmapID:3989538
BeatmapSetID:1931193

[Difficulty]
HPDrainRate:4
CircleSize:2
OverallDifficulty:9.2
ApproachRate:10
SliderMultiplier:1.4
SliderTickRate:1

[Events]
//Background and Video events
0,0,"wp9969369.jpg",0,100
//Break Periods
2,124535,127313
2,250073,263122
2,308601,317187
2,349813,351734
//Storyboard Layer 0 (Background)
//Storyboard Layer 1 (Fail)
//Storyboard Layer 2 (Pass)
//Storyboard Layer 3 (Foreground)
//Storyboard Layer 4 (Overlay)
//Storyboard Sound Samples

[TimingPoints]
907,428.571428571429,4,1,0,30,1,0
907,-125,4,1,0,30,0,0
42049,-111.111111111111,4,1,0,50,0,0
52439,-106.469815807219,4,1,0,50,0,0
52546,-102.200722218437,4,1,0,50,0,0
52654,-98.2253945386681,4,1,0,50,0,0
52761,-94.5805353258299,4,1,0,50,0,0
52868,-91.1964980544747,4,1,0,50,0,0
52975,-88.046253631908,4,1,0,50,0,0
53082,-85.1063829787234,4,1,0,50,0,0
53189,-82.3564938095369,4,1,0,50,0,0
53296,-79.7787469418147,4,1,0,50,0,0
53404,-77.3355330996082,4,1,0,50,0,0
53511,-75.0581700818134,4,1,0,50,0,0
53618,-72.9110970689739,4,1,0,50,0,0
53725,-70.8834439902653,4,1,0,50,0,0
53832,-68.9655172413793,4,1,0,50,0,0
53939,-67.1486447165208,4,1,0,50,0,0
54046,-65.4250447071139,4,1,0,50,0,0
54475,-59.3201906155458,4,1,0,50,0,0
54904,-54.2573970918035,4,1,0,50,0,0
55332,-50,4,1,0,50,0,0
55764,214.285714285714,4,1,0,100,1,1
55764,-100,4,1,0,100,0,1
62621,-100,4,1,0,100,0,0
62674,-100,4,1,0,30,0,0
69406,-100,4,1,0,100,0,0
69478,-100,4,1,0,100,0,1
83192,-100,4,1,0,100,0,0
109832,-102.142857142857,4,1,0,90,0,0
109903,-104.347826086957,4,1,0,90,0,0
109975,-106.683245259559,4,1,0,90,0,0
110046,-109.090909090909,4,1,0,90,0,0
110118,-111.646063760573,4,1,0,90,0,0
110189,-114.285714285714,4,1,0,90,0,0
110260,-117.053206002729,4,1,0,90,0,0
110332,-120,4,1,0,90,0,0
110403,-123.054858372176,4,1,0,90,0,0
110475,-126.315789473684,4,1,0,90,0,0
110546,-129.705215419501,4,1,0,90,0,0
110621,-133.333333333333,4,1,0,100,0,1
124335,-133.333333333333,4,1,0,100,0,0
127763,-100,4,1,0,100,0,1
138049,-100,4,1,0,90,0,0
164189,-108.686827684189,4,1,0,90,0,0
164403,-119.026450322294,4,1,0,90,0,0
164618,-131.604816908331,4,1,0,90,0,0
164689,-136.363636363636,4,1,0,90,0,0
164760,-141.479524438573,4,1,0,90,0,0
164832,-147.074979401263,4,1,0,90,0,0
164903,-153.04372677908,4,1,0,90,0,0
164975,-159.612518628912,4,1,0,90,0,0
165046,-166.666666666667,4,1,0,90,0,0
165478,461.538461538462,4,1,0,80,1,0
178386,461.538461538462,4,1,0,80,1,0
180232,461.538461538462,4,1,0,80,1,8
180247,461.538461538462,4,1,0,80,1,0
193167,-99.8463901689707,4,1,0,80,0,0
193397,-92.7626716638989,4,1,0,80,0,0
193628,-86.5925516982575,4,1,0,80,0,0
193859,-81.1920528008855,4,1,0,80,0,0
194090,-76.4256319811875,4,1,0,80,0,0
194320,-72.2051422770465,4,1,0,80,0,0
194554,230.769230769231,4,1,0,90,1,8
194554,-136.8216643234,4,1,0,90,0,8
194627,-134.496375581045,4,1,0,90,0,8
194704,-132.219730039906,4,1,0,90,0,8
194781,-130.018875979828,4,1,0,90,0,8
194858,-127.89009062301,4,1,0,90,0,8
194935,-125.829891074666,4,1,0,90,0,8
195016,214.285714285714,4,1,0,100,1,1
195016,-133.333333333334,4,1,0,100,0,1
222444,-133.333333333334,4,1,0,100,0,0
249063,-137.026921576278,4,1,0,100,0,0
249135,-140.987555198715,4,1,0,100,0,0
249206,-145.123966942149,4,1,0,100,0,0
249278,-149.574105621806,4,1,0,100,0,0
249349,-154.238032498902,4,1,0,100,0,0
249420,-159.202175883953,4,1,0,100,0,0
249492,-164.573570759138,4,1,0,100,0,0
249563,-170.237518177412,4,1,0,100,0,0
249635,-176.393771973882,4,1,0,100,0,0
249706,-182.916666666667,4,1,0,100,0,0
249778,-190.04329004329,4,1,0,100,0,0
249873,428.571428571429,4,1,0,90,1,0
249873,-99.9999999999998,4,1,0,90,0,0
263572,428.571428571429,4,1,0,100,1,0
277286,-125,4,1,0,90,0,0
291000,428.571428571429,4,1,0,90,1,8
291015,428.571428571429,4,1,0,90,1,8
291015,-125,4,1,0,90,0,0
291561,545.454545454546,4,1,0,90,1,0
291561,-111.111111111111,4,1,0,90,0,0
298106,545.454545454546,4,1,0,90,1,8
298106,-111.111111111111,4,1,0,90,0,0
298653,545.454545454546,4,1,0,90,1,0
298653,-111.111111111111,4,1,0,90,0,0
305198,545.454545454546,4,1,0,90,1,8
305198,-111.111111111111,4,1,0,90,0,0
305743,545.454545454546,4,1,0,90,1,0
305743,-111.111111111111,4,1,0,90,0,0
307924,545.454545454546,4,1,0,90,1,8
307924,-111.111111111111,4,1,0,90,0,0
308509,428.571428571429,4,1,0,30,1,0
308509,-142.857142857143,4,1,0,30,0,0
322080,-142.857142857143,4,1,0,100,0,0
322185,214.285714285714,4,1,0,100,1,1
322185,-133.333333333333,4,1,0,100,0,1
349613,-133.333333333333,4,1,0,100,0,0
353042,-100,4,1,0,100,0,1
363327,-100,4,1,0,80,0,0
364184,-100,4,1,0,60,0,0
365042,-100,4,1,0,40,0,0
365899,-100,4,1,0,20,0,0
366756,-100,4,1,0,10,0,0

[HitObjects]
256,192,28335,5,4,0:0:0:0:
256,192,28978,5,8,0:0:0:0:
256,192,29621,5,8,0:0:0:0:
256,192,30049,5,0,0:0:0:0:
256,192,31335,5,0,0:0:0:0:
256,192,31549,5,0,0:0:0:0:
256,192,31764,5,8,0:0:0:0:
256,192,33478,5,0,0:0:0:0:
256,192,34335,5,8,0:0:0:0:
256,192,35192,5,4,0:0:0:0:
256,192,35835,5,8,0:0:0:0:
256,192,36478,5,8,0:0:0:0:
256,192,36907,5,0,0:0:0:0:
256,192,38192,5,8,0:0:0:0:
256,192,38407,5,0,0:0:0:0:
256,192,38621,5,8,0:0:0:0:
256,192,39264,5,0,0:0:0:0:
256,192,39907,5,0,0:0:0:0:
256,192,40335,5,8,0:0:0:0:
256,192,40764,5,8,0:0:0:0:
256,192,41192,5,0,0:0:0:0:
256,192,41621,5,8,0:0:0:0:
256,192,42049,5,4,0:0:0:0:
256,192,42907,5,0,0:0:0:0:
256,192,43121,5,0,0:0:0:0:
256,192,43335,5,8,0:0:0:0:
256,192,43764,5,0,0:0:0:0:
256,192,44407,5,0,0:0:0:0:
256,192,44621,5,0,0:0:0:0:
256,192,44835,5,0,0:0:0:0:
256,192,45478,5,0,0:0:0:0:
256,192,46335,5,8,0:0:0:0:
256,192,46549,5,0,0:0:0:0:
256,192,46764,5,0,0:0:0:0:
256,192,47192,5,8,0:0:0:0:
256,192,48049,5,8,0:0:0:0:
256,192,48264,5,0,0:0:0:0:
256,192,48692,5,0,0:0:0:0:
256,192,48907,5,8,0:0:0:0:
256,192,49335,5,0,0:0:0:0:
256,192,49549,5,8,0:0:0:0:
256,192,49764,5,0,0:0:0:0:
256,192,49978,5,0,0:0:0:0:
256,192,50192,5,8,0:0:0:0:
256,192,50407,5,8,0:0:0:0:
256,192,50621,5,0,0:0:0:0:
256,192,51049,5,8,0:0:0:0:
256,192,51264,5,0,0:0:0:0:
256,192,51478,5,0,0:0:0:0:
256,192,51692,5,0,0:0:0:0:
256,192,51907,5,8,0:0:0:0:
256,192,52121,5,0,0:0:0:0:
256,192,52335,5,8,0:0:0:0:
256,192,52442,1,8,0:0:0:0:
256,192,52549,1,0,0:0:0:0:
256,192,52657,1,0,0:0:0:0:
256,192,52764,1,0,0:0:0:0:
256,192,52871,1,0,0:0:0:0:
256,192,52978,1,8,0:0:0:0:
256,192,53085,1,8,0:0:0:0:
256,192,53192,1,0,0:0:0:0:
256,192,53299,1,0,0:0:0:0:
256,192,53407,1,0,0:0:0:0:
256,192,53514,1,0,0:0:0:0:
256,192,53621,1,8,0:0:0:0:
256,192,53728,1,0,0:0:0:0:
256,192,53835,1,0,0:0:0:0:
256,192,53942,1,0,0:0:0:0:
256,192,54049,1,12,0:0:0:0:
256,192,54478,1,4,0:0:0:0:
256,192,54907,1,12,0:0:0:0:
256,192,55335,1,4,0:0:0:0:
256,192,55764,5,12,0:0:0:0:
256,192,55871,5,0,0:0:0:0:
256,192,55924,5,0,0:0:0:0:
256,192,55978,5,0,0:0:0:0:
256,192,56031,5,0,0:0:0:0:
256,192,56085,5,8,0:0:0:0:
256,192,56139,5,0,0:0:0:0:
256,192,56192,5,8,0:0:0:0:
256,192,56246,5,8,0:0:0:0:
256,192,56299,5,0,0:0:0:0:
256,192,56353,5,0,0:0:0:0:
256,192,56406,5,8,0:0:0:0:
256,192,56460,5,8,0:0:0:0:
256,192,56514,5,8,0:0:0:0:
256,192,56567,5,0,0:0:0:0:
256,192,56621,5,8,0:0:0:0:
256,192,56674,5,8,0:0:0:0:
256,192,56728,5,0,0:0:0:0:
256,192,56781,5,0,0:0:0:0:
256,192,56835,5,8,0:0:0:0:
256,192,56889,5,0,0:0:0:0:
256,192,56942,5,8,0:0:0:0:
256,192,56996,5,8,0:0:0:0:
256,192,57049,5,8,0:0:0:0:
256,192,57103,5,0,0:0:0:0:
256,192,57156,5,0,0:0:0:0:
256,192,57210,5,0,0:0:0:0:
256,192,57264,5,8,0:0:0:0:
256,192,57317,5,8,0:0:0:0:
256,192,57371,5,0,0:0:0:0:
256,192,57424,5,0,0:0:0:0:
256,192,57478,5,8,0:0:0:0:
256,192,57531,5,0,0:0:0:0:
256,192,57585,5,8,0:0:0:0:
256,192,57639,5,8,0:0:0:0:
256,192,57692,5,0,0:0:0:0:
256,192,57746,5,8,0:0:0:0:
256,192,57799,5,0,0:0:0:0:
256,192,57853,5,0,0:0:0:0:
256,192,57906,5,8,0:0:0:0:
256,192,57960,5,8,0:0:0:0:
256,192,58014,5,0,0:0:0:0:
256,192,58067,5,0,0:0:0:0:
256,192,58121,5,8,0:0:0:0:
256,192,58174,5,8,0:0:0:0:
256,192,58228,5,8,0:0:0:0:
256,192,58281,5,0,0:0:0:0:
256,192,58335,5,8,0:0:0:0:
256,192,58389,5,8,0:0:0:0:
256,192,58442,5,8,0:0:0:0:
256,192,58496,5,8,0:0:0:0:
256,192,58549,5,0,0:0:0:0:
256,192,58603,5,0,0:0:0:0:
256,192,58656,5,0,0:0:0:0:
256,192,58710,5,0,0:0:0:0:
256,192,58763,5,8,0:0:0:0:
256,192,58817,5,0,0:0:0:0:
256,192,58871,5,8,0:0:0:0:
256,192,58924,5,8,0:0:0:0:
256,192,58978,5,8,0:0:0:0:
256,192,59031,5,8,0:0:0:0:
256,192,59085,5,0,0:0:0:0:
256,192,59192,5,8,0:0:0:0:
256,192,59246,5,8,0:0:0:0:
256,192,59299,5,8,0:0:0:0:
256,192,59353,5,0,0:0:0:0:
256,192,59406,5,8,0:0:0:0:
256,192,59460,5,8,0:0:0:0:
256,192,59513,5,0,0:0:0:0:
256,192,59567,5,0,0:0:0:0:
256,192,59621,5,8,0:0:0:0:
256,192,59674,5,0,0:0:0:0:
256,192,59728,5,0,0:0:0:0:
256,192,59781,5,0,0:0:0:0:
256,192,59835,5,8,0:0:0:0:
256,192,59888,5,0,0:0:0:0:
256,192,59942,5,8,0:0:0:0:
256,192,59996,5,8,0:0:0:0:
256,192,60049,5,0,0:0:0:0:
256,192,60103,5,0,0:0:0:0:
256,192,60156,5,8,0:0:0:0:
256,192,60210,5,0,0:0:0:0:
256,192,60263,5,8,0:0:0:0:
256,192,60317,5,8,0:0:0:0:
256,192,60371,5,0,0:0:0:0:
256,192,60424,5,8,0:0:0:0:
256,192,60478,5,8,0:0:0:0:
256,192,60531,5,8,0:0:0:0:
256,192,60585,5,0,0:0:0:0:
256,192,60638,5,8,0:0:0:0:
256,192,60692,5,0,0:0:0:0:
256,192,60746,5,0,0:0:0:0:
256,192,60799,5,8,0:0:0:0:
256,192,60853,5,8,0:0:0:0:
256,192,60906,5,0,0:0:0:0:
256,192,61013,5,0,0:0:0:0:
256,192,61121,5,8,0:0:0:0:
256,192,61228,5,0,0:0:0:0:
256,192,61335,5,8,0:0:0:0:
256,192,61388,5,8,0:0:0:0:
256,192,61442,5,0,0:0:0:0:
256,192,61496,5,0,0:0:0:0:
256,192,61549,5,0,0:0:0:0:
256,192,61603,5,0,0:0:0:0:
256,192,61656,5,8,0:0:0:0:
256,192,61710,5,8,0:0:0:0:
256,192,61763,5,0,0:0:0:0:
256,192,61871,5,0,0:0:0:0:
256,192,61978,5,8,0:0:0:0:
256,192,62031,5,0,0:0:0:0:
256,192,62085,5,0,0:0:0:0:
256,192,62138,5,0,0:0:0:0:
256,192,62192,5,8,0:0:0:0:
256,192,62246,5,0,0:0:0:0:
256,192,62299,5,0,0:0:0:0:
256,192,62353,5,0,0:0:0:0:
256,192,62406,5,8,0:0:0:0:
256,192,62460,5,8,0:0:0:0:
256,192,62513,5,8,0:0:0:0:
256,192,62567,5,8,0:0:0:0:
256,192,62621,5,0,0:0:0:0:
256,192,66049,12,0,69371,0:0:0:0:
256,192,69478,5,12,0:0:0:0:
256,192,69585,5,8,0:0:0:0:
256,192,69638,5,8,0:0:0:0:
256,192,69692,5,0,0:0:0:0:
256,192,69746,5,0,0:0:0:0:
256,192,69799,5,8,0:0:0:0:
256,192,69853,5,0,0:0:0:0:
256,192,69906,5,8,0:0:0:0:
256,192,69960,5,8,0:0:0:0:
256,192,70013,5,0,0:0:0:0:
256,192,70067,5,0,0:0:0:0:
256,192,70121,5,8,0:0:0:0:
256,192,70174,5,8,0:0:0:0:
256,192,70228,5,8,0:0:0:0:
256,192,70281,5,0,0:0:0:0:
256,192,70335,5,8,0:0:0:0:
256,192,70388,5,8,0:0:0:0:
256,192,70442,5,0,0:0:0:0:
256,192,70496,5,0,0:0:0:0:
256,192,70549,5,8,0:0:0:0:
256,192,70603,5,0,0:0:0:0:
256,192,70656,5,8,0:0:0:0:
256,192,70710,5,8,0:0:0:0:
256,192,70763,5,0,0:0:0:0:
256,192,70817,5,0,0:0:0:0:
256,192,70871,5,8,0:0:0:0:
256,192,70924,5,0,0:0:0:0:
256,192,70978,5,8,0:0:0:0:
256,192,71031,5,8,0:0:0:0:
256,192,71085,5,0,0:0:0:0:
256,192,71138,5,0,0:0:0:0:
256,192,71192,5,8,0:0:0:0:
256,192,71246,5,0,0:0:0:0:
256,192,71299,5,8,0:0:0:0:
256,192,71353,5,8,0:0:0:0:
256,192,71406,5,0,0:0:0:0:
256,192,71460,5,8,0:0:0:0:
256,192,71513,5,0,0:0:0:0:
256,192,71567,5,0,0:0:0:0:
256,192,71621,5,8,0:0:0:0:
256,192,71674,5,8,0:0:0:0:
256,192,71728,5,0,0:0:0:0:
256,192,71781,5,0,0:0:0:0:
256,192,71835,5,8,0:0:0:0:
256,192,71888,5,8,0:0:0:0:
256,192,71942,5,8,0:0:0:0:
256,192,71996,5,0,0:0:0:0:
256,192,72049,5,8,0:0:0:0:
256,192,72103,5,8,0:0:0:0:
256,192,72156,5,8,0:0:0:0:
256,192,72210,5,8,0:0:0:0:
256,192,72263,5,0,0:0:0:0:
256,192,72317,5,0,0:0:0:0:
256,192,72371,5,0,0:0:0:0:
256,192,72424,5,0,0:0:0:0:
256,192,72478,5,8,0:0:0:0:
256,192,72531,5,0,0:0:0:0:
256,192,72585,5,8,0:0:0:0:
256,192,72638,5,8,0:0:0:0:
256,192,72692,5,8,0:0:0:0:
256,192,72746,5,8,0:0:0:0:
256,192,72799,5,0,0:0:0:0:
256,192,72853,5,0,0:0:0:0:
256,192,72906,5,8,0:0:0:0:
256,192,72960,5,8,0:0:0:0:
256,192,73013,5,8,0:0:0:0:
256,192,73067,5,8,0:0:0:0:
256,192,73121,5,0,0:0:0:0:
256,192,73174,5,8,0:0:0:0:
256,192,73228,5,0,0:0:0:0:
256,192,73281,5,0,0:0:0:0:
256,192,73335,5,8,0:0:0:0:
256,192,73388,5,8,0:0:0:0:
256,192,73442,5,0,0:0:0:0:
256,192,73496,5,0,0:0:0:0:
256,192,73549,5,8,0:0:0:0:
256,192,73603,5,0,0:0:0:0:
256,192,73656,5,8,0:0:0:0:
256,192,73710,5,8,0:0:0:0:
256,192,73763,5,0,0:0:0:0:
256,192,73817,5,0,0:0:0:0:
256,192,73871,5,8,0:0:0:0:
256,192,73924,5,0,0:0:0:0:
256,192,73978,5,8,0:0:0:0:
256,192,74031,5,8,0:0:0:0:
256,192,74085,5,0,0:0:0:0:
256,192,74138,5,8,0:0:0:0:
256,192,74192,5,8,0:0:0:0:
256,192,74246,5,8,0:0:0:0:
256,192,74299,5,0,0:0:0:0:
256,192,74353,5,8,0:0:0:0:
256,192,74406,5,0,0:0:0:0:
256,192,74460,5,0,0:0:0:0:
256,192,74513,5,8,0:0:0:0:
256,192,74567,5,8,0:0:0:0:
256,192,74621,5,0,0:0:0:0:
256,192,74728,5,0,0:0:0:0:
256,192,74835,5,8,0:0:0:0:
256,192,74942,5,0,0:0:0:0:
256,192,75049,5,8,0:0:0:0:
256,192,75103,5,8,0:0:0:0:
256,192,75156,5,0,0:0:0:0:
256,192,75210,5,0,0:0:0:0:
256,192,75263,5,0,0:0:0:0:
256,192,75317,5,0,0:0:0:0:
256,192,75371,5,8,0:0:0:0:
256,192,75424,5,8,0:0:0:0:
256,192,75478,5,0,0:0:0:0:
256,192,75585,5,0,0:0:0:0:
256,192,75692,5,0,0:0:0:0:
256,192,75746,5,0,0:0:0:0:
256,192,75799,5,0,0:0:0:0:
256,192,75853,5,0,0:0:0:0:
256,192,75906,5,8,0:0:0:0:
256,192,75960,5,8,0:0:0:0:
256,192,76013,5,8,0:0:0:0:
256,192,76067,5,8,0:0:0:0:
256,192,76121,5,0,0:0:0:0:
256,192,76174,5,0,0:0:0:0:
256,192,76228,5,8,0:0:0:0:
256,192,76335,5,12,0:0:0:0:
256,192,76442,5,8,0:0:0:0:
256,192,76496,5,8,0:0:0:0:
256,192,76549,5,8,0:0:0:0:
256,192,76603,5,0,0:0:0:0:
256,192,76656,5,8,0:0:0:0:
256,192,76710,5,0,0:0:0:0:
256,192,76763,5,8,0:0:0:0:
256,192,76817,5,8,0:0:0:0:
256,192,76871,5,0,0:0:0:0:
256,192,76924,5,0,0:0:0:0:
256,192,76978,5,8,0:0:0:0:
256,192,77031,5,8,0:0:0:0:
256,192,77085,5,8,0:0:0:0:
256,192,77138,5,0,0:0:0:0:
256,192,77192,5,8,0:0:0:0:
256,192,77246,5,8,0:0:0:0:
256,192,77299,5,0,0:0:0:0:
256,192,77353,5,0,0:0:0:0:
256,192,77406,5,8,0:0:0:0:
256,192,77460,5,0,0:0:0:0:
256,192,77513,5,8,0:0:0:0:
256,192,77567,5,8,0:0:0:0:
256,192,77621,5,8,0:0:0:0:
256,192,77674,5,8,0:0:0:0:
256,192,77728,5,0,0:0:0:0:
256,192,77781,5,0,0:0:0:0:
256,192,77835,5,8,0:0:0:0:
256,192,77888,5,8,0:0:0:0:
256,192,77942,5,0,0:0:0:0:
256,192,77996,5,0,0:0:0:0:
256,192,78049,5,8,0:0:0:0:
256,192,78103,5,8,0:0:0:0:
256,192,78156,5,8,0:0:0:0:
256,192,78210,5,0,0:0:0:0:
256,192,78263,5,8,0:0:0:0:
256,192,78317,5,8,0:0:0:0:
256,192,78371,5,0,0:0:0:0:
256,192,78424,5,0,0:0:0:0:
256,192,78478,5,8,0:0:0:0:
256,192,78531,5,8,0:0:0:0:
256,192,78585,5,0,0:0:0:0:
256,192,78638,5,0,0:0:0:0:
256,192,78692,5,8,0:0:0:0:
256,192,78746,5,8,0:0:0:0:
256,192,78799,5,8,0:0:0:0:
256,192,78853,5,0,0:0:0:0:
256,192,78906,5,8,0:0:0:0:
256,192,78960,5,8,0:0:0:0:
256,192,79013,5,8,0:0:0:0:
256,192,79067,5,8,0:0:0:0:
256,192,79121,5,0,0:0:0:0:
256,192,79174,5,0,0:0:0:0:
256,192,79228,5,0,0:0:0:0:
256,192,79281,5,0,0:0:0:0:
256,192,79335,5,8,0:0:0:0:
256,192,79388,5,0,0:0:0:0:
256,192,79442,5,8,0:0:0:0:
256,192,79496,5,8,0:0:0:0:
256,192,79549,5,8,0:0:0:0:
256,192,79603,5,8,0:0:0:0:
256,192,79656,5,0,0:0:0:0:
256,192,79763,5,0,0:0:0:0:
256,192,79817,5,0,0:0:0:0:
256,192,79871,5,0,0:0:0:0:
256,192,79924,5,0,0:0:0:0:
256,192,79978,5,8,0:0:0:0:
256,192,80031,5,8,0:0:0:0:
256,192,80085,5,0,0:0:0:0:
256,192,80138,5,0,0:0:0:0:
256,192,80192,5,8,0:0:0:0:
256,192,80246,5,0,0:0:0:0:
256,192,80299,5,0,0:0:0:0:
256,192,80353,5,0,0:0:0:0:
256,192,80406,5,8,0:0:0:0:
256,192,80460,5,8,0:0:0:0:
256,192,80513,5,8,0:0:0:0:
256,192,80567,5,0,0:0:0:0:
256,192,80621,5,8,0:0:0:0:
256,192,80674,5,8,0:0:0:0:
256,192,80728,5,8,0:0:0:0:
256,192,80781,5,8,0:0:0:0:
256,192,80835,5,0,0:0:0:0:
256,192,80888,5,0,0:0:0:0:
256,192,80942,5,0,0:0:0:0:
256,192,80996,5,0,0:0:0:0:
256,192,81049,5,8,0:0:0:0:
256,192,81103,5,8,0:0:0:0:
256,192,81156,5,0,0:0:0:0:
256,192,81210,5,0,0:0:0:0:
256,192,81263,5,0,0:0:0:0:
256,192,81317,5,0,0:0:0:0:
256,192,81371,5,0,0:0:0:0:
256,192,81424,5,0,0:0:0:0:
256,192,81478,5,8,0:0:0:0:
256,192,81531,5,0,0:0:0:0:
256,192,81585,5,8,0:0:0:0:
256,192,81638,5,0,0:0:0:0:
256,192,81692,5,8,0:0:0:0:
256,192,81746,5,0,0:0:0:0:
256,192,81799,5,8,0:0:0:0:
256,192,81853,5,0,0:0:0:0:
256,192,81906,5,8,0:0:0:0:
256,192,81960,5,8,0:0:0:0:
256,192,82013,5,0,0:0:0:0:
256,192,82067,5,0,0:0:0:0:
256,192,82121,5,8,0:0:0:0:
256,192,82174,5,8,0:0:0:0:
256,192,82228,5,0,0:0:0:0:
256,192,82281,5,0,0:0:0:0:
256,192,82335,5,8,0:0:0:0:
256,192,82388,5,8,0:0:0:0:
256,192,82442,5,8,0:0:0:0:
256,192,82496,5,8,0:0:0:0:
256,192,82549,5,0,0:0:0:0:
256,192,82603,5,0,0:0:0:0:
256,192,82656,5,0,0:0:0:0:
256,192,82710,5,0,0:0:0:0:
256,192,82763,5,8,0:0:0:0:
256,192,82817,5,0,0:0:0:0:
256,192,82871,5,0,0:0:0:0:
256,192,82924,5,0,0:0:0:0:
256,192,82978,5,8,0:0:0:0:
256,192,83031,5,8,0:0:0:0:
256,192,83085,5,0,0:0:0:0:
256,192,83192,5,12,0:0:0:0:
256,192,83299,5,0,0:0:0:0:
256,192,83353,5,0,0:0:0:0:
256,192,83406,5,0,0:0:0:0:
256,192,83513,5,0,0:0:0:0:
256,192,83621,5,8,0:0:0:0:
256,192,83674,5,0,0:0:0:0:
256,192,83728,5,8,0:0:0:0:
256,192,83781,5,8,0:0:0:0:
256,192,83835,5,8,0:0:0:0:
256,192,83942,5,0,0:0:0:0:
256,192,84049,5,8,0:0:0:0:
256,192,84103,5,8,0:0:0:0:
256,192,84156,5,0,0:0:0:0:
256,192,84210,5,0,0:0:0:0:
256,192,84263,5,0,0:0:0:0:
256,192,84371,5,0,0:0:0:0:
256,192,84478,5,8,0:0:0:0:
256,192,84531,5,8,0:0:0:0:
256,192,84585,5,0,0:0:0:0:
256,192,84638,5,0,0:0:0:0:
256,192,84692,5,8,0:0:0:0:
256,192,84746,5,0,0:0:0:0:
256,192,84799,5,8,0:0:0:0:
256,192,84853,5,8,0:0:0:0:
256,192,84906,5,8,0:0:0:0:
256,192,85013,5,0,0:0:0:0:
256,192,85121,5,8,0:0:0:0:
256,192,85228,5,8,0:0:0:0:
256,192,85335,5,0,0:0:0:0:
256,192,85388,5,0,0:0:0:0:
256,192,85442,5,8,0:0:0:0:
256,192,85496,5,0,0:0:0:0:
256,192,85549,5,8,0:0:0:0:
256,192,85603,5,8,0:0:0:0:
256,192,85656,5,0,0:0:0:0:
256,192,85710,5,0,0:0:0:0:
256,192,85763,5,8,0:0:0:0:
256,192,85871,5,8,0:0:0:0:
256,192,85978,5,0,0:0:0:0:
256,192,86031,5,0,0:0:0:0:
256,192,86085,5,0,0:0:0:0:
256,192,86138,5,0,0:0:0:0:
256,192,86192,5,8,0:0:0:0:
256,192,86246,5,0,0:0:0:0:
256,192,86299,5,0,0:0:0:0:
256,192,86353,5,0,0:0:0:0:
256,192,86406,5,8,0:0:0:0:
256,192,86460,5,0,0:0:0:0:
256,192,86513,5,8,0:0:0:0:
256,192,86621,5,4,0:0:0:0:
256,192,86728,5,8,0:0:0:0:
256,192,86781,5,8,0:0:0:0:
256,192,86835,5,8,0:0:0:0:
256,192,86942,5,8,0:0:0:0:
256,192,87049,5,0,0:0:0:0:
256,192,87103,5,0,0:0:0:0:
256,192,87156,5,8,0:0:0:0:
256,192,87210,5,8,0:0:0:0:
256,192,87263,5,0,0:0:0:0:
256,192,87317,5,8,0:0:0:0:
256,192,87371,5,0,0:0:0:0:
256,192,87424,5,0,0:0:0:0:
256,192,87478,5,8,0:0:0:0:
256,192,87585,5,0,0:0:0:0:
256,192,87692,5,8,0:0:0:0:
256,192,87799,5,8,0:0:0:0:
256,192,87906,5,0,0:0:0:0:
256,192,87960,5,8,0:0:0:0:
256,192,88013,5,0,0:0:0:0:
256,192,88067,5,0,0:0:0:0:
256,192,88121,5,8,0:0:0:0:
256,192,88174,5,0,0:0:0:0:
256,192,88228,5,8,0:0:0:0:
256,192,88281,5,8,0:0:0:0:
256,192,88335,5,0,0:0:0:0:
256,192,88388,5,0,0:0:0:0:
256,192,88442,5,8,0:0:0:0:
256,192,88496,5,8,0:0:0:0:
256,192,88549,5,0,0:0:0:0:
256,192,88603,5,0,0:0:0:0:
256,192,88656,5,0,0:0:0:0:
256,192,88710,5,0,0:0:0:0:
256,192,88763,5,8,0:0:0:0:
256,192,88817,5,0,0:0:0:0:
256,192,88871,5,0,0:0:0:0:
256,192,88924,5,0,0:0:0:0:
256,192,88978,5,8,0:0:0:0:
256,192,89031,5,8,0:0:0:0:
256,192,89085,5,0,0:0:0:0:
256,192,89192,5,8,0:0:0:0:
256,192,89246,5,8,0:0:0:0:
256,192,89299,5,8,0:0:0:0:
256,192,89353,5,8,0:0:0:0:
256,192,89406,5,0,0:0:0:0:
256,192,89460,5,0,0:0:0:0:
256,192,89513,5,8,0:0:0:0:
256,192,89567,5,0,0:0:0:0:
256,192,89621,5,8,0:0:0:0:
256,192,89674,5,8,0:0:0:0:
256,192,89728,5,8,0:0:0:0:
256,192,89781,5,0,0:0:0:0:
256,192,89835,5,8,0:0:0:0:
256,192,89888,5,0,0:0:0:0:
256,192,89942,5,8,0:0:0:0:
256,192,90049,5,12,0:0:0:0:
256,192,90156,5,0,0:0:0:0:
256,192,90210,5,8,0:0:0:0:
256,192,90263,5,0,0:0:0:0:
256,192,90371,5,0,0:0:0:0:
256,192,90478,5,8,0:0:0:0:
256,192,90531,5,0,0:0:0:0:
256,192,90585,5,8,0:0:0:0:
256,192,90638,5,8,0:0:0:0:
256,192,90692,5,0,0:0:0:0:
256,192,90799,5,0,0:0:0:0:
256,192,90906,5,8,0:0:0:0:
256,192,90960,5,8,0:0:0:0:
256,192,91013,5,8,0:0:0:0:
256,192,91067,5,8,0:0:0:0:
256,192,91121,5,0,0:0:0:0:
256,192,91228,5,0,0:0:0:0:
256,192,91335,5,8,0:0:0:0:
256,192,91388,5,8,0:0:0:0:
256,192,91442,5,0,0:0:0:0:
256,192,91496,5,0,0:0:0:0:
256,192,91549,5,8,0:0:0:0:
256,192,91603,5,0,0:0:0:0:
256,192,91656,5,8,0:0:0:0:
256,192,91763,5,8,0:0:0:0:
256,192,91871,5,0,0:0:0:0:
256,192,91924,5,0,0:0:0:0:
256,192,91978,5,8,0:0:0:0:
256,192,92031,5,0,0:0:0:0:
256,192,92085,5,8,0:0:0:0:
256,192,92192,5,0,0:0:0:0:
256,192,92246,5,0,0:0:0:0:
256,192,92299,5,8,0:0:0:0:
256,192,92353,5,0,0:0:0:0:
256,192,92406,5,8,0:0:0:0:
256,192,92460,5,8,0:0:0:0:
256,192,92513,5,8,0:0:0:0:
256,192,92567,5,0,0:0:0:0:
256,192,92621,5,8,0:0:0:0:
256,192,92728,5,8,0:0:0:0:
256,192,92835,5,0,0:0:0:0:
256,192,92888,5,0,0:0:0:0:
256,192,92942,5,8,0:0:0:0:
256,192,92996,5,0,0:0:0:0:
256,192,93049,5,0,0:0:0:0:
256,192,93103,5,8,0:0:0:0:
256,192,93156,5,0,0:0:0:0:
256,192,93210,5,0,0:0:0:0:
256,192,93263,5,8,0:0:0:0:
256,192,93317,5,0,0:0:0:0:
256,192,93371,5,8,0:0:0:0:
256,192,93478,5,4,0:0:0:0:
256,192,93585,5,8,0:0:0:0:
256,192,93638,5,8,0:0:0:0:
256,192,93692,5,0,0:0:0:0:
256,192,93799,5,0,0:0:0:0:
256,192,93906,5,8,0:0:0:0:
256,192,93960,5,8,0:0:0:0:
256,192,94013,5,0,0:0:0:0:
256,192,94067,5,8,0:0:0:0:
256,192,94121,5,0,0:0:0:0:
256,192,94174,5,0,0:0:0:0:
256,192,94228,5,8,0:0:0:0:
256,192,94281,5,0,0:0:0:0:
256,192,94335,5,8,0:0:0:0:
256,192,94442,5,0,0:0:0:0:
256,192,94496,5,0,0:0:0:0:
256,192,94549,5,8,0:0:0:0:
256,192,94656,5,8,0:0:0:0:
256,192,94763,5,0,0:0:0:0:
256,192,94817,5,8,0:0:0:0:
256,192,94871,5,8,0:0:0:0:
256,192,94924,5,0,0:0:0:0:
256,192,94978,5,8,0:0:0:0:
256,192,95031,5,0,0:0:0:0:
256,192,95085,5,8,0:0:0:0:
256,192,95192,5,12,0:0:0:0:
256,192,95299,5,8,0:0:0:0:
256,192,95353,5,0,0:0:0:0:
256,192,95406,5,8,0:0:0:0:
256,192,95460,5,8,0:0:0:0:
256,192,95513,5,0,0:0:0:0:
256,192,95567,5,0,0:0:0:0:
256,192,95621,5,8,0:0:0:0:
256,192,95674,5,8,0:0:0:0:
256,192,95728,5,8,0:0:0:0:
256,192,95781,5,0,0:0:0:0:
256,192,95835,5,8,0:0:0:0:
256,192,95888,5,8,0:0:0:0:
256,192,95942,5,0,0:0:0:0:
256,192,95996,5,0,0:0:0:0:
256,192,96049,5,8,0:0:0:0:
256,192,96156,5,0,0:0:0:0:
256,192,96210,5,0,0:0:0:0:
256,192,96263,5,8,0:0:0:0:
256,192,96317,5,0,0:0:0:0:
256,192,96371,5,8,0:0:0:0:
256,192,96424,5,0,0:0:0:0:
256,192,96478,5,8,0:0:0:0:
256,192,96585,5,0,0:0:0:0:
256,192,96692,5,8,0:0:0:0:
256,192,96799,5,8,0:0:0:0:
256,192,96906,5,4,0:0:0:0:
256,192,97013,5,0,0:0:0:0:
256,192,97121,5,8,0:0:0:0:
256,192,97174,5,8,0:0:0:0:
256,192,97228,5,0,0:0:0:0:
256,192,97335,5,8,0:0:0:0:
256,192,97442,5,8,0:0:0:0:
256,192,97549,5,8,0:0:0:0:
256,192,97656,5,0,0:0:0:0:
256,192,97710,5,0,0:0:0:0:
256,192,97763,5,8,0:0:0:0:
256,192,97871,5,0,0:0:0:0:
256,192,97978,5,0,0:0:0:0:
256,192,98085,5,0,0:0:0:0:
256,192,98138,5,0,0:0:0:0:
256,192,98192,5,8,0:0:0:0:
256,192,98246,5,0,0:0:0:0:
256,192,98299,5,0,0:0:0:0:
256,192,98406,5,8,0:0:0:0:
256,192,98513,5,0,0:0:0:0:
256,192,98621,5,8,0:0:0:0:
256,192,98674,5,8,0:0:0:0:
256,192,98728,5,0,0:0:0:0:
256,192,98835,5,8,0:0:0:0:
256,192,98888,5,0,0:0:0:0:
256,192,98942,5,0,0:0:0:0:
256,192,99049,5,0,0:0:0:0:
256,192,99156,5,0,0:0:0:0:
256,192,99210,5,0,0:0:0:0:
256,192,99263,5,8,0:0:0:0:
256,192,99371,5,0,0:0:0:0:
256,192,99478,5,8,0:0:0:0:
256,192,99692,5,0,0:0:0:0:
256,192,99906,5,0,0:0:0:0:
256,192,100121,5,8,0:0:0:0:
256,192,100174,5,8,0:0:0:0:
256,192,100228,5,0,0:0:0:0:
256,192,100281,5,0,0:0:0:0:
256,192,100335,5,8,0:0:0:0:
256,192,100442,5,0,0:0:0:0:
256,192,100549,5,8,0:0:0:0:
256,192,100603,5,0,0:0:0:0:
256,192,100656,5,0,0:0:0:0:
256,192,100710,5,0,0:0:0:0:
256,192,100763,5,8,0:0:0:0:
256,192,100817,5,8,0:0:0:0:
256,192,100871,5,0,0:0:0:0:
256,192,100978,5,0,0:0:0:0:
256,192,101085,5,0,0:0:0:0:
256,192,101192,5,8,0:0:0:0:
256,192,101246,5,8,0:0:0:0:
256,192,101299,5,8,0:0:0:0:
256,192,101406,5,8,0:0:0:0:
256,192,101513,5,0,0:0:0:0:
256,192,101621,5,8,0:0:0:0:
256,192,101674,5,8,0:0:0:0:
256,192,101728,5,0,0:0:0:0:
256,192,101835,5,8,0:0:0:0:
256,192,101942,5,0,0:0:0:0:
256,192,102049,5,8,0:0:0:0:
256,192,102103,5,8,0:0:0:0:
256,192,102156,5,8,0:0:0:0:
256,192,102210,5,8,0:0:0:0:
256,192,102263,5,0,0:0:0:0:
256,192,102317,5,0,0:0:0:0:
256,192,102371,5,0,0:0:0:0:
256,192,102424,5,0,0:0:0:0:
256,192,102478,5,8,0:0:0:0:
256,192,102531,5,0,0:0:0:0:
256,192,102585,5,0,0:0:0:0:
256,192,102638,5,0,0:0:0:0:
256,192,102692,5,8,0:0:0:0:
256,192,102799,5,0,0:0:0:0:
256,192,102853,5,0,0:0:0:0:
256,192,102906,5,8,0:0:0:0:
256,192,103013,5,0,0:0:0:0:
256,192,103067,5,0,0:0:0:0:
256,192,103121,5,8,0:0:0:0:
256,192,103174,5,8,0:0:0:0:
256,192,103228,5,0,0:0:0:0:
256,192,103281,5,0,0:0:0:0:
256,192,103335,5,8,0:0:0:0:
256,192,103442,5,0,0:0:0:0:
256,192,103496,5,8,0:0:0:0:
256,192,103549,5,8,0:0:0:0:
256,192,103603,5,8,0:0:0:0:
256,192,103656,5,0,0:0:0:0:
256,192,103763,5,12,0:0:0:0:
256,192,103871,5,0,0:0:0:0:
256,192,103924,5,0,0:0:0:0:
256,192,103978,5,8,0:0:0:0:
256,192,104085,5,0,0:0:0:0:
256,192,104192,5,8,0:0:0:0:
256,192,104246,5,8,0:0:0:0:
256,192,104299,5,0,0:0:0:0:
256,192,104353,5,0,0:0:0:0:
256,192,104406,5,8,0:0:0:0:
256,192,104460,5,0,0:0:0:0:
256,192,104513,5,8,0:0:0:0:
256,192,104567,5,8,0:0:0:0:
256,192,104621,5,0,0:0:0:0:
256,192,104728,5,0,0:0:0:0:
256,192,104835,5,8,0:0:0:0:
256,192,104888,5,8,0:0:0:0:
256,192,104942,5,8,0:0:0:0:
256,192,104996,5,0,0:0:0:0:
256,192,105049,5,8,0:0:0:0:
256,192,105103,5,8,0:0:0:0:
256,192,105156,5,0,0:0:0:0:
256,192,105210,5,0,0:0:0:0:
256,192,105263,5,8,0:0:0:0:
256,192,105371,5,0,0:0:0:0:
256,192,105478,5,8,0:0:0:0:
256,192,105531,5,0,0:0:0:0:
256,192,105585,5,8,0:0:0:0:
256,192,105638,5,8,0:0:0:0:
256,192,105692,5,0,0:0:0:0:
256,192,105746,5,0,0:0:0:0:
256,192,105799,5,8,0:0:0:0:
256,192,105853,5,8,0:0:0:0:
256,192,105906,5,8,0:0:0:0:
256,192,105960,5,0,0:0:0:0:
256,192,106013,5,0,0:0:0:0:
256,192,106067,5,0,0:0:0:0:
256,192,106121,5,8,0:0:0:0:
256,192,106228,5,0,0:0:0:0:
256,192,106335,5,8,0:0:0:0:
256,192,106388,5,0,0:0:0:0:
256,192,106442,5,0,0:0:0:0:
256,192,106496,5,0,0:0:0:0:
256,192,106549,5,8,0:0:0:0:
256,192,106603,5,8,0:0:0:0:
256,192,106656,5,0,0:0:0:0:
256,192,106710,5,0,0:0:0:0:
256,192,106763,5,8,0:0:0:0:
256,192,106817,5,8,0:0:0:0:
256,192,106871,5,8,0:0:0:0:
256,192,106924,5,0,0:0:0:0:
256,192,106978,5,8,0:0:0:0:
256,192,107031,5,8,0:0:0:0:
256,192,107085,5,0,0:0:0:0:
256,192,107192,5,8,0:0:0:0:
256,192,107246,5,8,0:0:0:0:
256,192,107299,5,8,0:0:0:0:
256,192,107353,5,8,0:0:0:0:
256,192,107406,5,8,0:0:0:0:
256,192,107460,5,8,0:0:0:0:
256,192,107513,5,0,0:0:0:0:
256,192,107567,5,0,0:0:0:0:
256,192,107621,5,8,0:0:0:0:
256,192,107674,5,0,0:0:0:0:
256,192,107728,5,0,0:0:0:0:
256,192,107781,5,0,0:0:0:0:
256,192,107835,5,8,0:0:0:0:
256,192,107888,5,8,0:0:0:0:
256,192,107942,5,8,0:0:0:0:
256,192,107996,5,8,0:0:0:0:
256,192,108049,5,8,0:0:0:0:
256,192,108103,5,8,0:0:0:0:
256,192,108156,5,8,0:0:0:0:
256,192,108210,5,8,0:0:0:0:
256,192,108263,5,0,0:0:0:0:
256,192,108317,5,0,0:0:0:0:
256,192,108371,5,0,0:0:0:0:
256,192,108424,5,0,0:0:0:0:
256,192,108478,5,8,0:0:0:0:
256,192,108531,5,8,0:0:0:0:
256,192,108585,5,8,0:0:0:0:
256,192,108638,5,8,0:0:0:0:
256,192,108692,5,8,0:0:0:0:
256,192,108746,5,8,0:0:0:0:
256,192,108799,5,8,0:0:0:0:
256,192,108853,5,8,0:0:0:0:
256,192,108906,5,4,0:0:0:0:
256,192,109121,5,4,0:0:0:0:
256,192,109335,5,4,0:0:0:0:
256,192,109549,5,4,0:0:0:0:
256,192,109763,5,0,0:0:0:0:
256,192,109835,1,0,0:0:0:0:
256,192,109906,1,0,0:0:0:0:
256,192,109978,1,0,0:0:0:0:
256,192,110049,1,0,0:0:0:0:
256,192,110121,1,0,0:0:0:0:
256,192,110192,1,8,0:0:0:0:
256,192,110263,1,8,0:0:0:0:
256,192,110335,1,8,0:0:0:0:
256,192,110406,1,0,0:0:0:0:
256,192,110478,1,0,0:0:0:0:
256,192,110549,1,0,0:0:0:0:
256,192,110621,1,8,0:0:0:0:
256,192,110692,5,8,0:0:0:0:
256,192,110763,5,8,0:0:0:0:
256,192,110835,5,8,0:0:0:0:
256,192,110906,5,0,0:0:0:0:
256,192,110978,5,0,0:0:0:0:
256,192,111049,5,8,0:0:0:0:
256,192,111121,5,0,0:0:0:0:
256,192,111192,5,0,0:0:0:0:
256,192,111263,5,8,0:0:0:0:
256,192,111335,5,8,0:0:0:0:
256,192,111406,5,8,0:0:0:0:
256,192,111478,5,0,0:0:0:0:
256,192,111549,5,0,0:0:0:0:
256,192,111621,5,0,0:0:0:0:
256,192,111692,5,8,0:0:0:0:
256,192,111763,5,0,0:0:0:0:
256,192,111835,5,0,0:0:0:0:
256,192,111906,5,8,0:0:0:0:
256,192,111978,5,8,0:0:0:0:
256,192,112049,5,8,0:0:0:0:
256,192,112121,5,0,0:0:0:0:
256,192,112192,5,0,0:0:0:0:
256,192,112263,5,0,0:0:0:0:
256,192,112335,5,8,0:0:0:0:
256,192,112406,5,0,0:0:0:0:
256,192,112478,5,0,0:0:0:0:
256,192,112549,5,8,0:0:0:0:
256,192,112621,5,8,0:0:0:0:
256,192,112692,5,8,0:0:0:0:
256,192,112763,5,0,0:0:0:0:
256,192,112835,5,0,0:0:0:0:
256,192,112906,5,0,0:0:0:0:
256,192,112978,5,8,0:0:0:0:
256,192,113049,5,8,0:0:0:0:
256,192,113121,5,8,0:0:0:0:
256,192,113192,5,0,0:0:0:0:
256,192,113263,5,0,0:0:0:0:
256,192,113335,5,0,0:0:0:0:
256,192,113406,5,0,0:0:0:0:
256,192,113478,5,0,0:0:0:0:
256,192,113549,5,0,0:0:0:0:
256,192,113621,5,8,0:0:0:0:
256,192,113692,5,8,0:0:0:0:
256,192,113763,5,8,0:0:0:0:
256,192,113835,5,8,0:0:0:0:
256,192,113906,5,0,0:0:0:0:
256,192,113978,5,0,0:0:0:0:
256,192,114049,5,8,0:0:0:0:
256,192,114121,5,8,0:0:0:0:
256,192,114192,5,8,0:0:0:0:
256,192,114263,5,0,0:0:0:0:
256,192,114335,5,0,0:0:0:0:
256,192,114406,5,0,0:0:0:0:
256,192,114478,5,8,0:0:0:0:
256,192,114549,5,8,0:0:0:0:
256,192,114621,5,8,0:0:0:0:
256,192,114692,5,8,0:0:0:0:
256,192,114763,5,0,0:0:0:0:
256,192,114835,5,0,0:0:0:0:
256,192,114906,5,8,0:0:0:0:
256,192,114978,5,8,0:0:0:0:
256,192,115049,5,8,0:0:0:0:
256,192,115121,5,8,0:0:0:0:
256,192,115192,5,8,0:0:0:0:
256,192,115263,5,0,0:0:0:0:
256,192,115335,5,8,0:0:0:0:
256,192,115406,5,0,0:0:0:0:
256,192,115478,5,0,0:0:0:0:
256,192,115549,5,8,0:0:0:0:
256,192,115621,5,0,0:0:0:0:
256,192,115692,5,0,0:0:0:0:
256,192,115763,5,8,0:0:0:0:
256,192,115835,5,8,0:0:0:0:
256,192,115906,5,8,0:0:0:0:
256,192,115978,5,0,0:0:0:0:
256,192,116049,5,0,0:0:0:0:
256,192,116121,5,0,0:0:0:0:
256,192,116192,5,8,0:0:0:0:
256,192,116263,5,0,0:0:0:0:
256,192,116335,5,0,0:0:0:0:
256,192,116406,5,8,0:0:0:0:
256,192,116478,5,0,0:0:0:0:
256,192,116549,5,0,0:0:0:0:
256,192,116621,5,8,0:0:0:0:
256,192,116692,5,8,0:0:0:0:
256,192,116763,5,8,0:0:0:0:
256,192,116835,5,0,0:0:0:0:
256,192,116906,5,0,0:0:0:0:
256,192,116978,5,0,0:0:0:0:
256,192,117049,5,8,0:0:0:0:
256,192,117121,5,8,0:0:0:0:
256,192,117192,5,0,0:0:0:0:
256,192,117263,5,0,0:0:0:0:
256,192,117335,5,0,0:0:0:0:
256,192,117406,5,0,0:0:0:0:
256,192,117478,5,8,0:0:0:0:
256,192,117549,5,8,0:0:0:0:
256,192,117621,5,0,0:0:0:0:
256,192,117692,5,8,0:0:0:0:
256,192,117763,5,0,0:0:0:0:
256,192,117835,5,0,0:0:0:0:
256,192,117906,5,8,0:0:0:0:
256,192,117978,5,0,0:0:0:0:
256,192,118049,5,0,0:0:0:0:
256,192,118121,5,8,0:0:0:0:
256,192,118192,5,8,0:0:0:0:
256,192,118263,5,8,0:0:0:0:
256,192,118335,5,8,0:0:0:0:
256,192,118406,5,0,0:0:0:0:
256,192,118478,5,0,0:0:0:0:
256,192,118549,5,8,0:0:0:0:
256,192,118621,5,8,0:0:0:0:
256,192,118692,5,0,0:0:0:0:
256,192,118763,5,8,0:0:0:0:
256,192,118835,5,8,0:0:0:0:
256,192,118906,5,8,0:0:0:0:
256,192,118978,5,0,0:0:0:0:
256,192,119049,5,0,0:0:0:0:
256,192,119121,5,0,0:0:0:0:
256,192,119192,5,8,0:0:0:0:
256,192,119263,5,0,0:0:0:0:
256,192,119335,5,0,0:0:0:0:
256,192,119406,5,8,0:0:0:0:
256,192,119478,5,8,0:0:0:0:
256,192,119549,5,8,0:0:0:0:
256,192,119621,5,0,0:0:0:0:
256,192,119692,5,0,0:0:0:0:
256,192,119763,5,0,0:0:0:0:
256,192,119835,5,8,0:0:0:0:
256,192,119906,5,8,0:0:0:0:
256,192,119978,5,8,0:0:0:0:
256,192,120049,5,0,0:0:0:0:
256,192,120121,5,8,0:0:0:0:
256,192,120192,5,8,0:0:0:0:
256,192,120263,5,0,0:0:0:0:
256,192,120335,5,8,0:0:0:0:
256,192,120406,5,8,0:0:0:0:
256,192,120478,5,0,0:0:0:0:
256,192,120549,5,0,0:0:0:0:
256,192,120621,5,0,0:0:0:0:
256,192,120692,5,8,0:0:0:0:
256,192,120763,5,8,0:0:0:0:
256,192,120835,5,8,0:0:0:0:
256,192,120906,5,0,0:0:0:0:
256,192,120978,5,0,0:0:0:0:
256,192,121049,5,0,0:0:0:0:
256,192,121121,5,0,0:0:0:0:
256,192,121192,5,0,0:0:0:0:
256,192,121263,5,0,0:0:0:0:
256,192,121335,5,8,0:0:0:0:
256,192,121406,5,0,0:0:0:0:
256,192,121478,5,0,0:0:0:0:
256,192,121549,5,8,0:0:0:0:
256,192,121621,5,0,0:0:0:0:
256,192,121692,5,0,0:0:0:0:
256,192,121763,5,8,0:0:0:0:
256,192,121835,5,8,0:0:0:0:
256,192,121906,5,8,0:0:0:0:
256,192,121978,5,8,0:0:0:0:
256,192,122049,5,0,0:0:0:0:
256,192,122121,5,0,0:0:0:0:
256,192,122192,5,8,0:0:0:0:
256,192,122263,5,8,0:0:0:0:
256,192,122335,5,8,0:0:0:0:
256,192,122406,5,8,0:0:0:0:
256,192,122478,5,0,0:0:0:0:
256,192,122549,5,0,0:0:0:0:
256,192,122621,5,8,0:0:0:0:
256,192,122692,5,0,0:0:0:0:
256,192,122763,5,0,0:0:0:0:
256,192,122835,5,8,0:0:0:0:
256,192,122906,5,8,0:0:0:0:
256,192,122978,5,0,0:0:0:0:
256,192,123049,5,8,0:0:0:0:
256,192,123121,5,8,0:0:0:0:
256,192,123192,5,8,0:0:0:0:
256,192,123263,5,8,0:0:0:0:
256,192,123335,5,0,0:0:0:0:
256,192,123406,5,0,0:0:0:0:
256,192,123478,5,8,0:0:0:0:
256,192,123549,5,8,0:0:0:0:
256,192,123621,5,0,0:0:0:0:
256,192,123692,5,8,0:0:0:0:
256,192,123763,5,8,0:0:0:0:
256,192,123835,5,0,0:0:0:0:
256,192,123906,5,8,0:0:0:0:
256,192,123978,5,8,0:0:0:0:
256,192,124049,5,8,0:0:0:0:
256,192,124121,5,0,0:0:0:0:
256,192,124192,5,0,0:0:0:0:
256,192,124263,5,0,0:0:0:0:
256,192,124335,5,12,0:0:0:0:
256,192,127763,5,12,0:0:0:0:
256,192,127871,5,8,0:0:0:0:
256,192,127924,5,8,0:0:0:0:
256,192,127978,5,0,0:0:0:0:
256,192,128031,5,8,0:0:0:0:
256,192,128085,5,0,0:0:0:0:
256,192,128138,5,0,0:0:0:0:
256,192,128192,5,8,0:0:0:0:
256,192,128246,5,8,0:0:0:0:
256,192,128299,5,0,0:0:0:0:
256,192,128353,5,0,0:0:0:0:
256,192,128406,5,8,0:0:0:0:
256,192,128460,5,0,0:0:0:0:
256,192,128513,5,8,0:0:0:0:
256,192,128567,5,8,0:0:0:0:
256,192,128621,5,0,0:0:0:0:
256,192,128674,5,0,0:0:0:0:
256,192,128728,5,8,0:0:0:0:
256,192,128781,5,0,0:0:0:0:
256,192,128835,5,8,0:0:0:0:
256,192,128888,5,8,0:0:0:0:
256,192,128942,5,0,0:0:0:0:
256,192,128996,5,8,0:0:0:0:
256,192,129049,5,8,0:0:0:0:
256,192,129103,5,8,0:0:0:0:
256,192,129156,5,0,0:0:0:0:
256,192,129210,5,8,0:0:0:0:
256,192,129263,5,0,0:0:0:0:
256,192,129317,5,0,0:0:0:0:
256,192,129371,5,8,0:0:0:0:
256,192,129424,5,8,0:0:0:0:
256,192,129478,5,0,0:0:0:0:
256,192,129585,5,0,0:0:0:0:
256,192,129692,5,8,0:0:0:0:
256,192,129799,5,0,0:0:0:0:
256,192,129906,5,8,0:0:0:0:
256,192,129960,5,8,0:0:0:0:
256,192,130013,5,0,0:0:0:0:
256,192,130067,5,0,0:0:0:0:
256,192,130121,5,0,0:0:0:0:
256,192,130174,5,0,0:0:0:0:
256,192,130228,5,8,0:0:0:0:
256,192,130281,5,8,0:0:0:0:
256,192,130335,5,0,0:0:0:0:
256,192,130442,5,0,0:0:0:0:
256,192,130549,5,0,0:0:0:0:
256,192,130603,5,0,0:0:0:0:
256,192,130656,5,0,0:0:0:0:
256,192,130710,5,0,0:0:0:0:
256,192,130763,5,8,0:0:0:0:
256,192,130817,5,8,0:0:0:0:
256,192,130871,5,8,0:0:0:0:
256,192,130924,5,8,0:0:0:0:
256,192,130978,5,0,0:0:0:0:
256,192,131031,5,0,0:0:0:0:
256,192,131085,5,8,0:0:0:0:
256,192,131192,5,12,0:0:0:0:
256,192,131299,5,8,0:0:0:0:
256,192,131353,5,8,0:0:0:0:
256,192,131406,5,8,0:0:0:0:
256,192,131460,5,0,0:0:0:0:
256,192,131513,5,8,0:0:0:0:
256,192,131567,5,0,0:0:0:0:
256,192,131621,5,8,0:0:0:0:
256,192,131674,5,8,0:0:0:0:
256,192,131728,5,0,0:0:0:0:
256,192,131781,5,0,0:0:0:0:
256,192,131835,5,8,0:0:0:0:
256,192,131888,5,8,0:0:0:0:
256,192,131942,5,8,0:0:0:0:
256,192,131996,5,0,0:0:0:0:
256,192,132049,5,8,0:0:0:0:
256,192,132103,5,8,0:0:0:0:
256,192,132156,5,0,0:0:0:0:
256,192,132210,5,0,0:0:0:0:
256,192,132263,5,8,0:0:0:0:
256,192,132317,5,0,0:0:0:0:
256,192,132371,5,8,0:0:0:0:
256,192,132424,5,8,0:0:0:0:
256,192,132478,5,8,0:0:0:0:
256,192,132531,5,8,0:0:0:0:
256,192,132585,5,0,0:0:0:0:
256,192,132638,5,0,0:0:0:0:
256,192,132692,5,8,0:0:0:0:
256,192,132746,5,8,0:0:0:0:
256,192,132799,5,0,0:0:0:0:
256,192,132853,5,0,0:0:0:0:
256,192,132906,5,8,0:0:0:0:
256,192,132960,5,8,0:0:0:0:
256,192,133013,5,8,0:0:0:0:
256,192,133067,5,0,0:0:0:0:
256,192,133121,5,8,0:0:0:0:
256,192,133174,5,8,0:0:0:0:
256,192,133228,5,0,0:0:0:0:
256,192,133281,5,0,0:0:0:0:
256,192,133335,5,8,0:0:0:0:
256,192,133388,5,8,0:0:0:0:
256,192,133442,5,0,0:0:0:0:
256,192,133496,5,0,0:0:0:0:
256,192,133549,5,8,0:0:0:0:
256,192,133603,5,8,0:0:0:0:
256,192,133656,5,8,0:0:0:0:
256,192,133710,5,0,0:0:0:0:
256,192,133763,5,8,0:0:0:0:
256,192,133817,5,8,0:0:0:0:
256,192,133871,5,8,0:0:0:0:
256,192,133924,5,8,0:0:0:0:
256,192,133978,5,0,0:0:0:0:
256,192,134031,5,0,0:0:0:0:
256,192,134085,5,0,0:0:0:0:
256,192,134138,5,0,0:0:0:0:
256,192,134192,5,8,0:0:0:0:
256,192,134246,5,0,0:0:0:0:
256,192,134299,5,8,0:0:0:0:
256,192,134353,5,8,0:0:0:0:
256,192,134406,5,8,0:0:0:0:
256,192,134460,5,8,0:0:0:0:
256,192,134513,5,0,0:0:0:0:
256,192,134621,5,0,0:0:0:0:
256,192,134674,5,0,0:0:0:0:
256,192,134728,5,0,0:0:0:0:
256,192,134781,5,0,0:0:0:0:
256,192,134835,5,8,0:0:0:0:
256,192,134888,5,8,0:0:0:0:
256,192,134942,5,0,0:0:0:0:
256,192,134996,5,0,0:0:0:0:
256,192,135049,5,8,0:0:0:0:
256,192,135103,5,0,0:0:0:0:
256,192,135156,5,0,0:0:0:0:
256,192,135210,5,0,0:0:0:0:
256,192,135263,5,8,0:0:0:0:
256,192,135317,5,8,0:0:0:0:
256,192,135371,5,8,0:0:0:0:
256,192,135424,5,0,0:0:0:0:
256,192,135478,5,8,0:0:0:0:
256,192,135531,5,8,0:0:0:0:
256,192,135585,5,8,0:0:0:0:
256,192,135638,5,8,0:0:0:0:
256,192,135692,5,0,0:0:0:0:
256,192,135746,5,0,0:0:0:0:
256,192,135799,5,0,0:0:0:0:
256,192,135853,5,0,0:0:0:0:
256,192,135906,5,8,0:0:0:0:
256,192,135960,5,8,0:0:0:0:
256,192,136013,5,0,0:0:0:0:
256,192,136067,5,0,0:0:0:0:
256,192,136121,5,0,0:0:0:0:
256,192,136174,5,0,0:0:0:0:
256,192,136228,5,0,0:0:0:0:
256,192,136281,5,0,0:0:0:0:
256,192,136335,5,8,0:0:0:0:
256,192,136388,5,0,0:0:0:0:
256,192,136442,5,8,0:0:0:0:
256,192,136496,5,0,0:0:0:0:
256,192,136549,5,8,0:0:0:0:
256,192,136603,5,0,0:0:0:0:
256,192,136656,5,8,0:0:0:0:
256,192,136710,5,0,0:0:0:0:
256,192,136763,5,8,0:0:0:0:
256,192,136817,5,8,0:0:0:0:
256,192,136871,5,0,0:0:0:0:
256,192,136924,5,0,0:0:0:0:
256,192,136978,5,8,0:0:0:0:
256,192,137031,5,8,0:0:0:0:
256,192,137085,5,0,0:0:0:0:
256,192,137138,5,0,0:0:0:0:
256,192,137192,5,8,0:0:0:0:
256,192,137406,5,0,0:0:0:0:
256,192,137460,5,0,0:0:0:0:
256,192,137513,5,0,0:0:0:0:
256,192,137567,5,0,0:0:0:0:
256,192,137621,5,8,0:0:0:0:
256,192,137728,5,8,0:0:0:0:
256,192,137835,5,0,0:0:0:0:
256,192,137942,5,0,0:0:0:0:
256,192,138049,5,12,0:0:0:0:
256,192,138156,5,0,0:0:0:0:
256,192,138210,5,0,0:0:0:0:
256,192,138263,5,0,0:0:0:0:
256,192,138371,5,0,0:0:0:0:
256,192,138478,5,8,0:0:0:0:
256,192,138531,5,0,0:0:0:0:
256,192,138585,5,8,0:0:0:0:
256,192,138638,5,8,0:0:0:0:
256,192,138692,5,0,0:0:0:0:
256,192,138799,5,0,0:0:0:0:
256,192,138906,5,8,0:0:0:0:
256,192,138960,5,8,0:0:0:0:
256,192,139013,5,0,0:0:0:0:
256,192,139067,5,0,0:0:0:0:
256,192,139121,5,0,0:0:0:0:
256,192,139228,5,0,0:0:0:0:
256,192,139335,5,8,0:0:0:0:
256,192,139388,5,8,0:0:0:0:
256,192,139442,5,0,0:0:0:0:
256,192,139496,5,0,0:0:0:0:
256,192,139549,5,8,0:0:0:0:
256,192,139603,5,0,0:0:0:0:
256,192,139656,5,8,0:0:0:0:
256,192,139710,5,8,0:0:0:0:
256,192,139763,5,8,0:0:0:0:
256,192,139871,5,0,0:0:0:0:
256,192,139978,5,8,0:0:0:0:
256,192,140085,5,8,0:0:0:0:
256,192,140192,5,0,0:0:0:0:
256,192,140246,5,0,0:0:0:0:
256,192,140299,5,8,0:0:0:0:
256,192,140353,5,0,0:0:0:0:
256,192,140406,5,8,0:0:0:0:
256,192,140460,5,8,0:0:0:0:
256,192,140513,5,0,0:0:0:0:
256,192,140567,5,0,0:0:0:0:
256,192,140621,5,8,0:0:0:0:
256,192,140728,5,8,0:0:0:0:
256,192,140835,5,0,0:0:0:0:
256,192,140888,5,0,0:0:0:0:
256,192,140942,5,0,0:0:0:0:
256,192,140996,5,0,0:0:0:0:
256,192,141049,5,8,0:0:0:0:
256,192,141103,5,0,0:0:0:0:
256,192,141156,5,0,0:0:0:0:
256,192,141210,5,0,0:0:0:0:
256,192,141263,5,8,0:0:0:0:
256,192,141317,5,0,0:0:0:0:
256,192,141371,5,8,0:0:0:0:
256,192,141478,5,4,0:0:0:0:
256,192,141585,5,8,0:0:0:0:
256,192,141638,5,8,0:0:0:0:
256,192,141692,5,8,0:0:0:0:
256,192,141799,5,8,0:0:0:0:
256,192,141906,5,0,0:0:0:0:
256,192,141960,5,0,0:0:0:0:
256,192,142013,5,8,0:0:0:0:
256,192,142067,5,8,0:0:0:0:
256,192,142121,5,0,0:0:0:0:
256,192,142174,5,8,0:0:0:0:
256,192,142228,5,0,0:0:0:0:
256,192,142281,5,0,0:0:0:0:
256,192,142335,5,8,0:0:0:0:
256,192,142442,5,0,0:0:0:0:
256,192,142549,5,8,0:0:0:0:
256,192,142656,5,8,0:0:0:0:
256,192,142763,5,0,0:0:0:0:
256,192,142817,5,8,0:0:0:0:
256,192,142871,5,0,0:0:0:0:
256,192,142924,5,0,0:0:0:0:
256,192,142978,5,8,0:0:0:0:
256,192,143031,5,0,0:0:0:0:
256,192,143085,5,8,0:0:0:0:
256,192,143138,5,8,0:0:0:0:
256,192,143192,5,0,0:0:0:0:
256,192,143246,5,0,0:0:0:0:
256,192,143299,5,8,0:0:0:0:
256,192,143353,5,8,0:0:0:0:
256,192,143406,5,0,0:0:0:0:
256,192,143460,5,0,0:0:0:0:
256,192,143513,5,0,0:0:0:0:
256,192,143567,5,0,0:0:0:0:
256,192,143621,5,8,0:0:0:0:
256,192,143674,5,0,0:0:0:0:
256,192,143728,5,0,0:0:0:0:
256,192,143781,5,0,0:0:0:0:
256,192,143835,5,8,0:0:0:0:
256,192,143888,5,8,0:0:0:0:
256,192,143942,5,0,0:0:0:0:
256,192,144049,5,8,0:0:0:0:
256,192,144103,5,8,0:0:0:0:
256,192,144156,5,8,0:0:0:0:
256,192,144210,5,8,0:0:0:0:
256,192,144263,5,0,0:0:0:0:
256,192,144317,5,0,0:0:0:0:
256,192,144371,5,8,0:0:0:0:
256,192,144424,5,0,0:0:0:0:
256,192,144478,5,8,0:0:0:0:
256,192,144531,5,8,0:0:0:0:
256,192,144585,5,8,0:0:0:0:
256,192,144638,5,0,0:0:0:0:
256,192,144692,5,8,0:0:0:0:
256,192,144746,5,0,0:0:0:0:
256,192,144799,5,8,0:0:0:0:
256,192,144906,5,12,0:0:0:0:
256,192,145013,5,0,0:0:0:0:
256,192,145067,5,8,0:0:0:0:
256,192,145121,5,0,0:0:0:0:
256,192,145228,5,0,0:0:0:0:
256,192,145335,5,8,0:0:0:0:
256,192,145388,5,0,0:0:0:0:
256,192,145442,5,8,0:0:0:0:
256,192,145496,5,8,0:0:0:0:
256,192,145549,5,0,0:0:0:0:
256,192,145656,5,0,0:0:0:0:
256,192,145763,5,8,0:0:0:0:
256,192,145817,5,8,0:0:0:0:
256,192,145871,5,8,0:0:0:0:
256,192,145924,5,8,0:0:0:0:
256,192,145978,5,0,0:0:0:0:
256,192,146085,5,0,0:0:0:0:
256,192,146192,5,8,0:0:0:0:
256,192,146246,5,8,0:0:0:0:
256,192,146299,5,0,0:0:0:0:
256,192,146353,5,0,0:0:0:0:
256,192,146406,5,8,0:0:0:0:
256,192,146460,5,0,0:0:0:0:
256,192,146513,5,8,0:0:0:0:
256,192,146621,5,8,0:0:0:0:
256,192,146728,5,0,0:0:0:0:
256,192,146781,5,0,0:0:0:0:
256,192,146835,5,8,0:0:0:0:
256,192,146888,5,0,0:0:0:0:
256,192,146942,5,8,0:0:0:0:
256,192,147049,5,0,0:0:0:0:
256,192,147103,5,0,0:0:0:0:
256,192,147156,5,8,0:0:0:0:
256,192,147210,5,0,0:0:0:0:
256,192,147263,5,8,0:0:0:0:
256,192,147317,5,8,0:0:0:0:
256,192,147371,5,8,0:0:0:0:
256,192,147424,5,0,0:0:0:0:
256,192,147478,5,8,0:0:0:0:
256,192,147585,5,8,0:0:0:0:
256,192,147692,5,0,0:0:0:0:
256,192,147746,5,0,0:0:0:0:
256,192,147799,5,8,0:0:0:0:
256,192,147853,5,0,0:0:0:0:
256,192,147906,5,0,0:0:0:0:
256,192,147960,5,8,0:0:0:0:
256,192,148013,5,0,0:0:0:0:
256,192,148067,5,0,0:0:0:0:
256,192,148121,5,8,0:0:0:0:
256,192,148174,5,0,0:0:0:0:
256,192,148228,5,8,0:0:0:0:
256,192,148335,5,4,0:0:0:0:
256,192,148442,5,8,0:0:0:0:
256,192,148496,5,8,0:0:0:0:
256,192,148549,5,0,0:0:0:0:
256,192,148656,5,0,0:0:0:0:
256,192,148763,5,8,0:0:0:0:
256,192,148817,5,8,0:0:0:0:
256,192,148871,5,0,0:0:0:0:
256,192,148924,5,8,0:0:0:0:
256,192,148978,5,0,0:0:0:0:
256,192,149031,5,0,0:0:0:0:
256,192,149085,5,8,0:0:0:0:
256,192,149138,5,0,0:0:0:0:
256,192,149192,5,8,0:0:0:0:
256,192,149299,5,0,0:0:0:0:
256,192,149353,5,0,0:0:0:0:
256,192,149406,5,8,0:0:0:0:
256,192,149513,5,8,0:0:0:0:
256,192,149621,5,0,0:0:0:0:
256,192,149674,5,8,0:0:0:0:
256,192,149728,5,8,0:0:0:0:
256,192,149781,5,0,0:0:0:0:
256,192,149835,5,8,0:0:0:0:
256,192,149888,5,0,0:0:0:0:
256,192,149942,5,8,0:0:0:0:
256,192,150049,5,12,0:0:0:0:
256,192,150156,5,8,0:0:0:0:
256,192,150210,5,0,0:0:0:0:
256,192,150263,5,8,0:0:0:0:
256,192,150317,5,8,0:0:0:0:
256,192,150371,5,0,0:0:0:0:
256,192,150424,5,0,0:0:0:0:
256,192,150478,5,8,0:0:0:0:
256,192,150531,5,8,0:0:0:0:
256,192,150585,5,8,0:0:0:0:
256,192,150638,5,0,0:0:0:0:
256,192,150692,5,8,0:0:0:0:
256,192,150746,5,8,0:0:0:0:
256,192,150799,5,0,0:0:0:0:
256,192,150853,5,0,0:0:0:0:
256,192,150906,5,8,0:0:0:0:
256,192,151013,5,0,0:0:0:0:
256,192,151067,5,0,0:0:0:0:
256,192,151121,5,8,0:0:0:0:
256,192,151174,5,0,0:0:0:0:
256,192,151228,5,8,0:0:0:0:
256,192,151281,5,0,0:0:0:0:
256,192,151335,5,8,0:0:0:0:
256,192,151442,5,0,0:0:0:0:
256,192,151549,5,8,0:0:0:0:
256,192,151656,5,8,0:0:0:0:
256,192,151763,5,4,0:0:0:0:
256,192,151871,5,0,0:0:0:0:
256,192,151978,5,8,0:0:0:0:
256,192,152031,5,8,0:0:0:0:
256,192,152085,5,8,0:0:0:0:
256,192,152192,5,8,0:0:0:0:
256,192,152299,5,0,0:0:0:0:
256,192,152406,5,8,0:0:0:0:
256,192,152513,5,0,0:0:0:0:
256,192,152567,5,0,0:0:0:0:
256,192,152621,5,8,0:0:0:0:
256,192,152674,5,8,0:0:0:0:
256,192,152728,5,8,0:0:0:0:
256,192,152835,5,0,0:0:0:0:
256,192,152942,5,0,0:0:0:0:
256,192,152996,5,0,0:0:0:0:
256,192,153049,5,8,0:0:0:0:
256,192,153103,5,8,0:0:0:0:
256,192,153156,5,0,0:0:0:0:
256,192,153263,5,8,0:0:0:0:
256,192,153371,5,0,0:0:0:0:
256,192,153478,5,8,0:0:0:0:
256,192,153531,5,8,0:0:0:0:
256,192,153585,5,0,0:0:0:0:
256,192,153692,5,8,0:0:0:0:
256,192,153746,5,0,0:0:0:0:
256,192,153799,5,0,0:0:0:0:
256,192,153906,5,0,0:0:0:0:
256,192,154013,5,0,0:0:0:0:
256,192,154067,5,0,0:0:0:0:
256,192,154121,5,8,0:0:0:0:
256,192,154174,5,0,0:0:0:0:
256,192,154228,5,0,0:0:0:0:
256,192,154335,5,8,0:0:0:0:
256,192,154549,5,0,0:0:0:0:
256,192,154763,5,0,0:0:0:0:
256,192,154978,5,8,0:0:0:0:
256,192,155031,5,8,0:0:0:0:
256,192,155085,5,0,0:0:0:0:
256,192,155138,5,0,0:0:0:0:
256,192,155192,5,8,0:0:0:0:
256,192,155299,5,0,0:0:0:0:
256,192,155406,5,8,0:0:0:0:
256,192,155460,5,0,0:0:0:0:
256,192,155513,5,0,0:0:0:0:
256,192,155567,5,0,0:0:0:0:
256,192,155621,5,8,0:0:0:0:
256,192,155674,5,8,0:0:0:0:
256,192,155728,5,0,0:0:0:0:
256,192,155835,5,0,0:0:0:0:
256,192,155942,5,0,0:0:0:0:
256,192,156049,5,8,0:0:0:0:
256,192,156103,5,8,0:0:0:0:
256,192,156156,5,8,0:0:0:0:
256,192,156263,5,8,0:0:0:0:
256,192,156371,5,0,0:0:0:0:
256,192,156478,5,8,0:0:0:0:
256,192,156531,5,8,0:0:0:0:
256,192,156585,5,0,0:0:0:0:
256,192,156692,5,8,0:0:0:0:
256,192,156799,5,0,0:0:0:0:
256,192,156906,5,8,0:0:0:0:
256,192,156960,5,8,0:0:0:0:
256,192,157013,5,8,0:0:0:0:
256,192,157067,5,8,0:0:0:0:
256,192,157121,5,0,0:0:0:0:
256,192,157174,5,0,0:0:0:0:
256,192,157228,5,0,0:0:0:0:
256,192,157281,5,0,0:0:0:0:
256,192,157335,5,8,0:0:0:0:
256,192,157388,5,0,0:0:0:0:
256,192,157442,5,0,0:0:0:0:
256,192,157496,5,0,0:0:0:0:
256,192,157549,5,8,0:0:0:0:
256,192,157656,5,0,0:0:0:0:
256,192,157710,5,0,0:0:0:0:
256,192,157763,5,8,0:0:0:0:
256,192,157871,5,0,0:0:0:0:
256,192,157924,5,0,0:0:0:0:
256,192,157978,5,8,0:0:0:0:
256,192,158031,5,8,0:0:0:0:
256,192,158085,5,0,0:0:0:0:
256,192,158138,5,0,0:0:0:0:
256,192,158192,5,8,0:0:0:0:
256,192,158299,5,0,0:0:0:0:
256,192,158353,5,8,0:0:0:0:
256,192,158406,5,8,0:0:0:0:
256,192,158460,5,8,0:0:0:0:
256,192,158513,5,0,0:0:0:0:
256,192,158621,5,12,0:0:0:0:
256,192,158728,5,0,0:0:0:0:
256,192,158781,5,0,0:0:0:0:
256,192,158835,5,8,0:0:0:0:
256,192,158942,5,0,0:0:0:0:
256,192,159049,5,8,0:0:0:0:
256,192,159103,5,8,0:0:0:0:
256,192,159156,5,0,0:0:0:0:
256,192,159210,5,0,0:0:0:0:
256,192,159263,5,8,0:0:0:0:
256,192,159317,5,0,0:0:0:0:
256,192,159371,5,8,0:0:0:0:
256,192,159424,5,8,0:0:0:0:
256,192,159478,5,0,0:0:0:0:
256,192,159585,5,0,0:0:0:0:
256,192,159692,5,8,0:0:0:0:
256,192,159746,5,8,0:0:0:0:
256,192,159799,5,8,0:0:0:0:
256,192,159853,5,0,0:0:0:0:
256,192,159906,5,8,0:0:0:0:
256,192,159960,5,8,0:0:0:0:
256,192,160013,5,0,0:0:0:0:
256,192,160067,5,0,0:0:0:0:
256,192,160121,5,8,0:0:0:0:
256,192,160228,5,0,0:0:0:0:
256,192,160335,5,8,0:0:0:0:
256,192,160388,5,0,0:0:0:0:
256,192,160442,5,8,0:0:0:0:
256,192,160496,5,8,0:0:0:0:
256,192,160549,5,0,0:0:0:0:
256,192,160603,5,0,0:0:0:0:
256,192,160656,5,8,0:0:0:0:
256,192,160710,5,8,0:0:0:0:
256,192,160763,5,8,0:0:0:0:
256,192,160817,5,0,0:0:0:0:
256,192,160871,5,0,0:0:0:0:
256,192,160924,5,0,0:0:0:0:
256,192,160978,5,8,0:0:0:0:
256,192,161085,5,0,0:0:0:0:
256,192,161192,5,8,0:0:0:0:
256,192,161246,5,0,0:0:0:0:
256,192,161299,5,0,0:0:0:0:
256,192,161353,5,0,0:0:0:0:
256,192,161406,5,8,0:0:0:0:
256,192,161460,5,8,0:0:0:0:
256,192,161513,5,0,0:0:0:0:
256,192,161567,5,0,0:0:0:0:
256,192,161621,5,8,0:0:0:0:
256,192,161674,5,8,0:0:0:0:
256,192,161728,5,8,0:0:0:0:
256,192,161781,5,0,0:0:0:0:
256,192,161835,5,8,0:0:0:0:
256,192,161888,5,8,0:0:0:0:
256,192,161942,5,0,0:0:0:0:
256,192,162049,5,8,0:0:0:0:
256,192,162103,5,8,0:0:0:0:
256,192,162156,5,8,0:0:0:0:
256,192,162210,5,8,0:0:0:0:
256,192,162263,5,8,0:0:0:0:
256,192,162317,5,8,0:0:0:0:
256,192,162371,5,0,0:0:0:0:
256,192,162424,5,0,0:0:0:0:
256,192,162478,5,8,0:0:0:0:
256,192,162531,5,0,0:0:0:0:
256,192,162585,5,0,0:0:0:0:
256,192,162638,5,0,0:0:0:0:
256,192,162692,5,8,0:0:0:0:
256,192,162746,5,8,0:0:0:0:
256,192,162799,5,8,0:0:0:0:
256,192,162853,5,8,0:0:0:0:
256,192,162906,5,8,0:0:0:0:
256,192,162960,5,8,0:0:0:0:
256,192,163013,5,8,0:0:0:0:
256,192,163067,5,8,0:0:0:0:
256,192,163121,5,0,0:0:0:0:
256,192,163174,5,0,0:0:0:0:
256,192,163228,5,0,0:0:0:0:
256,192,163281,5,0,0:0:0:0:
256,192,163335,5,8,0:0:0:0:
256,192,163388,5,8,0:0:0:0:
256,192,163442,5,8,0:0:0:0:
256,192,163496,5,8,0:0:0:0:
256,192,163549,5,8,0:0:0:0:
256,192,163603,5,8,0:0:0:0:
256,192,163656,5,8,0:0:0:0:
256,192,163710,5,8,0:0:0:0:
256,192,163763,5,4,0:0:0:0:
256,192,163978,5,4,0:0:0:0:
256,192,164192,1,4,0:0:0:0:
256,192,164406,1,4,0:0:0:0:
256,192,164621,1,0,0:0:0:0:
256,192,164692,1,0,0:0:0:0:
256,192,164763,1,0,0:0:0:0:
256,192,164835,1,0,0:0:0:0:
256,192,164906,1,0,0:0:0:0:
256,192,164978,1,0,0:0:0:0:
256,192,165049,1,12,0:0:0:0:
256,192,165478,5,4,0:0:0:0:
256,192,165939,5,0,0:0:0:0:
256,192,166401,5,8,0:0:0:0:
256,192,166862,5,0,0:0:0:0:
256,192,167093,5,0,0:0:0:0:
256,192,167324,5,8,0:0:0:0:
256,192,167785,5,0,0:0:0:0:
256,192,168247,5,8,0:0:0:0:
256,192,168304,5,8,0:0:0:0:
256,192,168362,5,0,0:0:0:0:
256,192,168420,5,0,0:0:0:0:
256,192,168478,5,0,0:0:0:0:
256,192,168535,5,0,0:0:0:0:
256,192,168593,5,0,0:0:0:0:
256,192,168651,5,0,0:0:0:0:
256,192,168708,5,8,0:0:0:0:
256,192,168862,5,0,0:0:0:0:
256,192,169016,5,0,0:0:0:0:
256,192,169170,5,12,0:0:0:0:
256,192,169631,5,0,0:0:0:0:
256,192,170093,5,8,0:0:0:0:
256,192,170324,5,8,0:0:0:0:
256,192,170554,5,0,0:0:0:0:
256,192,171016,5,12,0:0:0:0:
256,192,171478,5,8,0:0:0:0:
256,192,171708,5,0,0:0:0:0:
256,192,171939,5,8,0:0:0:0:
256,192,172401,5,0,0:0:0:0:
256,192,172631,5,0,0:0:0:0:
256,192,172862,5,8,0:0:0:0:
256,192,173324,5,0,0:0:0:0:
256,192,173785,5,8,0:0:0:0:
256,192,174247,5,0,0:0:0:0:
256,192,174708,5,12,0:0:0:0:
256,192,175170,5,0,0:0:0:0:
256,192,175631,5,0,0:0:0:0:
256,192,176554,5,12,0:0:0:0:
256,192,176862,5,0,0:0:0:0:
256,192,177170,5,0,0:0:0:0:
256,192,177478,5,12,0:0:0:0:
256,192,177785,5,0,0:0:0:0:
256,192,178093,5,0,0:0:0:0:
256,192,178386,5,12,0:0:0:0:
256,192,178616,5,0,0:0:0:0:
256,192,178847,5,0,0:0:0:0:
256,192,179078,5,12,0:0:0:0:
256,192,179309,5,0,0:0:0:0:
256,192,179539,5,0,0:0:0:0:
256,192,179770,5,12,0:0:0:0:
256,192,180247,5,4,0:0:0:0:
256,192,180708,5,0,0:0:0:0:
256,192,181170,5,8,0:0:0:0:
256,192,181631,5,0,0:0:0:0:
256,192,181862,5,0,0:0:0:0:
256,192,182093,5,8,0:0:0:0:
256,192,182554,5,0,0:0:0:0:
256,192,183016,5,8,0:0:0:0:
256,192,183073,5,8,0:0:0:0:
256,192,183131,5,0,0:0:0:0:
256,192,183189,5,0,0:0:0:0:
256,192,183247,5,0,0:0:0:0:
256,192,183304,5,0,0:0:0:0:
256,192,183362,5,0,0:0:0:0:
256,192,183420,5,0,0:0:0:0:
256,192,183477,5,8,0:0:0:0:
256,192,183631,5,0,0:0:0:0:
256,192,183785,5,0,0:0:0:0:
256,192,183939,5,12,0:0:0:0:
256,192,184400,5,0,0:0:0:0:
256,192,184862,5,8,0:0:0:0:
256,192,185093,5,8,0:0:0:0:
256,192,185323,5,0,0:0:0:0:
256,192,185785,5,12,0:0:0:0:
256,192,186247,5,0,0:0:0:0:
256,192,186708,5,0,0:0:0:0:
256,192,187170,5,0,0:0:0:0:
256,192,187400,5,8,0:0:0:0:
256,192,187631,5,4,0:0:0:0:
256,192,188093,5,0,0:0:0:0:
256,192,188554,5,8,0:0:0:0:
256,192,189016,5,0,0:0:0:0:
256,192,189477,5,8,0:0:0:0:
256,192,189939,5,0,0:0:0:0:
256,192,190400,5,0,0:0:0:0:
256,192,191323,5,4,0:0:0:0:
256,192,191631,5,8,0:0:0:0:
256,192,191939,5,8,0:0:0:0:
256,192,192247,5,4,0:0:0:0:
256,192,192554,5,8,0:0:0:0:
256,192,192862,5,0,0:0:0:0:
256,192,193170,5,8,0:0:0:0:
256,192,193400,1,0,0:0:0:0:
256,192,193631,1,0,0:0:0:0:
256,192,193862,1,8,0:0:0:0:
256,192,194093,1,0,0:0:0:0:
256,192,194323,1,0,0:0:0:0:
256,192,194554,1,8,0:0:0:0:
256,192,194630,1,8,0:0:0:0:
256,192,194707,1,8,0:0:0:0:
256,192,194784,1,0,0:0:0:0:
256,192,194861,1,0,0:0:0:0:
256,192,194938,1,0,0:0:0:0:
256,192,195016,1,8,0:0:0:0:
256,192,195086,5,8,0:0:0:0:
256,192,195157,5,8,0:0:0:0:
256,192,195229,5,8,0:0:0:0:
256,192,195300,5,0,0:0:0:0:
256,192,195372,5,0,0:0:0:0:
256,192,195443,5,8,0:0:0:0:
256,192,195515,5,0,0:0:0:0:
256,192,195586,5,0,0:0:0:0:
256,192,195657,5,8,0:0:0:0:
256,192,195729,5,8,0:0:0:0:
256,192,195800,5,8,0:0:0:0:
256,192,195872,5,0,0:0:0:0:
256,192,195943,5,0,0:0:0:0:
256,192,196015,5,0,0:0:0:0:
256,192,196086,5,8,0:0:0:0:
256,192,196157,5,0,0:0:0:0:
256,192,196229,5,0,0:0:0:0:
256,192,196300,5,8,0:0:0:0:
256,192,196372,5,8,0:0:0:0:
256,192,196443,5,8,0:0:0:0:
256,192,196515,5,0,0:0:0:0:
256,192,196586,5,0,0:0:0:0:
256,192,196657,5,0,0:0:0:0:
256,192,196729,5,8,0:0:0:0:
256,192,196800,5,0,0:0:0:0:
256,192,196872,5,0,0:0:0:0:
256,192,196943,5,8,0:0:0:0:
256,192,197015,5,8,0:0:0:0:
256,192,197086,5,8,0:0:0:0:
256,192,197157,5,0,0:0:0:0:
256,192,197229,5,0,0:0:0:0:
256,192,197300,5,0,0:0:0:0:
256,192,197372,5,8,0:0:0:0:
256,192,197443,5,8,0:0:0:0:
256,192,197515,5,8,0:0:0:0:
256,192,197586,5,0,0:0:0:0:
256,192,197657,5,0,0:0:0:0:
256,192,197729,5,0,0:0:0:0:
256,192,197800,5,0,0:0:0:0:
256,192,197872,5,0,0:0:0:0:
256,192,197943,5,0,0:0:0:0:
256,192,198015,5,8,0:0:0:0:
256,192,198086,5,8,0:0:0:0:
256,192,198157,5,8,0:0:0:0:
256,192,198229,5,8,0:0:0:0:
256,192,198300,5,0,0:0:0:0:
256,192,198372,5,0,0:0:0:0:
256,192,198443,5,8,0:0:0:0:
256,192,198515,5,8,0:0:0:0:
256,192,198586,5,8,0:0:0:0:
256,192,198657,5,0,0:0:0:0:
256,192,198729,5,0,0:0:0:0:
256,192,198800,5,0,0:0:0:0:
256,192,198872,5,8,0:0:0:0:
256,192,198943,5,8,0:0:0:0:
256,192,199015,5,8,0:0:0:0:
256,192,199086,5,8,0:0:0:0:
256,192,199157,5,0,0:0:0:0:
256,192,199229,5,0,0:0:0:0:
256,192,199300,5,8,0:0:0:0:
256,192,199372,5,8,0:0:0:0:
256,192,199443,5,8,0:0:0:0:
256,192,199515,5,8,0:0:0:0:
256,192,199586,5,8,0:0:0:0:
256,192,199657,5,0,0:0:0:0:
256,192,199729,5,8,0:0:0:0:
256,192,199800,5,0,0:0:0:0:
256,192,199872,5,0,0:0:0:0:
256,192,199943,5,8,0:0:0:0:
256,192,200015,5,0,0:0:0:0:
256,192,200086,5,0,0:0:0:0:
256,192,200157,5,8,0:0:0:0:
256,192,200229,5,8,0:0:0:0:
256,192,200300,5,8,0:0:0:0:
256,192,200372,5,0,0:0:0:0:
256,192,200443,5,0,0:0:0:0:
256,192,200515,5,0,0:0:0:0:
256,192,200586,5,8,0:0:0:0:
256,192,200657,5,0,0:0:0:0:
256,192,200729,5,0,0:0:0:0:
256,192,200800,5,8,0:0:0:0:
256,192,200872,5,0,0:0:0:0:
256,192,200943,5,0,0:0:0:0:
256,192,201015,5,8,0:0:0:0:
256,192,201086,5,8,0:0:0:0:
256,192,201157,5,8,0:0:0:0:
256,192,201229,5,0,0:0:0:0:
256,192,201300,5,0,0:0:0:0:
256,192,201372,5,0,0:0:0:0:
256,192,201443,5,8,0:0:0:0:
256,192,201515,5,8,0:0:0:0:
256,192,201586,5,0,0:0:0:0:
256,192,201657,5,0,0:0:0:0:
256,192,201729,5,0,0:0:0:0:
256,192,201800,5,0,0:0:0:0:
256,192,201872,5,8,0:0:0:0:
256,192,201943,5,8,0:0:0:0:
256,192,202015,5,0,0:0:0:0:
256,192,202086,5,8,0:0:0:0:
256,192,202157,5,0,0:0:0:0:
256,192,202229,5,0,0:0:0:0:
256,192,202300,5,8,0:0:0:0:
256,192,202372,5,0,0:0:0:0:
256,192,202443,5,0,0:0:0:0:
256,192,202515,5,8,0:0:0:0:
256,192,202586,5,8,0:0:0:0:
256,192,202657,5,8,0:0:0:0:
256,192,202729,5,8,0:0:0:0:
256,192,202800,5,0,0:0:0:0:
256,192,202872,5,0,0:0:0:0:
256,192,202943,5,8,0:0:0:0:
256,192,203015,5,8,0:0:0:0:
256,192,203086,5,0,0:0:0:0:
256,192,203157,5,8,0:0:0:0:
256,192,203229,5,8,0:0:0:0:
256,192,203300,5,8,0:0:0:0:
256,192,203372,5,0,0:0:0:0:
256,192,203443,5,0,0:0:0:0:
256,192,203515,5,0,0:0:0:0:
256,192,203586,5,8,0:0:0:0:
256,192,203657,5,0,0:0:0:0:
256,192,203729,5,0,0:0:0:0:
256,192,203800,5,8,0:0:0:0:
256,192,203872,5,8,0:0:0:0:
256,192,203943,5,8,0:0:0:0:
256,192,204015,5,0,0:0:0:0:
256,192,204086,5,0,0:0:0:0:
256,192,204157,5,0,0:0:0:0:
256,192,204229,5,8,0:0:0:0:
256,192,204300,5,8,0:0:0:0:
256,192,204372,5,8,0:0:0:0:
256,192,204443,5,0,0:0:0:0:
256,192,204515,5,8,0:0:0:0:
256,192,204586,5,8,0:0:0:0:
256,192,204657,5,0,0:0:0:0:
256,192,204729,5,8,0:0:0:0:
256,192,204800,5,8,0:0:0:0:
256,192,204872,5,0,0:0:0:0:
256,192,204943,5,0,0:0:0:0:
256,192,205015,5,0,0:0:0:0:
256,192,205086,5,8,0:0:0:0:
256,192,205157,5,8,0:0:0:0:
256,192,205229,5,8,0:0:0:0:
256,192,205300,5,0,0:0:0:0:
256,192,205372,5,0,0:0:0:0:
256,192,205443,5,0,0:0:0:0:
256,192,205515,5,0,0:0:0:0:
256,192,205586,5,0,0:0:0:0:
256,192,205657,5,0,0:0:0:0:
256,192,205729,5,8,0:0:0:0:
256,192,205800,5,0,0:0:0:0:
256,192,205872,5,0,0:0:0:0:
256,192,205943,5,8,0:0:0:0:
256,192,206015,5,0,0:0:0:0:
256,192,206086,5,0,0:0:0:0:
256,192,206157,5,8,0:0:0:0:
256,192,206229,5,8,0:0:0:0:
256,192,206300,5,8,0:0:0:0:
256,192,206372,5,8,0:0:0:0:
256,192,206443,5,0,0:0:0:0:
256,192,206515,5,0,0:0:0:0:
256,192,206586,5,8,0:0:0:0:
256,192,206657,5,8,0:0:0:0:
256,192,206729,5,8,0:0:0:0:
256,192,206800,5,8,0:0:0:0:
256,192,206872,5,0,0:0:0:0:
256,192,206943,5,0,0:0:0:0:
256,192,207015,5,8,0:0:0:0:
256,192,207086,5,0,0:0:0:0:
256,192,207157,5,0,0:0:0:0:
256,192,207229,5,8,0:0:0:0:
256,192,207300,5,8,0:0:0:0:
256,192,207372,5,0,0:0:0:0:
256,192,207443,5,8,0:0:0:0:
256,192,207515,5,8,0:0:0:0:
256,192,207586,5,8,0:0:0:0:
256,192,207657,5,8,0:0:0:0:
256,192,207729,5,0,0:0:0:0:
256,192,207800,5,0,0:0:0:0:
256,192,207872,5,8,0:0:0:0:
256,192,207943,5,8,0:0:0:0:
256,192,208015,5,0,0:0:0:0:
256,192,208086,5,8,0:0:0:0:
256,192,208157,5,8,0:0:0:0:
256,192,208229,5,0,0:0:0:0:
256,192,208300,5,8,0:0:0:0:
256,192,208372,5,8,0:0:0:0:
256,192,208443,5,8,0:0:0:0:
256,192,208515,5,0,0:0:0:0:
256,192,208586,5,0,0:0:0:0:
256,192,208657,5,0,0:0:0:0:
256,192,208729,5,8,0:0:0:0:
256,192,208801,5,8,0:0:0:0:
256,192,208873,5,8,0:0:0:0:
256,192,208944,5,8,0:0:0:0:
256,192,209015,5,8,0:0:0:0:
256,192,209087,5,8,0:0:0:0:
256,192,209158,5,0,0:0:0:0:
256,192,209230,5,0,0:0:0:0:
256,192,209301,5,0,0:0:0:0:
256,192,209373,5,8,0:0:0:0:
256,192,209444,5,8,0:0:0:0:
256,192,209515,5,0,0:0:0:0:
256,192,209587,5,8,0:0:0:0:
256,192,209658,5,8,0:0:0:0:
256,192,209730,5,8,0:0:0:0:
256,192,209801,5,0,0:0:0:0:
256,192,209873,5,0,0:0:0:0:
256,192,209944,5,0,0:0:0:0:
256,192,210015,5,8,0:0:0:0:
256,192,210087,5,8,0:0:0:0:
256,192,210158,5,8,0:0:0:0:
256,192,210230,5,0,0:0:0:0:
256,192,210301,5,0,0:0:0:0:
256,192,210373,5,0,0:0:0:0:
256,192,210444,5,8,0:0:0:0:
256,192,210515,5,0,0:0:0:0:
256,192,210587,5,0,0:0:0:0:
256,192,210658,5,8,0:0:0:0:
256,192,210730,5,8,0:0:0:0:
256,192,210801,5,8,0:0:0:0:
256,192,210873,5,0,0:0:0:0:
256,192,210944,5,0,0:0:0:0:
256,192,211015,5,0,0:0:0:0:
256,192,211087,5,8,0:0:0:0:
256,192,211158,5,8,0:0:0:0:
256,192,211230,5,0,0:0:0:0:
256,192,211301,5,8,0:0:0:0:
256,192,211373,5,8,0:0:0:0:
256,192,211444,5,8,0:0:0:0:
256,192,211515,5,8,0:0:0:0:
256,192,211587,5,0,0:0:0:0:
256,192,211658,5,0,0:0:0:0:
256,192,211730,5,8,0:0:0:0:
256,192,211801,5,8,0:0:0:0:
256,192,211873,5,0,0:0:0:0:
256,192,211944,5,8,0:0:0:0:
256,192,212015,5,0,0:0:0:0:
256,192,212087,5,0,0:0:0:0:
256,192,212158,5,8,0:0:0:0:
256,192,212230,5,8,0:0:0:0:
256,192,212301,5,8,0:0:0:0:
256,192,212373,5,0,0:0:0:0:
256,192,212444,5,0,0:0:0:0:
256,192,212515,5,0,0:0:0:0:
256,192,212587,5,8,0:0:0:0:
256,192,213015,5,8,0:0:0:0:
256,192,213301,5,0,0:0:0:0:
256,192,213587,5,0,0:0:0:0:
256,192,213730,5,8,0:0:0:0:
256,192,213873,5,8,0:0:0:0:
256,192,214301,5,0,0:0:0:0:
256,192,214373,5,0,0:0:0:0:
256,192,214444,5,0,0:0:0:0:
256,192,214515,5,8,0:0:0:0:
256,192,214587,5,0,0:0:0:0:
256,192,214658,5,0,0:0:0:0:
256,192,214730,5,8,0:0:0:0:
256,192,214801,5,8,0:0:0:0:
256,192,214873,5,8,0:0:0:0:
256,192,214944,5,8,0:0:0:0:
256,192,215015,5,0,0:0:0:0:
256,192,215087,5,0,0:0:0:0:
256,192,215158,5,8,0:0:0:0:
256,192,215230,5,8,0:0:0:0:
256,192,215301,5,0,0:0:0:0:
256,192,215373,5,8,0:0:0:0:
256,192,215444,5,0,0:0:0:0:
256,192,215515,5,0,0:0:0:0:
256,192,215587,5,8,0:0:0:0:
256,192,215658,5,8,0:0:0:0:
256,192,215730,5,8,0:0:0:0:
256,192,215801,5,8,0:0:0:0:
256,192,215873,5,8,0:0:0:0:
256,192,215944,5,8,0:0:0:0:
256,192,216015,5,0,0:0:0:0:
256,192,216087,5,0,0:0:0:0:
256,192,216158,5,0,0:0:0:0:
256,192,216230,5,8,0:0:0:0:
256,192,216301,5,0,0:0:0:0:
256,192,216373,5,0,0:0:0:0:
256,192,216444,5,8,0:0:0:0:
256,192,216515,5,0,0:0:0:0:
256,192,216587,5,0,0:0:0:0:
256,192,216658,5,0,0:0:0:0:
256,192,216730,5,0,0:0:0:0:
256,192,216801,5,0,0:0:0:0:
256,192,216873,5,8,0:0:0:0:
256,192,216944,5,8,0:0:0:0:
256,192,217015,5,8,0:0:0:0:
256,192,217087,5,0,0:0:0:0:
256,192,217158,5,0,0:0:0:0:
256,192,217230,5,0,0:0:0:0:
256,192,217301,5,8,0:0:0:0:
256,192,217373,5,0,0:0:0:0:
256,192,217444,5,0,0:0:0:0:
256,192,217515,5,8,0:0:0:0:
256,192,217587,5,8,0:0:0:0:
256,192,217658,5,0,0:0:0:0:
256,192,217730,5,0,0:0:0:0:
256,192,217801,5,0,0:0:0:0:
256,192,217873,5,0,0:0:0:0:
256,192,217944,5,8,0:0:0:0:
256,192,218015,5,0,0:0:0:0:
256,192,218087,5,0,0:0:0:0:
256,192,218158,5,8,0:0:0:0:
256,192,218230,5,8,0:0:0:0:
256,192,218301,5,8,0:0:0:0:
256,192,218373,5,8,0:0:0:0:
256,192,218444,5,0,0:0:0:0:
256,192,218515,5,0,0:0:0:0:
256,192,218587,5,8,0:0:0:0:
256,192,218658,5,0,0:0:0:0:
256,192,218730,5,8,0:0:0:0:
256,192,218801,5,8,0:0:0:0:
256,192,218873,5,0,0:0:0:0:
256,192,218944,5,0,0:0:0:0:
256,192,219015,5,8,0:0:0:0:
256,192,219158,5,0,0:0:0:0:
256,192,219301,5,0,0:0:0:0:
256,192,219444,5,8,0:0:0:0:
256,192,219658,5,0,0:0:0:0:
256,192,219873,5,8,0:0:0:0:
256,192,220730,5,8,0:0:0:0:
256,192,220944,5,0,0:0:0:0:
256,192,221158,5,8,0:0:0:0:
256,192,221230,5,0,0:0:0:0:
256,192,221301,5,0,0:0:0:0:
256,192,221373,5,8,0:0:0:0:
256,192,221444,5,0,0:0:0:0:
256,192,221515,5,0,0:0:0:0:
256,192,221587,5,8,0:0:0:0:
256,192,221658,5,8,0:0:0:0:
256,192,221730,5,8,0:0:0:0:
256,192,221801,5,8,0:0:0:0:
256,192,221873,5,0,0:0:0:0:
256,192,221944,5,0,0:0:0:0:
256,192,222015,5,8,0:0:0:0:
256,192,222087,5,8,0:0:0:0:
256,192,222158,5,8,0:0:0:0:
256,192,222230,5,8,0:0:0:0:
256,192,222301,5,0,0:0:0:0:
256,192,222445,5,8,0:0:0:0:
256,192,222516,5,8,0:0:0:0:
256,192,222587,5,0,0:0:0:0:
256,192,222659,5,8,0:0:0:0:
256,192,222730,5,0,0:0:0:0:
256,192,222802,5,0,0:0:0:0:
256,192,222873,5,8,0:0:0:0:
256,192,222945,5,8,0:0:0:0:
256,192,223016,5,0,0:0:0:0:
256,192,223087,5,8,0:0:0:0:
256,192,223159,5,0,0:0:0:0:
256,192,223230,5,8,0:0:0:0:
256,192,223302,5,8,0:0:0:0:
256,192,223373,5,8,0:0:0:0:
256,192,223445,5,8,0:0:0:0:
256,192,223516,5,0,0:0:0:0:
256,192,223587,5,8,0:0:0:0:
256,192,223659,5,8,0:0:0:0:
256,192,223730,5,0,0:0:0:0:
256,192,223802,5,8,0:0:0:0:
256,192,223873,5,8,0:0:0:0:
256,192,223945,5,0,0:0:0:0:
256,192,224016,5,0,0:0:0:0:
256,192,224087,5,8,0:0:0:0:
256,192,224159,5,0,0:0:0:0:
256,192,224230,5,0,0:0:0:0:
256,192,224302,5,8,0:0:0:0:
256,192,224373,5,8,0:0:0:0:
256,192,224445,5,0,0:0:0:0:
256,192,224516,5,8,0:0:0:0:
256,192,224587,5,0,0:0:0:0:
256,192,224659,5,0,0:0:0:0:
256,192,224730,5,8,0:0:0:0:
256,192,224802,5,0,0:0:0:0:
256,192,224873,5,8,0:0:0:0:
256,192,224945,5,8,0:0:0:0:
256,192,225016,5,0,0:0:0:0:
256,192,225087,5,0,0:0:0:0:
256,192,225159,5,8,0:0:0:0:
256,192,225230,5,8,0:0:0:0:
256,192,225302,5,8,0:0:0:0:
256,192,225373,5,0,0:0:0:0:
256,192,225445,5,8,0:0:0:0:
256,192,225516,5,8,0:0:0:0:
256,192,225587,5,0,0:0:0:0:
256,192,225659,5,0,0:0:0:0:
256,192,225730,5,8,0:0:0:0:
256,192,225873,5,8,0:0:0:0:
256,192,225945,5,8,0:0:0:0:
256,192,226016,5,8,0:0:0:0:
256,192,226087,5,0,0:0:0:0:
256,192,226159,5,8,0:0:0:0:
256,192,226230,5,8,0:0:0:0:
256,192,226302,5,8,0:0:0:0:
256,192,226373,5,0,0:0:0:0:
256,192,226445,5,8,0:0:0:0:
256,192,226516,5,0,0:0:0:0:
256,192,226587,5,8,0:0:0:0:
256,192,226659,5,0,0:0:0:0:
256,192,226730,5,8,0:0:0:0:
256,192,226802,5,0,0:0:0:0:
256,192,226873,5,0,0:0:0:0:
256,192,226945,5,0,0:0:0:0:
256,192,227016,5,0,0:0:0:0:
256,192,227087,5,0,0:0:0:0:
256,192,227159,5,8,0:0:0:0:
256,192,227230,5,8,0:0:0:0:
256,192,227302,5,0,0:0:0:0:
256,192,227373,5,0,0:0:0:0:
256,192,227445,5,8,0:0:0:0:
256,192,227516,5,0,0:0:0:0:
256,192,227587,5,8,0:0:0:0:
256,192,227659,5,8,0:0:0:0:
256,192,227730,5,0,0:0:0:0:
256,192,227802,5,0,0:0:0:0:
256,192,227873,5,8,0:0:0:0:
256,192,227945,5,0,0:0:0:0:
256,192,228016,5,8,0:0:0:0:
256,192,228087,5,0,0:0:0:0:
256,192,228159,5,8,0:0:0:0:
256,192,228230,5,8,0:0:0:0:
256,192,228302,5,8,0:0:0:0:
256,192,228373,5,0,0:0:0:0:
256,192,228445,5,8,0:0:0:0:
256,192,228516,5,8,0:0:0:0:
256,192,228587,5,0,0:0:0:0:
256,192,228659,5,0,0:0:0:0:
256,192,228730,5,8,0:0:0:0:
256,192,228802,5,0,0:0:0:0:
256,192,228873,5,0,0:0:0:0:
256,192,228945,5,8,0:0:0:0:
256,192,229016,5,8,0:0:0:0:
256,192,229087,5,0,0:0:0:0:
256,192,229159,5,8,0:0:0:0:
256,192,229302,5,0,0:0:0:0:
256,192,229373,5,0,0:0:0:0:
256,192,229445,5,0,0:0:0:0:
256,192,229516,5,8,0:0:0:0:
256,192,229587,5,0,0:0:0:0:
256,192,229659,5,0,0:0:0:0:
256,192,229730,5,8,0:0:0:0:
256,192,229802,5,8,0:0:0:0:
256,192,229873,5,0,0:0:0:0:
256,192,229945,5,8,0:0:0:0:
256,192,230016,5,8,0:0:0:0:
256,192,230087,5,0,0:0:0:0:
256,192,230159,5,8,0:0:0:0:
256,192,230230,5,8,0:0:0:0:
256,192,230302,5,0,0:0:0:0:
256,192,230373,5,8,0:0:0:0:
256,192,230445,5,8,0:0:0:0:
256,192,230516,5,8,0:0:0:0:
256,192,230587,5,0,0:0:0:0:
256,192,230659,5,0,0:0:0:0:
256,192,230730,5,0,0:0:0:0:
256,192,230802,5,8,0:0:0:0:
256,192,230873,5,8,0:0:0:0:
256,192,230945,5,8,0:0:0:0:
256,192,231016,5,0,0:0:0:0:
256,192,231087,5,8,0:0:0:0:
256,192,231159,5,0,0:0:0:0:
256,192,231230,5,0,0:0:0:0:
256,192,231302,5,8,0:0:0:0:
256,192,231373,5,8,0:0:0:0:
256,192,231445,5,0,0:0:0:0:
256,192,231516,5,0,0:0:0:0:
256,192,231587,5,0,0:0:0:0:
256,192,231659,5,8,0:0:0:0:
256,192,231730,5,0,0:0:0:0:
256,192,231802,5,0,0:0:0:0:
256,192,231873,5,8,0:0:0:0:
256,192,231945,5,8,0:0:0:0:
256,192,232016,5,0,0:0:0:0:
256,192,232087,5,8,0:0:0:0:
256,192,232159,5,8,0:0:0:0:
256,192,232230,5,8,0:0:0:0:
256,192,232302,5,0,0:0:0:0:
256,192,232373,5,8,0:0:0:0:
256,192,232445,5,8,0:0:0:0:
256,192,232516,5,0,0:0:0:0:
256,192,232587,5,8,0:0:0:0:
256,192,232659,5,8,0:0:0:0:
256,192,232730,5,0,0:0:0:0:
256,192,232873,5,0,0:0:0:0:
256,192,233016,5,0,0:0:0:0:
256,192,233159,5,8,0:0:0:0:
256,192,233587,5,8,0:0:0:0:
256,192,234016,5,0,0:0:0:0:
256,192,234302,5,0,0:0:0:0:
256,192,234444,5,0,0:0:0:0:
256,192,234873,5,0,0:0:0:0:
256,192,234944,5,0,0:0:0:0:
256,192,235016,5,0,0:0:0:0:
256,192,235087,5,0,0:0:0:0:
256,192,235159,5,0,0:0:0:0:
256,192,235230,5,0,0:0:0:0:
256,192,235302,5,8,0:0:0:0:
256,192,235373,5,8,0:0:0:0:
256,192,235444,5,8,0:0:0:0:
256,192,235516,5,8,0:0:0:0:
256,192,235587,5,8,0:0:0:0:
256,192,235659,5,8,0:0:0:0:
256,192,235730,5,0,0:0:0:0:
256,192,235802,5,0,0:0:0:0:
256,192,235873,5,0,0:0:0:0:
256,192,235944,5,8,0:0:0:0:
256,192,236016,5,8,0:0:0:0:
256,192,236087,5,8,0:0:0:0:
256,192,236159,5,0,0:0:0:0:
256,192,236230,5,8,0:0:0:0:
256,192,236302,5,8,0:0:0:0:
256,192,236373,5,0,0:0:0:0:
256,192,236444,5,8,0:0:0:0:
256,192,236516,5,8,0:0:0:0:
256,192,236587,5,8,0:0:0:0:
256,192,236659,5,0,0:0:0:0:
256,192,236730,5,0,0:0:0:0:
256,192,236802,5,8,0:0:0:0:
256,192,236873,5,0,0:0:0:0:
256,192,236944,5,0,0:0:0:0:
256,192,237016,5,8,0:0:0:0:
256,192,237087,5,0,0:0:0:0:
256,192,237159,5,0,0:0:0:0:
256,192,237230,5,8,0:0:0:0:
256,192,237302,5,8,0:0:0:0:
256,192,237373,5,8,0:0:0:0:
256,192,237444,5,0,0:0:0:0:
256,192,237516,5,0,0:0:0:0:
256,192,237587,5,0,0:0:0:0:
256,192,237659,5,8,0:0:0:0:
256,192,237730,5,0,0:0:0:0:
256,192,237802,5,0,0:0:0:0:
256,192,237873,5,8,0:0:0:0:
256,192,237944,5,0,0:0:0:0:
256,192,238016,5,8,0:0:0:0:
256,192,238087,5,0,0:0:0:0:
256,192,238159,5,8,0:0:0:0:
256,192,238230,5,8,0:0:0:0:
256,192,238302,5,0,0:0:0:0:
256,192,238373,5,0,0:0:0:0:
256,192,238444,5,8,0:0:0:0:
256,192,238516,5,0,0:0:0:0:
256,192,238587,5,8,0:0:0:0:
256,192,238659,5,8,0:0:0:0:
256,192,238730,5,8,0:0:0:0:
256,192,238802,5,0,0:0:0:0:
256,192,238873,5,0,0:0:0:0:
256,192,238944,5,0,0:0:0:0:
256,192,239016,5,8,0:0:0:0:
256,192,239087,5,0,0:0:0:0:
256,192,239159,5,8,0:0:0:0:
256,192,239230,5,8,0:0:0:0:
256,192,239302,5,0,0:0:0:0:
256,192,239373,5,8,0:0:0:0:
256,192,239444,5,8,0:0:0:0:
256,192,239516,5,0,0:0:0:0:
256,192,239587,5,8,0:0:0:0:
256,192,239659,5,0,0:0:0:0:
256,192,239730,5,8,0:0:0:0:
256,192,239802,5,8,0:0:0:0:
256,192,239873,5,0,0:0:0:0:
256,192,239944,5,0,0:0:0:0:
256,192,240016,5,8,0:0:0:0:
256,192,240087,5,8,0:0:0:0:
256,192,240159,5,0,0:0:0:0:
256,192,240230,5,8,0:0:0:0:
256,192,240302,5,0,0:0:0:0:
256,192,240373,5,0,0:0:0:0:
256,192,240444,5,8,0:0:0:0:
256,192,240516,5,0,0:0:0:0:
256,192,240587,5,8,0:0:0:0:
256,192,240659,5,8,0:0:0:0:
256,192,240730,5,0,0:0:0:0:
256,192,240802,5,0,0:0:0:0:
256,192,240873,5,8,0:0:0:0:
256,192,240944,5,8,0:0:0:0:
256,192,241016,5,0,0:0:0:0:
256,192,241087,5,8,0:0:0:0:
256,192,241159,5,0,0:0:0:0:
256,192,241230,5,0,0:0:0:0:
256,192,241302,5,8,0:0:0:0:
256,192,241373,5,8,0:0:0:0:
256,192,241444,5,8,0:0:0:0:
256,192,241516,5,0,0:0:0:0:
256,192,241587,5,0,0:0:0:0:
256,192,241659,5,0,0:0:0:0:
256,192,241730,5,8,0:0:0:0:
256,192,241802,5,8,0:0:0:0:
256,192,241873,5,0,0:0:0:0:
256,192,241944,5,8,0:0:0:0:
256,192,242016,5,8,0:0:0:0:
256,192,242087,5,0,0:0:0:0:
256,192,242159,5,8,0:0:0:0:
256,192,242230,5,0,0:0:0:0:
256,192,242302,5,0,0:0:0:0:
256,192,242373,5,8,0:0:0:0:
256,192,242444,5,0,0:0:0:0:
256,192,242516,5,0,0:0:0:0:
256,192,242587,5,8,0:0:0:0:
256,192,242659,5,8,0:0:0:0:
256,192,242730,5,8,0:0:0:0:
256,192,242802,5,8,0:0:0:0:
256,192,242873,5,0,0:0:0:0:
256,192,243016,5,8,0:0:0:0:
256,192,243087,5,0,0:0:0:0:
256,192,243159,5,0,0:0:0:0:
256,192,243230,5,8,0:0:0:0:
256,192,243302,5,0,0:0:0:0:
256,192,243373,5,8,0:0:0:0:
256,192,243444,5,0,0:0:0:0:
256,192,243516,5,0,0:0:0:0:
256,192,243587,5,0,0:0:0:0:
256,192,243659,5,8,0:0:0:0:
256,192,243730,5,0,0:0:0:0:
256,192,243802,5,8,0:0:0:0:
256,192,243873,5,8,0:0:0:0:
256,192,243944,5,0,0:0:0:0:
256,192,244016,5,0,0:0:0:0:
256,192,244087,5,8,0:0:0:0:
256,192,244159,5,8,0:0:0:0:
256,192,244230,5,0,0:0:0:0:
256,192,244302,5,8,0:0:0:0:
256,192,244373,5,8,0:0:0:0:
256,192,244444,5,0,0:0:0:0:
256,192,244516,5,8,0:0:0:0:
256,192,244587,5,8,0:0:0:0:
256,192,244659,5,8,0:0:0:0:
256,192,244730,5,0,0:0:0:0:
256,192,244802,5,0,0:0:0:0:
256,192,244873,5,0,0:0:0:0:
256,192,244944,5,8,0:0:0:0:
256,192,245016,5,8,0:0:0:0:
256,192,245087,5,8,0:0:0:0:
256,192,245159,5,0,0:0:0:0:
256,192,245230,5,8,0:0:0:0:
256,192,245302,5,0,0:0:0:0:
256,192,245373,5,0,0:0:0:0:
256,192,245444,5,8,0:0:0:0:
256,192,245516,5,0,0:0:0:0:
256,192,245587,5,8,0:0:0:0:
256,192,245659,5,8,0:0:0:0:
256,192,245730,5,0,0:0:0:0:
256,192,245802,5,8,0:0:0:0:
256,192,245873,5,8,0:0:0:0:
256,192,245944,5,0,0:0:0:0:
256,192,246016,5,8,0:0:0:0:
256,192,246087,5,8,0:0:0:0:
256,192,246159,5,8,0:0:0:0:
256,192,246230,5,0,0:0:0:0:
256,192,246302,5,0,0:0:0:0:
256,192,246373,5,8,0:0:0:0:
256,192,246444,5,0,0:0:0:0:
256,192,246516,5,0,0:0:0:0:
256,192,246587,5,8,0:0:0:0:
256,192,246659,5,8,0:0:0:0:
256,192,246730,5,0,0:0:0:0:
256,192,246802,5,0,0:0:0:0:
256,192,246873,5,8,0:0:0:0:
256,192,247015,5,0,0:0:0:0:
256,192,247158,5,0,0:0:0:0:
256,192,247301,5,8,0:0:0:0:
256,192,247443,5,0,0:0:0:0:
256,192,247586,5,8,0:0:0:0:
256,192,247729,5,0,0:0:0:0:
256,192,247872,5,0,0:0:0:0:
256,192,248015,5,8,0:0:0:0:
256,192,248158,5,0,0:0:0:0:
256,192,248229,5,0,0:0:0:0:
256,192,248301,5,0,0:0:0:0:
256,192,248372,5,8,0:0:0:0:
256,192,248443,5,0,0:0:0:0:
256,192,248515,5,0,0:0:0:0:
256,192,248586,5,8,0:0:0:0:
256,192,248658,5,8,0:0:0:0:
256,192,248729,5,0,0:0:0:0:
256,192,248801,5,8,0:0:0:0:
256,192,248872,5,8,0:0:0:0:
256,192,248943,5,0,0:0:0:0:
256,192,249015,5,8,0:0:0:0:
256,192,249086,1,8,0:0:0:0:
256,192,249158,1,0,0:0:0:0:
256,192,249229,1,8,0:0:0:0:
256,192,249301,1,0,0:0:0:0:
256,192,249372,1,0,0:0:0:0:
256,192,249443,1,8,0:0:0:0:
256,192,249515,1,8,0:0:0:0:
256,192,249586,1,8,0:0:0:0:
256,192,249658,1,8,0:0:0:0:
256,192,249729,1,0,0:0:0:0:
256,192,249801,1,0,0:0:0:0:
256,192,249873,1,12,0:0:0:0:
256,192,263572,5,4,0:0:0:0:
256,192,263786,5,0,0:0:0:0:
256,192,264000,5,0,0:0:0:0:
256,192,264214,5,0,0:0:0:0:
256,192,264643,5,0,0:0:0:0:
256,192,264857,5,0,0:0:0:0:
256,192,266143,5,0,0:0:0:0:
256,192,266277,5,0,0:0:0:0:
256,192,266411,5,0,0:0:0:0:
256,192,266545,5,0,0:0:0:0:
256,192,266786,5,0,0:0:0:0:
256,192,267000,5,0,0:0:0:0:
256,192,267286,5,0,0:0:0:0:
256,192,267572,5,0,0:0:0:0:
256,192,267857,5,0,0:0:0:0:
256,192,269572,5,0,0:0:0:0:
256,192,269857,5,0,0:0:0:0:
256,192,270143,5,0,0:0:0:0:
256,192,270429,5,4,0:0:0:0:
256,192,270643,5,0,0:0:0:0:
256,192,270857,5,0,0:0:0:0:
256,192,271072,5,0,0:0:0:0:
256,192,271500,5,0,0:0:0:0:
256,192,271714,5,0,0:0:0:0:
256,192,271929,5,0,0:0:0:0:
256,192,272143,5,0,0:0:0:0:
256,192,273000,5,0,0:0:0:0:
256,192,273214,5,0,0:0:0:0:
256,192,273429,5,0,0:0:0:0:
256,192,273643,5,0,0:0:0:0:
256,192,273857,5,0,0:0:0:0:
256,192,274072,5,0,0:0:0:0:
256,192,274286,5,0,0:0:0:0:
256,192,274500,5,0,0:0:0:0:
256,192,275143,5,4,0:0:0:0:
256,192,275357,5,4,0:0:0:0:
256,192,275572,5,4,0:0:0:0:
256,192,275786,5,4,0:0:0:0:
256,192,276429,5,8,0:0:0:0:
256,192,277286,5,12,0:0:0:0:
256,192,277714,5,0,0:0:0:0:
256,192,278143,5,8,0:0:0:0:
256,192,278572,5,8,0:0:0:0:
256,192,279000,5,0,0:0:0:0:
256,192,279429,5,0,0:0:0:0:
256,192,279857,5,8,0:0:0:0:
256,192,280714,5,8,0:0:0:0:
256,192,282429,5,12,0:0:0:0:
256,192,282714,5,0,0:0:0:0:
256,192,283000,5,0,0:0:0:0:
256,192,283286,5,8,0:0:0:0:
256,192,283714,5,4,0:0:0:0:
256,192,284143,5,12,0:0:0:0:
256,192,284714,5,12,0:0:0:0:
256,192,285286,5,12,0:0:0:0:
256,192,285857,5,4,0:0:0:0:
256,192,287572,5,8,0:0:0:0:
256,192,288000,5,0,0:0:0:0:
256,192,288214,5,8,0:0:0:0:
256,192,288429,5,0,0:0:0:0:
256,192,288482,5,0,0:0:0:0:
256,192,288536,5,0,0:0:0:0:
256,192,288589,5,0,0:0:0:0:
256,192,288643,5,8,0:0:0:0:
256,192,288750,5,8,0:0:0:0:
256,192,288857,5,0,0:0:0:0:
256,192,288964,5,8,0:0:0:0:
256,192,289072,5,0,0:0:0:0:
256,192,289179,5,0,0:0:0:0:
256,192,289286,5,12,0:0:0:0:
256,192,289714,5,0,0:0:0:0:
256,192,289768,5,0,0:0:0:0:
256,192,289822,5,0,0:0:0:0:
256,192,289875,5,0,0:0:0:0:
256,192,289929,5,0,0:0:0:0:
256,192,289982,5,0,0:0:0:0:
256,192,290036,5,0,0:0:0:0:
256,192,290089,5,0,0:0:0:0:
256,192,290143,5,8,0:0:0:0:
256,192,290197,5,0,0:0:0:0:
256,192,290250,5,0,0:0:0:0:
256,192,290304,5,0,0:0:0:0:
256,192,290357,5,0,0:0:0:0:
256,192,290411,5,0,0:0:0:0:
256,192,290464,5,0,0:0:0:0:
256,192,290518,5,0,0:0:0:0:
256,192,290572,5,8,0:0:0:0:
256,192,291015,5,8,0:0:0:0:
256,192,291561,5,12,0:0:0:0:
256,192,292106,5,4,0:0:0:0:
256,192,292651,5,8,0:0:0:0:
256,192,293197,5,12,0:0:0:0:
256,192,293742,5,0,0:0:0:0:
256,192,294288,5,4,0:0:0:0:
256,192,294833,5,8,0:0:0:0:
256,192,295379,5,4,0:0:0:0:
256,192,295924,5,4,0:0:0:0:
256,192,296470,5,8,0:0:0:0:
256,192,297015,5,0,0:0:0:0:
256,192,297561,5,12,0:0:0:0:
256,192,298106,5,0,0:0:0:0:
256,192,298653,5,4,0:0:0:0:
256,192,299198,5,0,0:0:0:0:
256,192,299743,5,12,0:0:0:0:
256,192,300289,5,0,0:0:0:0:
256,192,300834,5,8,0:0:0:0:
256,192,301380,5,0,0:0:0:0:
256,192,301925,5,8,0:0:0:0:
256,192,303016,5,4,0:0:0:0:
256,192,303562,5,0,0:0:0:0:
256,192,304107,5,12,0:0:0:0:
256,192,304653,5,0,0:0:0:0:
256,192,305198,5,8,0:0:0:0:
256,192,305334,5,8,0:0:0:0:
256,192,305470,5,0,0:0:0:0:
256,192,305607,5,0,0:0:0:0:
256,192,305743,5,12,0:0:0:0:
256,192,306288,5,4,0:0:0:0:
256,192,306561,5,4,0:0:0:0:
256,192,306833,5,12,0:0:0:0:
256,192,307379,5,8,0:0:0:0:
256,192,307447,5,0,0:0:0:0:
256,192,307515,5,0,0:0:0:0:
256,192,307583,5,0,0:0:0:0:
256,192,307652,5,0,0:0:0:0:
256,192,307720,5,0,0:0:0:0:
256,192,307788,5,0,0:0:0:0:
256,192,307856,5,0,0:0:0:0:
256,192,307924,5,8,0:0:0:0:
256,192,307992,5,0,0:0:0:0:
256,192,308060,5,0,0:0:0:0:
256,192,308128,5,0,0:0:0:0:
256,192,308196,5,0,0:0:0:0:
256,192,308264,5,0,0:0:0:0:
256,192,308333,5,0,0:0:0:0:
256,192,308401,5,0,0:0:0:0:
256,192,318794,12,0,322009,0:0:0:0:
256,192,322185,5,8,0:0:0:0:
256,192,322255,5,8,0:0:0:0:
256,192,322326,5,8,0:0:0:0:
256,192,322398,5,8,0:0:0:0:
256,192,322469,5,0,0:0:0:0:
256,192,322541,5,0,0:0:0:0:
256,192,322612,5,8,0:0:0:0:
256,192,322684,5,0,0:0:0:0:
256,192,322755,5,0,0:0:0:0:
256,192,322826,5,8,0:0:0:0:
256,192,322898,5,8,0:0:0:0:
256,192,322969,5,8,0:0:0:0:
256,192,323041,5,0,0:0:0:0:
256,192,323112,5,0,0:0:0:0:
256,192,323184,5,0,0:0:0:0:
256,192,323255,5,8,0:0:0:0:
256,192,323326,5,0,0:0:0:0:
256,192,323398,5,0,0:0:0:0:
256,192,323469,5,8,0:0:0:0:
256,192,323541,5,8,0:0:0:0:
256,192,323612,5,8,0:0:0:0:
256,192,323684,5,0,0:0:0:0:
256,192,323755,5,0,0:0:0:0:
256,192,323826,5,0,0:0:0:0:
256,192,323898,5,8,0:0:0:0:
256,192,323969,5,0,0:0:0:0:
256,192,324041,5,0,0:0:0:0:
256,192,324112,5,8,0:0:0:0:
256,192,324184,5,8,0:0:0:0:
256,192,324255,5,8,0:0:0:0:
256,192,324326,5,0,0:0:0:0:
256,192,324398,5,0,0:0:0:0:
256,192,324469,5,0,0:0:0:0:
256,192,324541,5,8,0:0:0:0:
256,192,324612,5,8,0:0:0:0:
256,192,324684,5,8,0:0:0:0:
256,192,324755,5,0,0:0:0:0:
256,192,324826,5,0,0:0:0:0:
256,192,324898,5,0,0:0:0:0:
256,192,324969,5,0,0:0:0:0:
256,192,325041,5,0,0:0:0:0:
256,192,325112,5,0,0:0:0:0:
256,192,325184,5,8,0:0:0:0:
256,192,325255,5,8,0:0:0:0:
256,192,325326,5,8,0:0:0:0:
256,192,325398,5,8,0:0:0:0:
256,192,325469,5,0,0:0:0:0:
256,192,325541,5,0,0:0:0:0:
256,192,325612,5,8,0:0:0:0:
256,192,325684,5,8,0:0:0:0:
256,192,325755,5,8,0:0:0:0:
256,192,325826,5,0,0:0:0:0:
256,192,325898,5,0,0:0:0:0:
256,192,325969,5,0,0:0:0:0:
256,192,326041,5,8,0:0:0:0:
256,192,326112,5,8,0:0:0:0:
256,192,326184,5,8,0:0:0:0:
256,192,326255,5,8,0:0:0:0:
256,192,326326,5,0,0:0:0:0:
256,192,326398,5,0,0:0:0:0:
256,192,326469,5,8,0:0:0:0:
256,192,326541,5,8,0:0:0:0:
256,192,326612,5,8,0:0:0:0:
256,192,326684,5,8,0:0:0:0:
256,192,326755,5,8,0:0:0:0:
256,192,326826,5,0,0:0:0:0:
256,192,326898,5,8,0:0:0:0:
256,192,326969,5,0,0:0:0:0:
256,192,327041,5,0,0:0:0:0:
256,192,327112,5,8,0:0:0:0:
256,192,327184,5,0,0:0:0:0:
256,192,327255,5,0,0:0:0:0:
256,192,327326,5,8,0:0:0:0:
256,192,327398,5,8,0:0:0:0:
256,192,327469,5,8,0:0:0:0:
256,192,327541,5,0,0:0:0:0:
256,192,327612,5,0,0:0:0:0:
256,192,327684,5,0,0:0:0:0:
256,192,327755,5,8,0:0:0:0:
256,192,327826,5,0,0:0:0:0:
256,192,327898,5,0,0:0:0:0:
256,192,327969,5,8,0:0:0:0:
256,192,328041,5,0,0:0:0:0:
256,192,328112,5,0,0:0:0:0:
256,192,328184,5,8,0:0:0:0:
256,192,328255,5,8,0:0:0:0:
256,192,328326,5,8,0:0:0:0:
256,192,328398,5,0,0:0:0:0:
256,192,328469,5,0,0:0:0:0:
256,192,328541,5,0,0:0:0:0:
256,192,328612,5,8,0:0:0:0:
256,192,328684,5,8,0:0:0:0:
256,192,328755,5,0,0:0:0:0:
256,192,328826,5,0,0:0:0:0:
256,192,328898,5,0,0:0:0:0:
256,192,328969,5,0,0:0:0:0:
256,192,329041,5,8,0:0:0:0:
256,192,329112,5,8,0:0:0:0:
256,192,329184,5,0,0:0:0:0:
256,192,329255,5,8,0:0:0:0:
256,192,329326,5,0,0:0:0:0:
256,192,329398,5,0,0:0:0:0:
256,192,329469,5,8,0:0:0:0:
256,192,329541,5,0,0:0:0:0:
256,192,329612,5,0,0:0:0:0:
256,192,329684,5,8,0:0:0:0:
256,192,329755,5,8,0:0:0:0:
256,192,329826,5,8,0:0:0:0:
256,192,329898,5,8,0:0:0:0:
256,192,329969,5,0,0:0:0:0:
256,192,330041,5,0,0:0:0:0:
256,192,330112,5,8,0:0:0:0:
256,192,330184,5,8,0:0:0:0:
256,192,330255,5,0,0:0:0:0:
256,192,330326,5,8,0:0:0:0:
256,192,330398,5,8,0:0:0:0:
256,192,330469,5,8,0:0:0:0:
256,192,330541,5,0,0:0:0:0:
256,192,330612,5,0,0:0:0:0:
256,192,330684,5,0,0:0:0:0:
256,192,330755,5,8,0:0:0:0:
256,192,330826,5,0,0:0:0:0:
256,192,330898,5,0,0:0:0:0:
256,192,330969,5,8,0:0:0:0:
256,192,331041,5,8,0:0:0:0:
256,192,331112,5,8,0:0:0:0:
256,192,331184,5,0,0:0:0:0:
256,192,331255,5,0,0:0:0:0:
256,192,331326,5,0,0:0:0:0:
256,192,331398,5,8,0:0:0:0:
256,192,331469,5,8,0:0:0:0:
256,192,331541,5,8,0:0:0:0:
256,192,331612,5,0,0:0:0:0:
256,192,331684,5,8,0:0:0:0:
256,192,331755,5,8,0:0:0:0:
256,192,331826,5,0,0:0:0:0:
256,192,331898,5,8,0:0:0:0:
256,192,331969,5,8,0:0:0:0:
256,192,332041,5,0,0:0:0:0:
256,192,332112,5,0,0:0:0:0:
256,192,332184,5,0,0:0:0:0:
256,192,332255,5,8,0:0:0:0:
256,192,332326,5,8,0:0:0:0:
256,192,332398,5,8,0:0:0:0:
256,192,332469,5,0,0:0:0:0:
256,192,332541,5,0,0:0:0:0:
256,192,332612,5,0,0:0:0:0:
256,192,332684,5,0,0:0:0:0:
256,192,332755,5,0,0:0:0:0:
256,192,332826,5,0,0:0:0:0:
256,192,332898,5,8,0:0:0:0:
256,192,332969,5,0,0:0:0:0:
256,192,333041,5,0,0:0:0:0:
256,192,333112,5,8,0:0:0:0:
256,192,333184,5,0,0:0:0:0:
256,192,333255,5,0,0:0:0:0:
256,192,333326,5,8,0:0:0:0:
256,192,333398,5,8,0:0:0:0:
256,192,333469,5,8,0:0:0:0:
256,192,333541,5,8,0:0:0:0:
256,192,333612,5,0,0:0:0:0:
256,192,333684,5,0,0:0:0:0:
256,192,333755,5,8,0:0:0:0:
256,192,333826,5,8,0:0:0:0:
256,192,333898,5,8,0:0:0:0:
256,192,333969,5,8,0:0:0:0:
256,192,334041,5,0,0:0:0:0:
256,192,334112,5,0,0:0:0:0:
256,192,334184,5,8,0:0:0:0:
256,192,334255,5,0,0:0:0:0:
256,192,334326,5,0,0:0:0:0:
256,192,334398,5,8,0:0:0:0:
256,192,334469,5,8,0:0:0:0:
256,192,334541,5,0,0:0:0:0:
256,192,334612,5,8,0:0:0:0:
256,192,334684,5,8,0:0:0:0:
256,192,334755,5,8,0:0:0:0:
256,192,334826,5,8,0:0:0:0:
256,192,334898,5,0,0:0:0:0:
256,192,334969,5,0,0:0:0:0:
256,192,335041,5,8,0:0:0:0:
256,192,335112,5,8,0:0:0:0:
256,192,335184,5,0,0:0:0:0:
256,192,335255,5,8,0:0:0:0:
256,192,335326,5,8,0:0:0:0:
256,192,335398,5,0,0:0:0:0:
256,192,335469,5,8,0:0:0:0:
256,192,335541,5,8,0:0:0:0:
256,192,335612,5,8,0:0:0:0:
256,192,335684,5,0,0:0:0:0:
256,192,335755,5,0,0:0:0:0:
256,192,335826,5,0,0:0:0:0:
256,192,335898,5,8,0:0:0:0:
256,192,335970,5,8,0:0:0:0:
256,192,336042,5,8,0:0:0:0:
256,192,336113,5,8,0:0:0:0:
256,192,336184,5,8,0:0:0:0:
256,192,336256,5,8,0:0:0:0:
256,192,336327,5,0,0:0:0:0:
256,192,336399,5,0,0:0:0:0:
256,192,336470,5,0,0:0:0:0:
256,192,336542,5,8,0:0:0:0:
256,192,336613,5,8,0:0:0:0:
256,192,336684,5,0,0:0:0:0:
256,192,336756,5,8,0:0:0:0:
256,192,336827,5,8,0:0:0:0:
256,192,336899,5,8,0:0:0:0:
256,192,336970,5,0,0:0:0:0:
256,192,337042,5,0,0:0:0:0:
256,192,337113,5,0,0:0:0:0:
256,192,337184,5,8,0:0:0:0:
256,192,337256,5,8,0:0:0:0:
256,192,337327,5,8,0:0:0:0:
256,192,337399,5,0,0:0:0:0:
256,192,337470,5,0,0:0:0:0:
256,192,337542,5,0,0:0:0:0:
256,192,337613,5,8,0:0:0:0:
256,192,337684,5,0,0:0:0:0:
256,192,337756,5,0,0:0:0:0:
256,192,337827,5,8,0:0:0:0:
256,192,337899,5,8,0:0:0:0:
256,192,337970,5,8,0:0:0:0:
256,192,338042,5,0,0:0:0:0:
256,192,338113,5,0,0:0:0:0:
256,192,338184,5,0,0:0:0:0:
256,192,338256,5,8,0:0:0:0:
256,192,338327,5,8,0:0:0:0:
256,192,338399,5,0,0:0:0:0:
256,192,338470,5,8,0:0:0:0:
256,192,338542,5,8,0:0:0:0:
256,192,338613,5,8,0:0:0:0:
256,192,338684,5,8,0:0:0:0:
256,192,338756,5,0,0:0:0:0:
256,192,338827,5,0,0:0:0:0:
256,192,338899,5,8,0:0:0:0:
256,192,338970,5,8,0:0:0:0:
256,192,339042,5,0,0:0:0:0:
256,192,339113,5,8,0:0:0:0:
256,192,339184,5,0,0:0:0:0:
256,192,339256,5,0,0:0:0:0:
256,192,339327,5,8,0:0:0:0:
256,192,339399,5,8,0:0:0:0:
256,192,339470,5,8,0:0:0:0:
256,192,339542,5,0,0:0:0:0:
256,192,339613,5,0,0:0:0:0:
256,192,339684,5,0,0:0:0:0:
256,192,339756,5,8,0:0:0:0:
256,192,340184,5,8,0:0:0:0:
256,192,340470,5,0,0:0:0:0:
256,192,340756,5,0,0:0:0:0:
256,192,340899,5,8,0:0:0:0:
256,192,341042,5,8,0:0:0:0:
256,192,341470,5,0,0:0:0:0:
256,192,341542,5,0,0:0:0:0:
256,192,341613,5,0,0:0:0:0:
256,192,341684,5,8,0:0:0:0:
256,192,341756,5,0,0:0:0:0:
256,192,341827,5,0,0:0:0:0:
256,192,341899,5,8,0:0:0:0:
256,192,341970,5,8,0:0:0:0:
256,192,342042,5,8,0:0:0:0:
256,192,342113,5,8,0:0:0:0:
256,192,342184,5,0,0:0:0:0:
256,192,342256,5,0,0:0:0:0:
256,192,342327,5,8,0:0:0:0:
256,192,342399,5,8,0:0:0:0:
256,192,342470,5,0,0:0:0:0:
256,192,342542,5,8,0:0:0:0:
256,192,342613,5,0,0:0:0:0:
256,192,342684,5,0,0:0:0:0:
256,192,342756,5,8,0:0:0:0:
256,192,342827,5,8,0:0:0:0:
256,192,342899,5,8,0:0:0:0:
256,192,342970,5,8,0:0:0:0:
256,192,343042,5,8,0:0:0:0:
256,192,343113,5,8,0:0:0:0:
256,192,343184,5,0,0:0:0:0:
256,192,343256,5,0,0:0:0:0:
256,192,343327,5,0,0:0:0:0:
256,192,343399,5,8,0:0:0:0:
256,192,343470,5,0,0:0:0:0:
256,192,343542,5,0,0:0:0:0:
256,192,343613,5,8,0:0:0:0:
256,192,343684,5,0,0:0:0:0:
256,192,343756,5,0,0:0:0:0:
256,192,343827,5,0,0:0:0:0:
256,192,343899,5,0,0:0:0:0:
256,192,343970,5,0,0:0:0:0:
256,192,344042,5,8,0:0:0:0:
256,192,344113,5,8,0:0:0:0:
256,192,344184,5,8,0:0:0:0:
256,192,344256,5,0,0:0:0:0:
256,192,344327,5,0,0:0:0:0:
256,192,344399,5,0,0:0:0:0:
256,192,344470,5,8,0:0:0:0:
256,192,344542,5,0,0:0:0:0:
256,192,344613,5,0,0:0:0:0:
256,192,344684,5,8,0:0:0:0:
256,192,344756,5,8,0:0:0:0:
256,192,344827,5,0,0:0:0:0:
256,192,344899,5,0,0:0:0:0:
256,192,344970,5,0,0:0:0:0:
256,192,345042,5,0,0:0:0:0:
256,192,345113,5,8,0:0:0:0:
256,192,345184,5,0,0:0:0:0:
256,192,345256,5,0,0:0:0:0:
256,192,345327,5,8,0:0:0:0:
256,192,345399,5,8,0:0:0:0:
256,192,345470,5,8,0:0:0:0:
256,192,345542,5,8,0:0:0:0:
256,192,345613,5,0,0:0:0:0:
256,192,345684,5,0,0:0:0:0:
256,192,345756,5,8,0:0:0:0:
256,192,345827,5,0,0:0:0:0:
256,192,345899,5,8,0:0:0:0:
256,192,345970,5,8,0:0:0:0:
256,192,346042,5,0,0:0:0:0:
256,192,346113,5,0,0:0:0:0:
256,192,346184,5,8,0:0:0:0:
256,192,346327,5,0,0:0:0:0:
256,192,346470,5,0,0:0:0:0:
256,192,346613,5,8,0:0:0:0:
256,192,346827,5,0,0:0:0:0:
256,192,347042,5,8,0:0:0:0:
256,192,347899,5,8,0:0:0:0:
256,192,348113,5,0,0:0:0:0:
256,192,348327,5,8,0:0:0:0:
256,192,348399,5,0,0:0:0:0:
256,192,348470,5,0,0:0:0:0:
256,192,348542,5,8,0:0:0:0:
256,192,348613,5,0,0:0:0:0:
256,192,348684,5,0,0:0:0:0:
256,192,348756,5,8,0:0:0:0:
256,192,348827,5,8,0:0:0:0:
256,192,348899,5,8,0:0:0:0:
256,192,348970,5,8,0:0:0:0:
256,192,349042,5,0,0:0:0:0:
256,192,349113,5,0,0:0:0:0:
256,192,349184,5,8,0:0:0:0:
256,192,349256,5,8,0:0:0:0:
256,192,349327,5,8,0:0:0:0:
256,192,349399,5,8,0:0:0:0:
256,192,349470,5,0,0:0:0:0:
256,192,349542,1,0,0:0:0:0:
256,192,349613,1,12,0:0:0:0:
256,192,352184,5,8,0:0:0:0:
256,192,353042,5,12,0:0:0:0:
256,192,353150,5,8,0:0:0:0:
256,192,353203,5,8,0:0:0:0:
256,192,353257,5,0,0:0:0:0:
256,192,353310,5,8,0:0:0:0:
256,192,353364,5,0,0:0:0:0:
256,192,353417,5,0,0:0:0:0:
256,192,353471,5,8,0:0:0:0:
256,192,353525,5,8,0:0:0:0:
256,192,353578,5,0,0:0:0:0:
256,192,353632,5,0,0:0:0:0:
256,192,353685,5,8,0:0:0:0:
256,192,353739,5,0,0:0:0:0:
256,192,353792,5,8,0:0:0:0:
256,192,353846,5,8,0:0:0:0:
256,192,353900,5,0,0:0:0:0:
256,192,353953,5,0,0:0:0:0:
256,192,354007,5,8,0:0:0:0:
256,192,354060,5,0,0:0:0:0:
256,192,354114,5,8,0:0:0:0:
256,192,354167,5,8,0:0:0:0:
256,192,354221,5,0,0:0:0:0:
256,192,354275,5,8,0:0:0:0:
256,192,354328,5,8,0:0:0:0:
256,192,354382,5,8,0:0:0:0:
256,192,354435,5,0,0:0:0:0:
256,192,354489,5,8,0:0:0:0:
256,192,354542,5,0,0:0:0:0:
256,192,354596,5,0,0:0:0:0:
256,192,354650,5,8,0:0:0:0:
256,192,354703,5,8,0:0:0:0:
256,192,354757,5,0,0:0:0:0:
256,192,354864,5,0,0:0:0:0:
256,192,354971,5,8,0:0:0:0:
256,192,355078,5,0,0:0:0:0:
256,192,355185,5,8,0:0:0:0:
256,192,355239,5,8,0:0:0:0:
256,192,355292,5,0,0:0:0:0:
256,192,355346,5,0,0:0:0:0:
256,192,355400,5,0,0:0:0:0:
256,192,355453,5,0,0:0:0:0:
256,192,355507,5,8,0:0:0:0:
256,192,355560,5,8,0:0:0:0:
256,192,355614,5,0,0:0:0:0:
256,192,355721,5,0,0:0:0:0:
256,192,355828,5,0,0:0:0:0:
256,192,355882,5,0,0:0:0:0:
256,192,355935,5,0,0:0:0:0:
256,192,355989,5,0,0:0:0:0:
256,192,356042,5,8,0:0:0:0:
256,192,356096,5,8,0:0:0:0:
256,192,356150,5,8,0:0:0:0:
256,192,356203,5,8,0:0:0:0:
256,192,356257,5,0,0:0:0:0:
256,192,356310,5,0,0:0:0:0:
256,192,356364,5,8,0:0:0:0:
256,192,356471,5,12,0:0:0:0:
256,192,356578,5,8,0:0:0:0:
256,192,356632,5,8,0:0:0:0:
256,192,356685,5,8,0:0:0:0:
256,192,356739,5,0,0:0:0:0:
256,192,356792,5,8,0:0:0:0:
256,192,356846,5,0,0:0:0:0:
256,192,356900,5,8,0:0:0:0:
256,192,356953,5,8,0:0:0:0:
256,192,357007,5,0,0:0:0:0:
256,192,357060,5,0,0:0:0:0:
256,192,357114,5,8,0:0:0:0:
256,192,357167,5,8,0:0:0:0:
256,192,357221,5,8,0:0:0:0:
256,192,357275,5,0,0:0:0:0:
256,192,357328,5,8,0:0:0:0:
256,192,357382,5,8,0:0:0:0:
256,192,357435,5,0,0:0:0:0:
256,192,357489,5,0,0:0:0:0:
256,192,357542,5,8,0:0:0:0:
256,192,357596,5,0,0:0:0:0:
256,192,357650,5,8,0:0:0:0:
256,192,357703,5,8,0:0:0:0:
256,192,357757,5,8,0:0:0:0:
256,192,357810,5,8,0:0:0:0:
256,192,357864,5,0,0:0:0:0:
256,192,357917,5,0,0:0:0:0:
256,192,357971,5,8,0:0:0:0:
256,192,358025,5,8,0:0:0:0:
256,192,358078,5,0,0:0:0:0:
256,192,358132,5,0,0:0:0:0:
256,192,358185,5,8,0:0:0:0:
256,192,358239,5,8,0:0:0:0:
256,192,358292,5,8,0:0:0:0:
256,192,358346,5,0,0:0:0:0:
256,192,358400,5,8,0:0:0:0:
256,192,358453,5,8,0:0:0:0:
256,192,358507,5,0,0:0:0:0:
256,192,358560,5,0,0:0:0:0:
256,192,358614,5,8,0:0:0:0:
256,192,358667,5,8,0:0:0:0:
256,192,358721,5,0,0:0:0:0:
256,192,358775,5,0,0:0:0:0:
256,192,358828,5,8,0:0:0:0:
256,192,358882,5,8,0:0:0:0:
256,192,358935,5,8,0:0:0:0:
256,192,358989,5,0,0:0:0:0:
256,192,359042,5,8,0:0:0:0:
256,192,359096,5,8,0:0:0:0:
256,192,359150,5,8,0:0:0:0:
256,192,359203,5,8,0:0:0:0:
256,192,359257,5,0,0:0:0:0:
256,192,359310,5,0,0:0:0:0:
256,192,359364,5,0,0:0:0:0:
256,192,359417,5,0,0:0:0:0:
256,192,359471,5,8,0:0:0:0:
256,192,359525,5,0,0:0:0:0:
256,192,359578,5,8,0:0:0:0:
256,192,359632,5,8,0:0:0:0:
256,192,359685,5,8,0:0:0:0:
256,192,359739,5,8,0:0:0:0:
256,192,359792,5,0,0:0:0:0:
256,192,359899,5,0,0:0:0:0:
256,192,359952,5,0,0:0:0:0:
256,192,360006,5,0,0:0:0:0:
256,192,360059,5,0,0:0:0:0:
256,192,360112,5,8,0:0:0:0:
256,192,360166,5,8,0:0:0:0:
256,192,360220,5,0,0:0:0:0:
256,192,360274,5,0,0:0:0:0:
256,192,360327,5,8,0:0:0:0:
256,192,360381,5,0,0:0:0:0:
256,192,360434,5,0,0:0:0:0:
256,192,360488,5,0,0:0:0:0:
256,192,360541,5,8,0:0:0:0:
256,192,360595,5,8,0:0:0:0:
256,192,360649,5,8,0:0:0:0:
256,192,360702,5,0,0:0:0:0:
256,192,360756,5,8,0:0:0:0:
256,192,360809,5,8,0:0:0:0:
256,192,360863,5,8,0:0:0:0:
256,192,360916,5,8,0:0:0:0:
256,192,360970,5,0,0:0:0:0:
256,192,361024,5,0,0:0:0:0:
256,192,361077,5,0,0:0:0:0:
256,192,361131,5,0,0:0:0:0:
256,192,361184,5,8,0:0:0:0:
256,192,361238,5,8,0:0:0:0:
256,192,361292,5,0,0:0:0:0:
256,192,361345,5,0,0:0:0:0:
256,192,361399,5,0,0:0:0:0:
256,192,361452,5,0,0:0:0:0:
256,192,361506,5,0,0:0:0:0:
256,192,361559,5,0,0:0:0:0:
256,192,361613,5,8,0:0:0:0:
256,192,361667,5,0,0:0:0:0:
256,192,361720,5,8,0:0:0:0:
256,192,361774,5,0,0:0:0:0:
256,192,361827,5,8,0:0:0:0:
256,192,361881,5,0,0:0:0:0:
256,192,361934,5,8,0:0:0:0:
256,192,361988,5,0,0:0:0:0:
256,192,362042,5,8,0:0:0:0:
256,192,362095,5,8,0:0:0:0:
256,192,362149,5,0,0:0:0:0:
256,192,362202,5,0,0:0:0:0:
256,192,362256,5,8,0:0:0:0:
256,192,362309,5,8,0:0:0:0:
256,192,362363,5,0,0:0:0:0:
256,192,362416,5,0,0:0:0:0:
256,192,362470,5,8,0:0:0:0:
256,192,362524,1,0,0:0:0:0:
256,192,362577,1,8,0:0:0:0:
256,192,362631,1,8,0:0:0:0:
256,192,362684,1,8,0:0:0:0:
256,192,362738,5,0,0:0:0:0:
256,192,362792,5,0,0:0:0:0:
256,192,362845,5,0,0:0:0:0:
256,192,362899,5,8,0:0:0:0:
256,192,362952,1,8,0:0:0:0:
256,192,363006,5,8,0:0:0:0:
256,192,363059,1,8,0:0:0:0:
256,192,363113,1,0,0:0:0:0:
256,192,363167,1,0,0:0:0:0:
256,192,363220,5,0,0:0:0:0:
255,193,363274,5,0,0:0:0:0:
256,192,363327,12,0,370184,0:0:0:0:
