osu file format v14

[General]
AudioFilename: audio.mp3
AudioLeadIn: 0
PreviewTime: 128479
Countdown: 0
SampleSet: Soft
StackLeniency: 0.7
Mode: 2
LetterboxInBreaks: 0
WidescreenStoryboard: 1

[Editor]
Bookmarks: 71285,106840,128173,177951,199285
DistanceSpacing: 1
BeatDivisor: 4
GridSize: 8
TimelineZoom: 0.5599991

[Metadata]
Title:Pain Remains III: In a Sea of Fire
TitleUnicode:Pain Remains III: In a Sea of Fire
Artist:Lorna Shore
ArtistUnicode:Lorna Shore
Creator:Daletto
Version:Crimson Blaze
Source:
Tags:english deathcore symphonic metal black death marathon hehe handsome -Rustyy NyalettOwO x3
BeatmapID:4497685
BeatmapSetID:2137241

[Difficulty]
HPDrainRate:4
CircleSize:4.3
OverallDifficulty:10
ApproachRate:10
SliderMultiplier:1.8
SliderTickRate:2

[Events]
//Background and Video events
0,0,"lava_mermaid_by_sandara.png",0,0
//Break Periods
2,380898,415804
2,420009,422915
2,444843,446915
2,484578,522328
//Storyboard Layer 0 (Background)
//Storyboard Layer 1 (Fail)
//Storyboard Layer 2 (Pass)
//Storyboard Layer 3 (Foreground)
//Storyboard Layer 4 (Overlay)
//Storyboard Sound Samples

[TimingPoints]
71285,222.222222222222,4,2,1,50,1,0
71285,-153.846153846154,4,2,1,50,0,0
73951,-153.846153846154,4,2,2,50,0,0
78396,-153.846153846154,4,2,1,50,0,0
81062,-153.846153846154,4,2,2,50,0,0
85062,-153.846153846154,4,2,2,50,0,0
85507,-100,4,2,1,80,0,1
85562,-100,4,2,1,80,0,0
86396,-100,4,2,3,80,0,0
92173,-100,4,2,2,80,0,0
92618,-100,4,2,3,80,0,0
96173,-100,4,2,4,80,0,0
98173,-100,4,2,5,80,0,0
98396,-100,4,2,5,80,0,0
98507,-100,4,2,5,80,0,0
98618,-100,4,2,6,80,0,0
98673,-100,4,2,2,80,0,0
98840,-100,4,2,3,80,0,0
99285,-100,4,2,2,80,0,0
99729,-100,4,2,1,80,0,0
103062,-100,4,2,2,80,0,0
103285,-100,4,2,3,80,0,0
106396,-100,4,2,2,80,0,0
106840,-100,4,2,3,80,0,0
107062,-100,4,2,4,80,0,0
113062,-100,4,2,2,80,0,0
113951,-100,4,2,1,90,0,0
114173,-100,4,2,4,90,0,0
117062,-100,4,2,2,90,0,0
117507,-100,4,2,1,90,0,0
117729,-100,4,2,4,90,0,0
119285,-100,4,2,3,90,0,0
119785,-100,4,2,2,90,0,0
120173,-100,4,2,3,90,0,0
120618,-100,4,2,2,90,0,0
121062,-100,4,2,1,90,0,0
121507,-100,4,2,3,90,0,0
121951,-100,4,2,4,90,0,0
124173,-100,4,2,2,90,0,0
124618,-100,4,2,7,90,0,0
124840,-100,4,2,4,90,0,0
126396,-100,4,2,8,90,0,0
126451,-100,4,2,2,90,0,0
126618,-100,4,2,6,90,0,0
126673,-100,4,2,2,90,0,0
126840,-100,4,2,8,90,0,0
126896,-100,4,2,2,90,0,0
127062,-100,4,2,6,90,0,0
127118,-100,4,2,2,90,0,0
127285,-100,4,2,3,90,0,0
127951,-100,4,2,2,90,0,0
128173,-100,4,2,1,60,0,1
128229,-133.333333333333,4,2,1,60,0,0
130604,-133.333333333333,4,2,1,5,0,0
130618,-133.333333333333,4,2,1,60,0,0
131271,-133.333333333333,4,2,1,5,0,0
131285,-133.333333333333,4,2,1,60,0,0
131729,-100,4,2,1,60,0,0
133507,-100,4,2,10,60,0,0
135285,-133.333333333333,4,2,1,60,0,0
137715,-133.333333333333,4,2,1,5,0,0
137729,-133.333333333333,4,2,1,60,0,0
138382,-133.333333333333,4,2,1,5,0,0
138396,-133.333333333333,4,2,1,60,0,0
139493,-133.333333333333,4,2,1,5,0,0
139507,-133.333333333333,4,2,1,60,0,0
140160,-133.333333333333,4,2,1,5,0,0
140173,-133.333333333333,4,2,1,60,0,0
140618,-100,4,2,3,60,0,0
141951,-100,4,2,2,60,0,0
142396,-100,4,2,9,90,0,1
144173,-100,4,2,16,90,0,1
148951,-100,4,2,16,90,0,0
149396,-100,4,2,1,90,0,0
149507,-100,4,2,7,90,0,1
149729,-100,4,2,4,90,0,1
151285,-100,4,2,3,90,0,1
152173,-100,4,2,2,90,0,1
152618,-100,4,2,10,90,0,1
153062,-100,4,2,9,90,0,1
153729,-100,4,2,16,90,0,1
156173,-100,4,2,11,90,0,1
156229,-100,4,2,2,90,0,1
156618,-100,4,2,1,80,0,0
157507,-100,4,2,3,80,0,0
163285,-100,4,2,2,80,0,0
163729,-100,4,2,3,80,0,0
167285,-100,4,2,4,80,0,0
169285,-100,4,2,4,80,0,0
169507,-100,4,2,4,80,0,0
169618,-100,4,2,4,80,0,0
169729,-100,4,2,6,80,0,0
169785,-100,4,2,2,80,0,0
169951,-100,4,2,3,80,0,0
170396,-100,4,2,2,80,0,0
170840,-100,4,2,1,80,0,0
174173,-100,4,2,2,80,0,0
174396,-100,4,2,3,80,0,0
177507,-100,4,2,2,80,0,0
177951,-100,4,2,3,80,0,0
178173,-100,4,2,4,80,0,0
184173,-100,4,2,2,80,0,0
185062,-100,4,2,1,90,0,0
185285,-100,4,2,4,90,0,0
188173,-100,4,2,2,90,0,0
188618,-100,4,2,1,90,0,0
188840,-100,4,2,4,90,0,0
190396,-100,4,2,3,90,0,0
190896,-100,4,2,2,90,0,0
191285,-100,4,2,3,90,0,0
191729,-100,4,2,2,90,0,0
192173,-100,4,2,1,90,0,0
192618,-100,4,2,3,90,0,0
193062,-100,4,2,4,90,0,0
195285,-100,4,2,2,90,0,0
195729,-100,4,2,7,90,0,0
195951,-100,4,2,4,90,0,0
197507,-25,4,2,4,90,0,0
199285,-100,4,2,9,90,0,1
201062,-100,4,2,16,90,0,1
205840,-100,4,2,16,90,0,0
206285,-100,4,2,1,90,0,0
206396,-100,4,2,7,90,0,1
206618,-100,4,2,4,90,0,1
208173,-100,4,2,3,90,0,1
209062,-100,4,2,2,90,0,1
209507,-100,4,2,10,90,0,1
209951,-100,4,2,9,90,0,1
210618,-100,4,2,16,90,0,1
213062,-100,4,2,12,90,0,1
213507,-100,4,2,1,70,0,0
215284,-133.333333333333,4,2,1,70,0,0
215937,-133.333333333333,4,2,1,5,0,0
215951,-133.333333333333,4,2,1,70,0,0
216604,-133.333333333333,4,2,1,5,0,0
216618,-133.333333333333,4,2,1,70,0,0
217062,-100,4,2,1,70,0,0
218840,-125,4,2,3,70,0,0
219493,-125,4,2,3,5,0,0
219507,-142.857142857143,4,2,3,70,0,0
220159,-142.857142857143,4,2,3,5,0,0
220173,-100,4,2,17,70,0,0
220618,-100,4,2,17,70,0,0
222396,-133.333333333333,4,2,1,70,0,0
223048,-133.333333333333,4,2,1,5,0,0
223062,-133.333333333333,4,2,1,70,0,0
223715,-133.333333333333,4,2,1,5,0,0
223729,-133.333333333333,4,2,1,70,0,0
224173,-100,4,2,1,70,0,0
225951,-100,4,2,3,70,0,0
227729,-100,4,2,1,80,0,1
229507,-100,4,2,3,80,0,1
231285,-100,4,2,3,80,0,1
232618,-100,4,2,3,80,0,1
233062,-100,4,2,3,80,0,1
233507,-100,4,2,3,80,0,1
234840,-100,4,2,9,80,0,1
235285,-100,4,2,11,80,0,1
235396,-100,4,2,2,80,0,1
235433,-100,4,2,7,80,0,1
235507,-100,4,2,2,80,0,1
235581,-100,4,2,7,80,0,1
235618,-100,4,2,6,80,0,1
235655,-100,4,2,13,80,0,1
235729,-100,4,2,13,80,0,1
235840,-100,4,2,2,80,0,1
235877,-100,4,2,7,80,0,1
235951,-100,4,2,2,80,0,1
236025,-100,4,2,7,80,0,1
236062,-100,4,2,2,80,0,1
236173,-100,4,2,11,80,0,1
236322,-100,4,2,7,80,0,1
236729,-100,4,2,7,80,0,1
236766,-100,4,2,7,80,0,1
236951,-100,4,2,7,80,0,1
237062,-100,4,2,7,80,0,1
237173,-100,4,2,7,80,0,1
237210,-100,4,2,7,80,0,1
237396,-100,4,2,7,80,0,1
237507,-100,4,2,14,80,0,1
237618,-100,4,2,2,80,0,1
237655,-100,4,2,7,80,0,1
237729,-100,4,2,2,80,0,1
237803,-100,4,2,7,80,0,1
237840,-100,4,2,2,80,0,1
237951,-100,4,2,14,80,0,1
238062,-100,4,2,2,80,0,1
238099,-100,4,2,7,80,0,1
238173,-100,4,2,2,80,0,1
238247,-100,4,2,7,80,0,1
238285,-100,4,2,2,80,0,1
238396,-100,4,2,15,80,0,1
238988,-100,4,2,7,80,0,1
239285,-100,4,2,15,80,0,1
239433,-100,4,2,7,80,0,1
239729,-100,4,2,12,80,0,1
240025,-100,4,2,16,80,0,1
240173,-100,4,2,16,80,0,1
241507,-100,4,2,2,80,0,1
241896,-100,4,2,2,80,0,0
241951,-100,4,2,9,80,0,1
243729,-100,4,2,16,80,0,1
247285,-100,4,2,3,80,0,1
247729,-100,4,2,3,80,0,1
248173,-100,4,2,15,80,0,1
249062,-100,4,2,4,80,0,1
250396,-100,4,2,3,80,0,1
250840,-100,4,2,4,80,0,1
252173,-100,4,2,3,80,0,1
252618,-100,4,2,4,80,0,1
253062,-100,4,2,2,80,0,1
254396,-100,4,2,1,80,0,1
255285,-133.333333333333,4,2,1,80,0,1
256173,-100,4,2,1,40,0,0
257062,-250,4,2,2,40,0,0
262173,-100,4,2,2,40,0,0
262396,-100,4,2,12,40,0,0
263285,-250,4,2,10,40,0,0
267729,-111.111111111111,4,2,10,40,0,0
269062,-100,4,2,10,45,0,0
269951,-100,4,2,2,45,0,0
270396,-100,4,2,1,45,0,0
273951,-100,4,2,3,45,0,0
277062,-100,4,2,2,45,0,0
277507,-100,4,2,3,50,0,0
282840,-100,4,2,3,50,0,0
283729,-133.333333333333,4,2,3,50,0,0
284618,-100,4,2,1,60,0,1
284673,-100,4,2,1,60,0,0
285507,-133.333333333333,4,2,3,60,0,0
286840,-133.333333333333,4,2,10,60,0,0
287285,-111.111111111111,4,2,10,60,0,0
288173,-100,4,2,10,60,0,0
288618,-153.846153846154,4,2,10,60,0,0
289840,-100,4,2,10,60,0,0
289951,-133.333333333333,4,2,3,60,0,0
290840,-166.666666666667,4,2,3,60,0,0
291729,-111.111111111111,4,2,10,60,0,0
292618,-100,4,2,10,60,0,0
293507,-100,4,2,1,60,0,0
294396,-133.333333333333,4,2,10,60,0,0
296173,-100,4,2,10,60,0,0
296396,-100,4,2,4,60,0,0
297062,-100,4,2,3,60,0,0
299729,-133.333333333333,4,2,3,60,0,0
300618,-133.333333333333,4,2,3,60,0,0
302396,-100,4,2,3,60,0,0
304062,-100,4,2,3,60,0,0
304173,-100,4,2,3,60,0,0
311285,272.727272727273,4,2,17,70,1,0
311285,-1000,4,2,17,70,0,0
313330,-100,4,2,10,70,0,0
313466,-100,4,2,10,70,0,1
313535,-100,4,2,10,70,0,0
315648,-100,4,2,3,70,0,0
316194,-100,4,2,10,70,0,0
316739,-100,4,2,10,70,0,0
319194,-100,4,2,10,70,0,0
320012,-100,4,2,3,70,0,0
322194,-100,4,2,10,70,0,0
324375,-100,4,2,3,70,0,0
324921,-100,4,2,10,70,0,0
325466,-100,4,2,10,70,0,0
326557,-100,4,2,3,70,0,0
326830,-100,4,2,10,70,0,0
327648,-100,4,2,10,70,0,0
328739,-100,4,2,3,70,0,0
329830,-100,4,2,10,70,0,1
330375,-100,4,2,10,70,0,1
330853,-100,4,2,10,70,0,0
330921,222.222222222222,4,2,1,60,1,0
330921,-100,4,2,1,60,0,1
330976,-100,4,2,1,60,0,0
332698,-133.333333333333,4,2,1,60,0,0
334476,-100,4,2,3,60,0,0
335365,-111.111111111111,4,2,3,60,0,0
336254,-100,4,2,3,60,0,0
337143,-100,4,2,3,60,0,0
337587,-100,4,2,3,60,0,0
338032,-100,4,2,3,70,0,0
342921,-100,4,2,11,70,0,0
342976,-100,4,2,2,70,0,0
343365,-111.111111111111,4,2,3,70,0,0
344254,-100,4,2,3,70,0,0
345143,-100,4,2,1,70,0,0
346032,-100,4,2,4,70,0,0
346921,-100,4,2,3,70,0,0
348698,-100,4,2,1,70,0,0
349587,-100,4,2,4,70,0,0
350476,-100,4,2,3,70,0,0
352254,-100,4,2,1,70,0,0
353143,-100,4,2,4,70,0,0
354032,-100,4,2,3,70,0,0
355809,-100,4,2,1,70,0,0
357143,-100,4,2,3,70,0,0
357587,-100,4,2,3,70,0,0
358254,-100,4,2,3,70,0,0
358921,-100,4,2,3,70,0,0
359365,-100,4,2,1,70,0,0
360254,-100,4,2,4,70,0,0
361143,-100,4,2,3,70,0,0
367365,-100,4,2,4,70,0,0
368254,-100,4,2,3,70,0,0
371809,-100,4,2,3,70,0,0
372476,-100,4,2,3,70,0,0
373143,-100,4,2,3,70,0,0
373587,-100,4,2,1,50,0,0
373698,-100,4,2,1,30,0,0
375365,-100,4,2,1,24,0,0
377143,-100,4,2,1,20,0,0
378920,-100,4,2,1,15,0,0
380698,-100,4,2,1,10,0,0
387809,-100,4,2,99,50,0,0
394920,-100,4,2,99,50,0,0
402032,-100,4,2,99,50,0,0
409143,-100,4,2,99,50,0,0
416254,-200,4,2,99,50,0,0
417587,-200,4,2,99,50,0,0
423365,-200,4,2,99,50,0,0
424698,-200,4,2,99,50,0,0
426920,-200,4,2,99,50,0,0
430032,-100,4,2,99,50,0,0
430476,-100,4,2,2,60,0,0
436698,-100,4,2,3,60,0,0
437143,-100,4,2,3,60,0,0
437587,-100,4,2,3,60,0,0
441143,-100,4,2,11,60,0,0
441365,-100,4,2,2,60,0,0
441587,-100,4,2,2,60,0,0
442032,-100,4,2,2,60,0,0
442476,-100,4,2,2,60,0,0
442920,-100,4,2,2,70,0,0
443365,-100,4,2,11,70,0,0
443809,-100,4,2,12,70,0,0
447365,-100,4,2,12,10,0,0
447809,-100,4,2,12,15,0,0
448032,-100,4,2,12,5,0,0
448254,-100,4,2,1,80,0,1
448309,-100,4,2,1,80,0,0
448920,-100,4,2,3,80,0,0
449698,-100,4,2,3,5,0,0
449809,-100,4,2,3,80,0,0
450032,-200,4,2,3,80,0,0
451809,-100,4,2,1,80,0,0
453143,-100,4,2,3,80,0,0
453254,-100,4,2,3,5,0,0
453365,-100,4,2,3,80,0,0
455365,-100,4,2,1,80,0,0
456698,-100,4,2,3,80,0,0
456809,-100,4,2,3,5,0,0
456920,-100,4,2,3,80,0,0
457143,-200,4,2,3,80,0,0
458920,-100,4,2,1,80,0,0
460254,-100,4,2,3,80,0,0
460365,-100,4,2,3,5,0,0
460476,-100,4,2,3,80,0,0
461587,-100,4,2,18,80,0,0
461643,-100,4,2,2,80,0,0
462032,-100,4,2,3,80,0,0
462254,-100,4,2,3,5,0,0
462476,-100,4,2,3,100,0,1
462920,-100,4,2,4,100,0,1
464254,-100,4,2,3,100,0,1
464698,-100,4,2,4,100,0,1
466032,-100,4,2,3,100,0,1
466476,-100,4,2,4,100,0,1
467809,-100,4,2,3,100,0,1
468254,-100,4,2,4,100,0,1
469143,-100,4,2,19,100,0,1
470032,-100,4,2,4,100,0,1
471365,-100,4,2,3,100,0,1
471809,-100,4,2,4,100,0,1
473143,-100,4,2,19,100,0,1
473254,-100,4,2,1,100,0,1
473365,-100,4,2,19,100,0,1
473476,-100,4,2,1,100,0,1
473587,-100,4,2,19,100,0,1
474476,-100,4,2,3,100,0,1
476476,-100,4,2,3,100,0,1
476698,960,4,2,3,100,1,0
476698,-100,4,2,3,90,0,0
476938,-100,4,2,3,80,0,0
477658,-100,4,2,3,70,0,0
478618,-100,4,2,3,60,0,0
479578,-100,4,2,3,50,0,0
480538,-100,4,2,3,40,0,0
481498,-100,4,2,3,30,0,0
482458,-100,4,2,3,20,0,0
483418,-100,4,2,3,10,0,0
484378,-100,4,2,3,5,0,0
522778,-100,4,2,3,15,0,0
523018,-100,4,2,3,10,0,0
545818,-100,4,2,3,5,0,0

[Colours]
Combo1 : 40,81,130
Combo2 : 170,0,0
Combo3 : 85,85,85
Combo4 : 128,64,64
Combo5 : 180,180,180
Combo6 : 244,74,74

[HitObjects]
264,360,71285,6,0,P|296:328|136:168,1,350.999983932496,4|0,3:2|2:2,0:0:0:0:
256,208,72173,5,0,3:3:0:0:
264,200,72396,1,0,3:3:0:0:
152,160,72618,1,0,3:3:0:0:
160,152,72841,1,0,3:3:0:0:
360,144,73507,1,0,3:3:0:0:
256,144,73729,1,0,3:3:0:0:
368,160,73951,5,4,2:2:0:0:
360,152,74174,1,0,3:3:0:0:
248,128,74396,1,0,3:3:0:0:
240,120,74619,1,0,3:3:0:0:
432,320,74840,6,0,B|464:288|464:240|416:192|384:160|320:136|320:136|440:136,1,350.999983932496,4|0,3:2|3:3,0:0:0:0:
312,120,75729,5,0,3:3:0:0:
304,112,75952,1,0,3:3:0:0:
192,120,76173,1,0,3:3:0:0:
200,112,76396,1,0,3:3:0:0:
80,104,76840,5,0,3:3:0:0:
192,104,77062,1,4,2:2:0:0:
184,96,77285,1,0,3:3:0:0:
376,104,77507,5,4,2:2:0:0:
264,104,77729,1,0,3:3:0:0:
456,104,77951,1,4,3:2:0:0:
344,104,78173,1,0,3:3:0:0:
152,320,78396,6,0,P|128:296|288:136,1,350.999983932496,4|0,3:2|3:3,0:0:0:0:
176,192,79285,5,0,3:3:0:0:
280,192,79507,1,0,3:3:0:0:
168,184,79729,1,0,3:3:0:0:
64,184,79951,1,0,3:3:0:0:
176,176,80173,5,0,3:3:0:0:
72,176,80395,1,0,3:3:0:0:
184,168,80617,1,0,3:3:0:0:
192,160,80840,1,0,3:3:0:0:
400,152,81062,5,4,2:2:0:0:
288,152,81284,1,0,3:3:0:0:
496,152,81506,1,0,3:3:0:0:
384,152,81728,1,0,3:3:0:0:
184,256,81951,6,0,P|144:256|79:194,3,116.999994644165,4|0|0|0,3:2|0:0|0:0|3:3,0:0:0:0:
264,224,82840,6,0,P|224:224|152:160,3,116.999994644165,0|0|0|0,3:3|3:3|3:3|3:3,0:0:0:0:
343,247,83729,6,0,L|351:122,1,116.999994644165,0|0,3:3|3:3,0:0:0:0:
160,208,84173,1,0,3:3:0:0:
352,200,84396,1,0,3:3:0:0:
160,167,84618,6,0,L|152:100,1,58.4999973220826,0|0,3:3|2:2,0:0:0:0:
250,152,84840,2,0,L|242:86,1,58.4999973220826,0|0,3:3|2:2,0:0:0:0:
343,149,85062,2,0,L|335:84,1,58.4999973220826,0|0,3:3|2:2,0:0:0:0:
432,126,85284,2,0,L|426:61,1,58.4999973220826,0|0,3:3|2:2,0:0:0:0:
96,224,85507,6,0,L|144:176,1,45,4|0,3:2|3:3,0:0:0:0:
184,184,85618,2,0,L|256:184,1,45,0|0,3:3|3:3,0:0:0:0:
392,224,85729,2,0,L|344:176,1,45,0|0,3:3|3:3,0:0:0:0:
304,184,85840,2,0,L|232:184,1,45,0|0,3:3|3:3,0:0:0:0:
96,144,85951,6,0,L|40:144,1,45,0|0,3:3|3:3,0:0:0:0:
112,136,86062,2,0,L|176:136,1,45,0|0,3:3|3:3,0:0:0:0:
320,128,86173,2,0,L|256:128,1,45,0|0,3:3|3:3,0:0:0:0:
216,128,86285,2,0,L|288:128,1,45,0|0,3:3|3:3,0:0:0:0:
424,144,86396,5,4,3:2:0:0:
480,144,86451,2,0,L|496:96,2,45,0|0|0,3:3|3:3|3:3,0:0:0:0:
320,256,86618,2,0,L|312:208,1,45,0|0,3:3|3:3,0:0:0:0:
376,224,86729,2,0,L|368:176,1,45,0|0,3:3|3:3,0:0:0:0:
200,200,86840,6,0,L|208:152,1,45,0|0,3:3|3:3,0:0:0:0:
272,160,86951,2,0,L|280:112,1,45,0|0,3:3|3:3,0:0:0:0:
120,168,87062,2,0,L|72:168,1,45,0|0,3:3|3:3,0:0:0:0:
240,168,87173,2,0,L|304:168,1,45,0|0,3:3|3:3,0:0:0:0:
112,144,87285,5,6,3:2:0:0:
56,144,87340,2,0,L|40:96,2,45,0|0|0,3:3|3:3|3:3,0:0:0:0:
216,128,87507,2,0,L|272:128,1,45,2|0,3:2|0:0,0:0:0:0:
200,120,87618,2,0,L|144:120,1,45,2|0,3:2|3:3,0:0:0:0:
320,144,87729,6,0,L|368:144,1,45,0|0,3:3|3:3,0:0:0:0:
424,144,87840,2,0,L|376:144,1,45,2|0,3:2|0:0,0:0:0:0:
216,168,87951,2,0,L|224:120,1,45,2|0,3:2|3:3,0:0:0:0:
288,128,88062,2,0,L|280:80,1,45,2|0,3:2|3:3,0:0:0:0:
104,264,88173,6,0,L|48:264,1,45,0|0,3:3|3:3,0:0:0:0:
120,256,88285,2,0,L|200:256,1,45,0|0,3:3|3:3,0:0:0:0:
104,240,88396,2,0,L|160:240,1,45,0|0,3:3|3:3,0:0:0:0:
320,256,88507,6,0,L|376:256,1,45,0|0,3:3|3:3,0:0:0:0:
304,240,88618,1,10,3:2:0:0:
248,240,88673,2,0,L|232:192,2,45,0|0|0,3:3|3:3|3:3,0:0:0:0:
416,128,88840,2,0,L|352:128,1,45,2|0,3:2|3:3,0:0:0:0:
200,120,88951,2,0,L|128:120,1,45,2|0,3:2|3:3,0:0:0:0:
336,224,89062,5,4,3:2:0:0:
392,224,89117,2,0,L|408:176,2,45,0|0|0,3:3|3:3|3:3,0:0:0:0:
224,192,89285,2,0,L|176:192,1,45,0|0,3:3|3:3,0:0:0:0:
240,176,89396,2,0,L|248:128,1,45,0|0,3:3|3:3,0:0:0:0:
88,152,89507,2,0,L|120:120,1,45,2|0,3:2|3:3,0:0:0:0:
176,120,89618,2,0,L|248:120,1,45,0|0,3:3|3:3,0:0:0:0:
56,256,89729,6,0,L|48:208,1,45,2|0,3:2|3:3,0:0:0:0:
112,224,89840,1,0,3:3:0:0:
168,224,89895,2,0,L|184:176,2,45,0|2|0,3:3|3:2|3:3,0:0:0:0:
104,224,90062,2,0,L|176:224,1,45,0|0,3:3|3:3,0:0:0:0:
312,176,90173,6,0,L|280:144,1,45,0|0,3:3|3:3,0:0:0:0:
224,136,90285,2,0,L|168:136,1,45,0|0,3:3|3:3,0:0:0:0:
344,232,90396,2,0,L|440:232,1,90,2|2,3:2|3:2,0:0:0:0:
222,176,90618,2,0,L|334:176,1,90,2|2,3:2|3:2,0:0:0:0:
88,256,90840,6,0,L|40:256,1,45,8|0,3:2|3:3,0:0:0:0:
104,248,90951,2,0,L|160:248,1,45,0|0,3:3|3:3,0:0:0:0:
304,248,91062,2,0,L|256:248,1,45,0|0,3:3|3:3,0:0:0:0:
200,248,91173,2,0,L|256:248,1,45,0|0,3:3|3:3,0:0:0:0:
408,176,91285,5,8,3:2:0:0:
464,176,91340,2,0,L|480:128,2,45,0|8|0,3:3|3:2|3:3,0:0:0:0:
304,160,91507,2,0,L|352:160,1,45,8|0,3:2|3:3,0:0:0:0:
408,160,91618,2,0,L|352:160,1,45,8|0,3:2|3:3,0:0:0:0:
184,152,91729,6,0,L|120:152,1,45,4|0,3:2|3:3,0:0:0:0:
320,128,91840,2,0,L|376:128,1,45,0|0,3:3|0:0,0:0:0:0:
184,264,91951,2,0,L|224:224,1,45,0|0,3:3|0:0,0:0:0:0:
272,224,92062,2,0,L|320:224,1,45,0|0,3:3|0:0,0:0:0:0:
128,232,92173,6,0,L|120:184,1,45,4|4,2:2|2:2,0:0:0:0:
240,200,92284,1,4,2:2:0:0:
360,200,92340,1,4,2:2:0:0:
240,200,92396,2,0,L|176:200,1,45,8|8,2:2|2:2,0:0:0:0:
136,200,92507,2,0,L|88:200,1,45,8|8,2:2|2:2,0:0:0:0:
296,168,92618,6,0,L|360:168,1,45,4|0,3:2|3:3,0:0:0:0:
400,168,92729,2,0,L|352:168,1,45,0|0,3:3|3:3,0:0:0:0:
192,136,92840,2,0,L|144:136,1,45,0|0,3:3|3:3,0:0:0:0:
208,128,92951,2,0,L|272:128,1,45,0|0,3:3|3:3,0:0:0:0:
88,216,93062,6,0,L|128:176,1,45,0|0,3:3|3:3,0:0:0:0:
176,176,93173,2,0,L|224:176,1,45,0|0,3:3|3:3,0:0:0:0:
384,248,93285,2,0,L|344:208,1,45,0|0,3:3|3:3,0:0:0:0:
296,208,93396,2,0,L|248:208,1,45,0|0,3:3|3:3,0:0:0:0:
416,176,93507,5,2,3:2:0:0:
472,176,93562,2,0,L|488:128,2,45,0|0|0,3:3|3:3|3:3,0:0:0:0:
304,136,93729,2,0,L|256:136,1,45,2|0,3:2|3:3,0:0:0:0:
320,128,93840,2,0,L|328:80,1,45,0|0,3:3|3:3,0:0:0:0:
168,112,93951,6,0,L|112:112,1,45,2|0,3:2|3:3,0:0:0:0:
64,112,94062,2,0,L|128:112,1,45,0|0,3:3|3:3,0:0:0:0:
272,136,94173,2,0,L|328:136,1,45,2|0,3:2|3:3,0:0:0:0:
152,112,94285,2,0,L|144:64,1,45,0|0,3:3|3:3,0:0:0:0:
304,216,94396,6,0,L|272:184,1,45,2|0,3:2|0:0,0:0:0:0:
216,184,94507,2,0,L|168:184,1,45,2|0,3:2|3:3,0:0:0:0:
336,248,94618,2,0,L|408:248,1,45,2|0,3:2|3:3,0:0:0:0:
320,224,94729,1,2,3:2:0:0:
264,224,94784,2,0,L|248:176,2,45,0|0|0,3:3|3:3|3:3,0:0:0:0:
328,184,94951,2,0,L|384:184,1,45,0|0,3:3|3:3,0:0:0:0:
216,152,95062,2,0,L|224:104,1,45,0|0,3:3|3:3,0:0:0:0:
288,112,95173,2,0,L|296:64,1,45,0|0,3:3|3:3,0:0:0:0:
120,96,95285,5,6,3:2:0:0:
304,64,95396,2,0,L|208:64,1,90,2|2,3:2|3:2,0:0:0:0:
408,120,95618,1,0,3:3:0:0:
224,88,95729,2,0,L|320:88,1,90,2|0,3:2|3:3,0:0:0:0:
128,48,95951,2,0,L|32:48,1,90,2|0,3:2|3:3,0:0:0:0:
264,256,96173,6,0,L|272:208,1,45,12|0,2:2|0:0,0:0:0:0:
208,200,96285,1,0,3:3:0:0:
152,200,96340,2,0,L|136:152,2,45,0|0|0,0:0|3:3|0:0,0:0:0:0:
320,176,96507,6,0,L|376:176,1,45,12|0,2:2|0:0,0:0:0:0:
304,168,96618,2,0,L|256:168,1,45,0|0,3:3|0:0,0:0:0:0:
320,160,96729,2,0,L|368:160,1,45,0|0,3:3|0:0,0:0:0:0:
208,160,96840,6,0,L|248:120,1,45,12|0,2:2|3:3,0:0:0:0:
296,120,96951,2,0,L|352:120,1,45,0|0,3:3|3:3,0:0:0:0:
160,264,97062,6,0,L|104:264,1,45,8|0,3:2|3:3,0:0:0:0:
176,248,97173,2,0,L|184:200,1,45,0|0,3:3|3:3,0:0:0:0:
120,192,97285,1,0,3:3:0:0:
64,192,97340,2,0,L|48:144,2,45,0|0|0,3:3|3:3|3:3,0:0:0:0:
240,224,97507,6,0,L|200:184,1,45,8|0,3:2|3:3,0:0:0:0:
152,184,97618,2,0,L|96:184,1,45,0|0,3:3|3:3,0:0:0:0:
288,184,97729,2,0,L|344:184,1,45,0|0,3:3|3:3,0:0:0:0:
392,184,97840,2,0,L|432:144,1,45,0|0,3:3|3:3,0:0:0:0:
240,144,97951,6,0,L|176:144,1,45,12|0,3:2|3:3,0:0:0:0:
320,120,98062,1,0,3:3:0:0:
440,120,98118,1,0,3:3:0:0:
320,120,98173,2,0,L|256:120,1,45,12|0,3:2|3:3,0:0:0:0:
336,112,98285,2,0,L|392:112,1,45,0|0,3:3|3:3,0:0:0:0:
208,144,98396,6,0,L|160:144,1,45,4|0,3:2|3:3,0:0:0:0:
104,144,98507,2,0,L|160:144,1,45,8|0,3:2|3:3,0:0:0:0:
328,192,98618,2,0,L|336:144,1,45,4|4,2:2|2:2,0:0:0:0:
272,160,98729,2,0,L|264:112,1,45,4|4,2:2|2:2,0:0:0:0:
424,232,98840,6,0,L|472:232,1,45,4|0,3:2|3:3,0:0:0:0:
304,216,98951,2,0,L|248:216,1,45,0|0,3:3|3:3,0:0:0:0:
96,208,99062,2,0,L|152:208,1,45,4|0,3:2|3:3,0:0:0:0:
304,208,99173,2,0,L|360:208,1,45,0|0,3:3|3:3,0:0:0:0:
208,128,99285,5,4,2:2:0:0:
72,144,99340,1,4,2:2:0:0:
208,128,99396,2,0,L|264:128,1,45,4|4,2:2|2:2,0:0:0:0:
416,112,99507,2,0,L|360:112,1,45,4|4,2:2|2:2,0:0:0:0:
192,96,99618,2,0,L|128:96,1,45,4|4,2:2|2:2,0:0:0:0:
328,176,99729,6,0,L|392:176,1,45,4|0,3:2|3:3,0:0:0:0:
432,176,99840,2,0,L|384:176,1,45,0|0,3:3|3:3,0:0:0:0:
224,152,99951,2,0,L|216:104,1,45,0|0,3:3|3:3,0:0:0:0:
280,112,100062,2,0,L|272:64,1,45,0|0,3:3|3:3,0:0:0:0:
112,128,100173,6,0,L|64:128,1,45,0|0,3:3|3:3,0:0:0:0:
128,120,100285,2,0,L|184:120,1,45,0|0,3:3|3:3,0:0:0:0:
320,160,100396,2,0,L|256:160,1,45,0|0,3:3|3:3,0:0:0:0:
216,160,100507,2,0,L|264:160,1,45,0|0,3:3|3:3,0:0:0:0:
408,192,100618,5,8,3:2:0:0:
464,192,100673,2,0,L|480:144,2,45,0|0|0,3:3|3:3|3:3,0:0:0:0:
304,136,100840,2,0,L|248:136,1,45,0|0,3:3|3:3,0:0:0:0:
320,128,100951,2,0,L|328:80,1,45,0|0,3:3|3:3,0:0:0:0:
168,240,101062,6,0,L|216:192,1,45,0|0,3:3|3:3,0:0:0:0:
256,200,101173,2,0,L|312:200,1,45,0|0,3:3|3:3,0:0:0:0:
136,192,101285,1,0,3:3:0:0:
80,192,101340,2,0,L|64:144,2,45,0|0|0,3:3|3:3|3:3,0:0:0:0:
248,176,101507,6,0,L|256:80,1,90,2|0,3:2|3:3,0:0:0:0:
72,96,101729,1,2,3:2:0:0:
264,104,101840,2,0,L|168:104,1,90,10|0,3:2|3:3,0:0:0:0:
368,96,102062,1,2,3:2:0:0:
176,72,102173,2,0,L|64:72,1,90,2|2,3:2|3:2,0:0:0:0:
288,232,102396,6,0,L|296:136,1,90,8|0,3:2|3:3,0:0:0:0:
184,184,102618,2,0,L|192:88,1,90,0|0,3:3|3:3,0:0:0:0:
376,80,102840,1,10,3:2:0:0:
192,80,102951,1,8,3:2:0:0:
384,88,103062,2,0,L|480:88,1,90,6|6,3:2|3:2,0:0:0:0:
240,176,103285,6,0,L|192:176,1,45,4|0,3:2|3:3,0:0:0:0:
256,168,103396,2,0,L|304:168,1,45,0|0,3:3|3:3,0:0:0:0:
136,192,103507,1,0,3:3:0:0:
80,192,103562,2,0,L|64:144,2,45,0|0|0,3:3|3:3|3:3,0:0:0:0:
240,144,103729,6,0,L|192:144,1,45,2|0,3:2|3:3,0:0:0:0:
136,144,103840,2,0,L|192:144,1,45,0|0,3:3|3:3,0:0:0:0:
344,128,103951,2,0,L|400:128,1,45,10|0,3:2|3:3,0:0:0:0:
448,128,104062,2,0,L|384:128,1,45,0|0,3:3|3:3,0:0:0:0:
224,256,104173,6,0,L|232:208,1,45,10|0,3:2|3:3,0:0:0:0:
296,216,104284,2,0,L|304:168,1,45,0|0,3:3|3:3,0:0:0:0:
232,168,104396,2,0,L|176:168,1,45,0|0,3:3|3:3,0:0:0:0:
352,208,104507,6,0,L|416:208,1,45,8|0,3:2|3:3,0:0:0:0:
464,208,104618,2,0,L|472:160,1,45,2|0,3:2|3:3,0:0:0:0:
408,160,104729,2,0,L|352:160,1,45,2|0,3:2|3:3,0:0:0:0:
192,112,104840,2,0,L|248:112,1,45,10|0,3:2|3:3,0:0:0:0:
408,112,104951,2,0,L|456:112,1,45,2|0,3:2|3:3,0:0:0:0:
272,248,105062,6,0,L|176:248,1,90,4|0,3:2|3:3,0:0:0:0:
296,216,105285,2,0,L|184:216,1,90,0|0,3:3|3:3,0:0:0:0:
392,192,105507,2,0,L|384:96,1,90,8|8,3:2|3:2,0:0:0:0:
272,160,105729,2,0,L|264:64,1,90,8|8,3:2|3:2,0:0:0:0:
448,104,105951,5,4,3:2:0:0:
264,104,106062,2,0,L|152:104,1,90,0|0,3:3|0:0,0:0:0:0:
368,88,106285,1,0,3:3:0:0:
88,224,106396,6,0,L|144:224,1,45,4|4,2:2|2:2,0:0:0:0:
192,216,106507,2,0,L|208:168,2,45,4|4|8,2:2|2:2|2:2,0:0:0:0:
136,208,106673,1,8,2:2:0:0:
288,160,106729,2,0,L|296:112,1,45,8|8,2:2|2:2,0:0:0:0:
110,136,106840,5,4,3:2:0:0:
59,130,106896,2,0,L|38:74,2,45,0|0|0,3:3|3:3|3:3,0:0:0:0:
223,124,107062,2,0,L|281:121,1,45,4|0,3:2|3:3,0:0:0:0:
204,89,107173,2,0,L|198:34,1,45,0|0,3:3|3:3,0:0:0:0:
368,23,107285,2,0,L|378:78,1,45,4|0,3:2|3:3,0:0:0:0:
311,77,107396,2,0,L|306:127,1,45,0|0,3:3|3:3,0:0:0:0:
479,166,107507,2,0,L|451:216,1,45,4|0,3:2|3:3,0:0:0:0:
402,231,107618,2,0,L|353:238,1,45,0|0,3:3|3:3,0:0:0:0:
188,272,107729,6,0,L|222:317,1,45,12|0,3:2|3:3,0:0:0:0:
269,326,107840,2,0,L|322:337,1,45,0|0,3:3|3:3,0:0:0:0:
138,350,107951,2,0,L|87:342,1,45,0|0,3:3|3:3,0:0:0:0:
146,306,108062,2,0,L|199:290,1,45,0|0,3:3|3:3,0:0:0:0:
357,252,108173,2,0,L|300:243,1,45,4|0,3:2|3:3,0:0:0:0:
262,239,108285,2,0,L|324:232,1,45,0|0,3:3|3:3,0:0:0:0:
476,180,108396,1,0,3:3:0:0:
497,145,108451,1,0,3:3:0:0:
476,180,108507,1,0,3:3:0:0:
427,193,108562,1,0,3:3:0:0:
257,195,108618,6,0,L|351:174,1,90,4|0,3:2|3:3,0:0:0:0:
139,118,108840,2,0,L|47:94,1,90,0|0,3:3|3:3,0:0:0:0:
243,60,109062,1,4,3:2:0:0:
51,43,109173,1,0,3:3:0:0:
241,26,109285,1,0,3:3:0:0:
430,68,109396,1,0,3:3:0:0:
214,136,109507,5,8,3:2:0:0:
169,207,109618,1,0,3:3:0:0:
214,136,109729,1,0,3:3:0:0:
303,148,109840,1,0,3:3:0:0:
101,266,109951,2,0,L|16:236,1,90,2|0,3:2|3:3,0:0:0:0:
220,279,110173,1,2,3:2:0:0:
22,338,110285,1,0,3:3:0:0:
251,343,110396,6,0,L|277:292,2,45,12|0|0,2:2|0:0|3:3,0:0:0:0:
202,349,110562,1,0,0:0:0:0:
371,279,110618,1,0,3:3:0:0:
420,262,110673,2,0,L|444:207,2,45,0|12|0,0:0|2:2|0:0,0:0:0:0:
250,188,110840,2,0,L|184:180,1,45,0|0,3:3|0:0,0:0:0:0:
375,148,110951,2,0,L|380:86,1,45,0|0,3:3|0:0,0:0:0:0:
208,102,111062,2,0,L|201:44,1,45,12|0,2:2|3:3,0:0:0:0:
268,60,111173,2,0,L|274:8,1,45,0|0,3:3|3:3,0:0:0:0:
99,112,111285,6,0,L|74:161,2,45,8|0|0,3:2|3:3|3:3,0:0:0:0:
143,125,111451,1,0,3:3:0:0:
198,140,111507,1,0,3:3:0:0:
253,152,111562,1,0,3:3:0:0:
190,178,111618,2,0,L|180:250,1,45,0|0,3:3|3:3,0:0:0:0:
355,256,111729,2,0,L|323:300,1,45,8|0,3:2|3:3,0:0:0:0:
273,316,111840,2,0,L|225:323,1,45,0|0,3:3|3:3,0:0:0:0:
392,336,111951,2,0,L|440:343,1,45,0|0,3:3|3:3,0:0:0:0:
267,273,112062,2,0,L|213:261,1,45,0|0,3:3|3:3,0:0:0:0:
394,209,112173,5,4,3:2:0:0:
444,195,112229,2,0,L|465:144,2,45,0|0|0,3:3|3:3|3:3,0:0:0:0:
276,138,112396,2,0,L|314:88,1,45,4|0,3:2|3:3,0:0:0:0:
358,92,112507,2,0,L|412:75,1,45,0|0,3:3|3:3,0:0:0:0:
229,64,112618,2,0,L|193:27,1,45,4|0,3:2|3:3,0:0:0:0:
144,23,112729,2,0,L|90:17,1,45,0|0,3:3|3:3,0:0:0:0:
269,105,112840,2,0,L|298:157,2,45,4|0|0,3:2|3:3|3:3,0:0:0:0:
222,97,113007,1,0,3:3:0:0:
50,172,113062,6,0,L|100:201,1,45,8|8,2:2|2:2,0:0:0:0:
225,235,113173,1,8,2:2:0:0:
361,250,113229,1,8,2:2:0:0:
218,309,113285,1,8,2:2:0:0:
169,312,113340,2,0,L|145:355,2,45,8|8|8,2:2|2:2|2:2,0:0:0:0:
333,305,113507,1,4,2:2:0:0:
148,232,113618,1,4,2:2:0:0:
351,194,113729,2,0,L|460:187,1,90,4|4,2:2|2:2,0:0:0:0:
222,97,113951,6,0,L|176:87,1,45,12|0,3:2|3:3,0:0:0:0:
344,61,114062,2,0,L|399:58,1,45,8|0,3:2|3:3,0:0:0:0:
227,145,114173,2,0,L|175:149,1,45,12|0,3:2|3:3,0:0:0:0:
16,222,114285,2,0,L|75:242,1,45,8|0,3:2|3:3,0:0:0:0:
223,296,114396,2,0,L|280:300,1,45,14|0,3:2|3:3,0:0:0:0:
86,347,114507,2,0,L|33:351,1,45,8|0,3:2|3:3,0:0:0:0:
210,318,114618,2,0,L|269:312,1,45,14|0,3:2|3:3,0:0:0:0:
422,258,114729,2,0,L|367:249,1,45,8|0,3:2|3:3,0:0:0:0:
217,208,114840,6,0,L|166:199,1,45,14|0,3:2|3:3,0:0:0:0:
341,159,114951,2,0,L|401:158,1,45,10|0,3:2|3:3,0:0:0:0:
223,116,115062,2,0,L|171:111,1,45,14|0,3:2|3:3,0:0:0:0:
16,49,115173,2,0,L|75:45,1,45,10|0,3:2|3:3,0:0:0:0:
236,41,115285,2,0,L|307:47,1,45,14|0,3:2|3:3,0:0:0:0:
443,77,115396,2,0,L|366:76,1,45,8|0,3:2|3:3,0:0:0:0:
223,164,115507,2,0,L|167:162,1,45,14|0,3:2|3:3,0:0:0:0:
352,216,115618,2,0,L|411:226,1,45,8|0,3:2|3:3,0:0:0:0:
231,273,115729,6,0,L|211:230,2,45,12|0|8,3:2|3:3|3:2,0:0:0:0:
281,289,115896,1,0,3:3:0:0:
435,329,115951,2,0,L|491:326,1,45,14|0,3:2|3:3,0:0:0:0:
429,325,116062,2,0,L|366:317,1,45,8|0,3:2|3:3,0:0:0:0:
220,281,116173,1,14,3:2:0:0:
270,261,116229,2,0,L|291:214,2,45,0|8|0,3:3|3:2|3:3,0:0:0:0:
101,231,116396,2,0,L|142:186,1,45,12|0,3:2|3:3,0:0:0:0:
182,187,116507,2,0,L|231:179,1,45,8|0,3:2|3:3,0:0:0:0:
393,152,116618,6,0,L|349:108,1,45,14|0,3:2|3:3,0:0:0:0:
304,103,116729,2,0,L|251:89,1,45,8|0,3:2|3:3,0:0:0:0:
431,39,116840,2,0,L|457:88,2,45,14|0|8,3:2|3:3|3:2,0:0:0:0:
381,42,117007,1,0,3:3:0:0:
211,50,117062,2,0,L|199:113,1,45,6|4,2:2|2:2,0:0:0:0:
265,119,117173,2,0,L|271:171,1,45,4|4,2:2|2:2,0:0:0:0:
206,189,117285,1,10,2:2:0:0:
157,209,117340,2,0,L|129:263,2,45,8|8|8,2:2|2:2|2:2,0:0:0:0:
332,273,117507,6,0,L|266:273,1,45,12|0,3:2|3:3,0:0:0:0:
119,338,117618,2,0,L|66:335,1,45,8|0,3:2|3:3,0:0:0:0:
241,310,117729,2,0,L|295:310,1,45,12|0,3:2|3:3,0:0:0:0:
121,268,117840,2,0,L|60:261,1,45,8|0,3:2|3:3,0:0:0:0:
240,221,117951,2,0,L|302:218,1,45,14|0,3:2|3:3,0:0:0:0:
457,184,118062,2,0,L|394:175,1,45,8|0,3:2|3:3,0:0:0:0:
261,135,118173,2,0,L|207:128,1,45,14|0,3:2|3:3,0:0:0:0:
45,101,118285,2,0,L|103:96,1,45,8|0,3:2|3:3,0:0:0:0:
260,63,118396,6,0,L|309:61,1,45,14|0,3:2|3:3,0:0:0:0:
130,44,118507,2,0,L|69:33,1,45,10|0,3:2|3:3,0:0:0:0:
235,76,118618,2,0,L|287:89,1,45,14|0,3:2|3:3,0:0:0:0:
428,136,118729,2,0,L|431:202,1,45,10|0,3:2|3:3,0:0:0:0:
262,215,118840,2,0,L|216:218,1,45,14|0,3:2|3:3,0:0:0:0:
385,274,118951,2,0,L|438:284,1,45,8|0,3:2|3:3,0:0:0:0:
252,331,119062,2,0,L|203:335,1,45,14|0,3:2|3:3,0:0:0:0:
31,278,119173,2,0,L|95:278,1,45,8|0,3:2|3:3,0:0:0:0:
251,261,119285,6,0,L|310:260,1,45,14|0,3:2|3:3,0:0:0:0:
232,223,119396,2,0,L|211:173,2,45,8|0|8,3:2|3:3|3:2,0:0:0:0:
281,242,119562,1,0,3:3:0:0:
336,245,119618,1,8,3:2:0:0:
390,248,119673,1,0,3:3:0:0:
253,192,119729,1,10,2:2:0:0:
117,162,119785,1,4,2:2:0:0:
263,130,119840,2,0,L|293:76,2,45,4|4|4,2:2|2:2|2:2,0:0:0:0:
213,145,120007,1,4,2:2:0:0:
159,184,120062,2,0,L|238:199,1,45,4|4,2:2|2:2,0:0:0:0:
372,216,120173,6,0,L|338:263,1,45,6|0,3:2|3:3,0:0:0:0:
290,283,120285,2,0,L|241:289,1,45,0|0,3:3|3:3,0:0:0:0:
79,338,120396,2,0,L|127:309,1,45,10|0,3:2|3:3,0:0:0:0:
283,333,120507,2,0,L|336:344,1,45,0|0,3:3|3:3,0:0:0:0:
156,335,120618,2,0,L|150:270,1,45,6|4,2:2|2:2,0:0:0:0:
216,273,120729,2,0,L|228:219,1,45,4|4,2:2|2:2,0:0:0:0:
162,204,120840,2,0,L|127:140,1,45,10|8,2:2|2:2,0:0:0:0:
76,141,120951,2,0,L|29:119,1,45,8|8,2:2|2:2,0:0:0:0:
203,94,121062,6,0,L|261:84,1,45,4|0,3:2|3:3,0:0:0:0:
80,46,121173,2,0,L|32:42,1,45,0|0,3:3|3:3,0:0:0:0:
193,67,121285,2,0,L|261:74,1,45,8|0,3:2|3:3,0:0:0:0:
394,130,121396,2,0,L|399:194,1,45,8|0,3:2|3:3,0:0:0:0:
216,242,121507,2,0,L|292:253,1,45,6|0,3:2|0:0,0:0:0:0:
430,301,121618,2,0,L|505:313,1,45,0|0,3:3|3:3,0:0:0:0:
306,323,121729,2,0,L|261:317,1,45,2|0,3:2|0:0,0:0:0:0:
92,293,121840,2,0,L|45:282,1,45,0|0,3:3|3:3,0:0:0:0:
217,228,121951,6,0,L|271:225,1,45,14|0,3:2|3:3,0:0:0:0:
93,193,122062,2,0,L|81:139,1,45,10|0,3:2|3:3,0:0:0:0:
251,141,122173,2,0,L|261:74,1,45,14|0,3:2|3:3,0:0:0:0:
430,104,122285,2,0,L|437:54,1,45,10|0,3:2|3:3,0:0:0:0:
265,42,122396,2,0,L|320:45,1,45,6|0,3:2|3:3,0:0:0:0:
482,133,122507,2,0,L|426:137,1,45,0|0,3:3|3:3,0:0:0:0:
268,190,122618,2,0,L|208:182,1,45,6|0,3:2|3:3,0:0:0:0:
53,213,122729,2,0,L|114:233,1,45,0|0,3:3|3:3,0:0:0:0:
266,288,122840,6,0,L|273:358,1,45,4|0,3:2|3:3,0:0:0:0:
205,332,122951,2,0,L|196:386,1,45,0|0,3:3|3:3,0:0:0:0:
366,334,123062,1,6,3:2:0:0:
416,308,123118,2,0,L|433:265,2,45,0|0|0,3:3|3:3|3:3,0:0:0:0:
247,240,123285,2,0,L|224:186,2,45,6|0|0,3:2|3:3|3:3,0:0:0:0:
296,248,123451,1,0,3:3:0:0:
127,187,123507,2,0,L|104:133,2,45,4|0|0,3:2|3:3|3:3,0:0:0:0:
176,195,123673,1,0,3:3:0:0:
346,176,123729,6,0,L|294:175,1,45,14|0,3:2|0:0,0:0:0:0:
128,148,123840,2,0,L|62:142,1,45,0|0,3:3|0:0,0:0:0:0:
245,99,123951,2,0,L|304:94,1,45,14|0,3:2|0:0,0:0:0:0:
128,58,124062,2,0,L|183:49,1,45,0|0,3:3|3:3,0:0:0:0:
346,37,124173,6,0,L|371:90,2,45,4|4|4,2:2|2:2|2:2,0:0:0:0:
296,48,124340,1,4,2:2:0:0:
241,76,124396,1,8,2:2:0:0:
192,96,124451,2,0,L|172:145,2,45,8|8|8,2:2|2:2|2:2,0:0:0:0:
365,173,124618,6,0,L|418:175,1,45,12|0,3:2|3:3,0:0:0:0:
242,252,124729,2,0,L|189:257,1,45,8|0,3:2|3:3,0:0:0:0:
368,301,124840,2,0,L|419:307,1,45,12|0,3:2|3:3,0:0:0:0:
245,357,124951,2,0,L|183:353,1,45,8|0,3:2|3:3,0:0:0:0:
32,273,125062,2,0,L|98:272,1,45,14|0,3:2|0:0,0:0:0:0:
234,237,125173,2,0,L|311:237,1,45,8|0,3:2|0:0,0:0:0:0:
108,178,125285,2,0,L|59:170,1,45,14|0,3:2|0:0,0:0:0:0:
232,143,125396,2,0,L|287:141,1,45,8|0,3:2|3:3,0:0:0:0:
445,124,125507,6,0,L|499:127,1,45,14|0,3:2|3:3,0:0:0:0:
321,100,125618,2,0,L|313:41,1,45,10|0,3:2|3:3,0:0:0:0:
145,29,125729,2,0,L|139:86,1,45,14|0,3:2|3:3,0:0:0:0:
309,160,125840,2,0,L|372:172,1,45,10|0,3:2|3:3,0:0:0:0:
185,214,125951,2,0,L|83:230,1,90,14|8,3:2|3:2,0:0:0:0:
313,360,126173,2,0,L|318:250,1,90,14|8,3:2|3:2,0:0:0:0:
73,196,126396,5,14,3:2:0:0:
220,173,126451,1,4,2:2:0:0:
370,166,126507,2,0,L|431:165,1,45,4|4,2:2|2:2,0:0:0:0:
247,121,126618,1,4,2:2:0:0:
198,110,126673,2,0,L|171:164,2,45,4|4|4,2:2|2:2|2:2,0:0:0:0:
348,83,126840,1,14,3:2:0:0:
498,95,126896,1,4,2:2:0:0:
348,83,126951,2,0,L|294:74,1,45,4|4,2:2|2:2,0:0:0:0:
473,165,127062,2,0,L|494:212,2,45,6|4|4,2:2|2:2|2:2,0:0:0:0:
423,185,127229,1,4,2:2:0:0:
239,279,127285,6,0,L|334:301,1,90,4|0,3:2|3:3,0:0:0:0:
228,251,127507,2,0,L|330:247,1,90,0|0,3:3|3:3,0:0:0:0:
124,204,127729,1,8,2:2:0:0:
359,183,127840,1,8,2:2:0:0:
127,98,127951,2,0,L|15:95,1,90,4|4,2:2|2:2,0:0:0:0:
436,34,128173,5,4,3:2:0:0:
192,328,129951,6,0,P|248:328|248:80,1,396.562515127659,2|0,2:2|0:0,0:0:0:0:
248,328,130618,2,0,P|192:328|192:80,1,396.562515127659,2|0,2:2|0:0,0:0:0:0:
192,80,131285,1,2,2:2:0:0:
432,192,131729,5,4,2:2:0:0:
264,184,133062,6,0,P|296:152|416:184,1,180,2|0,2:2|2:2,0:0:0:0:
128,320,133507,6,0,P|128:272|336:64,1,360,4|0,2:2|2:2,0:0:0:0:
48,368,134173,2,0,L|40:8,1,360,4|0,2:2|2:2,0:0:0:0:
200,272,134840,2,0,L|192:88,1,180,8|0,2:2|0:0,0:0:0:0:
472,96,135285,5,4,3:2:0:0:
352,328,137062,6,0,P|296:328|296:80,1,396.562515127659,2|0,2:2|0:0,0:0:0:0:
296,328,137729,2,0,P|352:328|352:80,1,396.562515127659,2|0,2:2|0:0,0:0:0:0:
352,80,138396,1,2,2:2:0:0:
112,344,138840,6,0,P|112:304|344:72,1,396.562515127659,4|0,2:2|0:0,0:0:0:0:
344,344,139507,2,0,P|344:304|112:72,1,396.562515127659,2|0,2:2|0:0,0:0:0:0:
112,64,140173,1,2,2:2:0:0:
352,256,140618,6,0,P|400:256|400:88,1,270,4|0,3:2|2:2,0:0:0:0:
152,272,141062,2,0,P|184:240|408:240,1,270,4|0,3:2|2:2,0:0:0:0:
144,144,141507,6,0,L|80:144,1,45,4|0,3:2|3:3,0:0:0:0:
240,144,141618,2,0,L|304:144,1,45,0|0,3:3|3:3,0:0:0:0:
144,248,141729,1,0,3:3:0:0:
96,248,141785,1,0,3:3:0:0:
80,216,141840,1,0,3:3:0:0:
96,248,141896,1,0,3:3:0:0:
256,248,141951,6,0,L|304:248,1,45,4|4,2:2|2:2,0:0:0:0:
384,248,142062,2,0,L|392:200,1,45,4|4,2:2|2:2,0:0:0:0:
312,200,142173,2,0,L|304:152,1,45,4|4,2:2|2:2,0:0:0:0:
224,168,142285,2,0,L|168:168,1,45,4|4,2:2|2:2,0:0:0:0:
403,236,142396,5,6,3:2:0:0:
451,236,142452,1,0,3:3:0:0:
467,204,142507,1,2,3:2:0:0:
451,236,142563,1,0,3:3:0:0:
288,160,142618,2,0,L|232:160,1,45,2|0,3:2|3:3,0:0:0:0:
80,152,142729,2,0,L|24:152,1,45,2|0,3:2|3:3,0:0:0:0:
200,120,142840,6,0,L|272:120,1,45,2|0,3:2|3:3,0:0:0:0:
408,120,142951,2,0,L|336:120,1,45,2|0,3:2|3:3,0:0:0:0:
192,96,143063,2,0,L|240:96,1,45,2|0,3:2|3:3,0:0:0:0:
408,96,143174,2,0,L|472:96,1,45,2|0,3:2|3:3,0:0:0:0:
288,64,143285,6,0,L|232:64,1,45,2|0,3:2|3:3,0:0:0:0:
72,64,143396,2,0,L|64:16,1,45,2|0,3:2|3:3,0:0:0:0:
224,168,143507,2,0,L|296:168,1,45,2|0,3:2|3:3,0:0:0:0:
432,160,143618,2,0,L|440:104,1,45,2|0,3:2|3:3,0:0:0:0:
272,128,143729,6,0,L|216:128,1,45,2|0,3:2|3:3,0:0:0:0:
56,128,143840,2,0,L|128:128,1,45,2|0,3:2|3:3,0:0:0:0:
264,120,143951,2,0,L|344:120,1,45,2|0,3:2|3:3,0:0:0:0:
144,96,144062,2,0,L|200:96,1,45,2|0,3:2|3:3,0:0:0:0:
376,232,144173,6,0,L|448:232,1,45,6|0,3:2|3:3,0:0:0:0:
360,224,144285,2,0,L|304:224,1,45,2|0,3:2|3:3,0:0:0:0:
160,240,144396,1,2,3:2:0:0:
136,216,144451,1,0,3:3:0:0:
160,240,144507,1,2,3:2:0:0:
200,240,144562,1,0,3:3:0:0:
248,240,144618,1,2,3:2:0:0:
304,240,144673,1,0,3:3:0:0:
240,199,144729,2,0,L|232:151,1,45,2|0,3:2|3:3,0:0:0:0:
416,168,144840,6,0,L|472:168,1,45,6|0,3:2|3:3,0:0:0:0:
400,160,144951,2,0,L|328:160,1,45,2|0,3:2|3:3,0:0:0:0:
200,288,145062,2,0,L|152:288,1,45,2|0,3:2|3:3,0:0:0:0:
80,288,145173,2,0,L|72:240,1,45,2|0,3:2|3:3,0:0:0:0:
144,240,145284,2,0,L|152:192,1,45,2|0,3:2|3:3,0:0:0:0:
224,208,145396,2,0,L|280:208,1,45,2|0,3:2|3:3,0:0:0:0:
88,168,145507,6,0,L|32:168,1,45,6|0,3:2|3:3,0:0:0:0:
104,160,145618,2,0,L|176:160,1,45,2|0,3:2|3:3,0:0:0:0:
312,144,145729,2,0,L|368:144,1,45,2|0,3:2|3:3,0:0:0:0:
192,128,145840,2,0,L|136:128,1,45,2|0,3:2|3:3,0:0:0:0:
328,288,145951,6,0,L|384:288,1,45,4|0,3:2|3:3,0:0:0:0:
440,288,146062,1,0,3:3:0:0:
456,264,146118,1,0,3:3:0:0:
440,288,146173,1,0,3:3:0:0:
392,288,146229,1,0,3:3:0:0:
336,288,146285,1,0,3:3:0:0:
272,288,146340,1,0,3:3:0:0:
336,240,146396,2,0,L|280:240,1,45,0|0,3:3|3:3,0:0:0:0:
224,240,146507,1,0,3:3:0:0:
208,216,146563,1,0,3:3:0:0:
224,240,146618,1,0,3:3:0:0:
272,240,146674,1,0,3:3:0:0:
328,240,146730,1,0,3:3:0:0:
392,240,146785,1,0,3:3:0:0:
200,192,146840,5,8,3:2:0:0:
152,192,146896,1,0,3:3:0:0:
136,160,146951,1,0,3:3:0:0:
152,192,147007,1,0,3:3:0:0:
216,144,147062,2,0,L|176:104,1,45,0|0,3:3|3:3,0:0:0:0:
120,96,147173,2,0,L|56:96,1,45,0|0,3:3|3:3,0:0:0:0:
232,160,147285,5,0,3:3:0:0:
280,160,147340,1,0,3:3:0:0:
312,144,147396,1,0,3:3:0:0:
328,104,147451,1,0,3:3:0:0:
312,144,147507,1,0,3:3:0:0:
280,160,147562,1,0,3:3:0:0:
208,136,147618,2,0,L|136:136,1,45,0|0,3:3|3:3,0:0:0:0:
320,248,147729,5,4,3:2:0:0:
368,248,147785,1,0,3:3:0:0:
384,216,147840,1,0,3:3:0:0:
368,248,147896,1,0,3:3:0:0:
208,232,147951,2,0,L|248:192,1,45,0|0,3:3|3:3,0:0:0:0:
296,184,148062,2,0,L|344:184,1,45,0|0,3:3|3:3,0:0:0:0:
416,176,148173,2,0,L|376:136,1,45,0|0,3:3|3:3,0:0:0:0:
328,128,148284,2,0,L|280:128,1,45,0|0,3:3|3:3,0:0:0:0:
120,128,148396,2,0,L|168:128,1,45,4|0,3:2|3:3,0:0:0:0:
328,128,148507,2,0,L|400:128,1,45,0|0,3:3|3:3,0:0:0:0:
184,264,148618,6,0,P|136:264|136:144,1,180,8|0,3:2|3:3,0:0:0:0:
304,128,148951,1,0,3:3:0:0:
120,272,149062,2,0,P|152:240|376:240,1,270,4|0,3:2|2:2,0:0:0:0:
96,208,149507,5,4,3:2:0:0:
48,208,149563,1,0,3:3:0:0:
32,176,149618,1,0,3:3:0:0:
48,208,149674,1,0,3:3:0:0:
200,160,149729,2,0,L|256:160,1,45,4|0,3:2|3:3,0:0:0:0:
184,144,149840,2,0,L|176:88,1,45,0|0,3:3|3:3,0:0:0:0:
336,64,149951,6,0,L|392:64,1,45,4|0,3:2|3:3,0:0:0:0:
320,40,150062,2,0,L|256:40,1,45,0|0,3:3|3:3,0:0:0:0:
112,80,150173,2,0,L|56:80,1,45,4|0,3:2|3:3,0:0:0:0:
128,64,150284,2,0,L|192:64,1,45,0|0,3:3|3:3,0:0:0:0:
336,224,150396,6,0,L|384:224,1,45,12|0,3:2|3:3,0:0:0:0:
320,208,150507,1,0,3:3:0:0:
296,184,150562,1,0,3:3:0:0:
320,208,150618,2,0,L|376:208,1,45,4|0,3:2|3:3,0:0:0:0:
432,208,150729,2,0,L|488:208,1,45,0|0,3:3|3:3,0:0:0:0:
296,264,150840,6,0,L|248:264,1,45,4|0,3:2|3:3,0:0:0:0:
176,264,150951,2,0,L|168:216,1,45,0|0,3:3|3:3,0:0:0:0:
240,216,151062,2,0,L|248:168,1,45,4|0,3:2|3:3,0:0:0:0:
320,184,151174,2,0,L|376:184,1,45,0|0,3:3|3:3,0:0:0:0:
184,184,151285,6,0,L|120:184,1,45,12|0,3:2|3:3,0:0:0:0:
200,176,151396,2,0,L|256:176,1,45,0|0,3:3|3:3,0:0:0:0:
184,168,151507,2,0,L|120:168,1,45,0|0,3:3|3:3,0:0:0:0:
320,136,151618,6,0,L|384:136,1,45,8|0,3:2|3:3,0:0:0:0:
304,128,151729,2,0,L|248:128,1,45,0|0,3:3|3:3,0:0:0:0:
320,120,151840,2,0,L|384:120,1,45,0|0,3:3|3:3,0:0:0:0:
184,96,151951,6,0,L|128:96,1,45,12|0,3:2|3:3,0:0:0:0:
80,96,152062,2,0,L|32:96,1,45,0|0,3:3|3:3,0:0:0:0:
240,272,152173,6,0,L|296:272,1,45,4|4,2:2|2:2,0:0:0:0:
168,240,152285,1,4,2:2:0:0:
56,240,152340,1,4,2:2:0:0:
168,240,152396,1,4,2:2:0:0:
216,240,152452,1,4,2:2:0:0:
232,208,152507,1,4,2:2:0:0:
216,240,152563,1,4,2:2:0:0:
88,184,152618,6,0,L|80:136,1,45,12|8,2:2|2:2,0:0:0:0:
152,136,152729,2,0,L|160:88,1,45,8|8,2:2|2:2,0:0:0:0:
232,96,152840,2,0,L|264:64,1,45,8|8,2:2|2:2,0:0:0:0:
336,64,152951,2,0,L|392:64,1,45,8|8,2:2|2:2,0:0:0:0:
200,160,153062,6,0,L|192:112,1,45,6|0,3:2|3:3,0:0:0:0:
352,136,153173,2,0,L|408:136,1,45,2|0,3:2|3:3,0:0:0:0:
232,136,153285,2,0,L|176:136,1,45,2|0,3:2|3:3,0:0:0:0:
24,136,153396,2,0,L|80:136,1,45,2|0,3:2|3:3,0:0:0:0:
232,104,153507,2,0,L|288:104,1,45,2|0,3:2|3:3,0:0:0:0:
440,96,153618,2,0,L|368:96,1,45,2|0,3:2|3:3,0:0:0:0:
232,104,153729,6,0,L|224:56,1,45,6|0,3:2|3:3,0:0:0:0:
384,288,153840,2,0,L|432:288,1,45,2|0,3:2|3:3,0:0:0:0:
264,232,153951,2,0,L|208:232,1,45,2|0,3:2|3:3,0:0:0:0:
280,216,154062,2,0,L|288:168,1,45,2|0,3:2|3:3,0:0:0:0:
128,168,154173,2,0,L|64:168,1,45,2|0,3:2|3:3,0:0:0:0:
144,160,154285,2,0,L|208:160,1,45,2|0,3:2|3:3,0:0:0:0:
352,184,154396,5,6,3:2:0:0:
400,184,154452,1,0,3:3:0:0:
416,152,154507,1,2,3:2:0:0:
400,184,154563,1,0,3:3:0:0:
336,168,154618,2,0,L|328:120,1,45,2|0,3:2|3:3,0:0:0:0:
344,160,154729,2,0,L|336:112,1,45,2|0,3:2|3:3,0:0:0:0:
184,288,154840,5,4,3:2:0:0:
144,272,154895,1,0,3:3:0:0:
112,248,154951,1,0,3:3:0:0:
88,208,155006,1,0,3:3:0:0:
80,168,155062,1,0,3:3:0:0:
88,120,155117,1,0,3:3:0:0:
112,88,155173,1,0,3:3:0:0:
152,64,155228,1,0,3:3:0:0:
200,56,155284,1,0,3:3:0:0:
248,64,155340,1,0,3:3:0:0:
184,176,155396,2,0,L|176:128,1,45,0|0,3:3|3:3,0:0:0:0:
336,248,155507,2,0,L|384:248,1,45,4|0,3:2|3:3,0:0:0:0:
320,240,155618,2,0,L|272:240,1,45,0|0,3:3|3:3,0:0:0:0:
112,232,155729,6,0,L|104:184,1,45,8|0,3:2|3:3,0:0:0:0:
216,176,155840,1,0,3:3:0:0:
328,176,155896,1,0,3:3:0:0:
216,176,155951,2,0,L|160:176,1,45,0|0,3:3|3:3,0:0:0:0:
112,176,156062,2,0,L|64:176,1,45,0|0,3:3|3:3,0:0:0:0:
248,120,156173,5,4,2:2:0:0:
272,96,156228,1,4,2:2:0:0:
248,120,156284,2,0,L|192:120,1,45,4|4,2:2|2:2,0:0:0:0:
136,120,156396,2,0,L|184:120,1,45,4|4,2:2|2:2,0:0:0:0:
360,88,156507,2,0,L|424:88,1,45,4|4,2:2|2:2,0:0:0:0:
160,248,156618,6,0,L|88:248,1,45,4|0,3:2|3:3,0:0:0:0:
184,224,156729,1,0,3:3:0:0:
208,200,156785,1,0,3:3:0:0:
184,224,156840,2,0,L|120:224,1,45,0|0,3:3|3:3,0:0:0:0:
72,224,156951,2,0,L|128:224,1,45,0|0,3:3|3:3,0:0:0:0:
272,192,157062,6,0,L|216:192,1,45,0|0,3:3|3:3,0:0:0:0:
160,184,157173,2,0,L|224:184,1,45,0|0,3:3|3:3,0:0:0:0:
368,200,157285,1,0,3:3:0:0:
416,200,157340,2,0,L|432:152,2,45,0|0|0,3:3|3:3|3:3,0:0:0:0:
256,264,157507,6,0,L|296:224,1,45,4|0,3:2|3:3,0:0:0:0:
344,224,157618,2,0,L|400:224,1,45,0|0,3:3|3:3,0:0:0:0:
232,200,157729,2,0,L|176:200,1,45,0|0,3:3|3:3,0:0:0:0:
248,184,157840,2,0,L|304:184,1,45,0|0,3:3|3:3,0:0:0:0:
136,200,157951,5,0,3:3:0:0:
88,200,158006,2,0,L|72:152,2,45,0|0|0,3:3|3:3|3:3,0:0:0:0:
248,160,158173,2,0,L|304:160,1,45,0|0,3:3|3:3,0:0:0:0:
128,128,158285,2,0,L|80:128,1,45,0|0,3:3|3:3,0:0:0:0:
264,304,158396,6,0,L|272:256,1,45,6|0,3:2|3:3,0:0:0:0:
208,272,158507,1,0,3:3:0:0:
152,272,158562,2,0,L|136:224,2,45,0|2|0,3:3|3:2|0:0,0:0:0:0:
328,224,158729,2,0,L|384:224,1,45,2|0,3:2|3:3,0:0:0:0:
440,224,158840,6,0,L|432:168,1,45,0|0,3:3|3:3,0:0:0:0:
368,168,158951,2,0,L|296:168,1,45,2|0,3:2|0:0,0:0:0:0:
144,160,159062,2,0,L|216:160,1,45,2|0,3:2|3:3,0:0:0:0:
368,160,159173,2,0,L|432:160,1,45,2|0,3:2|3:3,0:0:0:0:
232,304,159285,6,0,L|184:304,1,45,0|0,3:3|3:3,0:0:0:0:
248,288,159396,2,0,L|304:288,1,45,0|0,3:3|3:3,0:0:0:0:
232,272,159507,1,0,3:3:0:0:
176,272,159562,2,0,L|160:224,2,45,0|0|0,3:3|3:3|3:3,0:0:0:0:
336,208,159729,5,10,3:2:0:0:
208,208,159785,1,0,3:3:0:0:
80,184,159840,2,0,L|152:184,1,45,0|0,3:3|3:3,0:0:0:0:
304,176,159951,2,0,L|360:176,1,45,2|0,3:2|3:3,0:0:0:0:
168,144,160062,2,0,L|88:144,1,45,2|0,3:2|3:3,0:0:0:0:
304,280,160173,6,0,L|360:280,1,45,4|0,3:2|3:3,0:0:0:0:
416,272,160285,2,0,L|432:224,2,45,0|0|0,3:3|3:3|3:3,0:0:0:0:
384,272,160451,1,0,3:3:0:0:
336,272,160507,1,0,3:3:0:0:
272,272,160562,1,0,3:3:0:0:
112,216,160618,6,0,L|144:184,1,45,2|0,3:2|3:3,0:0:0:0:
200,184,160729,2,0,L|256:184,1,45,0|0,3:3|3:3,0:0:0:0:
408,216,160840,2,0,L|376:184,1,45,2|0,3:2|3:3,0:0:0:0:
320,184,160951,2,0,L|264:184,1,45,0|0,3:3|3:3,0:0:0:0:
440,152,161062,6,0,L|512:152,1,45,2|0,3:2|3:3,0:0:0:0:
328,128,161173,2,0,L|264:128,1,45,0|0,3:3|3:3,0:0:0:0:
120,72,161285,2,0,L|64:72,1,45,0|0,3:3|3:3,0:0:0:0:
232,80,161396,2,0,L|312:80,1,45,0|0,3:3|3:3,0:0:0:0:
120,272,161507,6,0,L|16:272,1,90,2|2,3:2|3:2,0:0:0:0:
232,208,161729,1,2,3:2:0:0:
24,208,161840,1,2,3:2:0:0:
296,264,161951,5,8,3:2:0:0:
352,264,162007,1,0,3:3:0:0:
392,264,162062,1,0,3:3:0:0:
416,240,162118,1,0,3:3:0:0:
352,208,162173,2,0,L|272:208,1,45,0|0,3:3|3:3,0:0:0:0:
376,192,162285,2,0,L|304:192,1,45,0|0,3:3|3:3,0:0:0:0:
152,176,162396,6,0,L|216:176,1,45,8|0,3:2|3:3,0:0:0:0:
376,168,162507,2,0,L|432:168,1,45,8|0,3:2|3:3,0:0:0:0:
240,160,162618,2,0,L|176:160,1,45,8|0,3:2|3:3,0:0:0:0:
128,160,162729,2,0,L|112:112,2,45,8|0|4,3:2|3:3|3:2,0:0:0:0:
176,160,162896,1,0,3:3:0:0:
328,136,162951,6,0,L|384:136,1,45,0|0,3:3|0:0,0:0:0:0:
312,120,163062,2,0,L|264:120,1,45,0|0,3:3|0:0,0:0:0:0:
136,104,163173,1,0,3:3:0:0:
264,104,163229,1,0,0:0:0:0:
392,144,163285,5,4,2:2:0:0:
440,144,163340,2,0,L|456:96,2,45,4|4|4,2:2|2:2|2:2,0:0:0:0:
280,272,163507,2,0,L|272:224,1,45,8|8,2:2|2:2,0:0:0:0:
328,224,163618,2,0,L|320:176,1,45,8|8,2:2|2:2,0:0:0:0:
144,208,163729,6,0,L|120:160,2,45,4|0|0,3:2|3:3|3:3,0:0:0:0:
192,208,163896,1,0,3:3:0:0:
248,208,163951,1,0,3:3:0:0:
296,208,164007,2,0,L|320:160,2,45,0|0|0,3:3|3:3|3:3,0:0:0:0:
136,168,164173,6,0,L|88:168,1,45,0|0,3:3|3:3,0:0:0:0:
152,152,164285,2,0,L|216:152,1,45,0|0,3:3|3:3,0:0:0:0:
360,144,164396,2,0,L|440:144,1,45,0|0,3:3|3:3,0:0:0:0:
248,112,164507,2,0,L|304:112,1,45,0|0,3:3|3:3,0:0:0:0:
456,232,164618,6,0,L|424:200,1,45,2|0,3:2|3:3,0:0:0:0:
368,200,164729,2,0,L|312:200,1,45,0|0,3:3|3:3,0:0:0:0:
160,256,164840,2,0,L|192:224,1,45,2|0,3:2|3:3,0:0:0:0:
248,224,164951,2,0,L|304:224,1,45,0|0,3:3|3:3,0:0:0:0:
128,216,165062,6,0,L|104:168,2,45,2|0|0,3:2|3:3|3:3,0:0:0:0:
176,200,165229,1,0,3:3:0:0:
336,184,165285,2,0,L|328:136,1,45,2|0,3:2|3:3,0:0:0:0:
264,136,165396,2,0,L|256:88,1,45,0|0,3:3|3:3,0:0:0:0:
424,256,165507,6,0,L|432:208,1,45,2|0,3:2|0:0,0:0:0:0:
264,200,165618,2,0,L|208:200,1,45,2|0,3:2|3:3,0:0:0:0:
384,168,165729,2,0,L|432:168,1,45,2|0,3:2|3:3,0:0:0:0:
264,128,165840,2,0,L|192:128,1,45,2|0,3:2|3:3,0:0:0:0:
56,128,165951,6,0,L|128:128,1,45,0|0,3:3|3:3,0:0:0:0:
264,104,166062,2,0,L|320:104,1,45,0|0,3:3|3:3,0:0:0:0:
144,128,166173,2,0,L|216:128,1,45,0|0,3:3|3:3,0:0:0:0:
360,136,166285,2,0,L|424:136,1,45,0|0,3:3|3:3,0:0:0:0:
224,288,166396,5,6,3:2:0:0:
168,288,166507,1,2,3:2:0:0:
224,288,166618,2,0,L|328:288,1,90,2|0,3:2|3:3,0:0:0:0:
136,184,166840,2,0,L|32:184,1,90,2|0,3:2|3:3,0:0:0:0:
224,152,167062,1,2,3:2:0:0:
40,152,167173,1,0,3:3:0:0:
264,240,167285,6,0,L|272:192,1,45,12|0,2:2|0:0,0:0:0:0:
208,192,167396,2,0,L|184:144,2,45,0|0|0,3:3|0:0|3:3,0:0:0:0:
256,192,167562,1,0,0:0:0:0:
416,200,167618,6,0,L|472:200,1,45,12|0,2:2|0:0,0:0:0:0:
400,184,167729,2,0,L|328:184,1,45,0|0,3:3|0:0,0:0:0:0:
416,192,167840,2,0,L|472:192,1,45,0|0,3:3|0:0,0:0:0:0:
304,152,167951,2,0,L|240:152,1,45,12|0,2:2|3:3,0:0:0:0:
416,120,168062,2,0,L|472:120,1,45,0|0,3:3|3:3,0:0:0:0:
280,312,168173,6,0,L|232:312,1,45,8|0,3:2|3:3,0:0:0:0:
176,304,168285,2,0,L|144:272,1,45,0|0,3:3|3:3,0:0:0:0:
88,248,168396,2,0,L|80:200,3,45,0|0|0|0,3:3|3:3|3:3|3:3,0:0:0:0:
264,216,168618,6,0,L|312:216,1,45,8|0,3:2|3:3,0:0:0:0:
248,200,168729,2,0,L|200:200,1,45,0|0,3:3|3:3,0:0:0:0:
384,184,168840,1,0,3:3:0:0:
432,176,168896,2,0,L|456:128,2,45,0|0|0,3:3|3:3|3:3,0:0:0:0:
304,192,169062,5,12,3:2:0:0:
176,192,169118,1,0,3:3:0:0:
304,192,169173,2,0,L|360:192,1,45,0|0,3:3|3:3,0:0:0:0:
184,280,169285,6,0,L|128:280,1,45,12|0,3:2|3:3,0:0:0:0:
72,272,169397,2,0,L|48:224,2,45,0|0|4,3:3|3:3|3:2,0:0:0:0:
120,272,169563,1,0,3:3:0:0:
280,232,169618,6,0,L|288:184,1,45,8|0,3:2|3:3,0:0:0:0:
224,176,169729,2,0,L|232:128,1,45,4|4,2:2|2:2,0:0:0:0:
296,128,169840,2,0,L|304:80,1,45,4|4,2:2|2:2,0:0:0:0:
136,184,169951,5,4,3:2:0:0:
88,176,170007,2,0,L|64:128,2,45,0|0|0,3:3|3:3|3:3,0:0:0:0:
248,184,170173,2,0,L|208:144,1,45,4|0,3:2|3:3,0:0:0:0:
160,136,170285,2,0,L|112:136,1,45,0|0,3:3|3:3,0:0:0:0:
248,128,170396,5,4,2:2:0:0:
376,128,170451,1,4,2:2:0:0:
248,128,170507,2,0,L|240:80,1,45,4|4,2:2|2:2,0:0:0:0:
424,104,170618,2,0,L|472:104,1,45,4|4,2:2|2:2,0:0:0:0:
280,88,170729,2,0,L|200:88,1,45,4|4,2:2|2:2,0:0:0:0:
56,240,170840,6,0,L|32:192,2,45,4|0|0,3:2|3:3|3:3,0:0:0:0:
104,232,171007,1,0,3:3:0:0:
264,208,171062,2,0,L|312:208,1,45,0|0,3:3|3:3,0:0:0:0:
248,192,171173,2,0,L|240:144,1,45,0|0,3:3|3:3,0:0:0:0:
408,192,171285,6,0,L|376:160,1,45,0|0,3:3|3:3,0:0:0:0:
320,160,171396,2,0,L|272:160,1,45,0|0,3:3|3:3,0:0:0:0:
112,192,171507,2,0,L|144:160,1,45,0|0,3:3|3:3,0:0:0:0:
200,160,171618,2,0,L|248:160,1,45,0|0,3:3|3:3,0:0:0:0:
416,240,171729,6,0,L|440:192,2,45,8|0|0,3:2|3:3|3:3,0:0:0:0:
368,232,171896,1,0,3:3:0:0:
208,208,171951,2,0,L|216:160,1,45,0|0,3:3|3:3,0:0:0:0:
280,168,172062,2,0,L|288:120,1,45,0|0,3:3|3:3,0:0:0:0:
128,112,172173,6,0,L|80:112,1,45,0|0,3:3|3:3,0:0:0:0:
24,112,172285,2,0,L|88:112,1,45,0|0,3:3|3:3,0:0:0:0:
232,120,172396,2,0,L|184:120,1,45,0|0,3:3|3:3,0:0:0:0:
128,120,172508,2,0,L|192:120,1,45,0|0,3:3|3:3,0:0:0:0:
328,240,172618,6,0,L|336:144,1,90,2|0,3:2|3:3,0:0:0:0:
232,160,172840,1,2,3:2:0:0:
416,136,172951,1,10,3:2:0:0:
232,256,173062,2,0,L|224:160,1,90,0|2,3:3|3:2,0:0:0:0:
336,176,173285,2,0,L|344:80,1,90,2|2,3:2|3:2,0:0:0:0:
168,192,173507,6,0,L|296:192,1,90,8|0,3:2|3:3,0:0:0:0:
160,184,173729,2,0,L|40:184,1,90,0|0,3:3|3:3,0:0:0:0:
256,152,173951,1,10,3:2:0:0:
72,152,174062,1,8,3:2:0:0:
256,152,174173,2,0,L|136:152,1,90,6|6,3:2|3:2,0:0:0:0:
384,208,174396,5,4,3:2:0:0:
432,200,174451,2,0,L|456:152,2,45,0|0|0,3:3|3:3|3:3,0:0:0:0:
272,176,174618,2,0,L|208:176,1,45,0|0,3:3|3:3,0:0:0:0:
288,160,174729,2,0,L|352:160,1,45,0|0,3:3|3:3,0:0:0:0:
176,280,174840,6,0,L|184:232,1,45,2|0,3:2|3:3,0:0:0:0:
248,240,174951,2,0,L|256:192,1,45,0|0,3:3|3:3,0:0:0:0:
96,184,175062,2,0,L|48:184,1,45,10|0,3:2|3:3,0:0:0:0:
208,168,175173,2,0,L|264:168,1,45,0|0,3:3|3:3,0:0:0:0:
104,280,175285,6,0,L|80:232,1,45,10|0,3:2|3:3,0:0:0:0:
104,280,175396,2,0,L|160:280,1,45,0|0,3:3|3:3,0:0:0:0:
88,256,175507,2,0,L|144:256,1,45,0|0,3:3|3:3,0:0:0:0:
298,168,175618,6,0,L|322:120,1,45,8|0,3:2|3:3,0:0:0:0:
298,168,175729,2,0,L|250:168,1,45,2|0,3:2|3:3,0:0:0:0:
186,160,175840,2,0,L|138:160,1,45,2|0,3:2|3:3,0:0:0:0:
304,240,175951,6,0,L|368:240,1,45,10|0,3:2|3:3,0:0:0:0:
192,224,176062,2,0,L|248:224,1,45,2|0,3:2|3:3,0:0:0:0:
416,192,176173,5,4,3:2:0:0:
472,192,176284,1,0,3:3:0:0:
416,192,176395,2,0,L|312:192,1,90,0|0,3:3|3:3,0:0:0:0:
152,128,176618,1,8,3:2:0:0:
328,128,176729,1,8,3:2:0:0:
144,120,176840,2,0,L|32:120,1,90,8|8,3:2|3:2,0:0:0:0:
248,168,177062,5,4,3:2:0:0:
64,160,177173,2,0,L|184:160,1,90,8|0,3:2|0:0,0:0:0:0:
344,144,177396,1,8,3:2:0:0:
160,288,177507,2,0,L|216:288,1,45,4|4,2:2|2:2,0:0:0:0:
360,288,177618,2,0,L|408:288,1,45,4|4,2:2|2:2,0:0:0:0:
200,272,177729,2,0,L|152:272,1,45,8|8,2:2|2:2,0:0:0:0:
216,264,177840,2,0,L|272:264,1,45,8|8,2:2|2:2,0:0:0:0:
56,309,177951,5,4,3:2:0:0:
33,267,178007,1,0,3:3:0:0:
56,309,178062,1,0,3:3:0:0:
106,329,178118,1,0,3:3:0:0:
270,273,178173,2,0,L|278:216,1,45,4|0,3:2|3:3,0:0:0:0:
212,208,178285,2,0,L|204:153,1,45,0|0,3:3|3:3,0:0:0:0:
375,120,178396,6,0,L|337:83,1,45,4|0,3:2|3:3,0:0:0:0:
289,69,178507,2,0,L|229:49,1,45,0|0,3:3|3:3,0:0:0:0:
78,81,178618,2,0,L|119:122,1,45,4|0,3:2|3:3,0:0:0:0:
164,132,178729,2,0,L|216:144,1,45,0|0,3:3|3:3,0:0:0:0:
377,216,178840,6,0,L|298:228,1,45,12|0,3:2|3:3,0:0:0:0:
163,303,178951,2,0,L|103:294,1,45,0|0,3:3|3:3,0:0:0:0:
289,356,179062,2,0,L|296:304,3,45,0|0|0|0,3:3|3:3|3:3|3:3,0:0:0:0:
466,285,179285,5,4,3:2:0:0:
488,253,179340,1,0,3:3:0:0:
466,285,179396,1,0,3:3:0:0:
417,298,179451,1,0,3:3:0:0:
246,236,179507,1,0,3:3:0:0:
295,209,179562,2,0,L|312:158,2,45,0|0|0,3:3|3:3|3:3,0:0:0:0:
124,163,179729,6,0,L|241:161,1,90,4|0,3:2|3:3,0:0:0:0:
311,133,179951,2,0,L|213:118,1,90,0|0,3:3|3:3,0:0:0:0:
433,85,180173,1,4,3:2:0:0:
225,49,180285,1,0,3:3:0:0:
446,27,180396,2,0,L|452:135,1,90,0|0,3:3|0:0,0:0:0:0:
238,214,180618,6,0,L|140:197,1,90,8|0,3:2|3:3,0:0:0:0:
248,241,180840,2,0,L|353:250,1,90,0|0,3:3|3:3,0:0:0:0:
118,320,181062,1,2,3:2:0:0:
339,348,181173,1,0,3:3:0:0:
123,258,181285,2,0,L|23:242,1,90,2|0,3:2|3:3,0:0:0:0:
266,180,181507,5,12,2:2:0:0:
288,136,181562,1,0,0:0:0:0:
266,180,181618,1,0,3:3:0:0:
218,192,181673,1,0,0:0:0:0:
387,40,181729,1,0,3:3:0:0:
437,59,181785,2,0,L|456:116,2,45,0|12|0,0:0|2:2|0:0,0:0:0:0:
269,91,181951,6,0,L|308:135,1,45,0|0,3:3|0:0,0:0:0:0:
353,148,182062,2,0,L|404:159,1,45,0|0,3:3|0:0,0:0:0:0:
227,220,182173,2,0,L|188:259,1,45,12|0,2:2|3:3,0:0:0:0:
139,267,182285,2,0,L|82:272,1,45,0|0,3:3|3:3,0:0:0:0:
261,338,182396,6,0,L|314:348,1,45,8|0,3:2|3:3,0:0:0:0:
134,353,182507,2,0,L|126:293,1,45,0|0,3:3|3:3,0:0:0:0:
296,253,182618,1,0,3:3:0:0:
346,230,182673,2,0,L|364:179,2,45,0|0|0,3:3|3:3|3:3,0:0:0:0:
174,191,182840,6,0,L|181:135,1,45,8|0,3:2|3:3,0:0:0:0:
244,152,182951,2,0,L|250:99,1,45,0|0,3:3|3:3,0:0:0:0:
80,100,183062,2,0,L|124:73,1,45,0|0,3:3|3:3,0:0:0:0:
173,71,183173,2,0,L|226:70,1,45,0|0,3:3|3:3,0:0:0:0:
163,108,183285,5,4,3:2:0:0:
114,129,183340,2,0,L|85:188,2,45,0|0|0,3:3|3:3|3:3,0:0:0:0:
283,176,183507,2,0,L|290:240,1,45,4|0,3:2|3:3,0:0:0:0:
223,226,183618,2,0,L|218:297,1,45,0|0,3:3|3:3,0:0:0:0:
390,320,183729,5,4,3:2:0:0:
440,297,183785,2,0,L|457:243,2,45,0|0|0,3:3|3:3|3:3,0:0:0:0:
274,338,183951,2,0,L|218:329,1,45,4|0,3:2|3:3,0:0:0:0:
286,307,184062,2,0,L|296:227,1,45,0|0,3:3|3:3,0:0:0:0:
123,217,184173,5,8,2:2:0:0:
246,191,184229,1,8,2:2:0:0:
369,186,184285,1,8,2:2:0:0:
410,170,184340,1,8,2:2:0:0:
435,134,184396,1,8,2:2:0:0:
436,89,184451,1,8,2:2:0:0:
410,53,184507,1,8,2:2:0:0:
369,38,184562,1,8,2:2:0:0:
203,91,184618,6,0,L|313:98,1,90,4|4,2:2|2:2,0:0:0:0:
70,166,184840,1,4,2:2:0:0:
309,189,184951,1,4,2:2:0:0:
68,248,185062,6,0,L|16:254,1,45,12|0,3:2|3:3,0:0:0:0:
191,316,185173,2,0,L|248:324,1,45,8|0,3:2|3:3,0:0:0:0:
408,296,185285,2,0,L|452:293,1,45,12|0,3:2|3:3,0:0:0:0:
284,232,185396,2,0,L|223:225,1,45,8|0,3:2|3:3,0:0:0:0:
413,182,185507,6,0,L|471:178,1,45,14|0,3:2|3:3,0:0:0:0:
287,137,185618,2,0,L|222:124,1,45,8|0,3:2|3:3,0:0:0:0:
76,86,185729,2,0,L|146:87,1,45,14|0,3:2|3:3,0:0:0:0:
290,40,185840,2,0,L|354:36,1,45,8|0,3:2|3:3,0:0:0:0:
166,142,185951,6,0,L|100:139,1,45,14|0,3:2|3:3,0:0:0:0:
291,192,186062,2,0,L|296:248,1,45,10|0,3:2|3:3,0:0:0:0:
463,248,186173,2,0,L|466:308,1,45,14|0,3:2|3:3,0:0:0:0:
281,339,186285,2,0,L|235:346,1,45,10|0,3:2|3:3,0:0:0:0:
406,356,186396,6,0,L|471:360,1,45,14|0,3:2|3:3,0:0:0:0:
283,281,186507,2,0,L|212:273,1,45,8|0,3:2|3:3,0:0:0:0:
70,226,186618,2,0,L|120:216,1,45,14|0,3:2|3:3,0:0:0:0:
282,188,186729,2,0,L|353:188,1,45,8|0,3:2|3:3,0:0:0:0:
148,125,186840,5,12,3:2:0:0:
99,119,186896,2,0,L|82:68,2,45,0|8|0,3:3|3:2|3:3,0:0:0:0:
266,51,187062,1,14,3:2:0:0:
289,91,187118,1,0,3:3:0:0:
266,51,187173,1,8,3:2:0:0:
216,42,187229,1,0,3:3:0:0:
384,143,187285,5,14,3:2:0:0:
407,183,187341,1,0,3:3:0:0:
384,143,187396,1,8,3:2:0:0:
334,134,187452,1,0,3:3:0:0:
169,197,187507,2,0,L|211:239,1,45,12|0,3:2|3:3,0:0:0:0:
253,242,187618,2,0,L|307:252,1,45,8|0,3:2|3:3,0:0:0:0:
465,296,187729,6,0,L|413:332,1,45,14|0,3:2|3:3,0:0:0:0:
373,348,187840,2,0,L|319:342,1,45,8|0,3:2|3:3,0:0:0:0:
157,328,187951,2,0,L|154:278,1,45,14|0,3:2|3:3,0:0:0:0:
220,273,188062,2,0,L|240:211,1,45,8|0,3:2|3:3,0:0:0:0:
65,154,188173,5,6,2:2:0:0:
42,109,188229,1,4,2:2:0:0:
65,154,188285,1,4,2:2:0:0:
114,181,188340,1,4,2:2:0:0:
164,198,188396,2,0,L|222:205,1,45,10|8,2:2|2:2,0:0:0:0:
145,157,188507,2,0,L|136:95,1,45,8|8,2:2|2:2,0:0:0:0:
314,82,188618,6,0,L|386:82,1,45,12|0,3:2|3:3,0:0:0:0:
191,53,188729,2,0,L|254:46,1,45,8|0,3:2|3:3,0:0:0:0:
407,155,188840,2,0,L|467:154,1,45,12|0,3:2|3:3,0:0:0:0:
283,210,188951,2,0,L|222:209,1,45,8|0,3:2|3:3,0:0:0:0:
68,271,189062,6,0,L|124:277,1,45,14|0,3:2|3:3,0:0:0:0:
282,321,189173,2,0,L|348:324,1,45,8|0,3:2|3:3,0:0:0:0:
156,333,189285,2,0,L|101:328,1,45,14|0,3:2|3:3,0:0:0:0:
279,275,189396,2,0,L|331:272,1,45,8|0,3:2|3:3,0:0:0:0:
491,245,189507,6,0,L|493:191,1,45,14|0,3:2|3:3,0:0:0:0:
325,182,189618,2,0,L|318:123,1,45,10|0,3:2|3:3,0:0:0:0:
150,125,189729,2,0,L|141:63,1,45,14|0,3:2|3:3,0:0:0:0:
322,52,189840,2,0,L|275:43,1,45,10|0,3:2|3:3,0:0:0:0:
110,47,189951,6,0,L|59:42,1,45,14|0,3:2|3:3,0:0:0:0:
236,134,190062,2,0,L|281:137,1,45,8|0,3:2|3:3,0:0:0:0:
115,207,190173,2,0,L|57:210,1,45,14|0,3:2|3:3,0:0:0:0:
241,263,190285,2,0,L|291:265,1,45,8|0,3:2|3:3,0:0:0:0:
456,326,190396,6,0,L|407:320,1,45,6|0,3:2|3:3,0:0:0:0:
244,335,190507,2,0,L|196:327,1,45,0|0,3:3|3:3,0:0:0:0:
368,244,190618,1,0,3:3:0:0:
417,227,190673,2,0,L|435:172,2,45,0|0|0,3:3|3:3|3:3,0:0:0:0:
276,192,190840,5,10,2:2:0:0:
136,164,190896,1,4,2:2:0:0:
278,148,190951,2,0,L|340:153,1,45,4|4,2:2|2:2,0:0:0:0:
268,115,191062,1,4,2:2:0:0:
218,98,191118,2,0,L|200:39,2,45,4|4|4,2:2|2:2|2:2,0:0:0:0:
386,45,191285,5,6,3:2:0:0:
408,85,191340,1,0,3:3:0:0:
386,45,191396,1,0,3:3:0:0:
337,30,191451,1,0,3:3:0:0:
188,67,191507,1,10,3:2:0:0:
326,108,191562,1,0,3:3:0:0:
467,161,191618,2,0,L|476:231,1,45,0|0,3:3|3:3,0:0:0:0:
305,212,191729,6,0,L|300:280,1,45,6|4,2:2|2:2,0:0:0:0:
367,266,191840,2,0,L|376:329,1,45,4|4,2:2|2:2,0:0:0:0:
205,338,191951,1,10,2:2:0:0:
154,328,192007,2,0,L|138:278,2,45,8|8|8,2:2|2:2|2:2,0:0:0:0:
320,270,192173,6,0,L|264:261,1,45,4|0,3:2|3:3,0:0:0:0:
104,229,192285,2,0,L|48:221,1,45,0|0,3:3|3:3,0:0:0:0:
229,191,192396,2,0,L|291:188,1,45,8|0,3:2|3:3,0:0:0:0:
110,151,192507,2,0,L|31:137,1,45,8|0,3:2|3:3,0:0:0:0:
235,107,192618,6,0,L|288:106,1,45,6|0,3:2|0:0,0:0:0:0:
449,76,192729,2,0,L|391:69,1,45,0|0,3:3|3:3,0:0:0:0:
236,37,192840,2,0,L|177:35,1,45,2|0,3:2|0:0,0:0:0:0:
23,66,192951,2,0,L|83:80,1,45,0|0,3:3|3:3,0:0:0:0:
232,149,193062,6,0,L|304:156,1,45,14|0,3:2|3:3,0:0:0:0:
108,182,193173,2,0,L|101:241,1,45,10|0,3:2|3:3,0:0:0:0:
276,252,193285,2,0,L|288:323,1,45,14|0,3:2|3:3,0:0:0:0:
452,301,193396,2,0,L|462:362,1,45,10|0,3:2|3:3,0:0:0:0:
291,291,193507,6,0,L|235:286,1,45,6|0,3:2|3:3,0:0:0:0:
416,245,193618,2,0,L|478:248,1,45,0|0,3:3|3:3,0:0:0:0:
292,196,193729,2,0,L|241:194,1,45,6|0,3:2|3:3,0:0:0:0:
79,169,193840,2,0,L|131:166,1,45,0|0,3:3|3:3,0:0:0:0:
293,133,193951,6,0,L|346:141,1,45,4|0,3:2|3:3,0:0:0:0:
276,105,194062,2,0,L|269:56,1,45,0|0,3:3|3:3,0:0:0:0:
438,33,194173,2,0,L|407:78,1,45,6|0,3:2|3:3,0:0:0:0:
356,86,194285,2,0,L|308:87,1,45,0|0,3:3|3:3,0:0:0:0:
141,161,194396,6,0,L|181:216,1,45,6|0,3:2|3:3,0:0:0:0:
223,221,194507,2,0,L|285:227,1,45,0|0,3:3|3:3,0:0:0:0:
436,241,194618,2,0,L|461:289,2,45,4|0|0,3:2|3:3|3:3,0:0:0:0:
386,293,194785,1,0,3:3:0:0:
216,356,194840,6,0,L|229:282,1,45,14|0,3:2|0:0,0:0:0:0:
288,285,194951,2,0,L|318:232,1,45,0|0,3:3|0:0,0:0:0:0:
374,222,195062,2,0,L|421:195,1,45,14|0,3:2|0:0,0:0:0:0:
244,165,195173,2,0,L|186:152,1,45,0|0,3:3|3:3,0:0:0:0:
374,40,195285,5,4,2:2:0:0:
397,76,195340,1,4,2:2:0:0:
374,40,195396,1,4,2:2:0:0:
329,38,195451,1,4,2:2:0:0:
265,63,195507,2,0,L|255:125,1,45,8|8,2:2|2:2,0:0:0:0:
322,130,195618,2,0,L|331:193,1,45,8|8,2:2|2:2,0:0:0:0:
157,227,195729,6,0,L|220:234,1,45,12|0,3:2|3:3,0:0:0:0:
346,271,195840,2,0,L|286:270,1,45,8|0,3:2|3:3,0:0:0:0:
129,326,195951,2,0,L|76:329,1,45,12|0,3:2|3:3,0:0:0:0:
253,338,196062,2,0,L|320:339,1,45,8|0,3:2|3:3,0:0:0:0:
466,300,196173,6,0,L|404:286,1,45,14|0,3:2|0:0,0:0:0:0:
280,244,196285,2,0,L|232:230,1,45,8|0,3:2|0:0,0:0:0:0:
405,203,196396,2,0,L|464:196,1,45,14|0,3:2|0:0,0:0:0:0:
276,157,196507,2,0,L|228:151,1,45,8|0,3:2|3:3,0:0:0:0:
57,117,196618,6,0,L|54:63,1,45,14|0,3:2|3:3,0:0:0:0:
222,82,196729,2,0,L|227:33,1,45,10|0,3:2|3:3,0:0:0:0:
395,29,196840,2,0,L|400:83,1,45,14|0,3:2|3:3,0:0:0:0:
226,132,196951,1,10,3:2:0:0:
449,195,197062,2,0,L|348:198,1,90,14|8,3:2|3:2,0:0:0:0:
170,270,197285,2,0,L|274:282,1,90,14|8,3:2|3:2,0:0:0:0:
43,348,197507,6,0,B|401:349|401:349|437:173|437:173|448:-7|448:-7|437:172|437:172|402:349|402:349|119:126|120:127|119:127|119:127|404:348|404:348|328:-4|328:-4|252:348|252:348|474:64|474:64|121:58|121:58|167:245|167:245|201:78|201:78|165:253|165:253|125:73|125:73|166:253|166:253|200:80|200:80|165:258|165:258|129:85|129:85|166:258|166:258|201:84|201:84|162:259|162:259|129:87|129:87|489:271,1,5760,0|6,0:0|3:2,0:0:0:0:
488,240,199340,1,0,3:3:0:0:
462,257,199396,1,2,3:2:0:0:
408,256,199451,1,0,3:3:0:0:
248,168,199507,2,0,L|240:120,1,45,2|0,3:2|3:3,0:0:0:0:
400,152,199618,2,0,L|456:152,1,45,2|0,3:2|3:3,0:0:0:0:
280,112,199729,6,0,L|224:112,1,45,2|0,3:2|3:3,0:0:0:0:
72,112,199840,2,0,L|152:112,1,45,2|0,3:2|3:3,0:0:0:0:
280,112,199951,2,0,L|344:112,1,45,2|0,3:2|3:3,0:0:0:0:
488,112,200062,2,0,L|432:112,1,45,2|0,3:2|3:3,0:0:0:0:
280,240,200173,6,0,L|272:192,1,45,2|0,3:2|3:3,0:0:0:0:
432,208,200285,2,0,L|440:160,1,45,2|0,3:2|3:3,0:0:0:0:
280,136,200396,2,0,L|232:136,1,45,2|0,3:2|3:3,0:0:0:0:
72,136,200507,2,0,L|128:136,1,45,2|0,3:2|3:3,0:0:0:0:
280,120,200618,6,0,L|336:120,1,45,2|0,3:2|3:3,0:0:0:0:
160,208,200729,2,0,L|104:208,1,45,2|0,3:2|3:3,0:0:0:0:
280,200,200840,2,0,L|288:152,1,45,2|0,3:2|3:3,0:0:0:0:
448,160,200951,2,0,L|440:112,1,45,2|0,3:2|3:3,0:0:0:0:
280,256,201062,6,0,L|224:256,1,45,6|0,3:2|3:3,0:0:0:0:
168,256,201173,2,0,L|104:256,1,45,2|0,3:2|3:3,0:0:0:0:
192,240,201285,1,2,3:2:0:0:
240,240,201340,1,0,3:3:0:0:
280,216,201396,1,2,3:2:0:0:
296,184,201451,1,0,3:3:0:0:
280,216,201507,1,2,3:2:0:0:
240,240,201562,1,0,3:3:0:0:
176,208,201618,2,0,L|120:208,1,45,2|0,3:2|3:3,0:0:0:0:
288,160,201729,6,0,L|296:112,1,45,6|0,3:2|3:3,0:0:0:0:
232,112,201840,2,0,L|240:64,1,45,2|0,3:2|3:3,0:0:0:0:
304,136,201951,1,2,3:2:0:0:
320,104,202006,1,0,3:3:0:0:
304,136,202062,1,2,3:2:0:0:
264,160,202117,1,0,3:3:0:0:
200,128,202173,2,0,L|248:128,1,45,2|0,3:2|3:3,0:0:0:0:
312,128,202285,2,0,L|376:128,1,45,2|0,3:2|3:3,0:0:0:0:
192,208,202396,6,0,L|136:208,1,45,6|0,3:2|3:3,0:0:0:0:
80,208,202507,1,2,3:2:0:0:
64,192,202562,1,0,3:3:0:0:
80,208,202618,1,2,3:2:0:0:
120,208,202673,1,0,3:3:0:0:
176,208,202729,1,2,3:2:0:0:
240,208,202785,1,0,3:3:0:0:
416,216,202840,6,0,L|408:168,1,45,4|0,3:2|3:3,0:0:0:0:
344,184,202951,2,0,L|336:136,1,45,0|0,3:3|3:3,0:0:0:0:
400,152,203062,2,0,L|368:120,1,45,0|0,3:3|3:3,0:0:0:0:
304,136,203173,2,0,L|272:104,1,45,0|0,3:3|3:3,0:0:0:0:
336,104,203285,2,0,L|288:104,1,45,0|0,3:3|3:3,0:0:0:0:
232,104,203396,2,0,L|184:104,1,45,0|0,3:3|3:3,0:0:0:0:
352,171,203507,1,0,3:3:0:0:
408,171,203563,1,0,3:3:0:0:
432,139,203619,1,0,3:3:0:0:
408,171,203674,1,0,3:3:0:0:
248,200,203729,6,0,L|288:160,1,45,8|0,3:2|3:3,0:0:0:0:
336,152,203840,2,0,L|384:152,1,45,0|0,3:3|3:3,0:0:0:0:
456,144,203951,2,0,L|416:104,1,45,0|0,3:3|3:3,0:0:0:0:
368,96,204062,2,0,L|320:96,1,45,0|0,3:3|3:3,0:0:0:0:
160,152,204173,5,4,3:2:0:0:
104,152,204229,1,0,3:3:0:0:
80,120,204285,1,0,3:3:0:0:
104,152,204340,1,0,3:3:0:0:
264,208,204396,2,0,L|272:160,1,45,0|0,3:3|3:3,0:0:0:0:
208,160,204507,2,0,L|216:112,1,45,0|0,3:3|3:3,0:0:0:0:
376,240,204618,5,4,3:2:0:0:
424,240,204673,1,0,3:3:0:0:
464,216,204729,1,0,3:3:0:0:
480,184,204784,1,0,3:3:0:0:
464,216,204840,1,0,3:3:0:0:
424,240,204895,1,0,3:3:0:0:
360,208,204951,2,0,L|312:208,1,45,0|0,3:3|3:3,0:0:0:0:
384,192,205062,2,0,L|392:144,1,45,0|0,3:3|3:3,0:0:0:0:
392,120,205173,2,0,L|400:72,1,45,0|0,3:3|3:3,0:0:0:0:
240,128,205285,2,0,L|184:128,1,45,4|0,3:2|3:3,0:0:0:0:
352,112,205396,2,0,L|408:112,1,45,0|0,3:3|3:3,0:0:0:0:
208,264,205507,6,0,P|160:264|160:160,1,180,8|0,3:2|3:3,0:0:0:0:
344,192,205840,1,0,3:3:0:0:
160,256,205951,2,0,P|192:224|408:224,1,270,4|0,3:2|2:2,0:0:0:0:
192,208,206396,5,4,3:2:0:0:
136,208,206451,1,0,3:3:0:0:
112,176,206507,1,0,3:3:0:0:
136,208,206562,1,0,3:3:0:0:
288,168,206618,2,0,L|360:168,1,45,4|0,3:2|3:3,0:0:0:0:
272,160,206729,2,0,L|224:160,1,45,0|0,3:3|3:3,0:0:0:0:
384,216,206840,5,4,3:2:0:0:
440,216,206895,1,0,3:3:0:0:
464,184,206951,1,0,3:3:0:0:
440,216,207006,1,0,3:3:0:0:
288,136,207062,2,0,L|232:136,1,45,4|0,3:2|3:3,0:0:0:0:
304,128,207173,2,0,L|312:80,1,45,0|0,3:3|3:3,0:0:0:0:
152,240,207285,6,0,L|192:200,1,45,12|0,3:2|3:3,0:0:0:0:
240,192,207396,2,0,L|288:192,1,45,0|0,3:3|3:3,0:0:0:0:
440,184,207507,2,0,L|400:144,1,45,4|0,3:2|3:3,0:0:0:0:
352,136,207618,2,0,L|304:136,1,45,0|0,3:3|3:3,0:0:0:0:
152,184,207729,6,0,L|160:136,1,45,4|0,3:2|3:3,0:0:0:0:
216,144,207840,2,0,L|224:96,1,45,0|0,3:3|3:3,0:0:0:0:
72,80,207951,2,0,L|24:80,1,45,4|0,3:2|3:3,0:0:0:0:
184,80,208062,2,0,L|256:80,1,45,0|0,3:3|3:3,0:0:0:0:
392,144,208173,6,0,L|448:144,1,45,12|0,3:2|3:3,0:0:0:0:
376,136,208285,2,0,L|304:136,1,45,0|0,3:3|3:3,0:0:0:0:
392,128,208396,2,0,L|464:128,1,45,0|0,3:3|3:3,0:0:0:0:
272,224,208507,6,0,L|224:224,1,45,8|0,3:2|3:3,0:0:0:0:
288,216,208619,1,0,3:3:0:0:
344,216,208674,1,0,3:3:0:0:
368,184,208730,1,0,3:3:0:0:
344,216,208785,1,0,3:3:0:0:
192,160,208840,2,0,L|144:160,1,45,12|0,3:2|3:3,0:0:0:0:
208,152,208951,2,0,L|280:152,1,45,0|0,3:3|3:3,0:0:0:0:
416,136,209062,5,4,2:2:0:0:
296,136,209118,1,4,2:2:0:0:
184,176,209173,1,4,2:2:0:0:
128,176,209228,1,4,2:2:0:0:
104,144,209284,1,4,2:2:0:0:
128,176,209339,1,4,2:2:0:0:
296,144,209396,2,0,L|352:144,1,45,4|4,2:2|2:2,0:0:0:0:
176,248,209507,5,12,2:2:0:0:
128,248,209562,1,8,2:2:0:0:
88,224,209618,1,8,2:2:0:0:
72,192,209673,1,8,2:2:0:0:
88,224,209729,2,0,L|144:224,1,45,8|8,2:2|2:2,0:0:0:0:
72,216,209840,2,0,L|128:216,1,45,8|8,2:2|2:2,0:0:0:0:
304,208,209951,6,0,L|312:160,1,45,6|0,3:2|3:3,0:0:0:0:
152,104,210062,2,0,L|96:104,1,45,2|0,3:2|3:3,0:0:0:0:
272,80,210173,2,0,L|336:80,1,45,2|0,3:2|3:3,0:0:0:0:
480,80,210285,2,0,L|424:80,1,45,2|0,3:2|3:3,0:0:0:0:
272,80,210396,2,0,L|200:80,1,45,2|0,3:2|3:3,0:0:0:0:
64,80,210507,2,0,L|112:80,1,45,2|0,3:2|3:3,0:0:0:0:
272,80,210618,6,0,L|280:128,1,45,6|0,3:2|3:3,0:0:0:0:
120,176,210729,2,0,L|64:176,1,45,2|0,3:2|3:3,0:0:0:0:
240,176,210840,2,0,L|304:176,1,45,2|0,3:2|3:3,0:0:0:0:
448,168,210951,2,0,L|392:168,1,45,2|0,3:2|3:3,0:0:0:0:
240,152,211062,2,0,L|184:152,1,45,2|0,3:2|3:3,0:0:0:0:
360,216,211173,2,0,L|408:216,1,45,2|0,3:2|3:3,0:0:0:0:
240,256,211285,5,6,3:2:0:0:
192,256,211340,1,0,3:3:0:0:
152,232,211396,1,2,3:2:0:0:
136,200,211451,1,0,3:3:0:0:
152,232,211507,1,2,3:2:0:0:
192,256,211562,1,0,3:3:0:0:
256,224,211618,2,0,L|312:224,1,45,2|0,3:2|3:3,0:0:0:0:
120,312,211729,6,0,L|112:264,1,45,4|0,3:2|3:3,0:0:0:0:
176,280,211840,2,0,L|168:232,1,45,0|0,3:3|3:3,0:0:0:0:
104,240,211951,1,0,3:3:0:0:
80,224,212007,1,0,3:3:0:0:
104,240,212062,1,0,3:3:0:0:
152,240,212118,1,0,3:3:0:0:
216,232,212173,2,0,L|264:232,1,45,0|0,3:3|3:3,0:0:0:0:
192,208,212285,2,0,L|256:208,1,45,0|0,3:3|3:3,0:0:0:0:
400,240,212396,1,4,3:2:0:0:
424,224,212452,1,0,3:3:0:0:
400,240,212507,1,0,3:3:0:0:
352,240,212563,1,0,3:3:0:0:
192,152,212618,5,8,3:2:0:0:
120,152,212692,2,0,L|112:88,1,60,0|0,0:0|0:0,0:0:0:0:
288,144,212840,1,0,3:3:0:0:
216,144,212914,2,0,L|208:80,1,60,0|0,0:0|0:0,0:0:0:0:
384,104,213062,2,0,L|448:104,1,60,12|0,2:2|0:0,0:0:0:0:
368,96,213210,1,0,0:0:0:0:
200,80,213285,2,0,L|272:80,1,60,4|0,2:2|0:0,0:0:0:0:
432,88,213433,1,0,0:0:0:0:
192,216,213507,5,4,3:2:0:0:
312,344,215284,6,0,P|312:304|80:72,1,396.562515127659,10|0,2:2|0:0,0:0:0:0:
80,344,215951,2,0,P|80:304|312:72,1,396.562515127659,2|0,3:2|0:0,0:0:0:0:
312,64,216617,1,2,3:2:0:0:
72,272,217062,5,4,3:2:0:0:
256,184,218396,6,0,P|224:152|104:184,1,180,2|0,3:2|3:3,0:0:0:0:
416,288,218840,6,0,P|472:232|296:224,1,423,12|0,2:2|0:0,0:0:0:0:
296,384,219507,2,0,L|304:8,1,370.124988704682,4|0,3:2|0:0,0:0:0:0:
304,8,220173,1,8,3:2:0:0:
64,168,220618,5,4,3:2:0:0:
264,344,222396,6,0,P|320:344|320:96,1,396.562515127659,10|0,2:2|0:0,0:0:0:0:
320,344,223063,2,0,P|264:344|264:96,1,396.562515127659,2|0,3:2|0:0,0:0:0:0:
264,96,223730,1,2,3:2:0:0:
504,328,224173,6,0,P|504:280|296:72,1,360,4|0,3:2|2:2,0:0:0:0:
456,384,224840,2,0,L|464:24,1,360,2|0,3:2|2:2,0:0:0:0:
304,208,225507,2,0,P|336:176|456:208,1,180,2|0,3:2|2:2,0:0:0:0:
128,312,225951,6,0,P|96:280|256:120,1,360,12|0,2:2|2:2,0:0:0:0:
96,288,226618,2,0,P|104:160|112:288,1,360,4|0,3:2|2:2,0:0:0:0:
288,176,227284,2,0,L|296:112,1,60,4|0,3:2|3:3,0:0:0:0:
208,128,227433,1,0,3:3:0:0:
120,112,227507,2,0,L|128:48,1,60,0|0,3:3|3:3,0:0:0:0:
216,64,227655,1,0,3:3:0:0:
456,248,227729,6,0,L|464:184,1,60,12|0,3:2|3:3,0:0:0:0:
288,224,227877,2,0,L|280:160,1,60,8|0,3:2|3:3,0:0:0:0:
104,208,228025,2,0,L|32:208,1,60,8|0,3:2|3:3,0:0:0:0:
224,184,228173,2,0,L|304:184,1,60,10|0,3:2|3:3,0:0:0:0:
192,168,228322,1,8,3:2:0:0:
160,136,228396,1,0,3:3:0:0:
192,168,228470,2,0,L|296:168,1,60,8|0,3:2|3:3,0:0:0:0:
424,224,228618,6,0,L|432:160,1,60,10|0,3:2|3:3,0:0:0:0:
336,168,228766,1,8,3:2:0:0:
280,152,228840,1,0,3:3:0:0:
248,112,228914,1,8,3:2:0:0:
280,152,228988,1,0,3:3:0:0:
368,112,229062,2,0,L|304:112,1,60,10|0,3:2|3:3,0:0:0:0:
216,112,229210,2,0,L|144:112,1,60,8|0,3:2|3:3,0:0:0:0:
336,176,229359,2,0,L|344:112,1,60,8|0,3:2|3:3,0:0:0:0:
160,224,229507,6,0,L|88:224,1,60,12|0,3:2|3:3,0:0:0:0:
280,184,229655,2,0,L|208:184,1,60,8|0,3:2|3:3,0:0:0:0:
400,248,229803,2,0,L|472:248,1,60,8|0,3:2|3:3,0:0:0:0:
272,168,229951,2,0,L|264:104,1,60,8|0,3:2|3:3,0:0:0:0:
456,120,230099,2,0,L|384:120,1,60,8|0,3:2|3:3,0:0:0:0:
248,112,230247,1,8,3:2:0:0:
96,112,230322,1,0,3:3:0:0:
248,208,230396,6,0,L|256:144,1,60,12|0,3:2|3:3,0:0:0:0:
72,160,230544,2,0,L|152:160,1,60,8|0,3:2|3:3,0:0:0:0:
320,144,230692,2,0,L|248:144,1,60,8|0,3:2|3:3,0:0:0:0:
448,144,230840,2,0,L|376:144,1,60,8|0,3:2|3:3,0:0:0:0:
200,104,230988,2,0,L|136:104,1,60,8|0,3:2|3:3,0:0:0:0:
288,96,231136,1,8,3:2:0:0:
440,96,231210,1,0,3:3:0:0:
248,264,231285,6,0,L|184:264,1,60,14|0,3:2|3:3,0:0:0:0:
272,248,231433,2,0,L|208:248,1,60,8|0,3:2|3:3,0:0:0:0:
128,224,231581,2,0,L|192:224,1,60,8|0,3:2|3:3,0:0:0:0:
368,192,231729,1,10,3:2:0:0:
400,160,231803,1,0,3:3:0:0:
368,192,231877,2,0,L|296:192,1,60,8|0,3:2|3:3,0:0:0:0:
224,192,232025,2,0,L|136:192,1,60,8|0,3:2|3:3,0:0:0:0:
352,128,232173,6,0,L|416:128,1,60,14|0,3:2|3:3,0:0:0:0:
320,104,232322,2,0,L|256:104,1,60,8|0,3:2|3:3,0:0:0:0:
352,88,232470,2,0,L|432:88,1,60,8|0,3:2|3:3,0:0:0:0:
216,272,232618,2,0,L|128:272,1,60,10|0,3:2|3:3,0:0:0:0:
352,224,232766,2,0,L|288:224,1,60,10|0,3:2|3:3,0:0:0:0:
96,176,232914,1,10,3:2:0:0:
248,176,232988,1,0,3:3:0:0:
400,192,233062,6,0,P|448:144|344:40,1,240,12|0,3:2|3:3,0:0:0:0:
208,80,233433,1,0,3:3:0:0:
352,104,233507,2,0,L|48:104,1,300,4|0,3:2|3:3,0:0:0:0:
208,192,233951,5,14,3:2:0:0:
368,192,234025,1,2,3:2:0:0:
208,192,234099,2,0,L|120:192,1,60,2|2,3:2|3:2,0:0:0:0:
344,192,234247,2,0,L|416:192,1,60,2|2,3:2|3:2,0:0:0:0:
208,144,234396,2,0,L|272:144,1,60,6|2,3:2|3:2,0:0:0:0:
464,152,234544,2,0,L|368:152,1,60,2|2,3:2|3:2,0:0:0:0:
256,144,234692,1,2,3:2:0:0:
112,144,234766,1,2,3:2:0:0:
256,144,234840,6,0,L|384:144,1,120,14|10,3:2|3:2,0:0:0:0:
232,120,235062,1,0,3:3:0:0:
376,112,235136,2,0,L|448:112,1,60,10|0,3:2|3:3,0:0:0:0:
224,288,235285,2,0,L|112:288,1,90,10|10,3:2|2:2,0:0:0:0:
320,224,235507,1,10,3:2:0:0:
48,216,235618,1,10,2:2:0:0:
328,216,235729,6,0,L|216:216,1,90,14|10,3:2|2:2,0:0:0:0:
424,152,235951,1,10,3:2:0:0:
152,144,236062,1,10,2:2:0:0:
472,176,236173,2,0,L|480:112,1,60,10|0,3:2|3:3,0:0:0:0:
280,136,236322,2,0,L|216:136,1,60,10|0,3:2|3:3,0:0:0:0:
416,112,236470,2,0,L|344:112,1,60,10|0,3:2|3:3,0:0:0:0:
168,176,236618,6,0,L|240:176,1,60,10|0,3:2|3:3,0:0:0:0:
40,272,236766,2,0,L|32:208,1,60,10|0,3:2|3:3,0:0:0:0:
224,264,236914,2,0,L|288:264,1,60,10|0,3:2|3:3,0:0:0:0:
96,208,237062,2,0,L|160:208,1,60,10|0,3:2|3:3,0:0:0:0:
344,200,237210,2,0,L|408:200,1,60,10|0,3:2|3:3,0:0:0:0:
256,136,237359,1,10,3:2:0:0:
112,136,237433,1,0,3:3:0:0:
256,136,237507,5,10,3:2:0:0:
312,136,237562,1,0,0:0:0:0:
336,96,237618,1,8,2:2:0:0:
312,136,237673,1,0,0:0:0:0:
128,280,237729,2,0,L|168:240,1,45,8|0,3:2|0:0,0:0:0:0:
216,240,237840,2,0,L|272:240,1,45,8|0,2:2|0:0,0:0:0:0:
432,216,237951,2,0,L|480:216,1,45,10|0,3:2|0:0,0:0:0:0:
280,192,238062,2,0,L|232:192,1,45,8|0,2:2|0:0,0:0:0:0:
40,184,238173,2,0,L|112:184,1,45,8|0,3:2|0:0,0:0:0:0:
320,184,238285,2,0,L|400:184,1,45,8|0,2:2|0:0,0:0:0:0:
136,272,238396,6,0,P|72:272|72:224,1,120,14|10,3:2|3:2,0:0:0:0:
328,208,238692,1,10,3:2:0:0:
72,240,238840,1,10,3:2:0:0:
40,208,238914,1,0,3:3:0:0:
72,240,238988,2,0,L|144:240,1,60,10|0,3:2|3:3,0:0:0:0:
216,240,239136,2,0,L|136:240,1,60,10|0,3:2|3:3,0:0:0:0:
360,216,239285,6,0,P|408:216|408:112,1,180,14|0,3:2|3:3,0:0:0:0:
320,112,239581,2,0,L|248:112,1,60,10|0,3:2|3:3,0:0:0:0:
464,128,239729,2,0,L|472:192,1,60,10|0,3:2|3:3,0:0:0:0:
264,208,239877,2,0,L|456:208,1,180,10|0,3:2|3:3,0:0:0:0:
232,272,240173,6,0,L|224:208,1,60,4|0,3:2|3:3,0:0:0:0:
312,216,240322,2,0,L|304:152,1,60,0|0,3:3|3:3,0:0:0:0:
216,144,240470,2,0,L|208:80,1,60,0|0,3:3|3:3,0:0:0:0:
416,184,240618,2,0,L|352:184,1,60,12|0,3:2|3:3,0:0:0:0:
272,176,240766,2,0,L|280:112,1,60,0|0,3:3|3:3,0:0:0:0:
368,120,240914,2,0,L|440:120,1,60,0|0,3:3|3:3,0:0:0:0:
232,272,241062,6,0,L|168:272,1,60,4|0,3:2|3:3,0:0:0:0:
360,200,241210,2,0,L|368:136,1,60,0|0,3:3|3:3,0:0:0:0:
176,144,241359,2,0,L|184:80,1,60,0|0,3:3|3:3,0:0:0:0:
400,128,241507,2,0,L|336:128,1,60,4|4,2:2|2:2,0:0:0:0:
120,120,241655,2,0,L|40:120,1,60,4|4,2:2|2:2,0:0:0:0:
240,104,241803,1,4,2:2:0:0:
424,104,241877,1,4,2:2:0:0:
240,104,241951,6,0,L|168:104,1,60,14|0,3:2|3:3,0:0:0:0:
368,232,242099,2,0,L|376:168,1,60,10|0,3:2|3:3,0:0:0:0:
176,200,242247,2,0,L|184:136,1,60,10|0,3:2|3:3,0:0:0:0:
376,184,242396,2,0,L|440:184,1,60,10|0,3:2|3:3,0:0:0:0:
352,168,242544,2,0,L|280:168,1,60,10|0,3:2|3:3,0:0:0:0:
376,152,242692,2,0,L|312:152,1,60,10|0,3:2|3:3,0:0:0:0:
128,264,242840,6,0,L|120:200,1,60,10|0,3:2|3:3,0:0:0:0:
208,208,242988,1,10,3:2:0:0:
272,192,243062,1,0,3:3:0:0:
296,160,243136,1,10,3:2:0:0:
272,192,243210,1,0,3:3:0:0:
72,168,243285,2,0,L|136:168,1,60,10|0,3:2|3:3,0:0:0:0:
328,176,243433,2,0,L|400:176,1,60,10|0,3:2|3:3,0:0:0:0:
240,144,243581,1,10,3:2:0:0:
96,144,243655,1,0,3:3:0:0:
240,144,243729,6,0,L|328:144,1,60,14|0,3:2|3:3,0:0:0:0:
104,88,243877,2,0,L|184:88,1,60,10|0,3:2|3:3,0:0:0:0:
360,96,244025,2,0,L|456:96,1,60,10|0,3:2|3:3,0:0:0:0:
224,240,244173,1,10,3:2:0:0:
192,208,244247,1,0,3:3:0:0:
224,240,244321,2,0,L|296:240,1,60,10|0,3:2|3:3,0:0:0:0:
368,240,244469,2,0,L|456:240,1,60,10|0,3:2|3:3,0:0:0:0:
232,168,244618,6,0,L|168:168,1,60,14|0,3:2|3:3,0:0:0:0:
256,152,244766,1,10,3:2:0:0:
288,120,244840,1,0,3:3:0:0:
256,152,244914,2,0,L|184:152,1,60,10|0,3:2|3:3,0:0:0:0:
384,192,245062,2,0,L|376:128,1,60,10|0,3:2|3:3,0:0:0:0:
288,128,245210,2,0,L|280:64,1,60,10|0,3:2|3:3,0:0:0:0:
192,88,245359,2,0,L|184:152,1,60,10|0,3:2|3:3,0:0:0:0:
376,240,245507,6,0,L|440:240,1,60,10|0,3:2|3:3,0:0:0:0:
352,224,245655,2,0,L|288:224,1,60,10|0,3:2|3:3,0:0:0:0:
96,192,245803,2,0,L|32:192,1,60,10|0,3:2|3:3,0:0:0:0:
232,160,245951,2,0,L|304:160,1,60,10|0,3:2|3:3,0:0:0:0:
208,136,246099,2,0,L|272:136,1,60,10|0,3:2|3:3,0:0:0:0:
464,144,246247,2,0,L|368:144,1,60,10|0,3:2|3:3,0:0:0:0:
208,280,246396,6,0,L|216:216,1,60,10|0,3:2|3:3,0:0:0:0:
304,224,246544,2,0,L|312:160,1,60,10|0,3:2|3:3,0:0:0:0:
112,152,246692,2,0,L|48:152,1,60,10|0,3:2|3:3,0:0:0:0:
232,120,246840,2,0,L|296:120,1,60,10|0,3:2|3:3,0:0:0:0:
472,128,246988,2,0,L|408:128,1,60,10|0,3:2|3:3,0:0:0:0:
256,96,247136,1,10,3:2:0:0:
104,96,247210,1,0,3:3:0:0:
256,96,247285,6,0,L|392:96,1,120,14|2,3:2|3:2,0:0:0:0:
80,152,247581,1,2,3:2:0:0:
360,192,247729,1,14,3:2:0:0:
424,192,247803,1,0,3:3:0:0:
456,176,247877,2,0,L|464:112,3,60,0|0|0|0,3:3|3:3|3:3|3:3,0:0:0:0:
256,128,248173,6,0,L|184:128,1,60,14|0,3:2|3:3,0:0:0:0:
408,96,248322,2,0,L|328:96,1,60,10|0,3:2|3:3,0:0:0:0:
144,96,248470,2,0,L|64:96,1,60,10|0,3:2|3:3,0:0:0:0:
288,208,248618,2,0,L|360:208,1,60,10|0,3:2|3:3,0:0:0:0:
136,176,248767,2,0,L|216:176,1,60,10|0,3:2|3:3,0:0:0:0:
400,176,248915,2,0,L|480:176,1,60,10|0,3:2|3:3,0:0:0:0:
264,256,249062,6,0,L|192:256,1,60,4|0,3:2|3:3,0:0:0:0:
120,248,249210,1,0,3:3:0:0:
88,200,249285,1,0,3:3:0:0:
120,248,249359,2,0,L|200:248,1,60,0|0,3:3|3:3,0:0:0:0:
376,208,249507,2,0,L|440:208,1,60,4|0,3:2|3:3,0:0:0:0:
352,192,249655,2,0,L|416:192,1,60,0|0,3:3|3:3,0:0:0:0:
496,184,249803,2,0,L|432:184,1,60,0|0,3:3|3:3,0:0:0:0:
240,192,249951,6,0,L|232:128,1,60,12|0,3:2|3:3,0:0:0:0:
320,152,250099,2,0,L|312:88,1,60,0|0,3:3|3:3,0:0:0:0:
224,88,250247,2,0,L|216:24,1,60,0|0,3:3|3:3,0:0:0:0:
416,208,250396,2,0,L|368:160,1,60,4|0,3:2|3:3,0:0:0:0:
288,152,250544,2,0,L|224:152,1,60,0|0,3:3|3:3,0:0:0:0:
40,144,250692,2,0,L|112:144,1,60,0|0,3:3|3:3,0:0:0:0:
288,224,250840,6,0,L|352:224,1,60,4|0,3:2|3:3,0:0:0:0:
264,208,250988,2,0,L|256:144,1,60,0|0,3:3|3:3,0:0:0:0:
344,168,251136,2,0,L|280:168,1,60,0|0,3:3|3:3,0:0:0:0:
96,192,251285,1,4,3:2:0:0:
64,160,251359,1,0,3:3:0:0:
96,192,251433,2,0,L|168:192,1,60,0|0,3:3|3:3,0:0:0:0:
240,192,251581,2,0,L|328:192,1,60,0|0,3:3|3:3,0:0:0:0:
56,184,251729,6,0,L|160:184,1,90,12|0,3:2|2:2,0:0:0:0:
328,128,251951,2,0,L|216:128,1,90,0|0,3:3|2:2,0:0:0:0:
424,88,252173,1,4,3:2:0:0:
152,80,252285,1,0,2:2:0:0:
336,176,252396,2,0,L|232:176,1,90,0|0,3:3|2:2,0:0:0:0:
464,256,252618,6,0,L|472:192,1,60,4|0,3:2|3:3,0:0:0:0:
280,232,252766,2,0,L|272:168,1,60,0|0,3:3|3:3,0:0:0:0:
360,176,252914,2,0,L|368:112,1,60,0|0,3:3|3:3,0:0:0:0:
176,160,253062,2,0,L|104:160,1,60,8|8,2:2|2:2,0:0:0:0:
200,144,253210,2,0,L|264:144,1,60,8|8,2:2|2:2,0:0:0:0:
176,128,253359,2,0,L|112:128,1,60,8|8,2:2|2:2,0:0:0:0:
304,216,253507,5,4,2:2:0:0:
336,200,253581,1,4,2:2:0:0:
304,216,253655,1,4,2:2:0:0:
240,216,253729,1,4,2:2:0:0:
152,208,253803,2,0,L|160:144,1,60,4|4,2:2|2:2,0:0:0:0:
352,224,253951,1,4,3:2:0:0:
416,224,254025,1,4,3:2:0:0:
448,208,254099,2,0,L|456:144,3,60,4|4|4|4,3:2|3:2|3:2|3:2,0:0:0:0:
224,328,254396,6,0,P|224:144|472:144,1,480,4|0,3:2|2:2,0:0:0:0:
464,160,255099,1,0,0:0:0:0:
232,200,255247,1,0,0:0:0:0:
216,248,255285,2,0,P|184:216|376:216,1,540.000020599366,4|0,3:2|3:3,0:0:0:0:
256,80,257062,6,0,P|104:80|104:312,1,432,8|0,2:2|2:2,0:0:0:0:
248,312,258840,6,0,P|285:120|94:82,1,432,8|0,2:2|2:2,0:0:0:0:
240,80,260618,6,0,P|392:80|392:312,1,432,8|0,2:2|2:2,0:0:0:0:
216,184,262173,2,0,L|288:184,1,60,0|0,3:3|3:3,0:0:0:0:
352,184,262322,1,0,3:3:0:0:
120,184,262396,5,8,2:2:0:0:
232,184,262544,2,0,L|224:64,1,120,0|0,3:3|3:3,0:0:0:0:
464,184,262840,1,4,2:2:0:0:
352,184,262988,2,0,L|360:64,1,120,0|0,3:3|3:3,0:0:0:0:
120,184,263285,5,4,2:2:0:0:
256,80,264173,6,0,P|408:80|408:312,1,432,8|0,2:2|2:2,0:0:0:0:
264,312,265951,6,0,L|424:152,1,216,8|0,2:2|2:2,0:0:0:0:
128,344,266840,6,0,L|136:112,1,216,4|0,2:2|2:2,0:0:0:0:
328,192,267729,2,0,P|272:192|160:80,2,215.999993408203,8|8|8,2:2|2:2|2:2,0:0:0:0:
96,192,268618,5,4,2:2:0:0:
288,200,269062,6,0,L|312:136,5,60,0|0|0|0|0|0,3:3|3:3|3:3|3:3|3:3|3:3,0:0:0:0:
216,200,269507,6,0,L|232:136,5,60,8|8|8|8|8|8,2:2|2:2|2:2|2:2|2:2|2:2,0:0:0:0:
136,200,269951,6,0,L|144:136,5,60,4|4|4|4|4|4,2:2|2:2|2:2|2:2|2:2|2:2,0:0:0:0:
328,304,270396,6,0,P|392:240|336:184,1,180,4|0,3:2|2:2,0:0:0:0:
232,184,270729,1,0,2:2:0:0:
344,176,270840,2,0,L|352:80,3,90,0|0|0|0,2:2|2:2|2:2|2:2,0:0:0:0:
248,176,271285,6,0,L|312:112,1,90,8|0,2:2|2:2,0:0:0:0:
208,152,271507,2,0,L|272:88,1,90,0|0,2:2|2:2,0:0:0:0:
375,176,271729,2,0,L|311:112,1,90,0|0,2:2|2:2,0:0:0:0:
415,152,271951,2,0,L|351:88,1,90,0|0,2:2|2:2,0:0:0:0:
248,224,272173,5,0,3:3:0:0:
208,224,272285,1,0,2:2:0:0:
248,224,272396,1,0,2:2:0:0:
320,224,272507,1,0,2:2:0:0:
216,200,272618,1,0,2:2:0:0:
256,200,272730,1,0,2:2:0:0:
216,200,272841,1,0,2:2:0:0:
144,200,272952,1,0,2:2:0:0:
248,184,273062,6,0,L|144:184,1,90,8|8,2:2|2:2,0:0:0:0:
264,176,273285,2,0,L|160:176,1,90,8|8,3:2|3:2,0:0:0:0:
280,224,273507,2,0,P|280:176|192:88,1,180,0|0,2:2|2:2,0:0:0:0:
88,96,273840,1,0,2:2:0:0:
280,112,273951,5,4,3:2:0:0:
352,112,274062,1,0,2:2:0:0:
392,112,274173,2,0,L|400:16,3,90,0|0|0|0,2:2|2:2|2:2|2:2,0:0:0:0:
296,248,274618,2,0,L|304:152,1,90,0|0,2:2|2:2,0:0:0:0:
120,192,274840,6,0,L|56:128,1,90,8|0,2:2|2:2,0:0:0:0:
128,184,275062,1,0,2:2:0:0:
232,184,275173,2,0,L|168:120,1,90,8|0,2:2|2:2,0:0:0:0:
240,176,275395,1,0,2:2:0:0:
344,136,275507,2,0,L|248:136,1,90,8|8,2:2|2:2,0:0:0:0:
440,232,275729,6,0,L|448:136,3,90,0|0|0|0,3:3|2:2|2:2|2:2,0:0:0:0:
264,192,276173,2,0,L|360:192,1,90,8|8,2:2|2:2,0:0:0:0:
248,176,276396,2,0,L|352:176,1,90,8|8,2:2|2:2,0:0:0:0:
152,256,276618,6,0,L|216:192,1,90,0|0,3:3|3:3,0:0:0:0:
112,224,276840,2,0,L|176:160,1,90,0|0,3:3|3:3,0:0:0:0:
280,176,277062,2,0,L|216:112,1,90,4|4,2:2|2:2,0:0:0:0:
112,128,277285,2,0,L|40:56,1,90,4|4,2:2|2:2,0:0:0:0:
232,176,277507,6,0,P|280:176|280:72,1,180,4|0,3:2|2:2,0:0:0:0:
176,80,277840,1,0,2:2:0:0:
280,112,277951,2,0,L|216:48,1,90,0|0,3:3|2:2,0:0:0:0:
112,136,278173,2,0,L|176:72,1,90,0|0,2:2|2:2,0:0:0:0:
360,152,278396,6,0,L|256:152,1,90,8|8,2:2|2:2,0:0:0:0:
376,144,278618,2,0,L|280:144,1,90,8|8,2:2|2:2,0:0:0:0:
392,152,278840,2,0,P|424:120|344:40,1,180,0|0,3:3|2:2,0:0:0:0:
248,152,279174,1,0,2:2:0:0:
432,232,279285,6,0,L|440:136,1,90,0|0,3:3|2:2,0:0:0:0:
336,176,279507,2,0,L|448:176,1,90,8|8,2:2|2:2,0:0:0:0:
320,224,279729,2,0,L|312:40,1,180,0|0,3:3|2:2,0:0:0:0:
416,120,280062,1,0,2:2:0:0:
224,240,280173,6,0,L|328:240,1,90,8|8,2:2|2:2,0:0:0:0:
208,232,280396,2,0,L|320:232,1,90,8|8,2:2|2:2,0:0:0:0:
192,272,280618,2,0,P|144:272|144:168,1,180,0|0,3:3|2:2,0:0:0:0:
248,168,280951,1,0,2:2:0:0:
64,240,281062,5,4,3:2:0:0:
24,240,281173,1,0,3:3:0:0:
64,240,281285,1,0,3:3:0:0:
144,248,281396,1,0,3:3:0:0:
320,232,281507,2,0,L|256:168,1,90,8|0,3:2|3:3,0:0:0:0:
152,160,281729,2,0,L|88:96,1,90,0|0,3:3|3:3,0:0:0:0:
264,248,281951,6,0,L|328:184,1,90,8|0,3:2|3:3,0:0:0:0:
432,176,282173,2,0,L|496:112,1,90,0|0,3:3|3:3,0:0:0:0:
304,272,282396,2,0,L|408:272,1,90,8|8,3:2|2:2,0:0:0:0:
200,248,282618,2,0,L|312:248,1,90,8|8,2:2|2:2,0:0:0:0:
184,248,282840,6,0,P|192:64|200:248,1,540,0|0,2:2|2:2,0:0:0:0:
80,344,283729,2,0,L|72:72,1,270.000010299683,0|0,2:2|2:2,0:0:0:0:
392,240,284618,6,0,L|360:208,1,45,4|0,3:2|3:3,0:0:0:0:
304,224,284729,2,0,L|264:184,1,45,0|0,3:3|3:3,0:0:0:0:
216,216,284840,2,0,L|176:176,1,45,0|0,3:3|3:3,0:0:0:0:
192,200,285062,2,0,L|224:168,1,45,0|0,3:3|3:3,0:0:0:0:
280,184,285173,2,0,L|320:144,1,45,0|0,3:3|3:3,0:0:0:0:
368,176,285284,2,0,L|408:136,1,45,0|0,3:3|3:3,0:0:0:0:
248,296,285507,6,0,P|208:296|208:40,1,405.000015449525,4|0,2:2|2:2,0:0:0:0:
376,264,286396,6,0,L|160:264,1,202.500007724762,12|0,2:2|2:2,0:0:0:0:
288,272,286840,2,0,L|448:272,1,135.000005149842,8|0,2:2|2:2,0:0:0:0:
96,256,287285,6,0,L|272:80,2,242.999992584229,12|8|8,2:2|2:2|2:2,0:0:0:0:
280,312,288173,6,0,P|280:264|128:112,1,270,4|0,2:2|2:2,0:0:0:0:
40,288,288618,5,0,3:3:0:0:
39,258,288673,1,0,3:3:0:0:
43,229,288729,1,0,3:3:0:0:
51,201,288784,1,0,3:3:0:0:
62,174,288840,1,0,3:3:0:0:
77,149,288895,1,0,3:3:0:0:
95,126,288951,1,0,3:3:0:0:
116,106,289006,1,0,3:3:0:0:
140,89,289062,1,4,3:2:0:0:
165,75,289118,1,0,3:3:0:0:
193,64,289173,1,0,3:3:0:0:
221,58,289229,1,0,3:3:0:0:
250,55,289284,1,0,3:3:0:0:
279,56,289340,1,0,3:3:0:0:
308,61,289395,1,0,3:3:0:0:
336,70,289451,1,0,3:3:0:0:
362,83,289506,1,0,3:3:0:0:
387,99,289562,1,0,3:3:0:0:
409,118,289618,1,0,3:3:0:0:
428,141,289673,1,0,3:3:0:0:
444,165,289729,1,0,3:3:0:0:
457,191,289784,1,0,3:3:0:0:
466,219,289840,1,0,3:3:0:0:
471,248,289895,1,0,3:3:0:0:
248,320,289951,6,0,P|152:224|312:64,1,405.000015449525,12|0,3:2|2:2,0:0:0:0:
400,368,290840,2,0,L|64:368,1,323.999990112305,4|0,2:2|2:2,0:0:0:0:
416,256,291729,6,0,L|240:80,2,242.999992584229,12|8|8,2:2|2:2|2:2,0:0:0:0:
232,48,292618,2,0,B|184:48|184:48|168:360,1,360,4|0,2:2|2:2,0:0:0:0:
416,296,293507,6,0,L|384:264,1,45,8|0,3:2|3:3,0:0:0:0:
328,280,293618,2,0,L|288:240,1,45,0|0,3:3|3:3,0:0:0:0:
240,272,293729,2,0,L|200:232,1,45,0|0,3:3|3:3,0:0:0:0:
216,256,293951,2,0,L|248:224,1,45,0|0,3:3|3:3,0:0:0:0:
304,240,294062,2,0,L|344:200,1,45,0|0,3:3|3:3,0:0:0:0:
392,232,294173,2,0,L|432:192,1,45,0|0,3:3|3:3,0:0:0:0:
272,296,294396,6,0,L|456:296,2,180.000006866455,12|8|8,2:2|2:2|2:2,0:0:0:0:
64,272,295285,2,0,L|248:272,2,180.000006866455,12|8|8,2:2|2:2|2:2,0:0:0:0:
336,216,296173,6,0,L|328:120,1,90,4|0,2:2|2:2,0:0:0:0:
216,216,296396,2,0,L|208:120,1,90,4|0,2:2|2:2,0:0:0:0:
96,216,296618,2,0,L|88:32,1,180,4|4,2:2|2:2,0:0:0:0:
392,288,297062,6,0,P|432:248|312:128,1,270,12|0,2:2|2:2,0:0:0:0:
216,208,297507,2,0,L|208:160,1,45,0|0,3:3|3:3,0:0:0:0:
256,160,297618,2,0,L|264:112,1,45,0|0,3:3|3:3,0:0:0:0:
312,136,297729,2,0,L|304:184,1,45,0|0,3:3|3:3,0:0:0:0:
352,184,297840,2,0,L|360:136,1,45,0|0,3:3|3:3,0:0:0:0:
176,248,297951,6,0,L|56:248,1,120,4|0,3:2|3:3,0:0:0:0:
296,232,298247,1,0,3:3:0:0:
48,128,298396,2,0,L|184:128,1,120,0|0,3:3|3:3,0:0:0:0:
408,128,298692,1,0,3:3:0:0:
48,248,298840,6,0,L|80:216,1,45,4|0,3:2|3:3,0:0:0:0:
136,232,298951,2,0,L|176:192,1,45,0|0,3:3|3:3,0:0:0:0:
224,224,299062,2,0,L|264:184,1,45,0|0,3:3|3:3,0:0:0:0:
248,208,299284,2,0,L|216:176,1,45,0|0,3:3|3:3,0:0:0:0:
160,192,299395,2,0,L|120:152,1,45,0|0,3:3|3:3,0:0:0:0:
72,184,299506,2,0,L|32:144,1,45,0|0,3:3|3:3,0:0:0:0:
192,176,299729,6,0,P|232:176|232:48,1,202.500007724762,4|0,2:2|2:2,0:0:0:0:
136,224,300173,2,0,L|272:224,1,135.000005149842,0|0,2:2|2:2,0:0:0:0:
168,200,300507,1,0,2:2:0:0:
344,384,300618,6,0,B|416:384|416:384|216:384|216:16,1,540.000020599366,12|4,2:2|2:2,0:0:0:0:
400,240,302396,5,12,3:2:0:0:
384,232,302451,1,0,3:3:0:0:
376,224,302507,1,0,3:3:0:0:
360,216,302562,1,0,3:3:0:0:
344,208,302617,1,0,3:3:0:0:
336,200,302673,1,0,3:3:0:0:
320,192,302729,1,0,3:3:0:0:
304,184,302784,1,0,3:3:0:0:
232,208,302840,1,0,3:3:0:0:
248,200,302895,1,0,3:3:0:0:
256,192,302951,1,0,3:3:0:0:
272,184,303006,1,0,3:3:0:0:
288,176,303061,1,0,3:3:0:0:
296,168,303117,1,0,3:3:0:0:
312,160,303173,1,0,3:3:0:0:
328,152,303228,1,0,3:3:0:0:
256,200,303285,5,4,3:2:0:0:
240,192,303340,1,0,3:3:0:0:
232,184,303396,1,0,3:3:0:0:
216,176,303451,1,0,3:3:0:0:
200,168,303506,1,0,3:3:0:0:
192,160,303562,1,0,3:3:0:0:
176,152,303618,1,0,3:3:0:0:
160,144,303673,1,0,3:3:0:0:
88,168,303729,1,0,3:3:0:0:
104,160,303784,1,0,3:3:0:0:
112,152,303840,1,0,3:3:0:0:
128,144,303895,1,0,3:3:0:0:
144,136,303950,1,0,3:3:0:0:
152,128,304006,1,0,3:3:0:0:
168,120,304062,1,0,3:3:0:0:
184,112,304117,1,0,3:3:0:0:
392,288,304173,6,0,P|424:256|424:40,1,270,12|0,3:2|2:2,0:0:0:0:
312,256,304618,2,0,P|264:256|264:88,1,270,0|0,2:2|2:2,0:0:0:0:
464,248,305062,6,0,L|432:216,1,45,4|0,3:2|3:3,0:0:0:0:
376,232,305173,2,0,L|336:192,1,45,0|0,3:3|3:3,0:0:0:0:
288,224,305284,2,0,L|248:184,1,45,0|0,3:3|0:0,0:0:0:0:
264,208,305506,2,0,L|296:176,1,45,0|0,3:3|3:3,0:0:0:0:
352,192,305617,2,0,L|392:152,1,45,0|0,3:3|3:3,0:0:0:0:
440,184,305728,2,0,L|480:144,1,45,0|0,3:3|0:0,0:0:0:0:
248,248,305951,5,12,3:2:0:0:
176,232,306007,1,0,3:3:0:0:
184,224,306063,1,0,3:3:0:0:
200,216,306118,1,0,3:3:0:0:
216,208,306173,1,0,3:3:0:0:
224,200,306229,1,0,3:3:0:0:
240,192,306285,1,0,3:3:0:0:
256,184,306340,1,0,3:3:0:0:
328,200,306396,1,0,3:3:0:0:
320,192,306452,1,0,3:3:0:0:
304,184,306507,1,0,3:3:0:0:
288,176,306562,1,0,3:3:0:0:
216,160,306618,1,0,3:3:0:0:
224,152,306674,1,0,3:3:0:0:
240,144,306729,1,0,3:3:0:0:
256,136,306784,1,0,3:3:0:0:
328,320,306840,6,0,P|328:272|176:120,1,270,4|0,3:2|0:0,0:0:0:0:
72,296,307285,2,0,L|64:24,1,270
304,184,307729,5,12,3:2:0:0:
416,184,307785,1,0,3:3:0:0:
208,184,307840,1,0,3:3:0:0:
96,184,307896,1,0,3:3:0:0:
304,184,307951,2,0,L|352:184,1,45,0|0,3:3|3:3,0:0:0:0:
96,184,308062,2,0,L|48:184,1,45,0|0,3:3|3:3,0:0:0:0:
280,184,308173,2,0,L|312:152,1,45,0|0,3:3|3:3,0:0:0:0:
104,184,308284,2,0,L|72:152,1,45,0|0,3:3|3:3,0:0:0:0:
256,184,308396,2,0,L|264:136,1,45,0|0,3:3|3:3,0:0:0:0:
112,184,308507,2,0,L|104:136,1,45,0|0,3:3|3:3,0:0:0:0:
304,160,308618,5,4,3:2:0:0:
144,304,309062,2,0,P|112:272|112:56,1,270,0|0,2:2|2:2,0:0:0:0:
424,256,309507,5,12,3:2:0:0:
288,264,309562,1,0,3:3:0:0:
152,256,309618,1,0,3:3:0:0:
96,256,309673,1,0,3:3:0:0:
72,224,309729,1,0,3:3:0:0:
96,256,309784,1,0,3:3:0:0:
160,248,309840,2,0,L|224:248,1,45,0|0,3:3|3:3,0:0:0:0:
144,240,309951,1,0,3:3:0:0:
88,240,310006,1,0,3:3:0:0:
64,208,310062,1,0,3:3:0:0:
88,240,310117,1,0,3:3:0:0:
272,144,310173,6,0,L|296:192,2,45,0|0|0,3:3|3:3|3:3,0:0:0:0:
224,160,310340,1,0,3:3:0:0:
160,152,310396,1,4,3:2:0:0:
112,136,310451,2,0,L|88:184,2,45,0|0|0,3:3|3:3|3:3,0:0:0:0:
176,152,310618,2,0,L|232:152,1,45,0|0,3:3|3:3,0:0:0:0:
152,144,310729,2,0,L|104:144,1,45,0|0,3:3|3:3,0:0:0:0:
288,208,310840,6,0,L|344:208,1,45,0|0,3:3|3:3,0:0:0:0:
400,160,310951,2,0,L|424:208,2,45,0|0|0,3:3|3:3|3:3,0:0:0:0:
352,176,311118,1,0,3:3:0:0:
288,168,311174,1,0,3:3:0:0:
152,192,311229,1,0,3:3:0:0:
472,344,311285,6,0,L|480:208,1,135,12|0,3:2|2:2,0:0:0:0:
40,288,313466,6,0,P|40:240|192:88,1,270,12|0,3:2|2:2,0:0:0:0:
400,264,314012,2,0,L|208:72,1,270,8|0,3:2|2:2,0:0:0:0:
432,288,314557,6,0,P|464:256|344:136,1,270,12|0,3:2|2:2,0:0:0:0:
128,320,315103,2,0,L|320:128,1,270,8|0,3:2|2:2,0:0:0:0:
96,160,315648,5,12,2:2:0:0:
280,288,316194,2,0,L|88:96,1,270,8|0,3:2|2:2,0:0:0:0:
312,288,316739,6,0,P|416:288|416:144,1,270,12|0,3:2|2:2,0:0:0:0:
304,176,317285,2,0,L|312:80,1,90,8|0,3:2|0:0,0:0:0:0:
432,144,317557,2,0,L|440:48,1,90,0|0,0:0|2:2,0:0:0:0:
192,152,317830,6,0,P|256:152|376:32,2,240,8|8|8,3:2|3:2|3:2,0:0:0:0:
456,192,318921,6,0,L|352:192,1,90,12|0,3:2|2:2,0:0:0:0:
248,200,319194,2,0,L|384:200,1,135,0|0,2:2|2:2,0:0:0:0:
320,192,319466,1,0,3:3:0:0:
264,168,319535,1,0,3:3:0:0:
232,128,319603,1,0,3:3:0:0:
216,80,319671,1,0,3:3:0:0:
232,128,319739,1,0,3:3:0:0:
264,168,319807,1,0,3:3:0:0:
320,192,319875,1,0,3:3:0:0:
384,192,319944,1,0,3:3:0:0:
120,216,320012,5,12,2:2:0:0:
256,192,321103,5,4,2:2:0:0:
120,304,321648,2,0,P|56:240|56:64,1,270,0|0,2:2|2:2,0:0:0:0:
432,256,322194,6,0,P|464:224|344:104,1,270,12|0,3:2|2:2,0:0:0:0:
128,256,322739,2,0,L|336:48,1,270,8|0,3:2|0:0,0:0:0:0:
96,256,323285,6,0,P|64:224|184:104,1,270,12|0,3:2|2:2,0:0:0:0:
400,248,323830,2,0,P|433:130|317:93,1,270,8|0,3:2|2:2,0:0:0:0:
96,192,324375,5,12,2:2:0:0:
304,304,324921,2,0,L|312:32,1,270,8|0,3:2|2:2,0:0:0:0:
96,216,325466,6,0,L|88:120,1,90,12|0,3:2|2:2,2:2:0:0:
208,160,325739,2,0,L|216:64,1,90,8|0,3:2|2:2,2:2:0:0:
336,104,326012,1,8,3:2:0:0:
40,248,326557,6,0,L|288:248,1,240,12|0,2:2|2:2,0:0:0:0:
32,240,327285,1,8,3:2:0:0:
472,248,327648,6,0,L|224:248,1,240,12|8,3:2|3:2,0:0:0:0:
480,240,328376,1,0,2:2:0:0:
40,248,328739,6,0,P|40:200|192:48,1,270,12|0,2:2|2:2,0:0:0:0:
304,112,329285,2,0,L|112:112,1,180,0|0,2:2|2:2,0:0:0:0:
472,192,329830,5,12,3:2:0:0:
328,192,329898,1,0,3:3:0:0:
184,192,329966,1,0,3:3:0:0:
112,192,330035,1,0,3:3:0:0:
64,192,330103,1,0,3:3:0:0:
48,152,330171,1,0,3:3:0:0:
64,192,330239,1,0,3:3:0:0:
112,192,330307,1,0,3:3:0:0:
184,192,330375,2,0,L|192:96,1,90,8|0,3:2|2:2,0:0:0:0:
320,184,330648,2,0,L|328:88,1,90,8|0,3:2|2:2,0:0:0:0:
120,232,330921,5,6,3:2:0:0:
296,352,332698,6,0,P|296:184|96:184,2,405.000015449525,2|2|2,2:2|2:2|2:2,0:0:0:0:
48,344,334476,5,6,2:2:0:0:
248,256,335365,2,0,L|424:80,1,242.999992584229,0|0,2:2|2:2,0:0:0:0:
304,248,335809,2,0,L|128:72,1,242.999992584229,0|0,2:2|2:2,0:0:0:0:
360,264,336254,6,0,L|368:80,1,180,2|0,2:2|3:3,0:0:0:0:
256,96,336587,1,0,3:3:0:0:
368,120,336698,2,0,L|360:216,1,90,0|0,3:3|3:3,0:0:0:0:
248,224,336921,2,0,L|240:128,1,90,0|0,3:3|3:3,0:0:0:0:
424,232,337143,5,0,3:3:0:0:
368,208,337198,1,0,3:3:0:0:
344,160,337254,1,0,3:3:0:0:
368,208,337309,1,0,3:3:0:0:
424,232,337365,2,0,L|320:232,1,90,0|0,3:3|3:3,0:0:0:0:
96,160,337587,2,0,L|160:160,1,45,8|0,3:2|3:3,0:0:0:0:
328,160,337698,2,0,L|376:160,1,45,0|0,3:3|3:3,0:0:0:0:
184,160,337809,2,0,L|64:160,1,90,0|0,3:3|3:3,0:0:0:0:
368,272,338032,6,0,L|152:272,1,180,4|0,3:2|3:3,0:0:0:0:
304,240,338365,1,0,3:3:0:0:
192,216,338476,2,0,L|200:120,1,90,0|0,3:3|3:3,0:0:0:0:
312,160,338698,2,0,L|416:160,1,90,0|0,3:3|3:3,0:0:0:0:
216,168,338921,6,0,L|112:168,1,90,8|0,3:2|3:3,0:0:0:0:
240,152,339143,2,0,L|248:56,1,90,0|0,3:3|3:3,0:0:0:0:
64,192,339365,2,0,L|168:192,1,90,0|0,3:3|3:3,0:0:0:0:
40,176,339587,2,0,L|32:80,1,90,0|0,3:3|3:3,0:0:0:0:
224,160,339809,5,4,3:2:0:0:
280,160,339921,1,0,3:3:0:0:
224,160,340032,2,0,L|128:160,1,90,0|0,3:3|3:3,0:0:0:0:
248,136,340254,2,0,L|128:136,1,90,0|0,3:3|3:3,0:0:0:0:
344,200,340476,6,0,L|448:200,1,90,0|0,3:3|3:3,0:0:0:0:
320,176,340698,2,0,L|384:112,1,90,0|0,3:3|3:3,0:0:0:0:
272,136,340921,2,0,L|280:40,1,90,0|0,3:3|3:3,0:0:0:0:
96,168,341143,2,0,L|88:72,1,90,8|8,3:2|3:2,0:0:0:0:
272,112,341365,1,8,3:2:0:0:
56,112,341476,1,8,3:2:0:0:
320,200,341587,6,0,L|432:200,1,90,4|0,3:2|3:3,0:0:0:0:
368,184,341754,1,0,3:3:0:0:
304,184,341809,1,0,3:3:0:0:
200,248,341921,2,0,L|192:200,1,45,0|0,3:3|3:3,0:0:0:0:
256,208,342032,1,0,3:3:0:0:
152,184,342143,2,0,L|144:136,1,45,0|0,3:3|3:3,0:0:0:0:
288,176,342254,1,4,3:2:0:0:
344,176,342310,1,0,0:0:0:0:
368,144,342366,1,0,0:0:0:0:
344,176,342421,1,0,0:0:0:0:
208,304,342476,6,0,L|200:256,3,45,0|0|0|0,3:3|3:3|3:3|3:3,0:0:0:0:
264,256,342698,2,0,L|272:208,1,45,0|0,3:3|3:3,0:0:0:0:
208,208,342809,2,0,L|200:160,1,45,0|0,3:3|3:3,0:0:0:0:
344,248,342921,2,0,L|400:248,1,45,4|4,2:2|2:2,0:0:0:0:
328,232,343032,2,0,L|272:232,1,45,4|4,2:2|2:2,0:0:0:0:
224,184,343143,1,4,2:2:0:0:
200,152,343199,1,4,2:2:0:0:
224,184,343254,1,4,2:2:0:0:
280,184,343309,1,4,2:2:0:0:
424,352,343365,6,0,P|456:320|272:136,1,404.999987640381,4|0,3:2|2:2,0:0:0:0:
304,112,343976,1,0,3:3:0:0:
328,112,344032,1,0,3:3:0:0:
352,112,344087,1,0,3:3:0:0:
376,112,344143,1,0,3:3:0:0:
400,112,344198,1,0,3:3:0:0:
248,272,344254,5,12,3:2:0:0:
96,272,344309,1,0,3:3:0:0:
248,272,344365,2,0,L|296:272,1,45,0|0,3:3|3:3,0:0:0:0:
112,192,344476,2,0,L|64:192,1,45,0|0,3:3|3:3,0:0:0:0:
128,184,344587,2,0,L|176:184,1,45,0|0,3:3|3:3,0:0:0:0:
353,151,344698,6,0,L|377:199,2,45,0|0|0,3:3|3:3|3:3,0:0:0:0:
305,167,344865,1,0,3:3:0:0:
241,159,344921,1,0,3:3:0:0:
193,143,344976,2,0,L|169:191,2,45,0|0|0,3:3|3:3|3:3,0:0:0:0:
424,208,345143,5,4,3:2:0:0:
280,344,346032,2,0,B|360:80|360:80|440:336,1,540,4|0,2:2|2:2,0:0:0:0:
160,312,346921,6,0,P|112:312|112:88,1,360,12|0,2:2|0:0,0:0:0:0:
272,272,347587,2,0,P|224:272|224:48,1,360,4|0,3:2|0:0,0:0:0:0:
384,256,348254,2,0,L|392:72,1,180,4|0,3:2|0:0,0:0:0:0:
112,200,348698,5,4,3:2:0:0:
256,216,349587,2,0,P|288:184|168:64,1,270,4|0,2:2|2:2,0:0:0:0:
56,200,350032,2,0,L|64:16,1,180,0|0,3:3|3:3,0:0:0:0:
344,256,350476,6,0,P|392:256|392:32,1,360,12|0,2:2|2:2,0:0:0:0:
232,368,351143,2,0,L|248:8,1,360,4|0,3:2|2:2,0:0:0:0:
88,184,351809,2,0,L|80:0,1,180,0|0,3:3|2:2,0:0:0:0:
376,200,352254,5,4,3:2:0:0:
232,344,353143,2,0,B|152:80|152:80|72:336,1,540,4|0,2:2|2:2,0:0:0:0:
352,296,354032,6,0,P|384:264|224:104,1,360,12|0,2:2|0:0,0:0:0:0:
64,368,354698,2,0,L|320:112,1,360,4|0,3:2|0:0,0:0:0:0:
160,240,355365,2,0,L|32:112,1,180,4|0,3:2|0:0,0:0:0:0:
312,384,355809,6,0,L|304:24,1,360,4|0,3:2|0:0,0:0:0:0:
144,296,356476,2,0,P|144:112|280:112,1,360,0|0,3:3|0:0,0:0:0:0:
440,160,357143,2,0,L|312:32,1,180,4|0,3:2|0:0,0:0:0:0:
32,360,357587,6,0,L|312:80,1,360,12|0,2:2|2:2,0:0:0:0:
128,384,358254,2,0,P|128:200|264:200,1,360,4|0,3:2|2:2,0:0:0:0:
424,200,358921,2,0,P|456:168|376:88,1,180,4|0,3:2|2:2,0:0:0:0:
88,200,359365,5,4,3:2:0:0:
232,344,360254,2,0,B|152:80|152:80|72:336,1,540,4|0,2:2|2:2,0:0:0:0:
80,344,361032,1,0,2:2:0:0:
304,336,361143,6,0,P|352:336|352:112,1,360,12|0,2:2|0:0,0:0:0:0:
192,320,361809,2,0,L|448:64,1,360,0|0,3:3|0:0,0:0:0:0:
288,208,362476,2,0,L|416:80,1,180,0|0,3:3|0:0,0:0:0:0:
136,184,362920,5,4,3:2:0:0:
304,192,363587,1,0,2:2:0:0:
144,304,363809,2,0,P|144:256|296:104,1,270,0|0,2:2|2:2,0:0:0:0:
400,208,364254,2,0,L|408:24,1,180,0|0,3:3|2:2,0:0:0:0:
128,344,364698,6,0,P|96:312|256:152,1,360,12|0,2:2|0:0,0:0:0:0:
96,312,365365,2,0,P|64:280|224:120,1,360,0|0,3:3|0:0,0:0:0:0:
376,256,366032,2,0,L|504:128,1,180,0|0,3:3|0:0,0:0:0:0:
224,208,366476,5,4,3:2:0:0:
384,200,367143,1,0,2:2:0:0:
224,352,367365,2,0,L|216:80,1,270,4|0,2:2|2:2,0:0:0:0:
296,176,367809,2,0,L|168:48,1,180,0|0,2:2|2:2,0:0:0:0:
456,336,368254,6,0,P|456:288|248:80,1,360,12|0,2:2|0:0,0:0:0:0:
96,288,368920,2,0,L|352:32,1,360,0|0,3:3|0:0,0:0:0:0:
192,248,369587,2,0,L|64:120,1,180,0|0,3:3|0:0,0:0:0:0:
344,288,370032,6,0,P|392:288|392:64,1,360,4|0,3:2|0:0,0:0:0:0:
232,288,370698,2,0,P|232:104|368:104,1,360,4|0,3:2|0:0,0:0:0:0:
208,168,371365,2,0,L|336:40,1,180,8|0,2:2|0:0,0:0:0:0:
56,376,371809,6,0,L|64:16,1,360,12|0,2:2|2:2,0:0:0:0:
224,376,372476,2,0,L|216:16,1,360,4|0,2:2|2:2,0:0:0:0:
376,352,373143,2,0,L|384:80,1,270,4|0,3:2|2:2,0:0:0:0:
112,192,373587,5,4,2:2:0:0:
256,192,373698,12,0,380698,0:0:0:0:
288,304,416254,6,0,P|280:152|272:304,1,450,2|0,2:2|2:2,0:0:0:0:
352,360,417587,2,0,P|384:328|80:328,1,900,2|0,2:2|2:2,0:0:0:0:
264,368,423365,6,0,B|368:368|368:368|264:360|264:360|368:360|368:152,1,450,2|0,2:2|2:2,0:0:0:0:
272,336,424698,2,0,P|280:96|288:336,1,720,2|0,2:2|2:2,0:0:0:0:
128,352,426920,6,0,P|224:352|224:16,1,540,2|2,2:2|2:2,0:0:0:0:
48,280,428698,6,0,L|152:280,3,90,2|2|2|2,2:2|2:2|2:2|2:2,0:0:0:0:
320,208,429809,1,2,2:2:0:0:
136,288,430032,2,0,L|328:96,1,270,2|0,2:2|2:2,0:0:0:0:
72,296,430476,6,0,P|40:264|120:184,1,180,8|0,3:2|3:3,0:0:0:0:
272,288,430920,2,0,P|304:256|224:176,1,180,0|0,3:3|3:3,0:0:0:0:
72,256,431365,2,0,L|200:128,1,180,0|0,3:3|3:3,0:0:0:0:
360,224,431809,2,0,L|488:96,1,180,0|0,3:3|3:3,0:0:0:0:
200,200,432254,6,0,L|72:72,2,180,8|0|0,3:2|3:3|3:3,0:0:0:0:
360,200,432920,2,0,L|232:72,2,180,8|0|0,3:2|3:3|3:3,0:0:0:0:
200,232,433587,2,0,L|72:104,1,180,8|0,3:2|3:3,0:0:0:0:
360,264,434032,6,0,L|368:80,3,180,8|0|0|0,3:2|3:3|3:3|3:3,0:0:0:0:
208,280,434920,2,0,L|344:144,1,180,0|0,3:3|3:3,0:0:0:0:
168,288,435365,2,0,L|40:160,1,180,0|0,3:3|3:3,0:0:0:0:
328,208,435809,5,0,3:3:0:0:
416,208,436032,1,0,3:3:0:0:
328,208,436254,1,0,3:3:0:0:
152,208,436476,1,0,3:3:0:0:
336,200,436698,1,8,3:2:0:0:
160,200,436920,1,8,3:2:0:0:
448,192,437143,1,8,3:2:0:0:
112,200,437365,1,8,3:2:0:0:
472,208,437587,6,0,L|464:104,1,90,4|0,3:2|3:3,0:0:0:0:
352,240,437809,2,0,L|360:144,1,90,0|0,3:3|3:3,0:0:0:0:
248,176,438032,2,0,L|240:80,1,90,0|0,3:3|3:3,0:0:0:0:
424,160,438254,6,0,L|328:160,1,90,4|0,3:2|3:3,0:0:0:0:
448,144,438476,2,0,L|352:144,1,90,0|0,3:3|3:3,0:0:0:0:
248,128,438698,2,0,L|352:128,1,90,0|0,3:3|3:3,0:0:0:0:
152,216,438920,2,0,L|256:216,1,90,4|0,3:2|3:3,0:0:0:0:
352,216,439143,2,0,L|448:216,1,90,0|0,3:3|3:3,0:0:0:0:
256,192,439365,5,4,3:2:0:0:
208,192,439476,1,0,3:3:0:0:
256,192,439587,2,0,L|368:192,1,90,0|0,3:3|3:3,0:0:0:0:
232,176,439809,2,0,L|328:176,1,90,0|0,3:3|3:3,0:0:0:0:
136,304,440032,6,0,L|40:304,1,90,4|0,3:2|3:3,0:0:0:0:
160,288,440254,2,0,L|168:192,1,90,0|0,3:3|3:3,0:0:0:0:
280,248,440476,2,0,L|288:152,1,90,0|0,3:3|3:3,0:0:0:0:
104,184,440698,2,0,L|200:184,1,90,4|0,3:2|3:3,0:0:0:0:
376,184,440920,2,0,L|480:184,1,90,0|0,3:3|3:3,0:0:0:0:
184,208,441143,5,4,3:2:0:0:
96,208,441366,1,4,3:2:0:0:
184,208,441588,1,4,3:2:0:0:
360,208,441810,1,4,3:2:0:0:
184,208,442032,5,4,3:2:0:0:
176,200,442254,1,4,3:2:0:0:
352,200,442476,1,4,3:2:0:0:
176,200,442698,1,4,3:2:0:0:
456,192,442921,1,4,3:2:0:0:
112,200,443143,1,4,3:2:0:0:
480,344,443365,6,0,L|472:72,1,270,4|0,3:2|2:2,0:0:0:0:
192,168,443809,1,12,2:2:0:0:
328,176,443865,1,12,2:2:0:0:
464,160,443920,2,0,L|408:160,1,45,12|12,2:2|2:2,0:0:0:0:
264,152,444032,2,0,L|216:152,1,45,12|12,2:2|2:2,0:0:0:0:
280,144,444143,2,0,L|344:144,1,45,12|12,2:2|2:2,0:0:0:0:
168,200,444254,6,0,L|112:200,1,45,12|12,3:2|2:2,0:0:0:0:
56,200,444365,1,12,2:2:0:0:
40,184,444420,1,12,2:2:0:0:
56,200,444476,1,12,2:2:0:0:
96,200,444531,1,12,2:2:0:0:
152,200,444587,1,12,2:2:0:0:
216,200,444643,5,12,2:2:0:0:
256,192,447365,12,0,448032,0:0:0:0:
264,224,448254,6,0,L|136:96,2,180,6|2|2,3:2|2:2|2:2,0:0:0:0:
104,328,448920,2,0,P|64:288|224:128,1,360,6|0,2:2|2:2,0:0:0:0:
376,200,449587,2,0,L|384:104,1,90,6|0,3:2|2:2,0:0:0:0:
304,112,449809,1,0,2:2:0:0:
24,240,450032,6,0,P|24:216|368:216,1,540,14|0,2:2|2:2,0:0:0:0:
152,272,451809,6,0,L|288:136,2,180,6|2|2,3:2|2:2|2:2,0:0:0:0:
312,312,452476,2,0,P|312:264|104:56,1,360,2|0,3:2|2:2,0:0:0:0:
272,144,453143,2,0,L|200:72,1,90,6|0,3:2|2:2,0:0:0:0:
128,96,453365,1,0,2:2:0:0:
408,296,453587,6,0,L|416:112,1,180,14|2,3:2|3:2,0:0:0:0:
136,240,454032,1,2,3:2:0:0:
416,304,454254,2,0,L|160:48,1,360,2|2,3:2|3:2,0:0:0:0:
320,240,454920,2,0,L|448:112,1,180,2|0,3:2|2:2,0:0:0:0:
160,248,455365,6,0,L|288:120,2,180,6|2|2,3:2|2:2|2:2,0:0:0:0:
320,264,456032,2,0,P|368:264|368:40,1,360,2|0,3:2|2:2,0:0:0:0:
208,192,456698,1,6,3:2:0:0:
128,192,456809,2,0,L|120:96,1,90,0|0,2:2|2:2,0:0:0:0:
408,304,457143,6,0,P|408:280|64:280,1,540,14|0,2:2|3:3,0:0:0:0:
280,272,458920,6,0,L|144:136,2,180,6|2|2,3:2|3:2|3:2,0:0:0:0:
120,256,459587,2,0,P|120:72|256:72,1,360,2|0,3:2|2:2,0:0:0:0:
96,224,460254,2,0,L|32:160,1,90,6|0,3:2|2:2,0:0:0:0:
112,224,460476,1,0,2:2:0:0:
392,296,460698,6,0,P|424:264|344:184,1,180,14|2,3:2|3:2,0:0:0:0:
72,176,461143,1,2,3:2:0:0:
352,224,461365,2,0,L|224:96,1,180,2|12,3:2|3:2,0:0:0:0:
352,96,461643,1,4,3:2:0:0:
480,96,461698,2,0,L|472:144,1,45,4|4,3:2|3:2,0:0:0:0:
408,160,461809,1,0,3:3:0:0:
360,160,461865,1,0,3:3:0:0:
344,128,461920,1,0,3:3:0:0:
360,160,461976,1,0,3:3:0:0:
424,160,462032,2,0,L|432:344,1,180,6|0,3:2|0:0,0:0:0:0:
88,192,462476,5,6,3:2:0:0:
64,168,462532,1,0,3:3:0:0:
88,192,462587,1,0,3:3:0:0:
144,192,462643,1,0,3:3:0:0:
296,168,462698,2,0,L|344:168,1,45,2|0,3:2|3:3,0:0:0:0:
280,160,462809,2,0,L|232:160,1,45,0|0,3:3|3:3,0:0:0:0:
400,152,462920,6,0,L|448:152,1,45,6|0,3:2|3:3,0:0:0:0:
384,144,463031,2,0,L|336:144,1,45,0|0,3:3|3:3,0:0:0:0:
176,248,463143,2,0,L|168:200,1,45,2|0,3:2|3:3,0:0:0:0:
235,212,463254,2,0,L|243:164,1,45,0|0,3:3|3:3,0:0:0:0:
80,136,463365,6,0,L|56:184,2,45,12|0|0,3:2|3:3|3:3,0:0:0:0:
128,152,463532,1,0,3:3:0:0:
192,144,463588,1,0,3:3:0:0:
240,128,463643,2,0,L|264:176,2,45,0|0|0,3:3|3:3|3:3,0:0:0:0:
88,232,463809,6,0,L|128:192,1,45,6|0,3:2|3:3,0:0:0:0:
176,192,463920,2,0,L|224:192,1,45,0|0,3:3|3:3,0:0:0:0:
160,184,464032,1,0,3:3:0:0:
112,184,464087,1,0,3:3:0:0:
88,152,464143,1,0,3:3:0:0:
112,184,464198,1,0,3:3:0:0:
296,200,464254,5,6,3:2:0:0:
344,200,464309,1,0,3:3:0:0:
368,168,464365,1,0,3:3:0:0:
344,200,464420,1,0,3:3:0:0:
160,160,464476,2,0,L|152:112,1,45,2|0,3:2|3:3,0:0:0:0:
216,144,464587,2,0,L|224:96,1,45,0|0,3:3|3:3,0:0:0:0:
40,152,464698,6,0,L|80:112,1,45,6|0,3:2|3:3,0:0:0:0:
128,112,464809,2,0,L|184:112,1,45,0|0,3:3|3:3,0:0:0:0:
320,152,464920,2,0,L|280:112,1,45,2|0,3:2|3:3,0:0:0:0:
232,112,465031,2,0,L|176:112,1,45,0|0,3:3|3:3,0:0:0:0:
336,264,465143,6,0,L|392:264,1,45,12|0,3:2|3:3,0:0:0:0:
320,256,465254,1,0,3:3:0:0:
272,256,465309,1,0,3:3:0:0:
232,224,465365,1,0,3:3:0:0:
216,168,465420,1,0,3:3:0:0:
232,224,465476,1,0,3:3:0:0:
272,256,465532,1,0,3:3:0:0:
424,240,465587,6,0,L|472:240,1,45,6|0,3:2|3:3,0:0:0:0:
408,232,465698,2,0,L|352:232,1,45,0|0,3:3|3:3,0:0:0:0:
304,160,465809,2,0,L|280:208,2,45,0|0|0,3:3|3:3|3:3,0:0:0:0:
352,176,465976,1,0,3:3:0:0:
200,136,466032,6,0,L|152:136,1,45,6|0,3:2|3:3,0:0:0:0:
216,128,466143,2,0,L|264:128,1,45,0|0,3:3|3:3,0:0:0:0:
96,112,466254,2,0,L|48:112,1,45,2|0,3:2|3:3,0:0:0:0:
112,104,466365,2,0,L|160:104,1,45,0|0,3:3|3:3,0:0:0:0:
312,152,466476,6,0,L|320:104,1,45,6|0,3:2|3:3,0:0:0:0:
253,104,466587,2,0,L|245:56,1,45,0|0,3:3|3:3,0:0:0:0:
400,200,466698,1,2,3:2:0:0:
448,200,466753,1,0,3:3:0:0:
472,168,466809,1,0,3:3:0:0:
448,200,466864,1,0,3:3:0:0:
280,248,466920,6,0,L|232:248,1,45,12|0,3:2|3:3,0:0:0:0:
168,248,467032,2,0,L|232:248,1,45,0|0,3:3|3:3,0:0:0:0:
280,248,467143,1,0,3:3:0:0:
328,248,467198,1,0,3:3:0:0:
352,216,467254,1,0,3:3:0:0:
328,248,467309,1,0,3:3:0:0:
152,232,467365,6,0,L|104:232,1,45,6|0,3:2|3:3,0:0:0:0:
40,192,467476,1,0,3:3:0:0:
24,160,467532,1,0,3:3:0:0:
40,192,467587,1,0,3:3:0:0:
80,192,467643,1,0,3:3:0:0:
128,192,467698,1,0,3:3:0:0:
184,192,467754,1,0,3:3:0:0:
344,240,467809,6,0,L|312:208,1,45,6|0,3:2|3:3,0:0:0:0:
256,200,467920,2,0,L|208:200,1,45,0|0,3:3|3:3,0:0:0:0:
376,216,468032,1,2,3:2:0:0:
424,216,468087,1,0,3:3:0:0:
448,184,468143,1,0,3:3:0:0:
424,216,468198,1,0,3:3:0:0:
264,144,468254,6,0,L|312:144,1,45,6|0,3:2|3:3,0:0:0:0:
368,144,468365,2,0,L|320:144,1,45,0|0,3:3|3:3,0:0:0:0:
160,128,468476,2,0,L|208:128,1,45,2|0,3:2|3:3,0:0:0:0:
264,128,468587,2,0,L|216:128,1,45,0|0,3:3|3:3,0:0:0:0:
56,240,468698,6,0,L|48:192,1,45,12|0,3:2|3:3,0:0:0:0:
112,200,468809,1,0,3:3:0:0:
160,200,468864,1,0,3:3:0:0:
176,168,468920,1,0,3:3:0:0:
160,200,468975,1,0,3:3:0:0:
112,200,469032,1,0,3:3:0:0:
56,200,469087,1,0,3:3:0:0:
216,248,469143,2,0,P|264:248|264:80,1,270,8|0,3:2|0:0,0:0:0:0:
88,208,469587,6,0,L|40:208,1,45,6|0,3:2|3:3,0:0:0:0:
104,200,469698,2,0,L|152:200,1,45,0|0,3:3|3:3,0:0:0:0:
304,176,469809,2,0,L|352:176,1,45,2|0,3:2|3:3,0:0:0:0:
288,168,469920,2,0,L|240:168,1,45,0|0,3:3|3:3,0:0:0:0:
400,216,470032,5,6,3:2:0:0:
448,216,470087,1,0,3:3:0:0:
472,184,470143,1,0,3:3:0:0:
448,216,470198,1,0,3:3:0:0:
288,184,470254,2,0,L|280:136,1,45,2|0,3:2|3:3,0:0:0:0:
344,144,470365,2,0,L|352:96,1,45,0|0,3:3|3:3,0:0:0:0:
184,224,470476,6,0,L|128:224,1,45,12|0,3:2|3:3,0:0:0:0:
80,224,470587,2,0,L|32:224,1,45,0|0,3:3|3:3,0:0:0:0:
96,192,470698,2,0,L|152:192,1,45,0|0,3:3|3:3,0:0:0:0:
80,184,470809,2,0,L|32:184,1,45,0|0,3:3|3:3,0:0:0:0:
200,152,470920,6,0,L|256:152,1,45,6|0,3:2|3:3,0:0:0:0:
184,136,471032,2,0,L|232:136,1,45,0|0,3:3|3:3,0:0:0:0:
296,136,471143,1,0,3:3:0:0:
344,136,471198,1,0,3:3:0:0:
368,104,471254,1,0,3:3:0:0:
344,136,471309,1,0,3:3:0:0:
184,232,471365,6,0,L|128:232,1,45,6|0,3:2|3:3,0:0:0:0:
200,224,471476,2,0,L|248:224,1,45,0|0,3:3|3:3,0:0:0:0:
400,224,471587,2,0,L|352:176,1,45,2|0,3:2|3:3,0:0:0:0:
312,176,471698,2,0,L|248:176,1,45,0|0,3:3|3:3,0:0:0:0:
120,176,471809,6,0,L|152:144,1,45,6|0,3:2|3:3,0:0:0:0:
208,144,471920,2,0,L|272:144,1,45,0|0,3:3|3:3,0:0:0:0:
96,112,472032,1,2,3:2:0:0:
72,88,472087,1,0,3:3:0:0:
96,112,472143,1,0,3:3:0:0:
144,112,472198,1,0,3:3:0:0:
320,264,472254,6,0,L|328:216,1,45,12|0,3:2|3:3,0:0:0:0:
264,208,472365,2,0,L|272:160,1,45,0|0,3:3|3:3,0:0:0:0:
336,184,472476,2,0,L|376:144,1,45,0|0,3:3|3:3,0:0:0:0:
432,152,472587,2,0,L|488:152,1,45,0|0,3:3|3:3,0:0:0:0:
272,200,472698,6,0,L|216:200,1,45,6|0,3:2|3:3,0:0:0:0:
160,192,472809,2,0,L|216:192,1,45,0|0,3:3|3:3,0:0:0:0:
272,200,472920,2,0,L|328:200,1,45,0|0,3:3|3:3,0:0:0:0:
104,144,473032,2,0,L|48:144,1,45,0|0,3:3|3:3,0:0:0:0:
288,184,473143,6,0,L|392:184,1,90,14|0,3:2|2:2,0:0:0:0:
184,128,473365,2,0,L|288:128,1,90,14|0,3:2|2:2,0:0:0:0:
464,136,473587,1,14,3:2:0:0:
88,136,473809,1,14,3:2:0:0:
304,280,474476,2,0,P|352:280|352:112,1,270,4|0,2:2|2:2,0:0:0:0:
80,112,474920,6,0,L|192:112,1,90,14|0,3:2|2:2,0:0:0:0:
368,104,475143,2,0,L|464:104,1,90,14|0,3:2|2:2,0:0:0:0:
96,104,475365,2,0,L|208:104,1,90,14|0,3:2|2:2,0:0:0:0:
384,96,475588,2,0,L|480:96,1,90,14|0,3:2|2:2,0:0:0:0:
112,96,475809,6,0,P|64:144|64:256,1,180,0|14,2:2|3:2,0:0:0:0:
448,216,476254,1,14,3:2:0:0:
256,192,476698,5,2,2:2:0:0:
256,192,476938,12,0,484378,0:0:0:0:
256,192,522778,5,2,0:0:0:0:
256,192,523018,12,0,545818,2:2:0:0:
