osu file format v14

[General]
AudioFilename: audio.ogg
AudioLeadIn: 0
PreviewTime: 283831
Countdown: 0
SampleSet: Drum
StackLeniency: 0
Mode: 0
LetterboxInBreaks: 0
EpilepsyWarning: 1
WidescreenStoryboard: 1

[Editor]
Bookmarks: 38611,46291,53971,61651,69331,77011,107731,123091,130771,138451,146131,153811,161491,169171,176851,184531,199891,215251,245971,253651,261331,269011,276691,299731,322771
DistanceSpacing: 0.2
BeatDivisor: 4
GridSize: 16
TimelineZoom: 3.199999

[Metadata]
Title:Pain Remains II: After All I've Done, I'll Disappear
TitleUnicode:Pain Remains II: After All I've Done, I'll Disappear
Artist:Lorna Shore
ArtistUnicode:Lorna Shore
Creator:ItsWinter
Version:In a Sea of Fire
Source:
Tags:SILENCE PLAYER sayuka julie Kerupt pain remains part 2 two dancing like flames 2022 english metal deathcore symphonic epic marathon
BeatmapID:3885119
BeatmapSetID:1886691

[Difficulty]
HPDrainRate:4
CircleSize:3.8
OverallDifficulty:10
ApproachRate:10
SliderMultiplier:2
SliderTickRate:0.5

[Events]
//Background and Video events
0,0,"fiocdhfiuhb3452412.jpg",0,0
//Break Periods
2,4241,7431
2,231580,239751
2,276801,283911
//Storyboard Layer 0 (Background)
//Storyboard Layer 1 (Fail)
//Storyboard Layer 2 (Pass)
//Storyboard Layer 3 (Foreground)
//Storyboard Layer 4 (Overlay)
//Storyboard Sound Samples

[TimingPoints]
201,240,4,3,1,80,1,0
7881,-200,4,3,1,80,0,0
9201,-200,4,3,1,5,0,0
9321,-200,4,3,1,80,0,0
9681,-200,4,3,1,5,0,0
9801,-200,4,3,1,80,0,0
10221,-200,4,3,1,5,0,0
10281,-200,4,3,1,80,0,0
11241,-125,4,3,1,80,0,0
11601,-125,4,3,1,5,0,0
11721,-1000,4,3,6,80,0,0
12921,-1000,4,3,1,5,0,0
13161,-125,4,3,1,80,0,0
13521,-125,4,3,1,5,0,0
13641,-125,4,3,1,80,0,0
14061,-125,4,3,1,5,0,0
14121,-125,4,3,1,80,0,0
14361,-200,4,3,4,80,0,0
14601,-200,4,3,1,80,0,0
14961,-100,4,3,1,80,0,0
15321,-100,4,3,2,80,0,0
15561,-100,4,3,1,80,0,0
21081,-200,4,3,1,80,0,0
21321,-100,4,3,1,80,0,0
22761,-100,4,3,4,80,0,0
23001,-100,4,3,2,80,0,0
23241,-100,4,3,1,80,0,0
23721,-200,4,3,1,80,0,0
26121,-100,4,3,1,80,0,0
29001,-100,4,3,4,80,0,0
29481,-100,4,3,2,80,0,0
29961,-100,4,3,1,80,0,0
30921,-76.9230769230769,4,3,1,80,0,0
34521,-166.666666666667,4,3,1,80,0,0
34881,-83.3333333333333,4,3,1,80,0,0
37401,-200,4,3,1,80,0,0
38361,-200,4,3,4,80,0,0
38601,-76.9230769230769,4,3,1,80,0,0
38841,-76.9230769230769,4,3,1,80,0,0
41721,-76.9230769230769,4,3,4,80,0,0
41961,-166.666666666667,4,3,1,80,0,0
42201,-166.666666666667,4,3,2,80,0,0
42441,-76.923076923077,4,3,1,80,0,0
45561,-142.857142857143,4,3,1,80,0,0
45801,-142.857142857143,4,3,4,80,0,0
46041,-142.857142857143,4,3,2,80,0,0
46281,-76.923076923077,4,3,1,80,0,0
46881,-75.7862826828284,4,3,1,80,0,0
47121,-75.7862826828376,4,3,1,80,0,0
47241,-76.923076923077,4,3,1,80,0,0
48561,-58.8235294117647,4,3,1,80,0,0
50721,-166.666666666667,4,3,1,80,0,0
51081,-100,4,3,1,80,0,0
51681,-100,4,3,4,80,0,0
51801,-100,4,3,2,80,0,0
51921,-100,4,3,6,80,0,0
52041,-66.6666666666667,4,3,1,80,0,0
52521,-66.6666666666667,4,3,4,80,0,0
52761,-166.666666666667,4,3,4,80,0,0
53001,-166.666666666667,4,3,1,80,0,0
53481,-166.666666666667,4,3,4,80,0,0
53721,-166.666666666667,4,3,2,80,0,0
53961,-66.6666666666667,4,3,1,80,0,0
54201,-80,4,3,1,80,0,0
55881,-58.8235294117647,4,3,1,80,0,0
58401,-166.666666666667,4,3,1,80,0,0
58641,-80,4,3,1,80,0,0
59241,-80,4,3,4,80,0,0
59481,-80,4,3,2,80,0,0
59601,-80,4,3,6,80,0,0
59721,-80,4,3,1,80,0,0
61161,-166.666666666667,4,3,4,80,0,0
61401,-166.666666666667,4,3,2,80,0,0
61641,-66.6666666666667,4,3,1,80,0,0
62601,-166.666666666667,4,3,1,80,0,0
63681,-100,4,3,1,80,0,0
65481,-200,4,3,1,80,0,0
65721,-100,4,3,1,80,0,0
66441,-66.6666666666667,4,3,1,80,0,0
68121,-200,4,3,1,80,0,0
68481,-100,4,3,1,80,0,0
69321,-71.4285714285714,4,3,1,80,0,0
69561,-100,4,3,1,80,0,0
70281,-166.666666666667,4,3,1,80,0,0
70761,-100,4,3,1,80,0,0
73161,-166.666666666667,4,3,1,80,0,0
73401,-100,4,3,1,80,0,0
74841,-100,4,3,4,80,0,0
74961,-100,4,3,2,80,0,0
75081,-200,4,3,1,80,0,0
75561,-125,4,3,1,80,0,0
76521,-83.3333333333333,4,3,6,80,0,0
76941,-83.3333333333333,4,3,6,5,0,0
77001,-333.333333333333,4,3,1,80,0,0
77361,-333.333333333333,4,3,1,5,0,0
77481,-333.333333333333,4,3,1,80,0,0
78801,-333.333333333333,4,3,1,5,0,0
78921,-333.333333333333,4,3,1,80,0,0
79281,-333.333333333333,4,3,1,5,0,0
79401,-83.3333333333333,4,3,1,80,0,0
80841,-100,4,3,1,80,0,0
81201,-100,4,3,1,5,0,0
81321,-100,4,3,1,80,0,0
81801,-666.666666666667,4,3,1,80,0,0
82521,-200,4,3,1,80,0,0
82761,-133.333333333333,4,3,1,80,0,0
82881,-133.333333333333,4,3,1,5,0,0
83001,-133.333333333333,4,3,1,80,0,0
83121,-133.333333333333,4,3,1,5,0,0
83241,-133.333333333333,4,3,1,80,0,0
83961,-133.333333333333,4,3,4,80,0,0
84201,-133.333333333333,4,3,1,80,0,0
84441,-133.333333333333,4,3,4,80,0,0
84681,-250,4,3,1,80,0,0
85041,-133.333333333333,4,3,1,5,0,0
85161,-133.333333333333,4,3,1,80,0,0
85641,-250,4,3,1,80,0,0
86121,-125,4,3,1,80,0,0
86241,-133.333333333333,4,3,1,5,0,0
86361,-125,4,3,1,80,0,0
86481,-133.333333333333,4,3,1,5,0,0
86601,-250,4,3,1,80,0,0
86961,-133.333333333333,4,3,1,5,0,0
87081,-133.333333333333,4,3,1,80,0,0
88281,-250,4,3,2,80,0,0
88521,-125,4,3,1,80,0,0
90441,-90.9090909090909,4,3,1,80,0,0
90801,-90.9090909090909,4,3,1,5,0,0
90921,-125,4,3,1,80,0,0
91281,-90.9090909090909,4,3,1,5,0,0
91401,-83.3333333333333,4,3,1,80,0,0
92121,-83.3333333333333,4,3,4,80,0,0
92361,-58.8235294117647,4,3,1,80,0,1
93801,-142.857142857143,4,3,1,80,0,1
94041,-100,4,3,1,80,0,1
95721,-76.9230769230769,4,3,1,80,0,1
95961,-200,4,3,4,80,0,1
96201,-200,4,3,1,80,0,1
97641,-100,4,3,1,80,0,1
99081,-100,4,3,4,80,0,1
99321,-100,4,3,1,80,0,1
99561,-100,4,3,2,80,0,1
99801,-100,4,3,6,80,0,1
100041,-66.6666666666667,4,3,1,80,0,1
101241,-133.333333333333,4,3,1,80,0,1
101961,-66.6666666666667,4,3,1,80,0,1
102681,-66.6666666666667,4,3,4,80,0,1
102921,-66.6666666666667,4,3,2,80,0,1
103161,-66.6666666666667,4,3,1,80,0,1
103641,-166.666666666667,4,3,4,80,0,1
103881,-166.666666666667,4,3,1,80,0,1
107241,-166.666666666667,4,3,4,80,0,1
107481,-166.666666666667,4,3,2,80,0,1
107721,-76.923076923077,4,3,1,80,0,1
110361,-100,4,3,1,80,0,1
111321,-76.923076923077,4,3,4,80,0,1
111561,-76.923076923077,4,3,1,80,0,1
113661,-76.923076923077,4,3,1,5,0,1
113721,-76.923076923077,4,3,1,80,0,1
113901,-76.923076923077,4,3,1,5,0,1
113961,-76.923076923077,4,3,1,80,0,1
114141,-76.923076923077,4,3,1,5,0,1
114201,-76.923076923077,4,3,1,80,0,1
114381,-76.923076923077,4,3,1,5,0,1
114441,-76.923076923077,4,3,1,80,0,1
114921,-76.923076923077,4,3,4,80,0,1
115161,-76.923076923077,4,3,2,80,0,1
115401,-66.6666666666667,4,3,1,80,0,1
115641,-76.9230769230769,4,3,1,80,0,1
118281,-76.9230769230769,4,3,4,80,0,1
118521,-76.9230769230769,4,3,1,80,0,1
118761,-200,4,3,1,80,0,1
119001,-133.333333333333,4,3,4,80,0,1
119241,-76.9230769230769,4,3,1,80,0,1
122841,-142.857142857143,4,3,2,80,0,1
123081,-100,4,3,1,80,0,0
128601,-166.666666666667,4,3,1,80,0,0
129921,-100,4,3,1,80,0,0
130281,-100,4,3,4,80,0,0
130521,-100,4,3,2,80,0,0
130761,-100,4,3,1,80,0,0
133641,-83.3333333333333,4,3,1,80,0,0
133881,-100,4,3,1,80,0,0
137001,-100,4,3,4,80,0,0
137241,-100,4,3,2,80,0,0
137481,-100,4,3,1,80,0,0
138441,-76.9230769230769,4,3,1,80,0,0
139401,-100,4,3,1,80,0,0
145881,-100,4,3,4,80,0,0
146121,-76.9230769230769,4,3,1,80,0,0
146361,-100,4,3,1,80,0,0
149241,-100,4,3,4,80,0,0
149481,-100,4,3,1,80,0,0
149721,-100,4,3,4,80,0,0
149961,-100,4,3,1,80,0,0
153801,-66.6666666666667,4,3,1,80,0,0
154401,-75.7575757575758,4,3,1,80,0,0
154761,-66.6666666666667,4,3,1,80,0,0
155721,-66.6666666666667,4,3,1,80,0,0
156321,-57.1428571428571,4,3,1,80,0,0
157281,-66.6666666666667,4,3,1,80,0,0
158241,-200,4,3,1,80,0,0
158601,-66.6666666666667,4,3,1,80,0,0
163761,-57.1428571428571,4,3,1,80,0,0
164361,-76.9230769230769,4,3,1,80,0,0
169161,-66.6666666666667,4,3,1,80,0,0
170121,-142.857142857143,4,3,1,80,0,0
171201,-66.6666666666667,4,3,1,80,0,0
173001,-142.857142857143,4,3,1,80,0,0
173241,-100,4,3,1,80,0,0
174321,-66.6666666666667,4,3,1,80,0,0
175641,-166.666666666667,4,3,1,80,0,0
175881,-100,4,3,1,80,0,0
176841,-66.6666666666667,4,3,1,80,0,0
177081,-100,4,3,1,80,0,0
177801,-166.666666666667,4,3,1,80,0,0
178281,-100,4,3,1,80,0,0
182601,-1000,4,3,1,80,0,0
184521,-333.333333333333,4,3,1,80,0,0
184881,-333.333333333333,4,3,1,5,0,0
185001,-333.333333333333,4,3,1,80,0,0
186321,-333.333333333333,4,3,1,5,0,0
186441,-333.333333333333,4,3,1,80,0,0
186801,-333.333333333333,4,3,1,5,0,0
186921,-71.4285714285714,4,3,1,80,0,0
188361,-83.3333333333333,4,3,1,80,0,0
189321,-666.666666666667,4,3,1,80,0,0
189801,-666.666666666667,4,3,1,20,0,0
190041,-200,4,3,1,80,0,0
190281,-133.333333333333,4,3,1,80,0,0
190401,-133.333333333333,4,3,1,5,0,0
190521,-133.333333333333,4,3,1,80,0,0
190641,-133.333333333333,4,3,1,5,0,0
190761,-133.333333333333,4,3,1,80,0,0
191481,-133.333333333333,4,3,4,80,0,0
191721,-133.333333333333,4,3,1,80,0,0
191961,-133.333333333333,4,3,4,80,0,0
192201,-250,4,3,1,80,0,0
192561,-250,4,3,1,5,0,0
192681,-250,4,3,1,80,0,0
193641,-125,4,3,1,80,0,0
193761,-133.333333333333,4,3,1,5,0,0
193881,-125,4,3,1,80,0,0
194001,-133.333333333333,4,3,1,5,0,0
194121,-250,4,3,1,80,0,0
196041,-125,4,3,1,80,0,0
197961,-90.9090909090909,4,3,1,80,0,0
198441,-125,4,3,1,80,0,0
198921,-83.3333333333333,4,3,1,80,0,0
199641,-83.3333333333333,4,3,4,80,0,0
199881,-66.6666666666667,4,3,1,80,0,1
200121,-76.9230769230769,4,3,1,80,0,1
201321,-166.666666666667,4,3,1,80,0,1
201801,-76.9230769230769,4,3,1,80,0,1
203481,-125,4,3,1,80,0,1
203661,-125,4,3,1,80,0,0
203721,-76.9230769230769,4,3,1,80,0,1
204201,-166.666666666667,4,3,1,80,0,1
204441,-76.9230769230769,4,3,1,80,0,1
205161,-166.666666666667,4,3,1,80,0,1
205401,-111.111111111111,4,3,1,80,0,1
205641,-76.9230769230769,4,3,1,80,0,1
206601,-76.9230769230769,4,3,2,80,0,1
206841,-166.666666666667,4,3,4,80,0,1
207081,-76.923076923077,4,3,2,80,0,1
207321,-76.923076923077,4,3,6,80,0,1
207561,-66.6666666666667,4,3,1,80,0,1
207801,-76.9230769230769,4,3,1,80,0,1
209481,-66.6666666666667,4,3,1,80,0,1
209721,-76.9230769230769,4,3,1,80,0,1
210201,-76.9230769230769,4,3,4,80,0,1
210441,-76.9230769230769,4,3,2,80,0,1
210681,-76.9230769230769,4,3,1,80,0,1
211161,-166.666666666667,4,3,1,80,0,1
211401,-76.923076923077,4,3,1,80,0,1
212601,-166.666666666667,4,3,1,80,0,1
214761,-166.666666666667,4,3,4,80,0,1
215001,-166.666666666667,4,3,2,80,0,1
215181,-166.666666666667,4,3,2,80,0,0
215241,-100,4,3,1,80,0,1
216441,-166.666666666667,4,3,1,80,0,1
216681,-125,4,3,1,80,0,1
216921,-100,4,3,1,80,0,1
221961,-100,4,3,4,80,0,1
222201,-100,4,3,1,80,0,1
222681,-100,4,3,2,80,0,1
222921,-100,4,3,1,80,0,1
225561,-83.3333333333333,4,3,1,80,0,1
226521,-83.3333333333333,4,3,4,80,0,1
226761,-83.3333333333333,4,3,1,80,0,1
230121,-83.3333333333333,4,3,4,80,0,1
230361,-83.3333333333333,4,3,2,80,0,1
230601,-250,4,3,6,80,0,0
243801,-250,4,3,6,5,0,0
244041,-250,4,3,1,80,0,0
244521,-100,4,3,1,80,0,0
245481,-500,4,3,1,80,0,0
245841,-500,4,3,1,10,0,0
245961,-500,4,3,1,80,0,0
248841,-100,4,3,1,80,0,0
249801,-142.857142857143,4,3,1,80,0,0
250881,-142.857142857143,4,3,1,5,0,0
251001,-142.857142857143,4,3,1,80,0,0
253401,-142.857142857143,4,3,4,80,0,0
253641,-142.857142857143,4,3,1,80,0,0
261081,-142.857142857143,4,3,4,80,0,0
261321,-100,4,3,1,80,0,0
266361,-500,4,3,1,80,0,0
267081,-133.333333333333,4,3,1,80,0,0
269001,-133.333333333333,4,3,1,80,0,1
269961,-83.3333333333333,4,3,1,80,0,1
270441,-100,4,3,1,80,0,1
271881,-100,4,3,4,80,0,1
272121,-166.666666666667,4,3,1,80,0,1
272361,-166.666666666667,4,3,2,80,0,1
272601,-166.666666666667,4,3,6,80,0,1
272841,-114.285714285714,4,3,1,80,0,1
272961,-114.285714285825,4,3,1,80,0,1
273081,-114.285714285714,4,3,1,80,0,1
274521,-114.285714285825,4,3,1,80,0,1
274641,-114.285714285714,4,3,1,80,0,1
276681,-114.285714285714,4,3,1,80,0,0
291561,-114.285714285714,4,3,1,40,0,0
292041,-62.5,4,3,1,80,0,1
292281,-71.4285714285714,4,3,1,80,0,1
293481,-125,4,3,1,80,0,1
293961,-71.4285714285714,4,3,1,80,0,1
294441,-125,4,3,1,80,0,1
294681,-71.4285714285714,4,3,1,80,0,1
295401,-125,4,3,1,80,0,1
295641,-83.3333333333333,4,3,4,80,0,1
295821,-83.3333333333333,4,3,4,80,0,0
295881,-71.4285714285714,4,3,1,80,0,1
297321,-125,4,3,1,80,0,1
298761,-125,4,3,4,80,0,1
299001,-125,4,3,1,80,0,1
299241,-125,4,3,2,80,0,1
299481,-125,4,3,6,80,0,1
299721,-66.6666666666667,4,3,1,80,0,1
302361,-166.666666666667,4,3,4,80,0,1
302601,-166.666666666667,4,3,2,80,0,1
302841,-166.666666666667,4,3,1,80,0,1
303081,-166.666666666667,4,3,2,80,0,1
303321,-166.666666666667,4,3,6,80,0,1
303561,-166.666666666667,4,3,1,80,0,1
305241,-100,4,3,1,80,0,1
306441,-66.6666666666667,4,3,1,80,0,1
306681,-166.666666666667,4,3,4,80,0,1
306955,-166.666666666667,4,3,6,80,0,1
307341,-166.666666666667,4,3,6,80,0,0
307401,-138.888888888889,4,3,1,80,0,1
309201,-138.888888888889,4,3,1,5,0,1
309321,-138.888888888889,4,3,1,80,0,1
310641,-138.888888888889,4,3,1,5,0,1
310761,-100,4,3,1,80,0,1
310941,-100,4,3,1,5,0,1
311001,-100,4,3,1,80,0,1
311181,-100,4,3,1,5,0,1
311241,-153.846153846153,4,3,1,80,0,1
313041,-153.846153846153,4,3,1,5,0,1
313161,-153.846153846153,4,3,1,80,0,1
315081,-153.846153846153,4,3,1,80,0,1
315681,-153.846153846153,4,3,1,5,0,1
315801,-133.333333333333,4,3,1,80,0,1
316401,-133.333333333333,4,3,1,5,0,1
316521,-76.9230769230769,4,3,1,80,0,1
316881,-76.9230769230769,4,3,1,5,0,1
317001,-133.333333333333,4,3,1,80,0,1
317601,-76.9230769230769,4,3,1,5,0,1
317721,-250,4,3,1,80,0,1
318321,-76.9230769230769,4,3,1,5,0,1
318441,-1000,4,3,1,80,0,1
318801,-76.9230769230769,4,3,1,5,0,1
318921,-90.9090909090909,4,3,1,80,0,1
320241,-76.9230769230769,4,3,1,5,0,1
320361,-90.9090909090909,4,3,1,80,0,1
320721,-76.9230769230769,4,3,1,5,0,1
320841,-90.9090909090909,4,3,1,80,0,1
322281,-1000,4,3,1,80,0,1
322761,-76.9230769230769,4,3,1,5,0,0

[Colours]
Combo1 : 130,6,6
Combo2 : 177,177,177
Combo3 : 238,238,238

[HitObjects]
418,86,201,5,6,0:0:0:0:
256,192,261,12,0,4041,2:0:0:0:
429,293,7881,6,0,B|516:209|516:209|82:282,1,550,6|0,0:0|0:0,0:0:0:0:
0,273,9321,2,0,B|95:296|163:317,1,150,6|0,0:0|0:0,0:0:0:0:
307,384,9801,6,0,L|282:191,1,175,6|0,0:0|0:0,0:0:0:0:
260,118,10281,5,2,2:1:0:0:
261,113,10341,1,2,2:2:0:0:
262,108,10401,1,2,2:2:0:0:
263,103,10461,1,2,2:2:0:0:
264,98,10521,1,2,2:2:0:0:
265,93,10581,1,2,2:2:0:0:
266,88,10641,1,2,2:2:0:0:
267,83,10701,1,2,2:2:0:0:
268,78,10761,1,2,2:1:0:0:
448,142,11241,6,0,B|505:152|523:85|487:22|398:16|365:66,1,240,6|0,0:0|0:0,0:0:0:0:
362,145,11721,6,0,L|375:248,1,100,8|0,0:0|0:0,0:0:0:0:
489,326,13161,6,0,B|424:360|375:298|405:298|337:233|269:285,1,240,4|0,0:2|0:0,0:0:0:0:
231,384,13641,6,0,L|268:80,1,280,6|0,0:0|0:0,0:0:0:0:
207,40,14121,5,0,0:0:0:0:
200,44,14181,1,0,0:0:0:0:
193,48,14241,1,0,0:0:0:0:
186,52,14301,1,0,0:0:0:0:
178,56,14361,6,0,L|186:16,3,25,8|8|8|8,0:0|0:0|0:0|0:0,0:0:0:0:
300,29,14601,5,8,0:0:0:0:
311,33,14661,1,8,0:0:0:0:
322,37,14721,1,0,0:0:0:0:
333,41,14781,1,0,0:0:0:0:
344,45,14841,1,6,0:0:0:0:
494,119,14961,6,0,P|484:98|466:78,1,50,8|0,0:0|0:0,0:0:0:0:
303,190,15081,1,8,0:0:0:0:
315,238,15141,1,8,0:0:0:0:
352,258,15201,1,8,0:0:0:0:
394,251,15261,1,8,0:0:0:0:
410,223,15321,2,0,L|374:163,1,50,8|8,0:0|0:0,0:0:0:0:
323,283,15441,2,0,L|297:325,1,50,8|8,0:0|0:0,0:0:0:0:
420,348,15561,5,6,0:0:0:0:
423,349,15621,1,0,0:0:0:0:
426,351,15681,1,0,0:0:0:0:
429,352,15741,1,0,0:0:0:0:
432,354,15801,1,0,0:0:0:0:
435,355,15861,1,0,0:0:0:0:
439,357,15921,1,0,0:0:0:0:
441,359,15981,1,0,0:0:0:0:
444,361,16041,5,12,0:0:0:0:
431,322,16101,1,0,0:0:0:0:
398,299,16161,1,0,0:0:0:0:
358,300,16221,1,0,0:0:0:0:
329,328,16281,1,0,0:0:0:0:
289,331,16341,1,0,0:0:0:0:
255,309,16401,1,0,0:0:0:0:
244,270,16461,1,0,0:0:0:0:
261,233,16521,5,12,0:0:0:0:
231,259,16581,1,0,0:0:0:0:
191,260,16641,1,0,0:0:0:0:
156,240,16701,1,0,0:0:0:0:
116,243,16761,1,0,0:0:0:0:
90,273,16821,1,0,0:0:0:0:
90,313,16881,1,0,0:0:0:0:
118,341,16941,1,0,0:0:0:0:
157,336,17001,6,0,L|142:259,3,50,12|0|0|0,0:0|0:0|0:0|0:0,0:0:0:0:
209,177,17241,2,0,L|224:100,3,50,12|0|0|0,0:0|0:0|0:0|0:0,0:0:0:0:
101,54,17481,5,12,0:0:0:0:
89,59,17541,1,0,0:0:0:0:
85,71,17601,1,0,0:0:0:0:
89,83,17661,1,0,0:0:0:0:
100,89,17721,1,0,0:0:0:0:
112,88,17781,1,0,0:0:0:0:
121,79,17841,1,0,0:0:0:0:
121,67,17901,1,0,0:0:0:0:
112,58,17961,5,12,0:0:0:0:
115,82,18021,1,0,0:0:0:0:
120,106,18081,1,0,0:0:0:0:
124,130,18141,1,0,0:0:0:0:
129,155,18201,1,0,0:0:0:0:
133,179,18261,1,0,0:0:0:0:
138,204,18321,1,0,0:0:0:0:
142,228,18381,1,0,0:0:0:0:
146,252,18441,6,0,L|168:176,1,50,10|0,0:0|0:0,0:0:0:0:
44,130,18561,2,0,L|58:179,1,50,10|0,0:0|0:0,0:0:0:0:
157,245,18681,6,0,L|179:169,1,50,10|0,0:0|0:0,0:0:0:0:
55,123,18801,2,0,L|68:171,1,50,10|0,0:0|0:0,0:0:0:0:
80,313,18921,5,10,0:0:0:0:
68,318,18981,1,0,0:0:0:0:
73,309,19041,2,0,L|62:232,1,50,10|0,0:0|0:0,0:0:0:0:
160,57,19161,5,4,0:1:0:0:
172,52,19221,1,0,0:0:0:0:
167,61,19281,2,0,L|178:138,1,50
245,203,19401,5,12,0:0:0:0:
247,207,19461,1,0,0:0:0:0:
249,211,19521,1,0,0:0:0:0:
251,215,19581,1,0,0:0:0:0:
253,219,19641,1,0,0:0:0:0:
255,223,19701,1,0,0:0:0:0:
257,227,19761,1,0,0:0:0:0:
259,231,19821,1,0,0:0:0:0:
261,235,19881,5,12,0:0:0:0:
293,208,19941,1,0,0:0:0:0:
339,200,20001,1,0,0:0:0:0:
375,227,20061,1,0,0:0:0:0:
388,273,20121,1,0,0:0:0:0:
428,301,20181,1,0,0:0:0:0:
474,290,20241,1,0,0:0:0:0:
490,247,20301,1,0,0:0:0:0:
475,214,20361,5,12,0:0:0:0:
437,230,20421,1,0,0:0:0:0:
401,246,20481,1,0,0:0:0:0:
360,267,20541,1,0,0:0:0:0:
323,287,20601,1,0,0:0:0:0:
283,309,20661,1,0,0:0:0:0:
243,331,20721,5,12,0:0:0:0:
273,364,20781,1,0,0:0:0:0:
317,358,20841,1,0,0:0:0:0:
340,319,20901,1,0,0:0:0:0:
331,274,20961,1,0,0:0:0:0:
290,253,21021,1,0,0:0:0:0:
245,259,21081,6,0,L|250:286,3,25,12|0|0|0,0:0|0:0|0:0|0:0,0:0:0:0:
322,198,21321,5,12,0:1:0:0:
307,307,21441,1,8,0:0:0:0:
312,184,21561,5,12,0:1:0:0:
295,314,21681,1,8,0:0:0:0:
425,171,21801,5,12,0:1:0:0:
440,280,21921,1,8,0:0:0:0:
435,157,22041,5,12,0:1:0:0:
452,287,22161,1,8,0:0:0:0:
349,337,22281,5,8,0:0:0:0:
361,343,22341,1,8,0:0:0:0:
356,333,22401,2,0,L|367:271,1,50,8|8,0:0|0:0,0:0:0:0:
262,202,22521,5,8,0:0:0:0:
253,206,22581,1,8,0:0:0:0:
257,198,22641,2,0,L|246:136,1,50,8|8,0:0|0:0,0:0:0:0:
315,42,22761,5,8,0:0:0:0:
333,49,22821,1,8,0:0:0:0:
351,56,22881,1,8,0:0:0:0:
369,63,22941,1,8,0:0:0:0:
386,68,23001,2,0,L|374:7,3,50,8|8|8|8,0:0|0:0|0:0|0:0,0:0:0:0:
191,6,23241,5,4,0:0:0:0:
161,34,23301,1,0,0:0:0:0:
153,66,23361,1,0,0:0:0:0:
154,89,23421,1,0,0:0:0:0:
161,109,23481,1,0,0:0:0:0:
169,120,23541,1,0,0:0:0:0:
177,127,23601,1,0,0:0:0:0:
186,130,23661,1,0,0:0:0:0:
196,131,23721,2,0,L|187:92,3,25,4|0|0|0,0:0|0:0|0:0|0:0,0:0:0:0:
104,182,23961,2,0,L|98:206,3,25
154,294,24201,5,12,0:0:0:0:
170,278,24261,1,0,0:0:0:0:
190,269,24321,1,0,0:0:0:0:
212,264,24381,1,0,0:0:0:0:
234,267,24441,5,0,0:0:0:0:
230,273,24501,1,0,0:0:0:0:
226,279,24561,1,0,0:0:0:0:
222,285,24621,1,0,0:0:0:0:
219,291,24681,1,4,0:0:0:0:
216,297,24741,1,0,0:0:0:0:
213,304,24801,1,0,0:0:0:0:
210,311,24861,1,0,0:0:0:0:
210,318,24921,6,0,P|220:339|230:358,7,25,0|0|0|0|4|0|0|0,0:0|0:0|0:0|0:0|0:0|0:0|0:0|0:0,0:0:0:0:
375,334,25401,5,0,0:0:0:0:
353,309,25461,1,0,0:0:0:0:
342,280,25521,1,0,0:0:0:0:
340,255,25581,1,0,0:0:0:0:
345,233,25641,1,4,0:0:0:0:
355,215,25701,1,0,0:0:0:0:
368,203,25761,1,0,0:0:0:0:
381,196,25821,1,0,0:0:0:0:
393,193,25881,1,0,0:0:0:0:
402,194,25941,1,0,0:0:0:0:
408,196,26001,1,0,0:0:0:0:
412,201,26061,1,0,0:0:0:0:
414,205,26121,2,0,P|358:189|297:177,1,100,12|0,0:0|0:0,0:0:0:0:
249,110,26361,5,0,0:0:0:0:
252,114,26421,1,0,0:0:0:0:
255,118,26481,2,0,L|243:45,1,50
219,208,26601,5,4,0:0:0:0:
216,203,26661,1,0,0:0:0:0:
214,198,26721,2,0,L|272:242,1,50
165,121,26841,5,0,0:0:0:0:
168,124,26901,1,0,0:0:0:0:
172,128,26961,2,0,L|102:102,1,50
125,220,27081,5,12,0:0:0:0:
110,238,27141,1,0,0:0:0:0:
87,243,27201,1,0,0:0:0:0:
67,229,27261,1,0,0:0:0:0:
61,203,27321,1,0,0:0:0:0:
41,191,27381,1,0,0:0:0:0:
23,196,27441,1,0,0:0:0:0:
13,212,27501,1,0,0:0:0:0:
19,226,27561,5,12,0:0:0:0:
61,216,27621,1,0,0:0:0:0:
105,207,27681,1,0,0:0:0:0:
145,197,27741,1,0,0:0:0:0:
191,185,27801,1,0,0:0:0:0:
232,172,27861,1,0,0:0:0:0:
271,162,27921,1,0,0:0:0:0:
316,151,27981,1,0,0:0:0:0:
356,140,28041,5,12,0:0:0:0:
344,130,28101,1,0,0:0:0:0:
332,120,28161,1,0,0:0:0:0:
320,110,28221,1,0,0:0:0:0:
308,100,28281,1,0,0:0:0:0:
296,90,28341,1,0,0:0:0:0:
284,80,28401,1,0,0:0:0:0:
272,70,28461,1,0,0:0:0:0:
260,60,28521,2,0,L|278:-1,3,50,12|0|0|0,0:0|0:0|0:0|0:0,0:0:0:0:
212,197,28761,2,0,L|226:244,3,50,12|0|0|0,0:0|0:0|0:0|0:0,0:0:0:0:
290,335,29001,5,8,0:0:0:0:
312,359,29061,1,8,0:0:0:0:
338,366,29121,1,8,0:0:0:0:
366,364,29181,1,8,0:0:0:0:
391,348,29241,1,8,0:0:0:0:
401,315,29301,1,8,0:0:0:0:
391,283,29361,1,8,0:0:0:0:
367,261,29421,1,8,0:0:0:0:
336,254,29481,5,8,0:0:0:0:
333,258,29541,1,8,0:0:0:0:
330,262,29601,1,8,0:0:0:0:
327,266,29661,1,8,0:0:0:0:
324,270,29721,1,8,0:0:0:0:
322,274,29781,1,8,0:0:0:0:
320,278,29841,1,8,0:0:0:0:
318,282,29901,1,8,0:0:0:0:
316,286,29961,5,8,0:0:0:0:
312,261,30021,1,8,0:0:0:0:
302,237,30081,1,8,0:0:0:0:
299,212,30141,1,8,0:0:0:0:
290,188,30201,1,8,0:0:0:0:
289,163,30261,1,8,0:0:0:0:
279,139,30321,1,8,0:0:0:0:
276,114,30381,1,8,0:0:0:0:
264,91,30441,5,8,0:0:0:0:
262,130,30501,1,8,0:0:0:0:
242,165,30561,1,8,0:0:0:0:
234,204,30621,1,8,0:0:0:0:
215,239,30681,1,8,0:0:0:0:
205,277,30741,1,8,0:0:0:0:
183,310,30801,1,8,0:0:0:0:
173,348,30861,1,8,0:0:0:0:
147,378,30921,6,0,L|117:205,1,129.999994049073,6|0,0:0|0:0,0:0:0:0:
65,183,31161,5,2,0:2:0:0:
60,178,31221,1,8,2:0:0:0:
53,176,31281,2,0,P|31:210|17:239,1,64.9999970245363,2|8,0:2|2:0,0:0:0:0:
163,167,31401,5,2,0:2:0:0:
168,162,31461,1,8,2:0:0:0:
175,160,31521,2,0,P|197:194|211:223,1,64.9999970245363,2|8,0:2|2:0,0:0:0:0:
106,111,31641,5,2,0:2:0:0:
105,102,31701,1,8,2:0:0:0:
103,93,31761,2,0,L|96:20,1,64.9999970245363,2|8,0:2|2:0,0:0:0:0:
239,40,31881,5,2,0:2:0:0:
251,43,31941,1,8,2:0:0:0:
263,46,32001,1,2,0:2:0:0:
275,49,32061,1,8,2:0:0:0:
288,52,32121,1,2,0:2:0:0:
279,43,32181,1,8,2:0:0:0:
270,34,32241,1,2,0:2:0:0:
261,24,32301,1,8,2:0:0:0:
252,15,32361,5,4,0:1:0:0:
259,54,32421,1,8,2:0:0:0:
269,93,32481,1,0,0:2:0:0:
278,133,32541,1,8,2:0:0:0:
288,172,32601,1,4,0:1:0:0:
304,152,32661,1,8,2:0:0:0:
320,132,32721,1,0,0:0:0:0:
337,112,32781,1,8,2:0:0:0:
354,92,32841,6,0,L|254:117,3,64.9999970245363,6|8|0|8,0:0|2:0|0:0|2:0,0:0:0:0:
192,135,33081,5,2,0:2:0:0:
186,136,33141,1,8,2:0:0:0:
180,137,33201,2,0,B|171:97|171:97|213:64,1,64.9999970245363,2|8,0:2|2:0,0:0:0:0:
177,228,33321,5,2,0:2:0:0:
179,234,33381,1,8,2:0:0:0:
181,240,33441,2,0,B|141:248|141:248|108:206,1,64.9999970245363,2|8,0:2|2:0,0:0:0:0:
252,193,33561,5,2,0:2:0:0:
256,187,33621,1,8,2:0:0:0:
258,183,33681,2,0,B|291:204|291:204|285:257,1,64.9999970245363,2|8,0:2|2:0,0:0:0:0:
241,338,33801,5,2,0:2:0:0:
216,328,33861,1,8,2:0:0:0:
191,319,33921,1,2,0:2:0:0:
166,309,33981,1,8,2:0:0:0:
141,300,34041,1,2,0:2:0:0:
150,316,34101,1,8,2:0:0:0:
160,332,34161,1,2,0:2:0:0:
169,348,34221,1,8,2:0:0:0:
179,364,34281,5,4,0:2:0:0:
172,325,34341,1,8,2:0:0:0:
165,286,34401,1,0,0:0:0:0:
159,247,34461,1,8,2:0:0:0:
153,208,34521,2,0,L|144:261,3,29.9999990844727,6|8|2|8,0:0|2:0|0:2|2:0,0:0:0:0:
247,312,34761,5,4,0:1:0:0:
251,315,34821,1,8,2:0:0:0:
254,318,34881,2,0,L|326:340,1,59.9999981689454,2|8,0:2|2:0,0:0:0:0:
368,235,35001,5,2,0:0:0:0:
372,234,35061,1,8,2:0:0:0:
377,234,35121,2,0,L|443:198,1,59.9999981689454,2|8,0:0|2:0,0:0:0:0:
272,182,35241,5,2,0:0:0:0:
272,187,35301,1,8,2:0:0:0:
271,191,35361,2,0,L|296:261,1,59.9999981689454,2|8,0:0|2:0,0:0:0:0:
388,319,35481,5,2,0:0:0:0:
388,324,35541,1,8,2:0:0:0:
389,328,35601,2,0,L|363:398,1,59.9999981689454,2|8,0:0|2:0,0:0:0:0:
256,382,35721,5,2,0:0:0:0:
246,355,35781,1,8,2:0:0:0:
237,329,35841,1,2,0:0:0:0:
228,303,35901,1,8,2:0:0:0:
219,277,35961,1,2,0:0:0:0:
241,284,36021,1,8,2:0:0:0:
263,291,36081,1,2,0:0:0:0:
285,299,36141,1,8,2:0:0:0:
307,307,36201,5,6,0:1:0:0:
261,322,36261,1,8,2:0:0:0:
214,335,36321,1,0,0:0:0:0:
167,348,36381,1,8,2:0:0:0:
121,362,36441,2,0,L|140:288,3,59.9999981689454,4|8|0|8,0:2|2:0|0:0|2:0,0:0:0:0:
177,212,36681,5,4,0:0:0:0:
173,200,36741,1,0,0:0:0:0:
169,188,36801,1,0,0:0:0:0:
165,176,36861,1,0,0:0:0:0:
161,164,36921,5,0,0:0:0:0:
207,175,36981,1,0,0:0:0:0:
253,186,37041,1,0,0:0:0:0:
299,198,37101,1,0,0:0:0:0:
345,209,37161,1,4,0:1:0:0:
373,199,37221,1,0,0:0:0:0:
401,189,37281,1,0,0:0:0:0:
429,179,37341,1,0,0:0:0:0:
456,172,37401,2,0,L|413:162,3,25,4|0|0|0,0:2|0:0|0:0|0:0,0:0:0:0:
309,100,37641,5,8,2:0:0:0:
292,50,37701,1,8,2:0:0:0:
324,6,37761,1,8,2:0:0:0:
377,4,37821,1,8,2:0:0:0:
415,41,37881,2,0,P|405:63|402:75,3,25,2|2|2|2,0:0|0:0|0:0|0:0,0:0:0:0:
377,156,38121,5,0,0:0:0:0:
338,146,38181,1,0,0:0:0:0:
299,136,38241,1,0,0:0:0:0:
260,126,38301,1,0,0:0:0:0:
221,115,38361,5,8,0:0:0:0:
230,103,38421,1,8,0:0:0:0:
239,91,38481,1,8,0:0:0:0:
248,79,38541,1,8,0:0:0:0:
258,69,38601,6,0,L|278:239,1,129.999994049073,6|0,0:0|0:0,0:0:0:0:
219,260,38841,5,2,0:2:0:0:
214,265,38901,1,8,2:0:0:0:
207,267,38961,2,0,P|185:233|171:204,1,64.9999970245363,2|8,0:2|2:0,0:0:0:0:
336,255,39081,5,2,0:2:0:0:
341,258,39141,1,8,2:0:0:0:
348,259,39201,2,0,P|363:221|372:190,1,64.9999970245363,2|8,0:2|2:0,0:0:0:0:
279,309,39321,5,2,0:2:0:0:
280,315,39381,1,8,2:0:0:0:
281,321,39441,2,0,P|291:365|296:394,1,64.9999970245363,2|8,0:2|2:0,0:0:0:0:
437,384,39561,5,2,0:2:0:0:
446,375,39621,1,8,2:0:0:0:
455,366,39681,1,2,0:2:0:0:
464,357,39741,1,8,2:0:0:0:
473,348,39801,1,2,0:2:0:0:
471,335,39861,1,8,2:0:0:0:
469,322,39921,1,2,0:2:0:0:
467,309,39981,1,8,2:0:0:0:
465,296,40041,5,4,0:0:0:0:
428,283,40101,1,8,2:0:0:0:
391,270,40161,1,2,0:2:0:0:
354,257,40221,1,8,2:0:0:0:
317,244,40281,1,6,0:2:0:0:
324,226,40341,1,8,2:0:0:0:
331,208,40401,1,2,0:2:0:0:
338,190,40461,1,8,2:2:0:0:
345,172,40521,2,0,L|363:242,3,64.9999970245363,6|8|2|8,0:0|2:0|0:2|2:0,0:0:0:0:
250,361,40761,5,2,0:2:0:0:
244,358,40821,1,8,2:0:0:0:
238,355,40881,2,0,B|254:323|254:323|302:311,1,64.9999970245363,2|8,0:2|2:0,0:0:0:0:
158,295,41001,5,0,0:0:0:0:
161,288,41061,1,8,2:0:0:0:
163,282,41121,2,0,B|129:270|129:270|86:296,1,64.9999970245363,2|8,0:0|2:0,0:0:0:0:
236,239,41241,5,2,0:2:0:0:
248,202,41301,1,8,2:0:0:0:
241,163,41361,1,2,0:2:0:0:
217,140,41421,1,8,2:0:0:0:
185,130,41481,1,0,0:0:0:0:
159,133,41541,1,0,0:0:0:0:
137,147,41601,1,0,0:0:0:0:
129,164,41661,1,0,0:0:0:0:
127,183,41721,5,8,0:0:0:0:
139,180,41781,1,8,0:0:0:0:
152,180,41841,1,8,0:0:0:0:
164,181,41901,1,8,0:0:0:0:
174,186,41961,6,0,P|189:164|201:153,3,29.9999990844727,8|8|8|8,2:0|2:0|2:0|2:0,2:0:0:0:
102,80,42201,2,0,P|94:67|84:55,3,29.9999990844727,8|8|8|8,0:0|0:0|0:0|0:0,0:0:0:0:
229,18,42441,5,14,0:0:0:0:
273,11,42501,1,0,0:0:0:0:
310,37,42561,1,10,0:0:0:0:
316,81,42621,1,0,0:0:0:0:
284,113,42681,1,10,0:0:0:0:
274,157,42741,1,0,0:0:0:0:
300,194,42801,1,10,0:0:0:0:
343,207,42861,1,0,0:0:0:0:
379,180,42921,1,10,0:0:0:0:
396,138,42981,1,0,0:0:0:0:
433,112,43041,1,10,0:0:0:0:
478,117,43101,1,0,0:0:0:0:
510,149,43161,2,0,P|505:187|497:238,3,64.9999970245363,10|0|10|0,0:0|0:0|0:0|0:0,0:0:0:0:
452,312,43401,5,10,0:0:0:0:
449,306,43461,1,0,0:0:0:0:
446,300,43521,2,0,P|431:280|393:241,1,64.9999970245363,10|0,0:0|0:0,0:0:0:0:
301,305,43641,1,10,0:0:0:0:
303,298,43701,1,0,0:0:0:0:
305,292,43761,2,0,P|308:267|309:212,1,64.9999970245363,10|0,0:0|0:0,0:0:0:0:
206,77,43881,5,10,0:0:0:0:
171,38,43941,1,0,0:0:0:0:
126,29,44001,1,10,0:0:0:0:
89,42,44061,1,0,0:0:0:0:
74,70,44121,1,10,0:0:0:0:
59,91,44181,1,0,0:0:0:0:
35,103,44241,1,10,0:0:0:0:
15,100,44301,1,0,0:0:0:0:
4,93,44361,5,6,0:0:0:0:
7,87,44421,1,0,0:0:0:0:
10,81,44481,1,0,0:0:0:0:
13,75,44541,1,0,0:0:0:0:
16,69,44601,1,0,0:0:0:0:
19,63,44661,1,0,0:0:0:0:
22,57,44721,1,0,0:0:0:0:
25,51,44781,1,0,0:0:0:0:
28,45,44841,5,6,0:0:0:0:
54,64,44901,1,0,0:0:0:0:
80,83,44961,1,0,0:0:0:0:
106,102,45021,1,0,0:0:0:0:
132,121,45081,1,0,0:0:0:0:
158,140,45141,1,0,0:0:0:0:
184,159,45201,1,0,0:0:0:0:
210,178,45261,1,0,0:0:0:0:
236,197,45321,5,8,0:0:0:0:
281,192,45381,1,8,0:0:0:0:
326,187,45441,1,8,0:0:0:0:
371,182,45501,1,8,0:0:0:0:
416,177,45561,2,0,L|438:134,3,34.9999989318848,2|0|0|0,0:0|0:0|0:0|0:0,0:0:0:0:
318,9,45801,5,8,0:0:0:0:
299,25,45861,1,8,0:0:0:0:
289,47,45921,1,8,0:0:0:0:
291,71,45981,1,8,0:0:0:0:
302,92,46041,2,0,P|328:81|350:81,3,34.9999989318848,8|8|8|8,0:0|0:0|0:0|0:0,0:0:0:0:
273,231,46281,6,0,L|245:76,1,129.999994049073,6|0,0:0|0:0,0:0:0:0:
98,126,46521,1,2,0:0:0:0:
105,131,46581,1,8,2:0:0:0:
114,137,46641,1,2,0:0:0:0:
122,143,46701,1,8,2:0:0:0:
131,149,46761,1,2,0:0:0:0:
139,155,46821,1,8,2:0:0:0:
145,160,46881,6,1,L|208:177,1,65.9750000000053,2|8,0:0|2:0,0:0:0:0:
46,196,47001,2,1,L|0:242,1,65.9750000000053,2|8,0:0|2:0,0:0:0:0:
65,93,47121,2,1,L|44:18,1,65.9749999999973,2|8,0:0|2:0,0:0:0:0:
123,243,47241,5,2,0:0:0:0:
134,256,47301,1,8,0:0:0:0:
146,265,47361,1,2,0:0:0:0:
159,272,47421,1,8,0:0:0:0:
172,277,47481,1,2,0:0:0:0:
188,280,47541,1,8,0:0:0:0:
205,281,47601,1,2,0:0:0:0:
222,278,47661,1,8,0:0:0:0:
238,271,47721,5,8,2:3:0:0:
195,239,47781,1,8,2:3:0:0:
141,258,47841,1,8,2:3:0:0:
114,300,47901,1,8,2:3:0:0:
121,347,47961,1,8,2:3:0:0:
156,381,48021,1,8,2:3:0:0:
208,380,48081,1,8,2:3:0:0:
190,164,48201,6,0,B|124:150|124:150|119:152|119:152|16:131,1,129.999994049073,14|0,0:0|0:0,0:0:0:0:
51,146,48381,1,0,0:0:0:0:
42,152,48441,1,0,0:0:0:0:
356,20,48561,2,0,B|412:82|412:82|341:220,1,170.000003242493,12|0,0:0|0:0,0:0:0:0:
178,324,48801,2,0,B|147:371|28:345|54:213|191:182|297:224|306:341|295:338,1,340.000006484985,14|2,0:0|0:0,0:0:0:0:
440,375,49161,5,14,0:0:0:0:
411,344,49221,1,0,0:0:0:0:
398,298,49281,1,0,0:0:0:0:
411,253,49341,1,0,0:0:0:0:
447,219,49401,2,0,P|474:242|489:303,1,85.0000016212464,2|0,0:0|0:0,0:0:0:0:
325,333,49521,5,14,0:0:0:0:
287,312,49581,1,0,0:0:0:0:
247,296,49641,1,0,0:0:0:0:
205,285,49701,1,0,0:0:0:0:
163,275,49761,2,0,P|226:258|277:250,1,85.0000016212464,10|0,0:0|0:0,0:0:0:0:
367,79,49881,6,0,P|378:134|389:203,1,85.0000016212464,2|0,0:0|0:0,0:0:0:0:
316,223,50001,2,0,P|308:181|300:139,1,85.0000016212464,2|0,0:0|0:0,0:0:0:0:
272,37,50121,5,6,0:0:0:0:
269,39,50181,1,8,2:0:0:0:
266,44,50241,2,0,B|272:64|272:64|251:82|251:82|248:51|248:51|264:44,1,85.0000016212464,2|8,0:2|2:0,0:0:0:0:
203,177,50361,5,2,0:2:0:0:
200,175,50421,1,8,2:0:0:0:
197,170,50481,2,0,B|203:150|203:150|182:132|182:132|179:163|179:163|195:170,1,85.0000016212464,2|8,0:2|2:0,0:0:0:0:
148,60,50601,6,0,B|142:40|142:40|163:22|163:22|166:53|166:53|150:60,1,85.0000016212464,2|8,0:2|2:0,0:0:0:0:
100,124,50721,2,0,L|67:103,3,29.9999990844727,2|8|2|8,0:2|2:0|0:2|2:0,0:0:0:0:
11,189,50961,5,2,0:2:0:0:
18,189,51021,1,8,2:0:0:0:
25,193,51081,2,0,P|46:215|54:240,1,50,2|8,0:2|2:0,0:0:0:0:
130,214,51201,5,2,0:2:0:0:
134,218,51261,1,8,2:0:0:0:
137,226,51321,2,0,P|136:257|124:280,1,50,2|8,0:2|2:0,0:0:0:0:
187,331,51441,6,0,P|148:359|118:363,1,50,2|8,0:2|0:0,0:0:0:0:
8,301,51561,1,8,0:0:0:0:
52,264,51621,1,8,0:0:0:0:
109,252,51681,1,8,0:0:0:0:
168,254,51741,1,8,0:0:0:0:
222,274,51801,1,8,0:0:0:0:
261,304,51861,1,8,0:0:0:0:
280,336,51921,1,8,0:0:0:0:
289,358,51981,1,8,0:0:0:0:
295,373,52041,6,0,L|267:201,1,150,6|0,0:0|0:0,0:0:0:0:
228,40,52281,1,8,2:0:0:0:
163,12,52341,1,8,2:0:0:0:
101,45,52401,1,8,2:0:0:0:
97,106,52461,1,8,2:0:0:0:
144,144,52521,1,8,0:0:0:0:
138,197,52581,1,8,0:0:0:0:
89,218,52641,1,8,0:0:0:0:
46,195,52701,1,8,0:0:0:0:
46,157,52761,2,0,L|82:148,3,29.9999990844727,8|8|8|8,0:0|0:0|0:0|0:0,0:0:0:0:
238,134,53001,5,6,0:0:0:0:
243,137,53061,1,0,0:0:0:0:
248,140,53121,1,0,0:0:0:0:
253,142,53181,1,0,0:0:0:0:
258,144,53241,1,0,0:0:0:0:
263,146,53301,1,0,0:0:0:0:
268,148,53361,1,0,0:0:0:0:
273,149,53421,1,0,0:0:0:0:
278,150,53481,5,8,0:0:0:0:
311,111,53541,1,8,0:0:0:0:
352,96,53601,1,8,0:0:0:0:
395,103,53661,1,8,0:0:0:0:
420,130,53721,1,8,0:0:0:0:
424,162,53781,1,8,0:0:0:0:
414,185,53841,1,8,0:0:0:0:
397,194,53901,1,8,0:0:0:0:
383,191,53961,6,0,P|392:128|415:31,1,150.000005722046,6|0,0:0|0:0,0:0:0:0:
206,10,54201,5,2,0:0:0:0:
200,11,54261,1,8,2:0:0:0:
194,12,54321,1,2,0:0:0:0:
188,14,54381,1,8,2:0:0:0:
182,16,54441,1,2,0:0:0:0:
176,18,54501,1,8,2:0:0:0:
170,20,54561,6,0,L|205:101,1,62.5,2|8,0:0|2:0,0:0:0:0:
273,126,54681,2,0,L|297:68,1,62.5,2|8,0:0|2:0,0:0:0:0:
82,32,54801,2,0,L|117:113,1,62.5,2|8,0:0|2:0,0:0:0:0:
135,204,54921,5,2,0:0:0:0:
141,214,54981,1,8,2:0:0:0:
145,225,55041,1,2,0:0:0:0:
148,237,55101,1,8,2:0:0:0:
149,249,55161,1,2,0:0:0:0:
150,261,55221,1,8,2:0:0:0:
150,273,55281,1,2,0:0:0:0:
148,285,55341,1,8,2:0:0:0:
145,297,55401,5,10,2:0:0:0:
101,289,55461,1,8,2:0:0:0:
71,256,55521,1,8,2:0:0:0:
67,212,55581,1,8,2:0:0:0:
91,176,55641,1,8,2:0:0:0:
131,160,55701,1,8,2:0:0:0:
173,171,55761,1,8,2:0:0:0:
255,326,55881,6,0,P|338:304|459:280,1,170.000003242493,14|0,0:0|0:0,0:0:0:0:
444,289,56061,1,0,0:0:0:0:
460,308,56121,1,0,0:0:0:0:
328,79,56241,6,0,P|270:116|268:224,1,170.000003242493,14|0,0:0|0:0,0:0:0:0:
466,106,56481,6,0,B|501:57|501:57|359:45|359:45|349:51|349:51|188:35,1,340.000006484985,14|0,0:0|0:0,0:0:0:0:
134,199,56841,5,14,0:0:0:0:
145,149,56901,1,0,0:0:0:0:
126,101,56961,1,0,0:0:0:0:
81,76,57021,1,0,0:0:0:0:
30,76,57081,2,0,P|65:122|75:168,1,85.0000016212464
15,320,57201,5,14,0:0:0:0:
43,276,57261,1,0,0:0:0:0:
90,256,57321,1,0,0:0:0:0:
140,270,57381,1,0,0:0:0:0:
176,306,57441,2,0,P|118:313|79:339,1,85.0000016212464,14|0,0:0|0:0,0:0:0:0:
271,359,57561,6,0,P|267:301|263:248,1,85.0000016212464,2|0,0:0|0:0,0:0:0:0:
346,229,57681,2,0,P|349:271|351:313,1,85.0000016212464,2|0,0:0|0:0,0:0:0:0:
202,177,57801,5,2,0:2:0:0:
200,168,57861,1,8,2:0:0:0:
196,160,57921,2,0,B|192:183|204:202|204:202|211:181|197:160,1,85.0000016212464,2|8,0:2|2:0,0:0:0:0:
285,119,58041,5,2,0:2:0:0:
287,110,58101,1,8,2:0:0:0:
291,102,58161,2,0,B|295:125|283:144|283:144|276:123|290:102,1,85.0000016212464,2|8,0:2|2:0,0:0:0:0:
195,64,58281,2,0,B|199:41|187:22|187:22|180:43|194:64,1,85.0000016212464,2|8,0:2|2:0,0:0:0:0:
298,25,58401,6,0,P|311:27|344:44,3,29.9999990844727,2|8|2|8,0:2|2:0|0:2|2:0,0:0:0:0:
476,146,58641,5,2,0:2:0:0:
477,139,58701,1,8,2:0:0:0:
479,133,58761,2,0,L|455:63,1,62.5,2|8,0:2|2:0,0:0:0:0:
377,156,58881,5,2,0:2:0:0:
376,163,58941,1,8,2:0:0:0:
374,169,59001,2,0,L|398:239,1,62.5,2|8,0:2|2:0,0:0:0:0:
468,307,59121,2,0,L|492:237,1,62.5,2|8,0:2|2:0,0:0:0:0:
297,101,59241,5,8,0:0:0:0:
249,142,59301,1,8,0:0:0:0:
232,195,59361,1,8,0:0:0:0:
234,244,59421,1,8,0:0:0:0:
253,282,59481,1,8,0:0:0:0:
280,307,59541,1,8,0:0:0:0:
308,319,59601,1,8,0:0:0:0:
332,322,59661,1,8,0:0:0:0:
350,318,59721,5,6,0:0:0:0:
346,307,59781,1,0,0:0:0:0:
340,296,59841,1,0,0:0:0:0:
340,283,59901,1,0,0:0:0:0:
347,272,59961,1,4,0:0:0:0:
359,267,60021,1,0,0:0:0:0:
372,268,60081,1,0,0:0:0:0:
382,275,60141,1,0,0:0:0:0:
387,286,60201,6,0,P|397:326|421:378,3,62.5,12|8|8|8,2:0|2:0|2:0|2:0,2:0:0:0:
212,384,60441,2,0,P|205:353|194:324,3,62.5,12|8|8|8,2:0|2:0|2:0|2:0,2:0:0:0:
29,289,60681,5,0,0:0:0:0:
1,224,60741,1,0,0:0:0:0:
34,162,60801,1,0,0:0:0:0:
95,158,60861,1,0,0:0:0:0:
133,205,60921,1,8,2:0:0:0:
186,199,60981,1,8,2:0:0:0:
207,150,61041,1,8,2:0:0:0:
184,107,61101,1,8,2:0:0:0:
146,107,61161,2,0,L|137:143,3,29.9999990844727,8|8|8|8,0:0|0:0|0:0|0:0,0:0:0:0:
38,78,61401,5,0,0:0:0:0:
35,72,61461,1,0,0:0:0:0:
32,66,61521,1,0,0:0:0:0:
29,60,61581,1,0,0:0:0:0:
26,54,61641,6,0,L|55:206,1,149.999995422363,6|0,0:0|0:0,0:0:0:0:
140,297,61881,1,14,0:0:0:0:
140,298,61941,1,0,0:0:0:0:
141,300,62001,1,10,0:0:0:0:
142,302,62061,1,0,0:0:0:0:
143,304,62121,5,10,0:0:0:0:
177,255,62181,1,0,0:0:0:0:
236,249,62241,1,10,0:0:0:0:
284,284,62301,1,0,0:0:0:0:
302,341,62361,1,10,0:0:0:0:
356,366,62421,1,0,0:0:0:0:
412,346,62481,1,10,0:0:0:0:
436,291,62541,1,0,0:0:0:0:
405,235,62601,6,0,L|366:254,3,29.9999990844727,6|0|0|0,0:0|0:0|0:0|0:0,0:0:0:0:
334,316,62841,2,0,L|292:301,3,29.9999990844727,6|0|10|0,0:0|0:0|0:0|0:0,0:0:0:0:
220,222,63081,5,10,0:0:0:0:
194,172,63141,1,0,0:0:0:0:
216,125,63201,1,10,0:0:0:0:
270,110,63261,1,0,0:0:0:0:
312,142,63321,1,10,0:0:0:0:
366,140,63381,1,0,0:0:0:0:
398,93,63441,1,10,0:0:0:0:
387,43,63501,1,0,0:0:0:0:
337,22,63561,5,2,0:2:0:0:
331,58,63621,1,8,2:0:0:0:
346,76,63681,2,0,P|378:88|418:75,1,50,2|8,0:2|2:0,0:0:0:0:
460,270,63801,5,2,0:2:0:0:
496,236,63861,1,8,2:0:0:0:
490,192,63921,2,0,P|464:166|422:157,1,50,2|8,0:2|2:0,0:0:0:0:
281,133,64041,5,2,0:2:0:0:
249,172,64101,1,8,2:0:0:0:
259,220,64161,1,2,0:2:0:0:
300,247,64221,1,8,2:0:0:0:
349,248,64281,1,2,0:2:0:0:
386,281,64341,1,8,2:0:0:0:
380,330,64401,1,2,0:2:0:0:
335,352,64461,1,8,2:0:0:0:
288,334,64521,5,2,0:2:0:0:
306,287,64581,1,8,2:0:0:0:
298,237,64641,1,2,0:2:0:0:
265,199,64701,1,8,2:0:0:0:
217,182,64761,1,2,0:2:0:0:
168,193,64821,1,8,2:0:0:0:
133,229,64881,2,0,P|152:248|167:284,1,50,2|8,0:2|2:0,0:0:0:0:
189,368,65001,5,6,0:0:0:0:
126,364,65061,1,8,2:0:0:0:
87,314,65121,1,0,0:0:0:0:
98,253,65181,1,8,2:0:0:0:
154,223,65241,1,6,0:0:0:0:
194,176,65301,1,8,2:0:0:0:
184,117,65361,1,0,0:0:0:0:
134,81,65421,1,8,2:0:0:0:
74,95,65481,6,0,L|66:132,3,25
146,211,65721,2,0,L|155:268,3,50,8|0|0|0,0:0|0:0|0:0|0:0,0:0:0:0:
13,207,65961,5,14,0:0:0:0:
63,191,66021,1,0,0:0:0:0:
112,174,66081,1,10,0:0:0:0:
162,157,66141,1,0,0:0:0:0:
209,141,66201,1,10,0:0:0:0:
259,126,66261,1,0,0:0:0:0:
303,111,66321,1,10,0:0:0:0:
352,93,66381,1,0,0:0:0:0:
402,76,66441,6,0,L|290:50,1,75.0000028610231
182,25,66561,5,8,2:0:0:0:
133,62,66621,1,8,2:0:0:0:
133,115,66681,1,8,2:0:0:0:
174,147,66741,1,8,2:0:0:0:
224,137,66801,2,0,P|225:94|248:43,1,75.0000028610231
446,174,66921,5,8,2:0:0:0:
485,213,66981,1,8,2:0:0:0:
481,267,67041,1,8,2:0:0:0:
446,301,67101,1,8,2:0:0:0:
400,306,67161,1,0,0:0:0:0:
372,283,67221,1,0,0:0:0:0:
366,258,67281,1,0,0:0:0:0:
372,242,67341,1,0,0:0:0:0:
382,237,67401,5,6,0:0:0:0:
382,237,67461,1,0,0:0:0:0:
382,238,67521,1,0,0:0:0:0:
383,239,67581,1,0,0:0:0:0:
383,240,67641,1,0,0:0:0:0:
383,240,67701,1,0,0:0:0:0:
384,241,67761,1,0,0:0:0:0:
384,242,67821,1,0,0:0:0:0:
385,243,67881,1,0,0:0:0:0:
385,243,67941,1,0,0:0:0:0:
385,244,68001,1,0,0:0:0:0:
386,245,68061,1,0,0:0:0:0:
389,251,68121,6,0,L|432:242,3,25
430,330,68361,5,14,0:0:0:0:
426,334,68421,1,0,0:0:0:0:
422,337,68481,2,0,L|497:353,1,50
301,345,68601,5,14,0:0:0:0:
297,341,68661,1,0,0:0:0:0:
293,338,68721,2,0,L|368:322,1,50
219,381,68841,5,0,0:0:0:0:
215,336,68901,1,0,0:0:0:0:
198,299,68961,1,0,0:0:0:0:
173,273,69021,1,0,0:0:0:0:
146,259,69081,1,0,0:0:0:0:
121,256,69141,1,0,0:0:0:0:
101,260,69201,1,0,0:0:0:0:
88,267,69261,1,0,0:0:0:0:
78,272,69321,6,0,P|167:248|251:238,1,139.999995727539,6|0,0:0|0:0,0:0:0:0:
385,243,69561,5,6,0:0:0:0:
385,245,69621,1,0,0:0:0:0:
386,246,69681,1,0,0:0:0:0:
387,248,69741,1,0,0:0:0:0:
388,250,69801,5,10,0:0:0:0:
428,221,69861,1,0,0:0:0:0:
441,172,69921,1,10,0:0:0:0:
427,123,69981,1,0,0:0:0:0:
387,92,70041,1,2,0:0:0:0:
338,79,70101,1,0,0:0:0:0:
288,83,70161,1,0,0:0:0:0:
241,102,70221,1,0,0:0:0:0:
204,136,70281,6,0,P|191:125|168:123,3,29.9999990844727,4|0|0|0,0:2|0:0|0:0|0:0,0:0:0:0:
239,26,70521,2,0,P|258:15|271:10,3,29.9999990844727,4|0|10|0,0:2|0:0|0:0|0:0,0:0:0:0:
345,170,70761,5,14,0:0:0:0:
333,218,70821,1,0,0:0:0:0:
290,244,70881,1,8,0:0:0:0:
240,243,70941,1,0,0:0:0:0:
203,209,71001,1,14,0:0:0:0:
158,185,71061,1,0,0:0:0:0:
109,197,71121,1,8,0:0:0:0:
75,233,71181,1,0,0:0:0:0:
75,283,71241,5,2,0:2:0:0:
99,276,71301,1,8,2:0:0:0:
116,257,71361,2,0,P|101:213|81:191,1,50,2|8,0:2|2:0,0:0:0:0:
11,49,71481,5,2,0:2:0:0:
0,89,71541,1,8,2:0:0:0:
14,132,71601,2,0,P|45:142|91:133,1,50,2|8,0:2|2:0,0:0:0:0:
169,48,71721,5,2,0:2:0:0:
213,26,71781,1,8,2:0:0:0:
262,32,71841,1,2,0:2:0:0:
302,61,71901,1,8,2:0:0:0:
318,108,71961,1,2,0:2:0:0:
303,155,72021,1,8,2:0:0:0:
263,185,72081,1,2,0:2:0:0:
240,229,72141,1,8,2:0:0:0:
242,278,72201,1,2,0:2:0:0:
275,315,72261,1,8,2:0:0:0:
322,329,72321,1,2,0:2:0:0:
370,315,72381,1,8,2:0:0:0:
398,273,72441,1,2,0:2:0:0:
401,223,72501,1,8,2:0:0:0:
367,185,72561,2,0,P|352:219|336:247,1,50,4|8,0:0|2:0,0:0:0:0:
413,313,72681,5,0,0:0:0:0:
460,298,72741,1,8,2:0:0:0:
485,255,72801,1,4,0:0:0:0:
483,205,72861,1,8,2:0:0:0:
453,164,72921,1,0,0:0:0:0:
423,123,72981,1,8,2:0:0:0:
421,73,73041,1,0,0:0:0:0:
446,30,73101,1,8,2:0:0:0:
493,15,73161,6,0,P|498:32|506:56,3,29.9999990844727,6|0|0|0,0:0|0:0|0:0|0:0,0:0:0:0:
351,49,73401,2,0,P|352:24|349:0,3,50,14|0|0|0,0:0|0:0|0:0|0:0,0:0:0:0:
303,155,73641,5,10,0:0:0:0:
253,156,73701,1,0,0:0:0:0:
204,168,73761,1,10,0:0:0:0:
160,191,73821,1,0,0:0:0:0:
121,223,73881,1,10,0:0:0:0:
91,257,73941,1,0,0:0:0:0:
74,299,74001,1,10,0:0:0:0:
71,338,74061,1,0,0:0:0:0:
77,372,74121,2,0,P|100:347|136:326,1,50
292,331,74241,5,10,0:0:0:0:
313,286,74301,1,8,0:0:0:0:
303,236,74361,1,8,0:0:0:0:
262,207,74421,1,8,0:0:0:0:
212,202,74481,2,0,P|176:200|138:192,1,50
58,99,74601,5,8,2:0:0:0:
89,60,74661,1,8,2:0:0:0:
136,45,74721,1,8,2:0:0:0:
180,51,74781,1,8,2:0:0:0:
212,74,74841,1,8,0:0:0:0:
228,104,74901,1,8,0:0:0:0:
229,133,74961,1,8,0:0:0:0:
220,156,75021,1,8,0:0:0:0:
204,168,75081,2,0,P|147:109|51:101,1,175,6|0,0:0|0:0,0:0:0:0:
15,221,75561,5,2,0:0:0:0:
24,219,75621,1,0,0:0:0:0:
32,219,75681,2,0,L|82:210,1,40
150,282,75801,5,2,0:0:0:0:
159,284,75861,1,0,0:0:0:0:
167,284,75921,2,0,L|217:293,1,40
299,207,76041,5,14,0:0:0:0:
335,224,76101,1,0,0:0:0:0:
371,241,76161,1,0,0:0:0:0:
407,258,76221,1,0,0:0:0:0:
443,275,76281,5,2,0:0:0:0:
427,287,76341,1,0,0:0:0:0:
411,299,76401,1,0,0:0:0:0:
395,311,76461,1,0,0:0:0:0:
379,323,76521,6,0,B|361:288|315:283|315:283|260:242|331:157|453:148|530:262|460:358,1,419.999987182618,8|0,0:0|0:0,0:0:0:0:
373,333,77001,6,0,P|352:308|290:294,1,89.9999972534181,6|0,0:0|0:0,0:0:0:0:
213,335,77481,5,0,0:0:0:0:
211,336,77541,1,0,0:0:0:0:
209,337,77601,1,0,0:0:0:0:
208,338,77661,1,0,0:0:0:0:
206,339,77721,1,0,0:0:0:0:
204,340,77781,1,0,0:0:0:0:
203,342,77841,1,0,0:0:0:0:
201,343,77901,1,0,0:0:0:0:
199,343,77961,6,0,L|137:330,1,59.9999981689454,14|0,0:0|2:0,0:0:0:0:
48,268,78321,1,2,2:3:0:0:
57,274,78441,2,0,P|97:267|116:222,1,89.9999972534181,6|0,2:3|2:0,0:0:0:0:
23,94,78921,2,0,P|38:153|44:185,1,89.9999972534181,4|0,2:2|2:0,0:0:0:0:
112,230,79401,6,0,B|142:284|256:255|206:154|165:156|165:156|166:148|166:148|106:128|131:44|187:30|228:77,1,359.999989013672,2|0,2:3|2:0,0:0:0:0:
287,93,79881,5,14,0:0:0:0:
291,97,79941,1,0,0:0:0:0:
295,100,80001,1,0,0:0:0:0:
299,103,80061,1,0,0:0:0:0:
304,106,80121,1,0,0:0:0:0:
309,108,80181,1,0,0:0:0:0:
314,110,80241,1,0,0:0:0:0:
319,112,80301,1,0,0:0:0:0:
334,111,80361,5,2,0:0:0:0:
338,107,80421,1,0,0:0:0:0:
342,104,80481,1,0,0:0:0:0:
346,101,80541,1,0,0:0:0:0:
351,98,80601,1,0,0:0:0:0:
356,96,80661,1,0,0:0:0:0:
361,94,80721,1,0,0:0:0:0:
366,92,80781,1,0,0:0:0:0:
375,88,80841,6,0,B|388:60|419:43|419:43|331:-5|246:63|246:63|280:77|306:101,1,300,6|0,0:0|0:0,0:0:0:0:
327,163,81321,5,0,0:0:0:0:
326,167,81381,1,0,0:0:0:0:
325,171,81441,1,0,0:0:0:0:
324,175,81501,1,0,0:0:0:0:
323,179,81561,1,0,0:0:0:0:
322,183,81621,1,0,0:0:0:0:
321,187,81681,1,0,0:0:0:0:
320,191,81741,1,0,0:0:0:0:
320,191,81801,6,0,L|329:251,1,59.9999981689454,14|4,0:0|2:2,0:0:0:0:
447,343,82521,6,0,L|454:316,3,25,2|2|2|2,0:2|0:2|0:2|0:2,0:0:0:0:
454,354,82761,6,0,P|403:333|367:326,1,75.0000028610231,2|0,0:2|0:0,0:0:0:0:
314,279,83001,2,0,P|269:309|242:320,1,75.0000028610231,2|0,0:0|0:0,0:0:0:0:
212,167,83241,5,2,0:0:0:0:
208,382,83401,5,4,0:2:0:0:
405,255,83561,5,4,0:2:0:0:
394,90,83721,5,8,0:0:0:0:
371,102,83781,1,0,0:0:0:0:
350,105,83841,1,0,0:0:0:0:
335,101,83901,1,0,0:0:0:0:
325,91,83961,1,8,0:0:0:0:
320,79,84021,1,8,0:0:0:0:
319,73,84081,1,8,0:0:0:0:
323,68,84141,1,8,0:0:0:0:
328,64,84201,5,8,0:0:0:0:
365,97,84261,1,8,0:0:0:0:
357,149,84321,1,8,0:0:0:0:
315,174,84381,1,8,0:0:0:0:
262,182,84441,1,8,0:0:0:0:
235,217,84501,1,8,0:0:0:0:
241,257,84561,1,8,0:0:0:0:
263,275,84621,1,8,0:0:0:0:
280,274,84681,6,0,L|262:143,1,120,6|0,0:0|0:0,0:0:0:0:
204,93,85161,1,6,0:0:0:0:
201,87,85221,1,0,0:0:0:0:
198,81,85281,1,0,0:0:0:0:
195,75,85341,1,0,0:0:0:0:
192,69,85401,1,0,0:0:0:0:
188,63,85461,1,0,0:0:0:0:
185,57,85521,1,0,0:0:0:0:
181,51,85581,1,0,0:0:0:0:
178,45,85641,6,0,L|265:67,1,80,14|0,0:0|0:0,0:0:0:0:
353,126,86001,1,2,0:0:0:0:
362,134,86121,2,0,P|387:122|439:109,1,80,4|0,0:2|0:0,0:0:0:0:
408,28,86361,2,0,P|369:36|332:52,1,80,4|0,0:2|0:0,0:0:0:0:
258,254,86601,6,0,L|277:124,1,120,6|0,0:0|0:0,0:0:0:0:
237,63,87081,1,0,0:0:0:0:
170,162,87201,5,8,2:0:0:0:
264,137,87321,1,8,2:0:0:0:
352,111,87441,1,0,0:0:0:0:
317,325,87561,5,14,2:3:0:0:
259,252,87681,1,0,0:0:0:0:
328,314,87801,1,0,0:0:0:0:
426,222,87921,5,14,2:3:0:0:
344,239,88041,1,0,0:0:0:0:
435,207,88161,1,0,0:0:0:0:
343,123,88281,5,8,0:0:0:0:
346,112,88401,1,8,0:0:0:0:
479,345,88521,6,0,P|388:310|214:279,1,240,6|0,0:0|0:0,0:0:0:0:
156,313,89001,5,0,0:0:0:0:
131,330,89081,5,0,0:0:0:0:
100,337,89161,5,0,0:0:0:0:
68,331,89241,5,0,0:0:0:0:
40,311,89321,5,0,0:0:0:0:
28,283,89401,5,0,0:0:0:0:
29,248,89481,6,0,L|279:351,1,240,14|0,0:0|0:0,0:0:0:0:
323,285,89961,5,2,0:0:0:0:
329,281,90021,1,0,0:0:0:0:
336,277,90081,1,0,0:0:0:0:
342,273,90141,1,0,0:0:0:0:
349,269,90201,1,0,0:0:0:0:
355,265,90261,1,0,0:0:0:0:
362,261,90321,1,0,0:0:0:0:
369,257,90381,1,0,0:0:0:0:
375,253,90441,6,0,B|376:196|331:172|292:179|292:179|223:196|234:280|286:287|286:287|321:297|335:348,1,330.000010070801,6|0,0:0|0:0,0:0:0:0:
265,377,90921,6,0,L|301:113,1,240,6|0,0:0|0:0,0:0:0:0:
327,53,91401,6,0,P|294:32|240:106,1,119.999996337891,14|0,0:0|0:0,0:0:0:0:
402,133,91641,5,0,0:0:0:0:
417,124,91701,1,0,0:0:0:0:
433,115,91761,1,0,0:0:0:0:
449,107,91821,1,0,0:0:0:0:
465,99,91881,5,8,2:0:0:0:
429,50,91941,1,8,2:0:0:0:
370,62,92001,1,8,2:0:0:0:
347,117,92061,1,8,2:0:0:0:
378,168,92121,1,8,0:0:0:0:
436,199,92181,1,8,0:0:0:0:
460,262,92241,1,8,0:0:0:0:
428,323,92301,1,8,0:0:0:0:
363,338,92361,6,0,L|410:33,1,255.000004863739,6|0,0:0|0:0,0:0:0:0:
342,13,92601,1,2,0:2:0:0:
332,8,92661,1,8,0:0:0:0:
324,2,92721,2,0,L|304:111,1,85.0000016212464,2|8,0:2|0:0,0:0:0:0:
241,157,92841,1,2,0:2:0:0:
231,162,92901,1,8,0:0:0:0:
223,168,92961,2,0,L|203:59,1,85.0000016212464,2|8,0:2|0:0,0:0:0:0:
133,27,93081,5,2,0:2:0:0:
70,23,93141,1,8,0:0:0:0:
25,66,93201,1,2,0:2:0:0:
24,121,93261,1,8,0:0:0:0:
61,165,93321,1,2,0:2:0:0:
113,175,93381,1,8,0:0:0:0:
164,152,93441,1,2,0:2:0:0:
220,167,93501,1,8,0:0:0:0:
243,221,93561,1,2,0:2:0:0:
227,273,93621,1,8,0:0:0:0:
177,299,93681,1,2,0:2:0:0:
126,283,93741,1,8,0:0:0:0:
106,231,93801,6,0,L|153:240,3,34.9999989318848,2|8|0|8,0:0|0:0|0:2|0:0,0:0:0:0:
237,349,94041,2,0,L|288:339,3,50,2|8|0|8,0:0|0:0|0:2|0:0,0:0:0:0:
361,260,94281,5,6,0:0:0:0:
366,258,94341,1,8,0:0:0:0:
371,257,94401,2,0,L|400:166,1,50,2|8,0:2|0:0,0:0:0:0:
394,337,94521,5,2,0:2:0:0:
393,342,94581,1,8,0:0:0:0:
391,347,94641,2,0,L|454:418,1,50,2|8,0:2|0:0,0:0:0:0:
303,320,94761,5,2,0:2:0:0:
299,316,94821,1,8,0:0:0:0:
295,312,94881,2,0,L|201:331,1,50,2|8,0:2|0:0,0:0:0:0:
126,263,95001,5,2,0:2:0:0:
102,307,95061,1,8,0:0:0:0:
119,353,95121,1,2,0:2:0:0:
165,371,95181,1,8,0:0:0:0:
212,354,95241,1,2,0:2:0:0:
236,310,95301,1,8,0:0:0:0:
229,260,95361,1,2,0:2:0:0:
195,222,95421,1,8,0:0:0:0:
190,172,95481,1,2,0:2:0:0:
218,130,95541,1,8,0:0:0:0:
267,120,95601,1,2,0:2:0:0:
312,140,95661,1,8,0:0:0:0:
328,187,95721,6,0,L|242:159,1,64.9999970245363,8|8,2:0|2:0,2:0:0:0:
179,158,95841,2,0,L|93:186,1,64.9999970245363,8|8,2:0|2:0,2:0:0:0:
39,198,95961,6,0,L|-4:183,3,25,8|8|8|8,0:0|0:0|0:0|0:0,0:0:0:0:
159,27,96201,5,12,0:1:0:0:
231,9,96261,1,0,0:0:0:0:
290,55,96321,1,8,0:0:0:0:
291,130,96381,1,0,0:0:0:0:
234,180,96441,1,12,0:1:0:0:
216,253,96501,1,0,0:0:0:0:
257,316,96561,1,8,0:0:0:0:
331,316,96621,1,0,0:0:0:0:
375,256,96681,2,0,L|362:217,3,25,12|0|8|0,0:1|0:0|0:0|0:0,0:0:0:0:
397,126,96921,5,12,0:1:0:0:
469,150,96981,1,0,0:0:0:0:
499,221,97041,1,8,0:0:0:0:
486,294,97101,1,0,0:0:0:0:
429,343,97161,1,12,0:1:0:0:
354,343,97221,1,0,0:0:0:0:
293,299,97281,1,8,0:1:0:0:
275,226,97341,1,0,0:0:0:0:
296,154,97401,1,12,0:1:0:0:
271,83,97461,1,0,0:0:0:0:
199,48,97521,1,8,0:0:0:0:
124,74,97581,1,0,0:0:0:0:
90,141,97641,6,0,L|179:119,3,50,12|0|8|0,0:1|0:0|0:0|0:0,0:0:0:0:
273,160,97881,2,0,L|362:182,3,50,12|0|8|0,0:1|0:0|0:0|0:0,0:0:0:0:
417,269,98121,5,10,0:0:0:0:
415,333,98181,1,0,0:0:0:0:
358,365,98241,1,8,0:0:0:0:
294,350,98301,1,0,0:0:0:0:
263,292,98361,1,10,0:0:0:0:
279,229,98421,1,0,0:0:0:0:
333,192,98481,1,8,0:0:0:0:
361,133,98541,1,0,0:0:0:0:
343,70,98601,1,10,0:0:0:0:
289,33,98661,1,0,0:0:0:0:
224,37,98721,1,8,0:0:0:0:
180,85,98781,1,0,0:0:0:0:
179,149,98841,5,10,0:0:0:0:
235,169,98901,1,0,0:0:0:0:
285,147,98961,1,8,0:0:0:0:
310,103,99021,1,0,0:0:0:0:
305,58,99081,1,8,0:0:0:0:
284,29,99141,1,8,0:0:0:0:
256,17,99201,1,8,0:0:0:0:
231,19,99261,1,8,0:0:0:0:
220,29,99321,2,0,L|212:105,3,50
306,161,99561,5,8,0:0:0:0:
336,200,99621,1,8,0:0:0:0:
338,244,99681,1,8,0:0:0:0:
320,279,99741,1,8,0:0:0:0:
290,297,99801,1,8,0:0:0:0:
260,300,99861,1,8,0:0:0:0:
236,291,99921,1,8,0:0:0:0:
224,274,99981,1,8,0:0:0:0:
221,259,100041,6,0,L|465:303,1,225.000008583069,6|0,0:0|0:0,0:0:0:0:
509,223,100281,1,2,0:2:0:0:
465,213,100341,1,8,0:0:0:0:
420,203,100401,1,2,0:2:0:0:
375,193,100461,1,8,0:0:0:0:
330,183,100521,1,2,0:2:0:0:
285,174,100581,1,8,0:0:0:0:
240,164,100641,1,2,0:2:0:0:
195,156,100701,1,8,0:0:0:0:
150,146,100761,5,6,0:2:0:0:
185,107,100821,1,8,0:0:0:0:
237,103,100881,1,2,0:2:0:0:
279,134,100941,1,8,0:0:0:0:
298,182,101001,1,2,0:2:0:0:
342,210,101061,1,8,0:0:0:0:
393,198,101121,1,2,0:2:0:0:
422,154,101181,1,8,0:0:0:0:
409,103,101241,2,0,P|376:89|349:93,3,37.5000014305115,2|8|2|8,0:2|0:0|0:2|0:0,0:0:0:0:
218,185,101481,5,6,0:0:0:0:
186,248,101541,1,8,0:0:0:0:
206,316,101601,1,2,0:2:0:0:
265,355,101661,1,8,0:0:0:0:
336,352,101721,1,2,0:2:0:0:
393,310,101781,1,8,0:0:0:0:
404,239,101841,1,2,0:2:0:0:
369,176,101901,1,8,0:0:0:0:
304,146,101961,6,0,L|277:346,1,150.000005722046,6|0,0:0|0:0,0:0:0:0:
151,379,102201,5,2,0:2:0:0:
116,350,102261,1,8,0:0:0:0:
99,307,102321,1,2,0:2:0:0:
99,262,102381,1,8,0:0:0:0:
108,217,102441,1,2,0:2:0:0:
130,177,102501,1,8,0:0:0:0:
164,147,102561,1,2,0:2:0:0:
207,134,102621,1,8,0:0:0:0:
251,139,102681,5,8,0:0:0:0:
278,174,102741,1,8,0:0:0:0:
309,194,102801,1,8,0:0:0:0:
338,201,102861,1,8,0:0:0:0:
360,197,102921,1,8,0:0:0:0:
379,185,102981,1,8,0:0:0:0:
388,173,103041,1,8,0:0:0:0:
393,159,103101,1,8,0:0:0:0:
393,151,103161,5,8,2:0:0:0:
246,275,103281,1,8,2:0:0:0:
468,267,103401,5,8,2:0:0:0:
451,225,103461,1,8,2:0:0:0:
434,182,103521,1,8,2:0:0:0:
418,139,103581,1,8,2:0:0:0:
402,96,103641,2,0,L|412:58,3,29.9999990844727,8|8|8|8,0:0|0:0|0:0|0:0,0:0:0:0:
285,22,103881,5,14,0:0:0:0:
220,52,103941,1,0,0:0:0:0:
206,122,104001,1,10,0:0:0:0:
232,188,104061,1,0,0:0:0:0:
299,213,104121,1,14,0:0:0:0:
370,202,104181,1,0,0:0:0:0:
428,244,104241,1,10,0:0:0:0:
439,315,104301,1,0,0:0:0:0:
393,371,104361,1,14,0:0:0:0:
321,373,104421,1,0,0:0:0:0:
269,322,104481,1,10,0:0:0:0:
270,250,104541,1,0,0:0:0:0:
327,206,104601,5,14,0:0:0:0:
339,265,104661,1,0,0:0:0:0:
306,312,104721,1,10,0:0:0:0:
248,316,104781,1,0,0:0:0:0:
209,273,104841,1,14,0:0:0:0:
217,216,104901,1,0,0:0:0:0:
190,165,104961,1,10,0:0:0:0:
134,150,105021,1,0,0:0:0:0:
82,177,105081,2,0,L|91:206,3,29.9999990844727,14|0|10|0,0:0|0:0|0:0|0:0,0:0:0:0:
81,353,105321,5,14,0:0:0:0:
153,371,105381,1,0,0:0:0:0:
207,319,105441,1,10,0:0:0:0:
206,244,105501,1,0,0:0:0:0:
157,186,105561,1,14,0:0:0:0:
160,111,105621,1,0,0:0:0:0:
214,59,105681,1,10,0:0:0:0:
288,69,105741,1,0,0:0:0:0:
329,131,105801,6,0,L|284:121,3,29.9999990844727,2|0|0|0,0:0|0:0|0:0|0:0,0:0:0:0:
70,37,106041,2,0,L|115:27,3,29.9999990844727,2|0|0|0,0:0|0:0|0:0|0:0,0:0:0:0:
251,206,106281,6,0,L|206:196,3,29.9999990844727,2|0|0|0,0:0|0:0|0:0|0:0,0:0:0:0:
92,143,106521,2,0,L|137:133,3,29.9999990844727,2|0|0|0,0:0|0:0|0:0|0:0,0:0:0:0:
248,44,106761,5,10,0:0:0:0:
258,96,106821,1,0,0:0:0:0:
269,148,106881,1,0,0:0:0:0:
280,200,106941,1,0,0:0:0:0:
291,252,107001,5,10,0:0:0:0:
293,240,107061,1,0,0:0:0:0:
296,228,107121,1,0,0:0:0:0:
299,216,107181,1,0,0:0:0:0:
302,204,107241,6,0,L|293:156,3,29.9999990844727,8|8|8|8,0:0|0:0|0:0|0:0,0:0:0:0:
267,89,107481,2,0,L|276:41,3,29.9999990844727,8|8|8|8,0:0|0:0|0:0|0:0,0:0:0:0:
362,22,107721,5,6,0:0:0:0:
368,22,107781,1,0,0:0:0:0:
374,23,107841,1,0,0:0:0:0:
380,24,107901,1,0,0:0:0:0:
386,25,107961,1,0,0:0:0:0:
392,27,108021,1,0,0:0:0:0:
397,29,108081,1,0,0:0:0:0:
402,31,108141,1,0,0:0:0:0:
407,33,108201,1,6,0:0:0:0:
412,36,108261,1,0,0:0:0:0:
417,39,108321,1,0,0:0:0:0:
422,42,108381,1,0,0:0:0:0:
427,45,108441,1,0,0:0:0:0:
432,48,108501,1,0,0:0:0:0:
437,52,108561,1,0,0:0:0:0:
441,56,108621,1,0,0:0:0:0:
445,60,108681,5,14,0:0:0:0:
439,63,108741,1,0,0:0:0:0:
433,66,108801,1,0,0:0:0:0:
427,69,108861,1,0,0:0:0:0:
422,73,108921,2,0,P|388:111|383:131,3,64.9999970245363
497,201,109161,2,0,P|490:169|472:143,3,64.9999970245363,6|0|0|0,0:0|0:0|0:0|0:0,0:0:0:0:
348,201,109401,2,0,P|378:211|410:208,3,64.9999970245363,2|0|2|0,0:0|0:0|0:0|0:0,0:0:0:0:
272,59,109641,5,6,0:0:0:0:
234,43,109701,1,0,0:0:0:0:
195,50,109761,1,0,0:0:0:0:
167,79,109821,1,0,0:0:0:0:
160,118,109881,1,0,0:0:0:0:
177,154,109941,1,0,0:0:0:0:
210,176,110001,5,0,0:0:0:0:
211,136,110061,1,0,0:0:0:0:
192,100,110121,1,6,0:0:0:0:
156,80,110181,1,0,0:0:0:0:
116,75,110241,1,0,0:0:0:0:
76,82,110301,1,0,0:0:0:0:
46,108,110361,2,0,L|32:173,1,50
10,232,110481,2,0,L|24:297,1,50
71,358,110601,5,14,0:0:0:0:
74,354,110661,1,0,0:0:0:0:
78,351,110721,1,0,0:0:0:0:
82,348,110781,1,0,0:0:0:0:
86,345,110841,1,0,0:0:0:0:
90,342,110901,1,0,0:0:0:0:
94,339,110961,1,0,0:0:0:0:
98,336,111021,1,0,0:0:0:0:
102,333,111081,2,0,L|157:343,3,50,8|8|8|8,2:0|2:0|2:0|2:0,0:0:0:0:
215,224,111321,2,0,L|147:240,3,64.9999970245363,8|8|8|8,0:0|0:0|0:0|0:0,0:0:0:0:
8,168,111561,5,14,0:0:0:0:
66,126,111621,1,0,0:0:0:0:
136,113,111681,1,8,0:0:0:0:
207,120,111741,1,0,0:0:0:0:
275,141,111801,1,10,0:0:0:0:
333,181,111861,1,0,0:0:0:0:
374,239,111921,5,8,0:0:0:0:
323,280,111981,1,0,0:0:0:0:
258,274,112041,1,10,0:0:0:0:
215,224,112101,1,0,0:0:0:0:
219,159,112161,1,8,0:0:0:0:
262,110,112221,1,0,0:0:0:0:
326,100,112281,1,10,0:0:0:0:
381,119,112341,1,0,0:0:0:0:
432,109,112401,1,8,0:0:0:0:
463,75,112461,1,0,0:0:0:0:
471,36,112521,6,0,P|484:64|506:95,3,64.9999970245363,10|0|8|0,0:0|0:0|0:0|0:0,0:0:0:0:
416,184,112761,2,0,P|403:212|381:243,3,64.9999970245363,10|0|8|0,0:0|0:0|0:0|0:0,0:0:0:0:
512,336,113001,5,10,0:0:0:0:
503,318,113061,1,0,0:0:0:0:
485,309,113121,2,0,P|457:339|406:353,1,64.9999970245363,8|0,0:0|0:0,0:0:0:0:
285,298,113241,5,10,0:0:0:0:
294,280,113301,1,0,0:0:0:0:
312,271,113361,2,0,P|340:301|391:315,1,64.9999970245363,8|0,0:0|0:0,0:0:0:0:
209,383,113481,6,0,P|203:310|145:157,1,194.999991073609,6|0,0:0|0:0,0:0:0:0:
75,174,113721,6,0,P|78:107|190:122,1,194.999991073609,6|0,0:0|0:0,0:0:0:0:
252,161,113961,6,0,B|280:126|259:67|259:67|284:123|352:125,1,194.999991073609,6|0,0:0|0:0,0:0:0:0:
419,126,114201,6,0,P|400:23|337:49,1,194.999991073609,6|0,0:0|0:0,0:0:0:0:
307,218,114441,5,6,0:0:0:0:
307,224,114501,1,0,0:0:0:0:
308,230,114561,1,0,0:0:0:0:
308,236,114621,1,0,0:0:0:0:
338,223,114681,5,0,0:0:0:0:
368,210,114741,1,0,0:0:0:0:
398,198,114801,1,0,0:0:0:0:
427,186,114861,1,0,0:0:0:0:
457,174,114921,5,8,0:0:0:0:
452,168,114981,1,8,0:0:0:0:
447,162,115041,1,8,0:0:0:0:
443,156,115101,1,8,0:0:0:0:
438,150,115161,1,8,0:0:0:0:
433,144,115221,1,8,0:0:0:0:
429,138,115281,1,8,0:0:0:0:
424,132,115341,1,8,0:0:0:0:
419,126,115401,6,0,P|431:210|440:280,1,150.000005722046,6|0,0:0|0:0,0:0:0:0:
382,363,115641,5,2,0:2:0:0:
319,380,115701,1,8,0:0:0:0:
259,354,115761,1,2,0:2:0:0:
236,292,115821,1,8,0:0:0:0:
254,229,115881,1,2,0:2:0:0:
232,167,115941,1,8,0:0:0:0:
178,130,116001,1,2,0:2:0:0:
113,140,116061,1,8,0:0:0:0:
70,189,116121,5,2,0:2:0:0:
119,219,116181,1,8,0:0:0:0:
176,210,116241,1,2,0:2:0:0:
213,165,116301,1,8,0:0:0:0:
204,107,116361,1,2,0:2:0:0:
221,51,116421,1,8,0:0:0:0:
276,32,116481,1,2,0:2:0:0:
331,48,116541,1,8,0:0:0:0:
356,100,116601,1,2,0:2:0:0:
341,156,116661,1,8,0:0:0:0:
299,197,116721,1,0,0:0:0:0:
303,255,116781,1,8,0:0:0:0:
346,294,116841,6,0,P|361:258|384:234,3,64.9999970245363,6|8|0|8,0:0|0:0|0:0|0:0,0:0:0:0:
282,113,117081,2,0,P|267:77|244:53,3,64.9999970245363,6|0|0|8,0:0|0:0|0:0|0:0,0:0:0:0:
85,26,117321,5,6,0:0:0:0:
34,66,117381,1,8,0:0:0:0:
31,130,117441,1,0,0:0:0:0:
76,176,117501,1,8,0:0:0:0:
140,179,117561,1,2,0:2:0:0:
193,216,117621,1,8,0:0:0:0:
206,279,117681,1,2,0:2:0:0:
170,333,117741,1,8,0:0:0:0:
107,352,117801,1,2,0:2:0:0:
49,321,117861,1,8,0:0:0:0:
36,257,117921,1,2,0:2:0:0:
63,198,117981,1,8,0:0:0:0:
126,182,118041,1,2,0:2:0:0:
176,211,118101,1,8,0:0:0:0:
186,261,118161,1,2,0:2:0:0:
164,301,118221,1,8,0:0:0:0:
128,316,118281,1,8,0:0:0:0:
96,308,118341,1,8,0:0:0:0:
80,287,118401,1,8,0:0:0:0:
78,267,118461,1,8,0:0:0:0:
83,255,118521,1,10,0:0:0:0:
88,251,118581,1,0,0:0:0:0:
94,250,118641,1,0,0:0:0:0:
100,251,118701,1,0,0:0:0:0:
105,253,118761,6,0,L|144:246,3,25,10|0|0|0,0:0|0:0|0:0|0:0,0:0:0:0:
244,338,119001,2,0,L|293:344,3,37.5000014305115,8|8|8|8,0:0|0:0|0:0|0:0,0:0:0:0:
420,210,119241,5,2,0:0:0:0:
453,231,119301,1,0,0:0:0:0:
458,271,119361,1,0,0:0:0:0:
428,300,119421,1,0,0:0:0:0:
390,304,119481,2,0,P|351:246|340:237,3,64.9999970245363,2|0|0|0,0:0|0:0|0:0|0:0,0:0:0:0:
313,136,119721,2,0,P|245:123|231:124,3,64.9999970245363,2|0|0|0,0:0|0:0|0:0|0:0,0:0:0:0:
155,45,119961,2,0,P|128:64|106:87,3,64.9999970245363,2|0|0|0,0:0|0:0|0:0|0:0,0:0:0:0:
96,214,120201,5,10,0:0:0:0:
122,191,120261,1,0,0:0:0:0:
154,180,120321,1,0,0:0:0:0:
188,175,120381,1,0,0:0:0:0:
222,178,120441,1,2,0:0:0:0:
256,187,120501,1,0,0:0:0:0:
287,200,120561,1,0,0:0:0:0:
315,221,120621,1,0,0:0:0:0:
340,252,120681,2,0,P|348:300|349:345,3,64.9999970245363,2|0|0|0,0:0|0:0|0:0|0:0,0:0:0:0:
461,201,120921,2,0,P|463:168|470:136,3,64.9999970245363,2|0|0|0,0:0|0:0|0:0|0:0,0:0:0:0:
359,17,121161,5,6,0:0:0:0:
307,56,121221,1,0,0:0:0:0:
302,114,121281,1,0,0:0:0:0:
331,156,121341,1,0,0:0:0:0:
373,172,121401,1,0,0:0:0:0:
410,162,121461,1,0,0:0:0:0:
432,138,121521,1,0,0:0:0:0:
438,112,121581,1,0,0:0:0:0:
433,93,121641,2,0,P|398:118|372:137,3,64.9999970245363,6|0|0|0,0:0|0:0|0:0|0:0,0:0:0:0:
246,248,121881,5,0,0:0:0:0:
181,248,121941,1,0,0:0:0:0:
126,226,122001,1,0,0:0:0:0:
101,180,122061,1,0,0:0:0:0:
101,134,122121,2,0,P|126:157|166:179,3,64.9999970245363,8|8|8|8,2:0|2:0|2:0|2:0,0:0:0:0:
269,148,122361,2,0,P|281:117|285:85,3,64.9999970245363,8|8|8|8,2:0|2:0|2:0|2:0,0:0:0:0:
206,10,122601,5,0,0:0:0:0:
199,10,122661,1,0,0:0:0:0:
192,10,122721,1,0,0:0:0:0:
184,11,122781,1,0,0:0:0:0:
176,13,122841,2,0,P|155:20|125:34,3,34.9999989318848,8|8|8|8,0:0|0:0|0:0|0:0,0:0:0:0:
62,122,123081,5,14,0:0:0:0:
55,129,123141,1,0,0:0:0:0:
49,136,123201,1,0,0:0:0:0:
45,144,123261,1,0,0:0:0:0:
41,152,123321,1,0,0:0:0:0:
37,161,123381,1,0,0:0:0:0:
34,170,123441,1,0,0:0:0:0:
32,179,123501,1,0,0:0:0:0:
30,188,123561,5,14,0:0:0:0:
66,172,123621,1,0,0:0:0:0:
104,162,123681,1,0,0:0:0:0:
143,156,123741,1,0,0:0:0:0:
182,154,123801,1,0,0:0:0:0:
221,159,123861,1,0,0:0:0:0:
258,172,123921,1,0,0:0:0:0:
291,193,123981,1,0,0:0:0:0:
316,223,124041,5,14,0:0:0:0:
301,185,124101,1,0,0:0:0:0:
310,146,124161,1,0,0:0:0:0:
338,117,124221,1,0,0:0:0:0:
377,111,124281,1,0,0:0:0:0:
413,126,124341,1,0,0:0:0:0:
434,159,124401,1,0,0:0:0:0:
433,198,124461,1,0,0:0:0:0:
408,229,124521,6,0,L|393:169,3,50,14|0|0|0,0:0|0:0|0:0|0:0,0:0:0:0:
345,96,124761,2,0,L|360:36,3,50,14|0|0|0,0:0|0:0|0:0|0:0,0:0:0:0:
246,5,125001,5,14,0:0:0:0:
249,14,125061,1,0,0:0:0:0:
252,23,125121,1,0,0:0:0:0:
255,32,125181,1,0,0:0:0:0:
258,41,125241,1,0,0:0:0:0:
261,50,125301,1,0,0:0:0:0:
264,59,125361,1,0,0:0:0:0:
267,68,125421,1,0,0:0:0:0:
270,77,125481,5,14,0:0:0:0:
264,111,125541,1,0,0:0:0:0:
258,145,125601,1,0,0:0:0:0:
252,179,125661,1,0,0:0:0:0:
246,213,125721,1,0,0:0:0:0:
240,247,125781,1,0,0:0:0:0:
234,281,125841,1,0,0:0:0:0:
228,315,125901,1,0,0:0:0:0:
221,349,125961,6,0,L|204:279,1,50,14|0,0:0|0:0,0:0:0:0:
324,246,126081,2,0,L|341:176,1,50,8|0,0:0|0:0,0:0:0:0:
211,364,126201,6,0,L|194:294,1,50,14|0,0:0|0:0,0:0:0:0:
334,248,126321,2,0,L|351:178,1,50,8|0,0:0|0:0,0:0:0:0:
180,161,126441,6,0,L|164:235,3,50,6|0|0|0,0:0|0:0|0:0|0:0,0:0:0:0:
301,377,126681,6,0,L|311:328,3,50,4|0|0|0,0:1|0:0|0:0|0:0,0:0:0:0:
413,269,126921,5,14,0:0:0:0:
418,277,126981,1,0,0:0:0:0:
424,284,127041,1,0,0:0:0:0:
430,291,127101,1,0,0:0:0:0:
437,297,127161,1,0,0:0:0:0:
444,303,127221,1,0,0:0:0:0:
452,308,127281,1,0,0:0:0:0:
460,312,127341,1,0,0:0:0:0:
469,315,127401,5,14,0:0:0:0:
444,276,127461,1,0,0:0:0:0:
401,260,127521,1,0,0:0:0:0:
356,269,127581,1,0,0:0:0:0:
332,307,127641,1,0,0:0:0:0:
292,328,127701,1,0,0:0:0:0:
248,317,127761,1,0,0:0:0:0:
225,278,127821,1,0,0:0:0:0:
239,235,127881,5,14,0:0:0:0:
268,261,127941,1,0,0:0:0:0:
270,300,128001,1,0,0:0:0:0:
241,327,128061,1,0,0:0:0:0:
201,334,128121,1,0,0:0:0:0:
163,319,128181,1,0,0:0:0:0:
144,283,128241,5,8,0:0:0:0:
183,291,128301,1,0,0:0:0:0:
222,299,128361,1,6,0:0:0:0:
261,307,128421,1,0,0:0:0:0:
300,315,128481,1,0,0:0:0:0:
339,323,128541,1,0,0:0:0:0:
378,331,128601,6,0,L|386:360,3,29.9999990844727,14|0|0|0,0:0|0:0|0:0|0:0,0:0:0:0:
438,206,128841,5,12,0:1:0:0:
331,241,128961,1,8,0:0:0:0:
445,210,129081,5,12,0:1:0:0:
330,251,129201,1,8,0:0:0:0:
377,121,129321,5,12,0:1:0:0:
270,86,129441,1,8,0:0:0:0:
384,117,129561,5,12,0:1:0:0:
269,76,129681,1,8,0:0:0:0:
290,196,129801,5,8,2:0:0:0:
294,202,129861,1,8,2:0:0:0:
298,209,129921,2,8,P|331:197|356:189,1,50,8|8,2:0|2:0,2:0:0:0:
237,275,130041,5,8,2:0:0:0:
233,281,130101,1,8,2:0:0:0:
229,288,130161,2,8,P|196:276|171:268,1,50,8|8,2:0|2:0,2:0:0:0:
168,171,130281,5,8,0:0:0:0:
136,147,130341,1,8,0:0:0:0:
99,141,130401,1,8,0:0:0:0:
69,148,130461,1,8,0:0:0:0:
46,163,130521,2,0,P|30:183|-13:216,3,50,8|8|8|8,0:0|0:0|0:0|0:0,0:0:0:0:
42,353,130761,5,6,0:0:0:0:
56,345,130821,1,0,0:0:0:0:
68,335,130881,1,0,0:0:0:0:
76,323,130941,1,0,0:0:0:0:
81,312,131001,1,0,0:0:0:0:
82,301,131061,1,0,0:0:0:0:
78,287,131121,1,0,0:0:0:0:
68,276,131181,1,0,0:0:0:0:
54,270,131241,5,6,0:0:0:0:
77,237,131301,1,0,0:0:0:0:
112,217,131361,1,0,0:0:0:0:
151,209,131421,1,0,0:0:0:0:
190,208,131481,1,0,0:0:0:0:
229,216,131541,1,0,0:0:0:0:
265,232,131601,1,0,0:0:0:0:
294,258,131661,1,0,0:0:0:0:
312,293,131721,5,14,0:0:0:0:
319,280,131781,1,0,0:0:0:0:
330,270,131841,1,0,0:0:0:0:
343,264,131901,1,0,0:0:0:0:
358,264,131961,2,0,P|337:296|333:325,7,50,0|0|0|0|6|0|0|0,0:0|0:0|0:0|0:0|0:0|0:0|0:0|0:0,0:0:0:0:
497,222,132441,5,6,0:0:0:0:
476,176,132501,1,0,0:0:0:0:
437,152,132561,1,0,0:0:0:0:
397,144,132621,1,0,0:0:0:0:
362,146,132681,1,6,0:0:0:0:
333,156,132741,1,0,0:0:0:0:
313,171,132801,1,0,0:0:0:0:
301,187,132861,1,0,0:0:0:0:
296,201,132921,5,0,0:0:0:0:
304,199,132981,1,0,0:0:0:0:
312,198,133041,1,0,0:0:0:0:
320,197,133101,1,0,0:0:0:0:
329,197,133161,1,6,0:0:0:0:
337,198,133221,1,0,0:0:0:0:
345,200,133281,1,0,0:0:0:0:
353,201,133341,1,0,0:0:0:0:
361,204,133401,1,0,0:0:0:0:
369,207,133461,1,0,0:0:0:0:
376,211,133521,1,0,0:0:0:0:
384,215,133581,1,0,0:0:0:0:
390,220,133641,6,0,P|329:253|265:287,1,119.999996337891,14|0,0:0|0:0,0:0:0:0:
187,256,133881,5,6,0:0:0:0:
188,244,133941,1,0,0:0:0:0:
194,233,134001,2,0,P|218:210|251:199,1,50
259,360,134121,5,2,0:0:0:0:
269,365,134181,1,0,0:0:0:0:
282,365,134241,2,0,P|313:355|339:332,1,50
180,334,134361,5,6,0:0:0:0:
171,339,134421,1,0,0:0:0:0:
164,346,134481,2,0,P|133:369|113:382,1,50
21,282,134601,5,14,0:0:0:0:
28,275,134661,1,0,0:0:0:0:
35,268,134721,1,0,0:0:0:0:
42,261,134781,1,0,0:0:0:0:
49,254,134841,1,0,0:0:0:0:
56,247,134901,1,0,0:0:0:0:
63,240,134961,1,0,0:0:0:0:
70,233,135021,1,0,0:0:0:0:
77,226,135081,5,14,0:0:0:0:
74,201,135141,1,0,0:0:0:0:
71,176,135201,1,0,0:0:0:0:
68,151,135261,1,0,0:0:0:0:
65,126,135321,1,0,0:0:0:0:
62,101,135381,1,0,0:0:0:0:
59,76,135441,1,0,0:0:0:0:
56,51,135501,1,0,0:0:0:0:
53,26,135561,5,14,0:0:0:0:
61,30,135621,1,0,0:0:0:0:
70,35,135681,1,0,0:0:0:0:
78,40,135741,1,0,0:0:0:0:
87,45,135801,1,0,0:0:0:0:
95,50,135861,1,0,0:0:0:0:
104,55,135921,1,0,0:0:0:0:
113,60,135981,1,0,0:0:0:0:
121,65,136041,6,0,P|126:42|141:0,3,50,14|0|0|0,0:0|0:0|0:0|0:0,0:0:0:0:
286,46,136281,5,14,0:0:0:0:
319,107,136341,1,0,0:0:0:0:
313,171,136401,1,0,0:0:0:0:
275,217,136461,1,0,0:0:0:0:
223,236,136521,1,6,0:0:0:0:
173,228,136581,1,0,0:0:0:0:
141,195,136641,1,0,0:0:0:0:
127,157,136701,1,0,0:0:0:0:
135,122,136761,1,0,0:0:0:0:
158,103,136821,1,0,0:0:0:0:
182,99,136881,1,0,0:0:0:0:
201,104,136941,1,0,0:0:0:0:
211,114,137001,5,8,0:0:0:0:
203,120,137061,1,8,0:0:0:0:
196,127,137121,1,8,0:0:0:0:
191,135,137181,1,8,0:0:0:0:
187,144,137241,1,8,0:0:0:0:
184,153,137301,1,8,0:0:0:0:
182,162,137361,1,8,0:0:0:0:
180,171,137421,1,8,0:0:0:0:
179,180,137481,5,8,2:0:0:0:
226,165,137541,1,8,2:0:0:0:
271,165,137601,1,8,2:0:0:0:
307,181,137661,1,8,2:0:0:0:
332,205,137721,1,8,2:0:0:0:
341,233,137781,1,8,2:0:0:0:
339,257,137841,1,8,2:0:0:0:
331,275,137901,1,8,2:0:0:0:
320,286,137961,2,0,P|301:258|278:243,3,50,8|8|8|8,2:0|2:0|2:0|2:0,2:0:0:0:
422,177,138201,2,0,P|441:149|464:134,3,50,8|8|8|8,2:0|2:0|2:0|2:0,2:0:0:0:
507,367,138441,6,0,P|431:342|345:320,1,129.999994049073,4|0,0:1|0:0,0:0:0:0:
306,368,138681,1,2,0:2:0:0:
298,369,138741,1,8,2:0:0:0:
292,373,138801,2,0,P|260:331|205:322,1,64.9999970245363,2|8,0:2|2:0,0:0:0:0:
214,248,138921,1,2,0:2:0:0:
210,254,138981,1,8,2:0:0:0:
206,257,139041,2,0,P|161:284|106:272,1,64.9999970245363,2|8,0:2|2:0,0:0:0:0:
99,347,139161,1,2,0:2:0:0:
95,336,139221,1,8,2:0:0:0:
88,330,139281,2,0,P|58:314|7:314,1,64.9999970245363,2|8,0:2|2:0,0:0:0:0:
20,132,139401,6,0,L|34:191,3,50,2|8|2|8,0:2|2:0|0:2|2:0,0:0:0:0:
112,214,139641,2,0,L|123:165,3,50,2|8|2|8,0:2|2:0|0:2|2:0,0:0:0:0:
174,78,139881,5,4,0:1:0:0:
216,91,139941,1,8,2:0:0:0:
258,104,140001,1,0,0:2:0:0:
300,117,140061,1,8,2:0:0:0:
342,132,140121,1,4,0:1:0:0:
329,110,140181,1,8,2:0:0:0:
316,88,140241,1,0,0:0:0:0:
303,66,140301,1,8,2:0:0:0:
291,44,140361,6,0,L|278:131,3,50,6|8|0|8,0:0|2:0|0:0|2:0,0:0:0:0:
371,150,140601,5,2,0:2:0:0:
376,156,140661,1,8,2:0:0:0:
381,163,140721,2,0,P|393:129|410:91,1,50,2|8,0:2|2:0,0:0:0:0:
300,197,140841,5,2,0:2:0:0:
300,204,140901,1,8,2:0:0:0:
301,213,140961,2,0,P|269:196|230:180,1,50,2|8,0:2|2:0,0:0:0:0:
372,242,141081,5,2,0:2:0:0:
375,250,141141,1,8,2:0:0:0:
377,258,141201,2,0,P|407:276|441:301,1,50,2|8,0:2|2:0,0:0:0:0:
498,186,141321,5,2,0:2:0:0:
459,197,141381,1,8,2:0:0:0:
420,208,141441,1,2,0:2:0:0:
381,219,141501,1,8,2:0:0:0:
342,231,141561,1,2,0:2:0:0:
355,252,141621,1,8,2:0:0:0:
368,273,141681,1,2,0:2:0:0:
381,294,141741,1,8,2:0:0:0:
394,314,141801,5,4,0:2:0:0:
407,260,141861,1,8,2:0:0:0:
420,206,141921,1,0,0:0:0:0:
433,152,141981,1,8,2:0:0:0:
447,99,142041,1,6,0:0:0:0:
428,107,142101,1,8,2:0:0:0:
409,115,142161,1,2,0:2:0:0:
390,123,142221,1,8,2:0:0:0:
371,131,142281,6,0,L|386:57,3,50,4|8|2|8,0:1|2:0|0:2|2:0,0:0:0:0:
293,72,142521,2,0,L|251:9,3,50,2|8|2|8,0:0|2:0|0:0|2:0,0:0:0:0:
177,107,142761,6,0,L|204:148,3,50,2|8|2|8,0:0|2:0|0:0|2:0,0:0:0:0:
292,158,143001,2,0,L|282:207,3,50,2|8|2|8,0:0|2:0|0:0|2:0,0:0:0:0:
205,264,143241,5,2,0:0:0:0:
189,295,143301,1,8,2:0:0:0:
173,326,143361,1,2,0:0:0:0:
157,357,143421,1,8,2:0:0:0:
142,383,143481,1,2,0:0:0:0:
165,374,143541,1,8,2:0:0:0:
188,365,143601,1,2,0:0:0:0:
211,357,143661,1,8,2:0:0:0:
234,349,143721,5,6,0:1:0:0:
184,325,143781,1,8,2:0:0:0:
134,301,143841,1,0,0:0:0:0:
84,278,143901,1,8,2:0:0:0:
34,255,143961,2,0,L|51:314,1,50,4|8,0:2|2:0,0:0:0:0:
142,216,144081,2,0,L|155:167,1,50,0|8,0:0|2:0,0:0:0:0:
60,99,144201,5,4,0:0:0:0:
53,106,144261,1,0,0:0:0:0:
48,114,144321,1,0,0:0:0:0:
43,122,144381,1,0,0:0:0:0:
39,131,144441,1,0,0:0:0:0:
36,140,144501,1,0,0:0:0:0:
34,149,144561,1,0,0:0:0:0:
33,158,144621,1,0,0:0:0:0:
33,167,144681,5,4,0:1:0:0:
44,176,144741,1,0,0:0:0:0:
52,188,144801,1,0,0:0:0:0:
58,201,144861,1,0,0:0:0:0:
63,214,144921,1,4,0:2:0:0:
65,228,144981,1,0,0:0:0:0:
65,242,145041,1,0,0:0:0:0:
62,256,145101,1,0,0:0:0:0:
56,270,145161,5,8,2:0:0:0:
98,235,145221,1,8,2:0:0:0:
152,225,145281,1,8,2:0:0:0:
204,239,145341,1,8,2:0:0:0:
239,280,145401,2,0,P|218:313|202:344,3,50,2|2|2|2,0:0|0:0|0:0|0:0,0:0:0:0:
309,373,145641,5,0,0:0:0:0:
354,352,145701,1,0,0:0:0:0:
378,314,145761,1,0,0:0:0:0:
379,274,145821,1,0,0:0:0:0:
363,242,145881,1,8,0:0:0:0:
338,225,145941,1,8,0:0:0:0:
313,221,146001,1,8,0:0:0:0:
293,224,146061,1,8,0:0:0:0:
280,231,146121,6,0,L|437:259,1,129.999994049073,6|0,0:0|0:0,0:0:0:0:
498,186,146361,5,2,0:2:0:0:
499,176,146421,1,8,2:0:0:0:
500,166,146481,1,2,0:2:0:0:
501,156,146541,1,8,2:0:0:0:
502,146,146601,5,2,0:2:0:0:
477,149,146661,1,8,2:0:0:0:
452,152,146721,1,2,0:2:0:0:
427,155,146781,1,8,2:0:0:0:
402,158,146841,5,2,0:2:0:0:
406,149,146901,1,8,2:0:0:0:
410,140,146961,1,2,0:2:0:0:
414,131,147021,1,8,2:0:0:0:
419,122,147081,5,2,0:2:0:0:
394,125,147141,1,8,2:0:0:0:
369,128,147201,1,2,0:2:0:0:
344,131,147261,1,8,2:0:0:0:
311,150,147321,5,2,0:2:0:0:
286,146,147381,1,8,2:0:0:0:
261,142,147441,1,2,0:2:0:0:
236,139,147501,1,8,2:0:0:0:
211,135,147561,5,4,0:0:0:0:
217,128,147621,1,8,2:0:0:0:
223,120,147681,1,2,0:2:0:0:
229,112,147741,1,8,2:0:0:0:
236,105,147801,2,0,P|242:76|236:47,3,50,6|8|2|8,0:2|2:0|0:2|2:2,0:0:0:0:
45,51,148041,5,6,0:0:0:0:
40,57,148101,1,8,2:0:0:0:
35,64,148161,2,0,P|23:30|6:-8,1,50,2|8,0:2|2:0,0:0:0:0:
120,85,148281,5,2,0:2:0:0:
120,92,148341,1,8,2:0:0:0:
119,101,148401,2,0,P|151:84|190:68,1,50,2|8,0:2|2:0,0:0:0:0:
52,145,148521,5,0,0:0:0:0:
49,153,148581,1,8,2:0:0:0:
47,161,148641,2,0,P|17:179|-17:204,1,50,2|8,0:0|2:0,0:0:0:0:
169,243,148761,5,2,0:2:0:0:
206,276,148821,1,8,2:0:0:0:
208,325,148881,1,2,0:2:0:0:
175,363,148941,1,8,2:0:0:0:
125,370,149001,1,0,0:0:0:0:
282,178,149241,5,8,0:0:0:0:
290,189,149301,1,8,0:0:0:0:
310,203,149361,1,8,0:0:0:0:
344,205,149421,1,8,0:0:0:0:
380,177,149481,5,8,0:0:0:0:
370,175,149541,1,0,0:0:0:0:
360,176,149601,1,0,0:0:0:0:
350,179,149661,1,0,0:0:0:0:
341,183,149721,5,8,0:0:0:0:
349,188,149781,1,8,0:0:0:0:
356,194,149841,1,8,0:0:0:0:
362,201,149901,1,8,0:0:0:0:
367,209,149961,5,14,0:0:0:0:
352,256,150021,1,0,0:0:0:0:
307,279,150081,1,10,0:0:0:0:
257,274,150141,1,0,0:0:0:0:
220,239,150201,1,10,0:0:0:0:
183,204,150261,1,0,0:0:0:0:
133,199,150321,1,10,0:0:0:0:
88,222,150381,1,0,0:0:0:0:
73,269,150441,2,0,P|117:257|136:259,3,50,10|0|10|0,0:0|0:0|0:0|0:0,0:0:0:0:
282,178,150681,5,10,0:0:0:0:
282,168,150741,1,0,0:0:0:0:
282,158,150801,1,10,0:0:0:0:
282,148,150861,1,0,0:0:0:0:
283,138,150921,5,10,0:0:0:0:
301,155,150981,1,0,0:0:0:0:
319,172,151041,1,10,0:0:0:0:
337,189,151101,1,0,0:0:0:0:
355,206,151161,5,10,0:0:0:0:
348,213,151221,1,0,0:0:0:0:
341,220,151281,1,10,0:0:0:0:
334,227,151341,1,0,0:0:0:0:
327,234,151401,2,0,P|332:270|335:305,3,50,10|0|10|0,0:0|0:0|0:0|0:0,0:0:0:0:
441,358,151641,2,0,P|443:333|447:308,3,50,10|0|10|0,0:0|0:0|0:0|0:0,0:0:0:0:
507,170,151881,5,6,0:0:0:0:
501,120,151941,1,0,0:0:0:0:
464,85,152001,1,0,0:0:0:0:
414,75,152061,1,0,0:0:0:0:
365,85,152121,1,0,0:0:0:0:
333,123,152181,1,0,0:0:0:0:
325,172,152241,1,0,0:0:0:0:
339,219,152301,1,0,0:0:0:0:
376,251,152361,5,6,0:0:0:0:
379,236,152421,1,0,0:0:0:0:
384,222,152481,1,0,0:0:0:0:
391,208,152541,1,0,0:0:0:0:
400,196,152601,1,0,0:0:0:0:
411,185,152661,1,0,0:0:0:0:
423,176,152721,1,0,0:0:0:0:
436,169,152781,1,0,0:0:0:0:
450,164,152841,5,8,0:0:0:0:
409,134,152901,1,8,0:0:0:0:
360,121,152961,1,8,0:0:0:0:
310,126,153021,1,8,0:0:0:0:
266,150,153081,1,2,0:0:0:0:
222,159,153141,1,0,0:0:0:0:
182,152,153201,1,0,0:0:0:0:
153,131,153261,1,0,0:0:0:0:
143,102,153321,2,0,P|176:105|210:109,3,50,8|8|8|8,0:0|0:0|0:0|0:0,0:0:0:0:
76,18,153561,2,0,P|43:21|9:25,3,50,8|8|8|8,0:0|0:0|0:0|0:0,0:0:0:0:
10,121,153801,6,0,L|215:83,1,150.000005722046,6|0,0:0|0:0,0:0:0:0:
271,81,154041,1,2,0:0:0:0:
275,74,154101,1,8,2:0:0:0:
279,67,154161,1,2,0:0:0:0:
283,60,154221,1,8,2:0:0:0:
287,53,154281,1,2,0:0:0:0:
291,46,154341,1,8,2:0:0:0:
293,40,154401,6,1,L|344:0,1,65.999999798584,2|8,0:0|2:0,0:0:0:0:
245,132,154521,2,1,L|253:197,1,65.999999798584,2|8,0:0|2:0,0:0:0:0:
187,45,154641,2,1,L|126:20,1,65.999999798584,2|8,0:0|2:0,0:0:0:0:
362,167,154761,5,2,0:0:0:0:
356,174,154821,1,8,2:0:0:0:
362,181,154881,1,2,0:0:0:0:
355,193,154941,1,8,2:0:0:0:
361,207,155001,1,2,0:0:0:0:
353,222,155061,1,8,2:0:0:0:
359,246,155121,1,2,0:0:0:0:
345,269,155181,1,8,2:0:0:0:
349,283,155241,5,8,2:3:0:0:
379,278,155301,1,8,2:3:0:0:
404,251,155361,1,8,2:3:0:0:
404,197,155421,1,8,2:3:0:0:
371,149,155481,1,8,2:3:0:0:
312,138,155541,1,8,2:3:0:0:
255,163,155601,1,8,2:3:0:0:
233,222,155661,1,8,2:0:0:0:
227,288,155721,6,0,P|331:259|431:235,1,150.000005722046,14|0,0:0|0:0,0:0:0:0:
388,255,155901,1,0,0:0:0:0:
399,263,155961,1,0,0:0:0:0:
199,366,156081,2,0,B|170:408|87:366|118:289|150:291,1,150.000005722046,12|0,0:0|0:0,0:0:0:0:
322,29,156321,2,0,P|302:128|274:275,1,175.00000166893,14|0,0:0|0:0,0:0:0:0:
293,213,156501,1,0,0:0:0:0:
297,224,156561,1,2,0:0:0:0:
386,336,156681,5,14,0:0:0:0:
391,318,156741,1,0,0:0:0:0:
398,300,156801,1,0,0:0:0:0:
404,283,156861,1,0,0:0:0:0:
410,264,156921,2,0,L|308:299,1,87.500000834465,2|0,0:0|0:0,0:0:0:0:
435,108,157041,5,14,0:0:0:0:
440,126,157101,1,0,0:0:0:0:
447,144,157161,1,0,0:0:0:0:
453,161,157221,1,0,0:0:0:0:
459,180,157281,2,0,L|357:145,1,75.0000028610231,10|0,0:0|0:0,0:0:0:0:
254,261,157401,6,0,L|306:167,1,75.0000028610231,2|0,0:0|0:0,0:0:0:0:
273,120,157521,2,0,L|325:214,1,75.0000028610231,2|0,0:0|0:0,0:0:0:0:
386,333,157641,5,6,0:0:0:0:
391,340,157701,1,8,2:0:0:0:
395,347,157761,2,0,L|495:322,1,75.0000028610231,2|8,0:2|2:0,0:0:0:0:
247,351,157881,5,2,0:2:0:0:
242,358,157941,1,8,2:0:0:0:
238,365,158001,2,0,L|138:340,1,75.0000028610231,2|8,0:2|2:0,0:0:0:0:
344,157,158121,6,0,L|318:265,1,75.0000028610231,2|8,0:2|2:0,0:0:0:0:
312,304,158241,2,0,L|318:328,3,25,2|8|2|8,0:2|2:0|0:2|2:0,0:0:0:0:
231,265,158481,5,2,0:2:0:0:
224,259,158541,1,8,2:0:0:0:
219,253,158601,2,0,L|129:304,1,75.0000028610231,2|8,0:2|2:0,0:0:0:0:
375,238,158721,5,2,0:2:0:0:
379,230,158781,1,8,2:0:0:0:
381,223,158841,2,0,L|482:235,1,75.0000028610231,2|8,0:2|2:0,0:0:0:0:
293,206,158961,6,0,L|267:98,1,75.0000028610231,2|8,0:2|2:0,0:0:0:0:
220,19,159081,5,8,2:0:0:0:
162,7,159141,1,8,2:0:0:0:
121,49,159201,1,8,2:0:0:0:
126,101,159261,1,8,2:0:0:0:
111,148,159321,1,8,2:0:0:0:
67,158,159381,1,8,2:0:0:0:
33,137,159441,1,8,2:0:0:0:
29,112,159501,1,8,2:0:0:0:
40,104,159561,6,0,L|259:145,1,150.000005722046,6|0,0:0|0:0,0:0:0:0:
403,120,159801,5,8,2:0:0:0:
375,53,159861,1,8,2:0:0:0:
311,24,159921,1,8,2:0:0:0:
246,31,159981,1,8,2:0:0:0:
200,74,160041,1,8,0:0:0:0:
178,127,160101,1,8,0:0:0:0:
184,177,160161,1,8,0:0:0:0:
213,214,160221,1,8,0:0:0:0:
247,224,160281,1,8,0:0:0:0:
279,219,160341,1,8,0:0:0:0:
296,202,160401,1,8,0:0:0:0:
297,182,160461,1,8,0:0:0:0:
291,175,160521,5,6,0:0:0:0:
286,172,160581,1,0,0:0:0:0:
282,169,160641,1,0,0:0:0:0:
278,166,160701,1,0,0:0:0:0:
274,163,160761,1,0,0:0:0:0:
270,160,160821,1,0,0:0:0:0:
265,157,160881,1,0,0:0:0:0:
261,154,160941,1,0,0:0:0:0:
257,151,161001,5,8,0:0:0:0:
226,170,161061,1,8,0:0:0:0:
224,215,161121,1,8,0:0:0:0:
258,246,161181,1,8,0:0:0:0:
287,289,161241,1,8,0:0:0:0:
276,340,161301,1,8,0:0:0:0:
227,363,161361,1,8,0:0:0:0:
175,339,161421,1,8,0:0:0:0:
171,282,161481,6,0,P|280:298|395:322,1,225.000008583069,6|0,0:0|0:0,0:0:0:0:
476,245,161721,1,2,0:0:0:0:
477,252,161781,1,8,2:0:0:0:
478,259,161841,1,2,0:0:0:0:
479,266,161901,1,8,2:0:0:0:
480,273,161961,1,2,0:0:0:0:
482,280,162021,1,8,2:0:0:0:
482,286,162081,6,0,L|386:312,1,75.0000028610231,2|8,0:0|2:0,0:0:0:0:
290,206,162201,2,0,L|386:232,1,75.0000028610231,2|8,0:0|2:0,0:0:0:0:
453,121,162321,2,0,L|357:147,1,75.0000028610231,2|8,0:0|2:0,0:0:0:0:
292,70,162441,5,2,0:0:0:0:
284,70,162501,1,8,2:0:0:0:
276,71,162561,1,2,0:0:0:0:
268,72,162621,1,8,2:0:0:0:
260,73,162681,1,2,0:0:0:0:
252,74,162741,1,8,2:0:0:0:
244,75,162801,1,2,0:0:0:0:
236,76,162861,1,8,2:0:0:0:
228,77,162921,5,10,2:0:0:0:
239,49,162981,1,8,2:0:0:0:
273,34,163041,1,8,2:0:0:0:
317,42,163101,1,8,2:0:0:0:
353,80,163161,1,8,2:0:0:0:
350,139,163221,1,8,2:0:0:0:
302,186,163281,1,8,2:0:0:0:
232,174,163341,1,0,0:0:0:0:
187,114,163401,6,0,P|108:88|39:126,1,150.000005722046,14|0,0:0|0:0,0:0:0:0:
30,136,163581,1,0,0:0:0:0:
33,148,163641,1,0,0:0:0:0:
198,384,163761,6,0,P|161:272|114:160,1,175.00000166893,14|0,0:0|0:0,0:0:0:0:
241,43,164001,6,0,B|244:-3|267:-34|357:-36|425:31|442:120|376:169|327:166|288:129,1,350.00000333786,14|0,0:0|0:0,0:0:0:0:
189,261,164361,5,14,0:0:0:0:
232,231,164421,1,0,0:0:0:0:
276,222,164481,1,0,0:0:0:0:
314,229,164541,1,0,0:0:0:0:
343,242,164601,1,0,0:0:0:0:
362,258,164661,1,0,0:0:0:0:
372,274,164721,5,14,0:0:0:0:
320,276,164781,1,0,0:0:0:0:
277,293,164841,1,0,0:0:0:0:
253,323,164901,1,0,0:0:0:0:
248,355,164961,6,0,P|281:334|323:331,1,64.9999970245363,14|0,0:0|0:0,0:0:0:0:
473,376,165081,6,0,P|438:357|414:323,1,64.9999970245363,2|0,0:0|0:0,0:0:0:0:
381,174,165201,5,2,0:0:0:0:
382,167,165261,1,0,0:0:0:0:
383,160,165321,2,0,L|394:74,3,64.9999970245363,2|8|2|8,0:2|2:0|0:2|2:0,0:0:0:0:
230,16,165561,5,2,0:2:0:0:
234,20,165621,1,8,2:0:0:0:
237,25,165681,1,2,0:2:0:0:
240,30,165741,1,8,2:0:0:0:
242,36,165801,2,0,P|205:26|166:26,1,64.9999970245363,2|8,0:2|2:0,0:0:0:0:
47,101,165921,2,0,P|84:91|123:91,1,64.9999970245363,2|8,0:2|2:0,0:0:0:0:
230,155,166041,5,2,0:2:0:0:
234,159,166101,1,8,2:0:0:0:
237,164,166161,1,2,0:2:0:0:
239,169,166221,1,8,2:0:0:0:
241,175,166281,5,2,0:2:0:0:
202,227,166341,1,8,2:0:0:0:
137,235,166401,1,2,0:2:0:0:
75,214,166461,1,8,2:0:0:0:
47,155,166521,5,2,0:2:0:0:
79,150,166581,1,8,2:0:0:0:
110,157,166641,1,2,0:2:0:0:
138,172,166701,1,8,2:0:0:0:
155,199,166761,5,8,2:0:0:0:
143,205,166821,1,8,2:0:0:0:
133,213,166881,1,8,2:0:0:0:
124,222,166941,1,8,2:0:0:0:
116,232,167001,2,0,P|124:271|123:313,3,64.9999970245363,8|8|8|8,0:0|0:0|0:0|0:0,0:0:0:0:
26,370,167241,5,6,0:0:0:0:
25,363,167301,1,0,0:0:0:0:
24,356,167361,1,0,0:0:0:0:
24,349,167421,1,0,0:0:0:0:
24,342,167481,1,4,0:0:0:0:
25,335,167541,1,0,0:0:0:0:
26,328,167601,1,0,0:0:0:0:
28,321,167661,1,0,0:0:0:0:
30,315,167721,5,12,2:0:0:0:
77,271,167781,1,8,2:0:0:0:
140,259,167841,1,8,2:0:0:0:
203,270,167901,1,8,2:0:0:0:
255,308,167961,1,12,2:0:0:0:
307,333,168021,1,8,2:0:0:0:
358,332,168081,1,8,2:0:0:0:
398,310,168141,1,8,2:0:0:0:
418,277,168201,2,0,P|375:280|330:257,1,64.9999970245363
310,77,168321,5,0,0:0:0:0:
316,74,168381,1,0,0:0:0:0:
322,73,168441,2,0,P|317:120|322:163,1,64.9999970245363,8|8,2:0|2:0,0:0:0:0:
431,196,168561,2,0,P|431:163|426:131,1,64.9999970245363,8|8,2:0|2:0,0:0:0:0:
245,22,168681,5,0,0:0:0:0:
240,26,168741,1,0,0:0:0:0:
235,30,168801,1,0,0:0:0:0:
230,34,168861,1,0,0:0:0:0:
227,39,168921,2,0,P|228:80|225:135,3,64.9999970245363
342,230,169161,6,0,L|545:180,1,150.000005722046,6|0,0:0|0:0,0:0:0:0:
450,44,169401,5,14,0:0:0:0:
446,50,169461,1,0,0:0:0:0:
442,56,169521,1,10,0:0:0:0:
438,62,169581,1,0,0:0:0:0:
434,68,169641,5,10,0:0:0:0:
398,106,169701,1,0,0:0:0:0:
345,102,169761,1,10,0:0:0:0:
312,60,169821,1,0,0:0:0:0:
271,27,169881,1,10,0:0:0:0:
218,29,169941,1,0,0:0:0:0:
177,66,170001,1,10,0:0:0:0:
178,118,170061,1,0,0:0:0:0:
215,150,170121,6,0,L|225:101,3,34.9999989318848,6|0|0|0,0:0|0:0|0:0|0:0,0:0:0:0:
143,54,170361,2,0,L|133:5,3,34.9999989318848,6|0|10|0,0:0|0:0|0:0|0:0,0:0:0:0:
47,133,170601,5,10,0:0:0:0:
86,145,170661,1,0,0:0:0:0:
126,157,170721,1,10,0:0:0:0:
165,169,170781,1,0,0:0:0:0:
205,181,170841,1,10,0:0:0:0:
244,193,170901,1,0,0:0:0:0:
284,206,170961,1,10,0:0:0:0:
323,219,171021,1,0,0:0:0:0:
363,232,171081,5,2,0:2:0:0:
394,208,171141,1,8,2:0:0:0:
393,172,171201,2,0,P|378:146|337:129,1,75.0000028610231,2|8,0:2|2:0,0:0:0:0:
326,316,171321,5,2,0:2:0:0:
353,344,171381,1,8,2:0:0:0:
388,339,171441,2,0,P|412:321|424:275,1,75.0000028610231,2|8,0:2|2:0,0:0:0:0:
251,135,171561,5,2,0:2:0:0:
201,161,171621,1,8,2:0:0:0:
191,218,171681,1,2,0:2:0:0:
227,262,171741,1,8,2:0:0:0:
278,274,171801,1,2,0:2:0:0:
306,320,171861,1,8,2:0:0:0:
284,371,171921,1,2,0:2:0:0:
227,378,171981,1,8,2:0:0:0:
188,335,172041,5,2,0:2:0:0:
228,300,172101,1,8,2:0:0:0:
279,281,172161,1,2,0:2:0:0:
331,276,172221,1,8,2:0:0:0:
383,289,172281,1,2,0:2:0:0:
431,316,172341,1,8,2:0:0:0:
467,353,172401,2,0,P|487:302|507:267,1,75.0000028610231,2|8,0:2|2:0,0:0:0:0:
488,154,172521,5,6,0:0:0:0:
439,109,172581,1,8,2:0:0:0:
373,114,172641,1,0,0:0:0:0:
330,164,172701,1,8,2:0:0:0:
264,176,172761,1,6,0:0:0:0:
217,129,172821,1,8,2:0:0:0:
229,65,172881,1,0,0:0:0:0:
286,42,172941,1,8,2:0:0:0:
340,57,173001,6,0,L|327:110,3,34.9999989318848
261,194,173241,2,0,L|274:247,3,50,8|0|0|0,0:0|0:0|0:0|0:0,0:0:0:0:
363,370,173481,5,14,0:0:0:0:
353,329,173541,1,0,0:0:0:0:
343,290,173601,1,10,0:0:0:0:
333,251,173661,1,0,0:0:0:0:
323,212,173721,1,10,0:0:0:0:
314,172,173781,1,0,0:0:0:0:
304,133,173841,1,10,0:0:0:0:
290,96,173901,1,0,0:0:0:0:
281,60,173961,2,0,L|295:6,1,50,0|0,0:0|2:0,0:0:0:0:
459,210,174081,5,8,2:0:0:0:
508,173,174141,1,8,2:0:0:0:
508,120,174201,1,8,2:0:0:0:
467,88,174261,1,8,2:0:0:0:
417,98,174321,2,0,P|416:141|377:181,1,75.0000028610231
196,213,174441,5,8,2:0:0:0:
157,174,174501,1,8,2:0:0:0:
161,120,174561,1,8,2:0:0:0:
196,86,174621,1,8,2:0:0:0:
242,81,174681,1,0,0:0:0:0:
270,104,174741,1,0,0:0:0:0:
276,129,174801,1,0,0:0:0:0:
270,145,174861,1,0,0:0:0:0:
260,150,174921,5,6,0:0:0:0:
260,150,174981,1,0,0:0:0:0:
260,149,175041,1,0,0:0:0:0:
259,148,175101,1,0,0:0:0:0:
259,147,175161,1,0,0:0:0:0:
259,147,175221,1,0,0:0:0:0:
258,146,175281,1,0,0:0:0:0:
258,145,175341,1,0,0:0:0:0:
257,144,175401,1,0,0:0:0:0:
257,144,175461,1,0,0:0:0:0:
257,143,175521,1,0,0:0:0:0:
256,142,175581,1,0,0:0:0:0:
251,137,175641,6,0,L|259:99,3,29.9999990844727
311,42,175881,5,14,0:0:0:0:
314,37,175941,1,0,0:0:0:0:
317,33,176001,2,0,L|340:105,1,50
390,148,176121,5,14,0:0:0:0:
393,153,176181,1,0,0:0:0:0:
396,157,176241,2,0,L|419:84,1,50
229,8,176361,5,0,0:0:0:0:
206,41,176421,1,0,0:0:0:0:
193,73,176481,1,0,0:0:0:0:
186,102,176541,1,0,0:0:0:0:
183,126,176601,1,0,0:0:0:0:
183,145,176661,1,0,0:0:0:0:
184,159,176721,1,0,0:0:0:0:
188,173,176781,1,0,0:0:0:0:
192,182,176841,6,0,P|213:259|188:333,1,150.000005722046,6|0,0:0|0:0,0:0:0:0:
43,354,177081,1,6,0:0:0:0:
42,351,177141,1,0,0:0:0:0:
42,349,177201,1,0,0:0:0:0:
42,346,177261,1,0,0:0:0:0:
42,344,177321,5,10,0:0:0:0:
61,298,177381,1,0,0:0:0:0:
103,272,177441,1,10,0:0:0:0:
152,266,177501,1,0,0:0:0:0:
201,275,177561,1,2,0:0:0:0:
246,296,177621,1,0,0:0:0:0:
274,336,177681,1,0,0:0:0:0:
319,357,177741,1,0,0:0:0:0:
369,357,177801,6,0,L|398:348,3,29.9999990844727,4|0|0|0,0:2|0:0|0:0|0:0,0:0:0:0:
313,243,178041,2,0,L|284:234,3,29.9999990844727,4|0|10|0,0:2|0:0|0:0|0:0,0:0:0:0:
432,205,178281,5,14,0:0:0:0:
462,165,178341,1,0,0:0:0:0:
464,115,178401,1,8,0:0:0:0:
443,69,178461,1,0,0:0:0:0:
400,43,178521,1,14,0:0:0:0:
350,40,178581,1,0,0:0:0:0:
302,55,178641,1,8,0:0:0:0:
272,95,178701,1,0,0:0:0:0:
265,144,178761,5,2,0:2:0:0:
278,138,178821,1,8,2:0:0:0:
292,133,178881,2,0,P|307:144|324:170,1,50,2|8,0:2|2:0,0:0:0:0:
152,266,179001,5,2,0:2:0:0:
118,228,179061,1,8,2:0:0:0:
120,178,179121,2,0,P|131:140|134:112,1,50,2|8,0:2|2:0,0:0:0:0:
63,8,179241,5,2,0:2:0:0:
25,41,179301,1,8,2:0:0:0:
19,90,179361,1,2,0:2:0:0:
39,135,179421,1,8,2:0:0:0:
82,160,179481,1,2,0:2:0:0:
131,164,179541,1,8,2:0:0:0:
177,144,179601,1,2,0:2:0:0:
226,137,179661,1,8,2:0:0:0:
273,151,179721,1,2,0:2:0:0:
307,186,179781,1,8,2:0:0:0:
323,233,179841,1,2,0:2:0:0:
314,282,179901,1,8,2:0:0:0:
283,321,179961,1,2,0:2:0:0:
235,335,180021,1,8,2:0:0:0:
185,325,180081,2,0,L|175:277,1,50,4|8,0:0|2:0,0:0:0:0:
216,61,180201,5,0,0:0:0:0:
249,23,180261,1,8,2:0:0:0:
298,17,180321,1,4,0:0:0:0:
338,45,180381,1,8,2:0:0:0:
345,94,180441,1,0,0:0:0:0:
378,131,180501,1,8,2:0:0:0:
427,137,180561,1,0,0:0:0:0:
464,103,180621,1,8,2:0:0:0:
470,53,180681,6,0,P|456:21|447:2,3,50,6|0|0|0,0:0|0:0|0:0|0:0,0:0:0:0:
338,130,180921,2,0,P|327:152|317:175,3,50,14|0|0|0,0:0|0:0|0:0|0:0,0:0:0:0:
429,370,181161,5,10,0:0:0:0:
491,338,181221,1,0,0:0:0:0:
509,280,181281,1,10,0:0:0:0:
492,232,181341,1,0,0:0:0:0:
448,206,181401,1,10,0:0:0:0:
398,208,181461,1,0,0:0:0:0:
358,238,181521,1,10,0:0:0:0:
344,286,181581,1,0,0:0:0:0:
316,327,181641,1,0,0:0:0:0:
275,346,181701,1,0,0:0:0:0:
235,343,181761,1,8,2:0:0:0:
206,323,181821,1,8,2:0:0:0:
194,295,181881,1,8,2:0:0:0:
199,270,181941,1,8,2:0:0:0:
213,256,182001,1,0,2:0:0:0:
227,252,182061,1,0,0:0:0:0:
236,253,182121,6,0,P|241:303|250:330,3,50,8|8|8|8,2:0|2:0|2:0|2:0,0:0:0:0:
104,208,182361,2,0,P|108:183|108:158,3,50,8|8|8|8,0:0|0:0|0:0|0:0,0:0:0:0:
228,49,182601,6,0,L|236:6,1,40,6|0,0:0|0:0,0:0:0:0:
443,120,184521,6,0,P|422:145|360:159,1,89.9999972534181,6|0,0:0|0:0,0:0:0:0:
271,53,185001,5,0,0:0:0:0:
273,52,185061,1,0,0:0:0:0:
275,51,185121,1,0,0:0:0:0:
276,50,185181,1,0,0:0:0:0:
278,49,185241,1,0,0:0:0:0:
280,48,185301,1,0,0:0:0:0:
281,46,185361,1,0,0:0:0:0:
283,45,185421,1,0,0:0:0:0:
285,45,185481,6,0,L|347:58,1,59.9999981689454,14|0,0:0|0:0,0:0:0:0:
494,202,185841,1,2,0:0:0:0:
485,196,185961,2,0,P|445:203|426:248,1,89.9999972534181,6|0,0:0|0:0,0:0:0:0:
360,366,186441,2,0,P|335:310|320:281,1,89.9999972534181,4|0,0:2|0:0,0:0:0:0:
162,179,186921,6,0,B|193:159|220:159|220:159|216:111|148:64|65:91|27:197|108:286|197:264,1,419.999987182618,2|0,0:0|0:0,0:0:0:0:
397,103,187401,5,14,0:0:0:0:
393,99,187461,1,0,0:0:0:0:
389,96,187521,1,0,0:0:0:0:
385,93,187581,1,0,0:0:0:0:
380,90,187641,1,0,0:0:0:0:
375,88,187701,1,0,0:0:0:0:
370,86,187761,1,0,0:0:0:0:
365,84,187821,1,0,0:0:0:0:
350,85,187881,5,2,0:0:0:0:
346,89,187941,1,0,0:0:0:0:
342,92,188001,1,0,0:0:0:0:
338,95,188061,1,0,0:0:0:0:
333,98,188121,1,0,0:0:0:0:
328,100,188181,1,0,0:0:0:0:
323,102,188241,1,0,0:0:0:0:
318,104,188301,1,0,0:0:0:0:
296,104,188361,6,0,B|279:83|247:83|247:83|171:82|309:-30|392:32|390:91|365:108|365:108|335:134|321:175,1,359.999989013672,6|0,0:0|0:0,0:0:0:0:
387,238,188841,5,0,0:0:0:0:
386,243,188901,1,0,0:0:0:0:
385,248,188961,1,0,0:0:0:0:
385,253,189021,1,0,0:0:0:0:
383,259,189081,1,0,0:0:0:0:
381,263,189141,1,0,0:0:0:0:
378,268,189201,1,0,0:0:0:0:
376,273,189261,1,0,0:0:0:0:
371,280,189321,6,0,P|355:312|350:337,1,59.9999981689454,14|0,0:0|0:0,0:0:0:0:
184,356,190041,6,0,L|208:368,3,25,2|2|2|2,0:2|0:2|0:2|0:2,0:0:0:0:
171,360,190281,6,0,P|202:314|216:280,1,75.0000028610231,2|0,0:2|0:0,0:0:0:0:
274,239,190521,2,0,P|254:188|248:160,1,75.0000028610231,2|0,0:0|0:0,0:0:0:0:
190,44,190761,5,2,0:0:0:0:
165,243,190921,5,4,0:2:0:0:
343,129,191081,5,4,0:2:0:0:
89,58,191241,5,8,0:0:0:0:
65,69,191301,1,0,0:0:0:0:
53,87,191361,1,0,0:0:0:0:
51,102,191421,1,0,0:0:0:0:
56,115,191481,1,8,0:0:0:0:
65,125,191541,1,8,0:0:0:0:
70,128,191601,1,8,0:0:0:0:
76,127,191661,1,8,0:0:0:0:
83,122,191721,5,8,0:0:0:0:
116,85,191781,1,8,0:0:0:0:
168,94,191841,1,8,0:0:0:0:
192,136,191901,1,8,0:0:0:0:
199,190,191961,1,8,0:0:0:0:
234,217,192021,1,8,0:0:0:0:
274,212,192081,1,8,0:0:0:0:
292,190,192141,1,8,0:0:0:0:
288,175,192201,6,0,L|156:190,1,120,6|0,0:0|0:0,0:0:0:0:
88,285,192681,1,6,0:0:0:0:
91,291,192741,1,0,0:0:0:0:
94,297,192801,1,0,0:0:0:0:
97,303,192861,1,0,0:0:0:0:
100,309,192921,1,0,0:0:0:0:
104,315,192981,1,0,0:0:0:0:
107,321,193041,1,0,0:0:0:0:
111,327,193101,1,0,0:0:0:0:
117,334,193161,6,0,L|204:312,1,80,14|0,0:0|0:0,0:0:0:0:
379,298,193521,1,2,0:0:0:0:
376,286,193641,2,0,P|348:280|299:258,1,80,4|0,0:2|0:0,0:0:0:0:
275,341,193881,2,0,P|310:358|349:368,1,80,4|0,0:2|0:0,0:0:0:0:
465,267,194121,6,0,L|446:137,1,120,6|0,0:0|0:0,0:0:0:0:
338,37,194601,1,0,0:0:0:0:
295,162,194721,1,8,2:0:0:0:
271,86,194841,1,8,2:0:0:0:
239,9,194961,1,0,0:0:0:0:
167,195,195081,5,14,2:3:0:0:
266,167,195201,1,0,0:0:0:0:
196,113,195321,1,0,0:0:0:0:
227,310,195441,5,14,2:3:0:0:
268,247,195561,1,0,0:0:0:0:
188,237,195681,1,0,0:0:0:0:
287,369,195801,5,8,0:0:0:0:
300,358,195921,1,8,0:0:0:0:
100,222,196041,6,0,P|55:256|172:320,1,240,6|0,0:0|0:0,0:0:0:0:
405,321,196521,5,2,0:0:0:0:
414,321,196581,1,0,0:0:0:0:
422,323,196641,1,0,0:0:0:0:
431,326,196701,1,0,0:0:0:0:
438,330,196761,1,0,0:0:0:0:
445,335,196821,1,0,0:0:0:0:
450,340,196881,1,0,0:0:0:0:
455,347,196941,1,0,0:0:0:0:
458,355,197001,6,0,P|330:323|190:293,1,240,14|0,0:0|0:0,0:0:0:0:
130,227,197481,5,2,0:0:0:0:
124,220,197541,1,0,0:0:0:0:
119,213,197601,1,0,0:0:0:0:
115,205,197661,1,0,0:0:0:0:
112,197,197721,1,0,0:0:0:0:
111,189,197781,1,0,0:0:0:0:
111,181,197841,1,0,0:0:0:0:
112,173,197901,1,0,0:0:0:0:
117,166,197961,6,0,B|171:118|179:59|131:23|131:-16|131:-16|137:51|51:31|102:133,1,330.000010070801,6|0,0:0|0:0,0:0:0:0:
13,249,198441,6,0,L|275:201,1,240,6|0,0:0|0:0,0:0:0:0:
348,235,198921,6,0,P|348:274|256:280,1,119.999996337891,14|0,0:0|0:0,0:0:0:0:
136,276,199161,5,0,0:0:0:0:
121,285,199221,1,0,0:0:0:0:
105,294,199281,1,0,0:0:0:0:
89,302,199341,1,0,0:0:0:0:
73,310,199401,5,8,2:0:0:0:
109,359,199461,1,8,2:0:0:0:
168,347,199521,1,8,2:0:0:0:
191,292,199581,1,8,2:0:0:0:
160,241,199641,1,8,0:0:0:0:
102,210,199701,1,8,0:0:0:0:
78,147,199761,1,8,0:0:0:0:
110,86,199821,1,8,0:0:0:0:
180,73,199881,6,0,P|156:172|144:260,1,150.000005722046,6|0,0:0|0:0,0:0:0:0:
244,364,200121,5,2,0:2:0:0:
256,366,200181,1,8,2:0:0:0:
268,368,200241,2,0,P|264:328|263:281,1,64.9999970245363,2|8,0:2|2:0,0:0:0:0:
322,203,200361,5,2,0:2:0:0:
334,201,200421,1,8,2:0:0:0:
346,199,200481,2,0,P|342:239|341:286,1,64.9999970245363,2|8,0:2|2:0,0:0:0:0:
388,360,200601,5,2,0:2:0:0:
452,366,200661,1,8,2:0:0:0:
497,319,200721,1,2,0:2:0:0:
500,254,200781,1,8,2:0:0:0:
458,203,200841,1,2,0:2:0:0:
393,200,200901,1,8,2:0:0:0:
342,159,200961,1,2,0:2:0:0:
331,94,201021,1,8,2:0:0:0:
371,43,201081,1,2,0:2:0:0:
435,36,201141,1,8,2:0:0:0:
491,68,201201,1,2,0:2:0:0:
503,131,201261,1,8,2:0:0:0:
471,187,201321,6,0,P|463:168|447:154,3,29.9999990844727,2|8|0|8,0:0|2:0|0:2|2:0,0:0:0:0:
331,94,201561,6,0,P|310:91|290:98,3,29.9999990844727,2|8|0|8,0:0|2:0|0:2|2:0,0:0:0:0:
180,152,201801,5,6,0:0:0:0:
178,149,201861,1,8,2:0:0:0:
176,146,201921,2,0,P|189:103|201:73,1,64.9999970245363,2|8,0:2|2:0,0:0:0:0:
279,233,202041,5,2,0:2:0:0:
281,230,202101,1,8,2:0:0:0:
283,227,202161,2,0,P|269:184|258:154,1,64.9999970245363,2|8,0:2|2:0,0:0:0:0:
180,314,202281,5,2,0:2:0:0:
178,311,202340,1,8,2:0:0:0:
176,308,202401,2,0,P|189:265|201:235,1,64.9999970245363,2|8,0:2|2:0,0:0:0:0:
271,373,202521,5,2,0:2:0:0:
319,329,202581,1,8,2:0:0:0:
322,264,202641,1,2,0:2:0:0:
274,219,202701,1,8,2:0:0:0:
209,216,202761,1,2,0:2:0:0:
158,256,202821,1,8,2:0:0:0:
155,320,202881,1,2,0:2:0:0:
111,367,202941,1,8,2:0:0:0:
46,365,203001,1,2,0:2:0:0:
4,315,203061,1,8,2:0:0:0:
10,250,203121,1,2,0:2:0:0:
61,209,203181,1,8,2:0:0:0:
81,147,203241,6,0,L|18:160,1,64.9999970245363,8|8,2:0|2:0,2:0:0:0:
141,79,203361,2,0,L|204:92,1,64.9999970245363,8|8,2:0|2:0,2:0:0:0:
71,14,203481,2,0,L|22:24,3,40,8|8|8|8,0:0|0:0|0:0|0:0,0:0:0:0:
164,214,203721,5,12,0:1:0:0:
226,247,203781,1,0,0:0:0:0:
296,232,203841,1,8,0:0:0:0:
330,169,203901,1,0,0:0:0:0:
306,101,203961,1,12,0:1:0:0:
331,34,204021,1,0,0:0:0:0:
398,11,204081,1,8,0:0:0:0:
464,37,204141,1,0,0:0:0:0:
495,101,204201,2,0,P|490:119|486:140,3,29.9999990844727,12|0|8|0,0:1|0:0|0:0|0:0,0:0:0:0:
448,347,204441,5,12,0:1:0:0:
376,339,204501,1,0,0:0:0:0:
341,276,204561,1,8,0:0:0:0:
368,209,204621,1,0,0:0:0:0:
368,137,204681,1,12,0:1:0:0:
306,101,204741,1,0,0:0:0:0:
235,113,204801,1,8,0:1:0:0:
211,180,204861,1,0,0:0:0:0:
226,247,204921,1,12,0:1:0:0:
205,315,204981,1,0,0:0:0:0:
137,337,205041,1,8,0:0:0:0:
69,313,205101,1,0,0:0:0:0:
54,243,205161,6,0,L|60:203,3,29.9999990844727,12|0|8|0,0:1|0:0|0:0|0:0,0:0:0:0:
146,123,205401,2,0,L|140:72,3,44.999998626709,12|0|8|0,0:1|0:0|0:0|0:0,0:0:0:0:
43,10,205641,5,10,0:0:0:0:
16,69,205701,1,0,0:0:0:0:
50,124,205761,1,8,0:0:0:0:
110,146,205821,1,0,0:0:0:0:
171,123,205881,1,10,0:0:0:0:
190,60,205941,1,0,0:0:0:0:
238,16,206001,1,8,0:0:0:0:
302,17,206061,1,0,0:0:0:0:
353,56,206121,1,10,0:0:0:0:
362,120,206181,1,0,0:0:0:0:
330,176,206241,1,8,0:0:0:0:
269,198,206301,1,0,0:0:0:0:
208,174,206361,5,10,0:0:0:0:
244,128,206421,1,0,0:0:0:0:
294,115,206481,1,8,0:0:0:0:
338,123,206541,1,0,0:0:0:0:
367,148,206601,1,8,0:0:0:0:
391,169,206661,1,8,0:0:0:0:
416,175,206721,1,8,0:0:0:0:
435,172,206781,1,8,0:0:0:0:
443,162,206841,2,0,P|448:136|451:127,3,29.9999990844727,8|8|8|8,0:0|0:0|0:0|0:0,0:0:0:0:
512,319,207081,5,8,0:0:0:0:
447,307,207141,1,8,0:0:0:0:
389,296,207201,1,8,0:0:0:0:
338,287,207261,1,8,0:0:0:0:
292,280,207321,1,8,0:0:0:0:
253,273,207381,1,8,0:0:0:0:
221,267,207441,1,8,0:0:0:0:
195,262,207501,1,8,0:0:0:0:
176,258,207561,2,0,P|216:204|281:112,1,150.000005722046,6|0,0:0|0:0,0:0:0:0:
184,15,207801,5,2,0:2:0:0:
132,16,207861,1,8,2:0:0:0:
87,42,207921,1,2,0:2:0:0:
67,90,207981,1,8,2:0:0:0:
72,141,208041,1,2,0:2:0:0:
104,181,208101,1,8,2:0:0:0:
123,229,208161,1,2,0:2:0:0:
123,280,208221,1,8,2:0:0:0:
96,324,208281,5,6,0:2:0:0:
51,276,208341,1,8,2:0:0:0:
58,211,208401,1,2,0:2:0:0:
111,173,208461,1,8,2:0:0:0:
175,175,208521,1,2,0:2:0:0:
231,206,208581,1,8,2:0:0:0:
295,201,208641,1,2,0:2:0:0:
346,161,208701,1,8,2:0:0:0:
362,98,208761,2,0,L|353:24,3,64.9999970245363,2|8|2|8,0:2|2:0|0:2|2:0,0:0:0:0:
482,244,209001,5,6,0:0:0:0:
483,314,209061,1,8,2:0:0:0:
437,367,209121,1,2,0:2:0:0:
366,378,209181,1,8,2:0:0:0:
303,345,209241,1,2,0:2:0:0:
269,283,209301,1,8,2:0:0:0:
290,214,209361,1,2,0:2:0:0:
348,170,209421,1,8,2:0:0:0:
419,172,209481,6,0,L|358:364,1,150.000005722046,6|0,0:2|0:0,0:0:0:0:
151,373,209721,5,2,0:2:0:0:
111,338,209781,1,8,2:0:0:0:
91,289,209841,1,2,0:2:0:0:
88,237,209901,1,8,2:0:0:0:
99,186,209961,1,2,0:2:0:0:
123,140,210021,1,8,2:0:0:0:
160,103,210081,1,2,0:2:0:0:
206,79,210141,1,8,2:0:0:0:
257,73,210201,5,8,0:0:0:0:
252,118,210261,1,8,0:0:0:0:
266,154,210321,1,8,0:0:0:0:
293,172,210381,1,8,0:0:0:0:
318,175,210441,1,8,0:0:0:0:
336,169,210501,1,8,0:0:0:0:
346,161,210561,1,8,0:0:0:0:
350,155,210621,1,8,0:0:0:0:
352,148,210681,5,8,2:0:0:0:
220,230,210801,1,8,2:0:0:0:
104,62,210921,5,8,2:0:0:0:
78,57,210981,1,8,2:0:0:0:
52,53,211041,1,8,2:0:0:0:
26,48,211101,1,8,2:0:0:0:
0,43,211161,2,0,P|9:62|11:76,3,29.9999990844727,8|8|8|8,0:0|0:0|0:0|0:0,0:0:0:0:
1,232,211401,5,14,0:0:0:0:
57,275,211461,1,0,0:0:0:0:
127,262,211521,1,10,0:0:0:0:
174,208,211581,1,0,0:0:0:0:
161,137,211641,1,14,0:0:0:0:
169,66,211701,1,0,0:0:0:0:
221,17,211761,1,10,0:0:0:0:
292,21,211821,1,0,0:0:0:0:
342,72,211881,1,14,0:0:0:0:
336,143,211941,1,0,0:0:0:0:
301,205,212001,1,10,0:0:0:0:
327,271,212061,1,0,0:0:0:0:
397,284,212121,5,14,0:0:0:0:
374,237,212181,1,0,0:0:0:0:
324,221,212241,1,10,0:0:0:0:
273,234,212301,1,0,0:0:0:0:
244,277,212361,1,14,0:0:0:0:
236,328,212421,1,0,0:0:0:0:
201,367,212481,1,10,0:0:0:0:
150,378,212541,1,0,0:0:0:0:
101,360,212601,2,0,P|113:333|117:317,3,29.9999990844727,14|0|10|0,0:0|0:0|0:0|0:0,0:0:0:0:
26,158,212841,5,14,0:0:0:0:
64,94,212901,1,0,0:0:0:0:
139,92,212961,1,10,0:0:0:0:
191,146,213021,1,0,0:0:0:0:
197,222,213081,1,14,0:0:0:0:
252,273,213141,1,0,0:0:0:0:
327,271,213201,1,10,0:0:0:0:
373,212,213261,1,0,0:0:0:0:
358,139,213321,6,0,L|333:177,3,29.9999990844727,2|0|0|0,0:0|0:0|0:0|0:0,0:0:0:0:
210,47,213561,6,0,L|193:21,3,29.9999990844727,2|0|0|0,0:0|0:0|0:0|0:0,0:0:0:0:
281,222,213801,6,0,L|263:249,3,29.9999990844727,2|0|0|0,0:0|0:0|0:0|0:0,0:0:0:0:
177,157,214041,6,0,L|160:130,3,29.9999990844727,2|0|0|0,0:0|0:0|0:0|0:0,0:0:0:0:
162,293,214281,5,10,0:0:0:0:
124,307,214341,1,0,0:0:0:0:
87,322,214401,1,0,0:0:0:0:
49,337,214461,1,0,0:0:0:0:
12,351,214521,5,10,0:0:0:0:
14,345,214581,1,0,0:0:0:0:
16,339,214641,1,0,0:0:0:0:
18,333,214701,1,0,0:0:0:0:
18,327,214761,2,0,L|51:309,3,29.9999990844727,8|8|8|8,0:0|0:0|0:0|0:0,0:0:0:0:
181,368,215001,2,0,L|207:382,3,29.9999990844727,8|8|8|8,0:0|0:0|0:0|0:0,0:0:0:0:
324,350,215241,5,6,0:0:0:0:
328,345,215301,1,0,0:0:0:0:
333,341,215361,1,0,0:0:0:0:
338,337,215421,1,0,0:0:0:0:
343,333,215481,1,0,0:0:0:0:
349,329,215541,1,0,0:0:0:0:
354,326,215601,1,0,0:0:0:0:
360,323,215661,1,0,0:0:0:0:
366,320,215721,1,6,0:0:0:0:
372,318,215781,1,0,0:0:0:0:
378,316,215841,1,0,0:0:0:0:
385,314,215901,1,0,0:0:0:0:
391,313,215961,1,0,0:0:0:0:
397,312,216021,1,0,0:0:0:0:
404,311,216081,1,0,0:0:0:0:
410,311,216141,1,0,0:0:0:0:
417,310,216201,5,14,0:0:0:0:
410,322,216261,1,0,0:0:0:0:
404,333,216321,1,0,0:0:0:0:
398,344,216381,1,0,0:0:0:0:
392,355,216441,6,0,P|416:347|443:343,3,29.9999990844727
321,314,216681,2,0,P|337:284|357:254,3,40,6|0|0|0,0:0|0:0|0:0|0:0,0:0:0:0:
239,340,216921,2,0,P|226:299|218:255,3,50,2|0|2|0,0:0|0:0|0:0|0:0,0:0:0:0:
142,373,217161,5,6,0:0:0:0:
107,352,217221,1,0,0:0:0:0:
92,314,217281,1,0,0:0:0:0:
94,274,217341,1,0,0:0:0:0:
115,238,217401,1,0,0:0:0:0:
151,220,217461,1,0,0:0:0:0:
194,222,217521,5,0,0:0:0:0:
161,246,217581,1,0,0:0:0:0:
132,245,217641,1,6,0:0:0:0:
106,229,217701,1,0,0:0:0:0:
94,204,217761,1,0,0:0:0:0:
94,175,217821,1,0,0:0:0:0:
113,146,217881,6,0,P|140:162|168:172,3,50
286,87,218121,5,14,0:0:0:0:
272,34,218181,1,0,0:0:0:0:
224,12,218241,1,0,0:0:0:0:
166,21,218301,1,0,0:0:0:0:
133,63,218361,1,0,0:0:0:0:
127,118,218421,1,0,0:0:0:0:
161,154,218481,1,0,0:0:0:0:
205,160,218541,1,0,0:0:0:0:
231,143,218601,6,0,P|209:108|202:81,3,50,8|8|8|8,2:0|2:0|2:0|2:0,0:0:0:0:
332,20,218841,2,0,P|310:55|303:82,3,50,8|8|8|8,0:0|0:0|0:0|0:0,0:0:0:0:
421,236,219081,5,6,0:0:0:0:
469,222,219141,1,0,0:0:0:0:
487,175,219201,1,0,0:0:0:0:
475,126,219261,1,0,0:0:0:0:
432,99,219321,1,0,0:0:0:0:
382,95,219381,1,0,0:0:0:0:
344,127,219441,5,0,0:0:0:0:
368,158,219501,1,0,0:0:0:0:
373,197,219561,1,6,0:0:0:0:
353,231,219621,1,0,0:0:0:0:
317,248,219681,1,0,0:0:0:0:
277,243,219741,1,0,0:0:0:0:
247,215,219801,5,0,0:0:0:0:
289,199,219861,1,0,0:0:0:0:
329,218,219921,1,0,0:0:0:0:
344,260,219981,1,0,0:0:0:0:
328,302,220041,2,0,P|305:288|276:277,3,50,14|0|0|0,0:0|0:0|0:0|0:0,0:0:0:0:
216,340,220281,5,0,0:0:0:0:
210,347,220341,1,0,0:0:0:0:
195,349,220401,2,0,P|164:331|151:313,1,50
158,197,220521,5,6,0:0:0:0:
152,190,220581,1,0,0:0:0:0:
137,188,220641,2,0,P|106:206|93:224,1,50
0,332,220761,5,2,0:0:0:0:
6,338,220821,1,0,0:0:0:0:
21,338,220881,2,0,P|49:316|60:296,1,50,2|0,0:0|0:0,0:0:0:0:
101,90,221001,5,6,0:0:0:0:
54,119,221061,1,0,0:0:0:0:
37,171,221121,1,0,0:0:0:0:
48,224,221181,1,0,0:0:0:0:
83,265,221241,1,0,0:0:0:0:
136,278,221301,1,0,0:0:0:0:
189,264,221361,1,0,0:0:0:0:
227,224,221421,1,0,0:0:0:0:
233,169,221481,2,0,P|207:133|201:112,3,50,6|0|0|0,0:0|0:0|0:0|0:0,0:0:0:0:
304,35,221721,5,0,0:0:0:0:
328,46,221781,1,0,0:0:0:0:
345,69,221841,1,0,0:0:0:0:
352,99,221901,1,0,0:0:0:0:
340,133,221961,6,0,P|306:109|294:96,1,50,8|8,0:0|0:0,0:0:0:0:
415,63,222081,2,0,P|437:46|473:39,1,50,8|8,0:0|0:0,0:0:0:0:
428,151,222201,2,0,P|441:171|462:186,3,50
485,292,222441,5,8,2:0:0:0:
462,324,222501,1,8,2:0:0:0:
432,330,222561,2,0,P|406:316|387:292,1,50,8|8,2:0|2:0,0:0:0:0:
315,245,222681,1,8,0:0:0:0:
303,236,222741,1,8,0:0:0:0:
290,234,222801,2,0,P|260:247|246:270,1,50,8|8,0:0|0:0,0:0:0:0:
199,377,222921,5,6,0:0:0:0:
207,371,222981,1,0,0:0:0:0:
213,363,223041,1,0,0:0:0:0:
218,354,223101,1,0,0:0:0:0:
222,345,223161,1,0,0:0:0:0:
225,335,223221,1,0,0:0:0:0:
226,325,223281,1,0,0:0:0:0:
226,315,223341,1,0,0:0:0:0:
224,305,223401,1,6,0:0:0:0:
221,295,223461,1,0,0:0:0:0:
217,285,223521,1,0,0:0:0:0:
211,276,223581,1,0,0:0:0:0:
204,271,223641,2,0,P|166:286|148:304,3,50
111,383,223881,6,0,B|131:254|150:71,1,300,14|0,0:0|0:0,0:0:0:0:
225,40,224361,5,6,0:0:0:0:
232,33,224421,1,0,0:0:0:0:
250,26,224481,1,0,0:0:0:0:
275,32,224541,1,0,0:0:0:0:
289,57,224601,1,2,0:0:0:0:
281,91,224661,1,0,0:0:0:0:
300,128,224721,1,2,0:0:0:0:
348,132,224781,1,0,0:0:0:0:
379,103,224841,5,6,0:0:0:0:
360,110,224901,1,0,0:0:0:0:
345,121,224961,1,0,0:0:0:0:
332,135,225021,1,0,0:0:0:0:
325,153,225081,1,0,0:0:0:0:
320,172,225141,1,0,0:0:0:0:
321,191,225201,1,0,0:0:0:0:
326,206,225261,1,0,0:0:0:0:
338,223,225321,1,6,0:0:0:0:
351,234,225381,1,0,0:0:0:0:
367,239,225441,1,0,0:0:0:0:
386,240,225501,1,0,0:0:0:0:
406,232,225561,6,0,P|385:189|374:133,3,59.9999981689454,10|0|0|0,0:0|0:0|0:0|0:0,0:0:0:0:
442,109,225801,2,0,P|463:66|474:10,7,59.9999981689454,14|0|0|0|0|0|0|0,0:0|0:0|0:0|0:0|0:0|0:0|0:0|0:0,0:0:0:0:
505,201,226281,5,8,2:0:0:0:
459,185,226341,1,8,2:0:0:0:
413,169,226401,1,8,2:0:0:0:
367,153,226461,1,8,2:0:0:0:
315,142,226521,1,8,0:0:0:0:
321,151,226581,1,8,0:0:0:0:
328,161,226641,1,8,0:0:0:0:
335,171,226701,1,8,0:0:0:0:
342,183,226761,6,0,L|364:58,1,119.999996337891,10|8,0:0|0:0,0:0:0:0:
140,18,227001,5,10,0:0:0:0:
249,68,227121,1,8,0:0:0:0:
164,143,227241,5,10,0:0:0:0:
63,188,227361,1,8,0:0:0:0:
171,258,227481,5,10,0:0:0:0:
253,300,227601,1,8,0:0:0:0:
116,384,227721,6,0,L|85:246,1,119.999996337891,10|8,0:0|0:0,0:0:0:0:
344,72,227961,2,0,L|317:189,1,119.999996337891,10|8,0:0|0:0,0:0:0:0:
460,364,228201,6,0,L|311:333,1,119.999996337891,10|8,0:0|0:0,0:0:0:0:
65,119,228441,2,0,L|214:88,1,119.999996337891,10|8,0:0|0:0,0:0:0:0:
372,188,228681,5,2,0:0:0:0:
382,193,228741,1,0,0:0:0:0:
392,198,228801,1,0,0:0:0:0:
402,203,228861,1,0,0:0:0:0:
412,208,228921,5,2,0:0:0:0:
440,199,228981,1,0,0:0:0:0:
458,168,229041,2,0,P|447:127|426:107,1,59.9999981689454
233,138,229161,5,2,0:0:0:0:
219,164,229221,1,0,0:0:0:0:
228,198,229281,2,0,P|264:219|293:218,1,59.9999981689454
378,52,229401,5,2,0:0:0:0:
352,38,229461,1,0,0:0:0:0:
318,47,229521,2,0,P|296:83|297:112,1,59.9999981689454
391,341,229641,5,8,2:0:0:0:
427,319,229701,1,8,2:0:0:0:
440,273,229761,1,8,2:0:0:0:
424,231,229821,1,8,2:0:0:0:
381,204,229881,1,8,2:0:0:0:
331,207,229941,1,8,2:0:0:0:
296,243,230001,1,8,2:0:0:0:
288,292,230061,1,8,2:0:0:0:
315,330,230121,5,8,0:0:0:0:
354,283,230181,1,8,0:0:0:0:
346,226,230241,1,8,0:0:0:0:
296,192,230301,1,8,0:0:0:0:
238,191,230361,1,8,0:0:0:0:
190,164,230421,1,8,0:0:0:0:
179,105,230481,1,8,0:0:0:0:
211,53,230541,1,8,0:0:0:0:
270,44,230601,6,0,P|231:253|221:315,1,260,8|0,0:0|0:0,0:0:0:0:
256,192,240201,12,0,243801,0:0:0:0:
290,333,244041,5,6,0:0:0:0:
308,330,244121,5,2,2:2:0:0:
329,307,244201,5,2,2:2:0:0:
326,257,244281,5,2,2:2:0:0:
279,216,244361,5,2,2:2:0:0:
218,224,244441,5,2,2:2:0:0:
181,284,244521,6,0,P|191:312|200:352,2,50,6|0|0,0:0|0:0|0:0,0:0:0:0:
125,200,244761,5,0,0:0:0:0:
128,190,244821,1,0,0:0:0:0:
131,180,244881,1,0,0:0:0:0:
134,170,244941,1,0,0:0:0:0:
137,160,245001,5,14,0:0:0:0:
36,217,245121,1,0,0:0:0:0:
256,221,245241,5,0,0:0:0:0:
166,181,245361,1,0,0:0:0:0:
342,167,245481,6,0,L|409:181,1,60
490,343,245961,5,6,0:0:0:0:
488,342,246021,1,0,0:0:0:0:
486,341,246081,1,0,0:0:0:0:
484,340,246141,1,0,0:0:0:0:
482,339,246201,1,0,0:0:0:0:
480,338,246261,1,0,0:0:0:0:
478,337,246321,1,0,0:0:0:0:
476,336,246381,1,0,0:0:0:0:
474,335,246441,1,6,0:0:0:0:
472,334,246501,1,0,0:0:0:0:
470,333,246561,1,0,0:0:0:0:
468,332,246621,1,0,0:0:0:0:
466,331,246681,1,0,0:0:0:0:
464,330,246741,1,0,0:0:0:0:
462,329,246801,1,0,0:0:0:0:
460,328,246861,1,0,0:0:0:0:
458,327,246921,5,6,0:0:0:0:
462,297,246981,1,0,0:0:0:0:
462,267,247041,1,0,0:0:0:0:
454,237,247101,1,0,0:0:0:0:
438,211,247161,1,0,0:0:0:0:
416,189,247221,1,0,0:0:0:0:
390,173,247281,1,0,0:0:0:0:
361,163,247341,1,0,0:0:0:0:
331,159,247401,1,6,0:0:0:0:
303,162,247461,1,0,0:0:0:0:
278,170,247521,1,0,0:0:0:0:
258,183,247581,1,0,0:0:0:0:
242,199,247641,1,0,0:0:0:0:
233,216,247701,1,0,0:0:0:0:
229,233,247761,1,0,0:0:0:0:
228,248,247821,1,0,0:0:0:0:
230,261,247881,5,14,0:0:0:0:
341,252,248001,1,0,0:0:0:0:
106,256,248121,5,0,0:0:0:0:
190,328,248241,1,0,0:0:0:0:
18,182,248361,5,6,0:0:0:0:
25,270,248481,1,0,0:0:0:0:
24,190,248601,5,0,0:0:0:0:
31,278,248721,1,0,0:0:0:0:
183,117,248841,5,6,0:0:0:0:
185,110,248921,5,0,2:0:0:0:
176,99,249001,5,0,2:0:0:0:
156,98,249081,5,4,2:2:0:0:
138,118,249161,5,0,2:0:0:0:
152,148,249241,5,0,2:0:0:0:
190,158,249321,5,4,2:1:0:0:
230,135,249401,5,0,2:0:0:0:
235,81,249481,5,0,2:0:0:0:
269,31,249561,6,0,P|298:21|336:17,2,66.6666666666667,6|0|0,0:0|0:0|0:0,0:0:0:0:
420,154,249801,6,0,B|457:141|493:165|493:165|470:131|446:138|446:138|410:121|410:121|375:148|375:148|380:153|380:153|267:170|267:170|276:174|276:174|120:196|120:196|196:192|231:253,1,629.999980773926,6|0,0:0|0:0,0:0:0:0:
136,293,251001,6,0,B|131:303|114:306|113:331|143:339|148:305|133:297|134:288,1,69.9999978637696,0|0,2:0|2:0,2:0:0:0:
47,224,251241,2,0,P|35:200|34:191,4,23.3333326212565,4|0|0|0|0,2:1|2:0|2:0|2:0|2:0,2:0:0:0:
151,44,251481,2,0,P|156:91|162:133,1,69.9999978637696,0|0,2:0|2:0,2:0:0:0:
305,197,251721,5,12,0:1:0:0:
327,88,251841,1,0,2:0:0:0:
309,204,251961,1,0,2:0:0:0:
331,95,252081,1,0,2:0:0:0:
477,221,252201,5,4,0:1:0:0:
477,224,252261,1,0,0:0:0:0:
477,227,252321,1,0,0:0:0:0:
477,230,252381,1,0,0:0:0:0:
477,233,252441,1,0,0:0:0:0:
477,236,252501,1,0,0:0:0:0:
477,239,252561,1,0,0:0:0:0:
477,242,252621,1,0,0:0:0:0:
477,245,252681,5,2,0:0:0:0:
404,293,252801,1,0,2:0:0:0:
322,228,252921,5,0,2:0:0:0:
234,201,253041,1,0,2:0:0:0:
133,297,253161,5,8,2:0:0:0:
50,307,253281,1,8,2:0:0:0:
141,296,253401,5,8,0:0:0:0:
41,308,253521,1,8,0:0:0:0:
285,367,253641,5,4,0:2:0:0:
313,346,253701,1,0,0:0:0:0:
329,315,253761,1,0,0:0:0:0:
332,280,253821,1,0,0:0:0:0:
317,248,253881,1,0,0:0:0:0:
292,223,253941,1,0,0:0:0:0:
258,214,254001,1,0,0:0:0:0:
223,216,254061,1,0,0:0:0:0:
194,236,254121,5,6,0:0:0:0:
206,241,254181,1,0,0:0:0:0:
218,247,254241,1,0,0:0:0:0:
229,254,254301,1,0,0:0:0:0:
240,262,254361,1,0,0:0:0:0:
250,271,254421,1,0,0:0:0:0:
260,280,254481,1,0,0:0:0:0:
269,289,254541,1,0,0:0:0:0:
276,296,254601,5,4,0:1:0:0:
297,263,254661,1,0,0:0:0:0:
328,240,254721,1,0,0:0:0:0:
365,229,254781,1,0,0:0:0:0:
403,231,254841,1,0,0:0:0:0:
438,246,254901,1,0,0:0:0:0:
467,270,254961,1,0,0:0:0:0:
485,303,255021,1,0,0:0:0:0:
486,341,255081,5,4,0:1:0:0:
479,332,255141,1,0,0:0:0:0:
471,324,255201,1,0,0:0:0:0:
463,317,255261,1,0,0:0:0:0:
454,310,255321,1,0,0:0:0:0:
445,304,255381,1,0,0:0:0:0:
435,298,255441,1,0,0:0:0:0:
425,293,255501,1,0,0:0:0:0:
415,288,255561,6,0,P|397:326|386:360,1,69.9999978637696,14|0,0:0|2:0,0:0:0:0:
299,242,255801,2,0,P|287:208|272:177,1,69.9999978637696,0|0,2:0|2:0,0:0:0:0:
432,80,256041,5,4,2:1:0:0:
470,166,256161,1,0,2:0:0:0:
381,189,256281,1,0,2:0:0:0:
352,105,256401,1,0,2:0:0:0:
161,253,256521,5,4,2:1:0:0:
375,181,256641,1,0,2:0:0:0:
222,194,256761,5,4,2:1:0:0:
309,234,256881,1,0,2:0:0:0:
271,304,257001,5,2,2:3:0:0:
262,107,257121,1,0,2:0:0:0:
244,380,257241,5,4,2:2:0:0:
290,191,257361,1,0,2:0:0:0:
385,326,257481,5,6,0:0:0:0:
410,343,257561,5,0,2:0:0:0:
453,343,257641,5,0,2:0:0:0:
484,303,257721,5,0,2:0:0:0:
472,247,257801,5,0,2:0:0:0:
417,216,257881,5,0,2:0:0:0:
398,152,257961,5,6,0:0:0:0:
411,138,258041,5,0,2:0:0:0:
428,143,258121,5,0,2:0:0:0:
435,163,258201,5,0,2:0:0:0:
402,203,258281,5,0,2:0:0:0:
339,197,258361,5,0,2:0:0:0:
294,141,258441,5,6,0:0:0:0:
299,67,258521,5,0,2:0:0:0:
349,12,258601,5,0,2:0:0:0:
424,10,258681,5,0,3:0:0:0:
390,73,258761,5,0,2:0:0:0:
319,92,258841,5,0,2:0:0:0:
249,69,258921,5,0,2:0:0:0:
189,22,259001,5,0,2:0:0:0:
113,31,259081,5,0,2:0:0:0:
66,89,259161,5,0,3:0:0:0:
80,159,259241,5,0,2:0:0:0:
139,197,259321,5,0,2:0:0:0:
207,177,259401,5,14,0:0:0:0:
48,243,259521,1,0,0:0:0:0:
291,163,259641,5,0,0:0:0:0:
160,111,259761,1,0,0:0:0:0:
221,325,259881,5,4,0:1:0:0:
249,69,260001,1,0,0:0:0:0:
280,251,260121,5,0,0:0:0:0:
235,148,260241,1,0,0:0:0:0:
86,322,260361,5,6,0:0:0:0:
131,365,260441,5,0,0:0:0:0:
191,359,260521,5,0,0:0:0:0:
226,315,260601,5,0,0:0:0:0:
220,264,260681,5,0,0:0:0:0:
188,234,260761,5,0,0:0:0:0:
159,232,260841,5,8,2:0:0:0:
190,296,260921,5,8,2:0:0:0:
260,314,261001,5,8,2:0:0:0:
308,280,261081,6,0,P|296:245|292:219,2,46.6666652425131,8|8|8,0:0|0:0|0:0,0:0:0:0:
330,62,261321,5,6,0:0:0:0:
346,55,261381,1,0,0:0:0:0:
363,51,261441,1,0,0:0:0:0:
380,50,261501,1,0,0:0:0:0:
397,52,261561,1,0,0:0:0:0:
414,54,261621,1,0,0:0:0:0:
429,61,261681,1,0,0:0:0:0:
443,70,261741,1,0,0:0:0:0:
453,84,261801,2,0,P|446:117|442:142,3,50,6|0|0|0,0:0|0:0|0:0|0:0,0:0:0:0:
365,174,262041,2,0,P|370:198|374:223,3,50
481,322,262281,5,14,0:0:0:0:
479,287,262341,1,0,0:0:0:0:
467,253,262401,1,0,0:0:0:0:
446,224,262461,1,0,0:0:0:0:
419,201,262521,1,0,0:0:0:0:
388,183,262581,1,0,0:0:0:0:
355,169,262641,1,0,0:0:0:0:
320,163,262701,1,0,0:0:0:0:
285,166,262761,5,4,0:1:0:0:
271,159,262821,1,0,0:0:0:0:
259,149,262881,1,0,0:0:0:0:
249,137,262941,1,0,0:0:0:0:
241,124,263001,1,0,0:0:0:0:
235,110,263061,1,0,0:0:0:0:
230,95,263121,1,0,0:0:0:0:
227,80,263181,1,0,0:0:0:0:
227,65,263241,5,14,0:0:0:0:
265,76,263301,1,0,0:0:0:0:
286,109,263361,1,0,0:0:0:0:
290,148,263421,1,0,0:0:0:0:
276,185,263481,1,0,0:0:0:0:
242,207,263541,1,0,0:0:0:0:
202,211,263601,1,0,0:0:0:0:
163,199,263661,1,0,0:0:0:0:
138,167,263721,1,4,0:1:0:0:
131,127,263781,1,0,0:0:0:0:
144,89,263841,1,0,0:0:0:0:
141,49,263901,1,0,0:0:0:0:
111,21,263961,1,0,0:0:0:0:
71,14,264021,1,0,0:0:0:0:
35,33,264081,1,0,0:0:0:0:
22,71,264141,1,0,0:0:0:0:
35,108,264201,1,4,0:1:0:0:
65,133,264261,1,0,0:0:0:0:
84,167,264321,2,0,P|79:206|78:225,1,50
17,293,264441,5,4,0:2:0:0:
15,297,264501,1,0,0:0:0:0:
13,301,264561,2,0,P|8:257|-3:238,1,50
125,357,264681,5,4,0:2:0:0:
127,361,264741,1,0,0:0:0:0:
129,365,264801,2,0,P|134:321|145:302,1,50
250,242,264921,5,4,0:2:0:0:
254,243,264981,1,0,0:0:0:0:
254,247,265041,1,0,0:0:0:0:
249,247,265101,1,0,0:0:0:0:
247,242,265161,6,0,B|245:184|330:132|446:235|382:332|325:316|325:316|364:268|333:218,2,400,6|6|6,0:0|0:0|0:0,0:0:0:0:
144,70,266361,6,0,P|149:85|151:92,1,20
278,162,266601,5,4,0:1:0:0:
241,69,266721,1,0,0:0:0:0:
275,171,266841,5,4,0:1:0:0:
238,78,266961,1,0,0:0:0:0:
468,13,267081,6,0,P|455:98|438:245,1,225.000008583069,14|0,0:0|0:0,0:0:0:0:
390,330,267561,6,0,B|382:345|382:345|393:360|393:360|404:344|404:344|393:328,1,75.0000028610231,6|0,0:0|0:0,0:0:0:0:
247,242,267801,6,0,B|213:295|135:282|135:282|88:238|15:264,1,225.000008583069,6|0,0:0|0:0,0:0:0:0:
75,361,268281,6,0,P|68:333|56:360,1,75.0000028610231,4|0,0:2|0:0,0:0:0:0:
255,97,268521,2,0,P|239:168|209:339,1,225.000008583069,6|0,0:0|0:0,0:0:0:0:
355,309,269001,5,14,0:0:0:0:
120,249,269121,1,8,0:0:0:0:
345,300,269241,1,10,0:0:0:0:
128,243,269361,1,8,0:0:0:0:
275,63,269481,5,10,0:0:0:0:
298,200,269601,1,8,0:0:0:0:
270,50,269721,1,10,0:0:0:0:
295,209,269841,1,8,0:0:0:0:
124,118,269961,6,0,L|99:-18,1,119.999996337891,10|8,0:0|0:0,0:0:0:0:
407,208,270201,2,0,L|385:326,1,119.999996337891,8|8,0:0|0:0,0:0:0:0:
193,355,270441,6,0,L|174:256,1,100,10|8,0:0|0:0,0:0:0:0:
321,131,270681,2,0,L|346:-5,1,100,12|8,0:0|0:0,0:0:0:0:
290,217,270921,5,14,0:0:0:0:
211,181,271041,1,8,0:0:0:0:
352,155,271161,5,10,0:0:0:0:
141,223,271281,1,8,0:0:0:0:
234,93,271401,5,10,0:0:0:0:
295,299,271521,1,8,0:0:0:0:
303,47,271641,5,10,0:0:0:0:
237,363,271761,1,8,0:0:0:0:
265,176,271881,5,8,0:0:0:0:
267,166,271941,1,8,0:0:0:0:
269,156,272001,1,8,0:0:0:0:
271,146,272061,1,8,0:0:0:0:
273,136,272121,2,0,L|260:81,3,29.9999990844727,4|0|0|0,0:2|0:0|0:0|0:0,0:0:0:0:
190,209,272361,6,0,L|178:156,3,29.9999990844727,8|8|8|8,0:0|0:0|0:0|0:0,0:0:0:0:
317,267,272601,6,0,L|329:214,3,29.9999990844727,8|8|8|8,0:0|0:0|0:0|0:0,0:0:0:0:
179,369,272841,6,1,L|223:362,1,43.7500004172325,14|0,0:0|0:0,0:0:0:0:
435,284,272961,2,1,L|486:278,1,43.7499999999575,8|0,0:0|0:0,0:0:0:0:
172,333,273081,6,1,L|223:331,1,43.75,14|0,0:0|0:0,0:0:0:0:
436,287,273201,2,1,L|487:285,1,43.75,8|0,0:0|0:0,0:0:0:0:
176,299,273321,54,1,L|227:301,1,43.75,14|0,0:0|0:0,0:0:0:0:
438,291,273441,2,1,L|489:293,1,43.75,8|0,0:0|0:0,0:0:0:0:
185,274,273561,6,1,L|238:282,1,43.7500004172325,14|0,0:0|0:0,0:0:0:0:
440,295,273681,2,1,L|491:297,1,43.75,8|0,0:0|0:0,0:0:0:0:
110,142,273801,38,1,L|148:175,1,43.75,14|0,0:0|0:0,0:0:0:0:
319,341,273921,2,1,L|357:374,1,43.75,8|0,0:0|0:0,0:0:0:0:
137,120,274041,6,1,L|172:155,1,43.75,14|0,0:0|0:0,0:0:0:0:
318,346,274161,2,1,L|353:381,1,43.75,8|0,0:0|0:0,0:0:0:0:
165,101,274281,6,1,L|196:140,1,43.75,14|0,0:0|0:0,0:0:0:0:
317,350,274401,2,1,L|348:389,1,43.75,8|0,0:0|0:0,0:0:0:0:
182,92,274521,6,1,L|213:131,1,43.75,14|0,0:0|0:0,0:0:0:0:
317,350,274641,2,1,L|348:389,1,43.75,8|0,0:0|0:0,0:0:0:0:
354,51,274761,5,4,0:2:0:0:
330,29,274841,5,0,2:0:0:0:
285,27,274921,5,0,2:0:0:0:
244,62,275001,5,0,2:0:0:0:
206,107,275081,5,0,2:0:0:0:
145,113,275161,5,0,2:0:0:0:
99,62,275241,5,6,0:0:0:0:
113,67,275321,5,0,2:0:0:0:
140,87,275401,5,0,2:0:0:0:
165,130,275481,5,0,2:0:0:0:
206,153,275561,5,0,2:0:0:0:
262,150,275641,5,0,2:0:0:0:
296,112,275721,5,6,0:0:0:0:
231,101,275801,5,0,2:0:0:0:
175,142,275881,5,0,2:0:0:0:
170,202,275961,5,0,2:0:0:0:
211,253,276041,5,0,2:0:0:0:
277,263,276121,5,0,2:0:0:0:
338,229,276201,5,6,0:0:0:0:
271,182,276281,5,0,2:0:0:0:
188,202,276361,5,0,2:0:0:0:
150,272,276441,5,0,2:0:0:0:
166,341,276521,5,0,2:0:0:0:
178,354,276601,5,0,2:0:0:0:
102,85,284361,5,6,0:0:0:0:
256,192,289041,12,4,291561,2:1:0:0:
365,14,292041,6,0,P|368:86|369:176,1,160,6|0,0:0|0:0,0:0:0:0:
443,259,292281,5,2,0:2:0:0:
444,245,292341,1,8,2:0:0:0:
445,231,292401,2,0,L|455:129,1,69.9999978637696,2|8,0:2|2:0,0:0:0:0:
291,257,292521,5,2,0:2:0:0:
290,243,292581,1,8,2:0:0:0:
289,229,292641,2,0,L|279:127,1,69.9999978637696,2|8,0:2|2:0,0:0:0:0:
363,342,292761,5,2,0:2:0:0:
303,378,292821,1,8,2:0:0:0:
233,372,292881,1,2,0:2:0:0:
171,339,292941,1,8,2:0:0:0:
151,271,293001,1,2,0:2:0:0:
172,204,293061,1,8,2:0:0:0:
228,162,293121,1,2,0:2:0:0:
259,99,293181,1,8,2:0:0:0:
244,30,293241,1,2,0:2:0:0:
180,0,293301,1,8,2:0:0:0:
111,14,293361,1,2,0:2:0:0:
68,69,293421,1,8,2:0:0:0:
82,139,293481,2,0,L|128:120,3,40,6|8|0|8,0:0|2:0|0:0|2:0,0:0:0:0:
257,177,293721,2,0,L|293:192,3,40,4|8|0|8,0:2|2:0|0:0|2:0,0:0:0:0:
479,132,293961,5,6,0:0:0:0:
481,75,294021,1,8,2:0:0:0:
450,28,294081,1,0,0:0:0:0:
397,10,294141,1,8,2:0:0:0:
343,23,294201,1,2,0:2:0:0:
305,65,294261,1,8,2:0:0:0:
259,99,294321,1,2,0:2:0:0:
203,99,294381,1,8,2:0:0:0:
164,60,294441,2,0,P|143:23|133:14,3,40,2|8|2|8,0:2|2:0|0:2|2:0,0:0:0:0:
2,155,294681,5,2,0:2:0:0:
33,217,294741,1,8,2:0:0:0:
94,250,294801,1,2,0:2:0:0:
163,244,294861,1,8,2:0:0:0:
223,208,294921,1,2,0:2:0:0:
278,164,294981,1,8,2:0:0:0:
347,154,295041,1,2,0:2:0:0:
415,168,295101,1,8,2:0:0:0:
462,219,295161,1,2,0:2:0:0:
471,289,295221,1,8,2:0:0:0:
436,352,295281,1,2,0:2:0:0:
370,377,295341,1,8,2:0:0:0:
300,359,295401,2,0,L|288:305,3,40,8|8|8|0,2:0|2:0|2:0|2:0,2:0:0:0:
361,250,295641,2,0,L|377:174,3,59.9999981689454,8|8|8|8,0:0|0:0|0:0|0:0,0:0:0:0:
512,123,295881,5,14,0:0:0:0:
471,57,295941,1,0,0:0:0:0:
396,37,296001,1,8,0:0:0:0:
321,56,296061,1,0,0:0:0:0:
272,116,296121,1,10,0:0:0:0:
256,191,296181,1,0,0:0:0:0:
279,264,296241,1,8,0:0:0:0:
268,340,296301,1,0,0:0:0:0:
201,378,296361,2,0,P|154:379|111:358,3,69.9999978637696,10|0|8|0,0:0|0:0|0:0|0:0,0:0:0:0:
35,225,296601,5,10,0:0:0:0:
27,148,296661,1,0,0:0:0:0:
54,77,296721,1,8,0:0:0:0:
110,25,296781,1,0,0:0:0:0:
183,2,296841,1,10,0:0:0:0:
258,13,296901,1,0,0:0:0:0:
321,56,296961,1,8,0:0:0:0:
359,122,297021,1,0,0:0:0:0:
364,198,297081,1,10,0:0:0:0:
335,269,297141,1,0,0:0:0:0:
278,320,297201,1,8,0:0:0:0:
205,342,297261,1,0,0:0:0:0:
130,330,297321,2,0,P|94:303|79:296,3,40,10|0|8|0,0:0|0:0|0:0|0:0,0:0:0:0:
253,216,297561,2,0,P|289:189|304:182,3,40,10|0|8|0,0:0|0:0|0:0|0:0,0:0:0:0:
277,113,297801,5,10,0:0:0:0:
238,122,297861,1,0,0:0:0:0:
199,131,297921,1,8,0:0:0:0:
160,140,297981,1,0,0:0:0:0:
121,149,298041,5,10,0:0:0:0:
136,162,298101,1,0,0:0:0:0:
151,175,298161,1,8,0:0:0:0:
166,187,298221,1,0,0:0:0:0:
180,200,298281,5,10,0:0:0:0:
181,192,298341,1,0,0:0:0:0:
182,184,298401,1,8,0:0:0:0:
183,176,298461,1,0,0:0:0:0:
184,168,298521,5,10,0:0:0:0:
139,150,298581,1,0,0:0:0:0:
95,158,298641,1,8,0:0:0:0:
66,186,298701,1,0,0:0:0:0:
58,221,298761,1,8,0:0:0:0:
62,252,298821,1,8,0:0:0:0:
74,276,298881,1,8,0:0:0:0:
91,292,298941,1,8,0:0:0:0:
108,301,299001,2,0,P|129:283|143:274,3,40
316,200,299241,5,8,0:0:0:0:
349,221,299301,1,8,0:0:0:0:
361,254,299361,1,8,0:0:0:0:
356,285,299421,1,8,0:0:0:0:
338,307,299481,1,8,0:0:0:0:
316,316,299541,1,8,0:0:0:0:
296,315,299601,1,8,0:0:0:0:
282,306,299661,1,8,0:0:0:0:
275,291,299721,5,6,0:2:0:0:
307,249,299781,1,8,2:0:0:0:
317,197,299841,1,2,0:2:0:0:
301,146,299901,1,8,2:0:0:0:
260,112,299961,1,2,0:2:0:0:
208,102,300021,1,8,2:0:0:0:
156,114,300081,1,2,0:2:0:0:
118,151,300141,1,8,2:0:0:0:
99,200,300201,1,2,0:2:0:0:
97,252,300261,1,8,2:0:0:0:
108,303,300321,1,2,0:2:0:0:
137,346,300381,1,8,2:0:0:0:
185,366,300441,5,2,0:2:0:0:
211,329,300501,1,8,2:0:0:0:
211,284,300561,1,2,0:2:0:0:
184,247,300621,1,8,2:0:0:0:
142,229,300681,1,2,0:2:0:0:
114,193,300741,1,8,2:0:0:0:
110,148,300801,1,2,0:2:0:0:
135,110,300861,1,8,2:0:0:0:
177,95,300921,1,2,0:2:0:0:
219,109,300981,1,8,2:0:0:0:
241,147,301041,1,2,0:2:0:0:
236,191,301101,1,8,2:0:0:0:
201,219,301161,5,6,0:2:0:0:
167,178,301221,1,8,2:0:0:0:
171,125,301281,1,2,0:2:0:0:
205,85,301341,1,8,2:0:0:0:
256,73,301401,1,2,0:2:0:0:
306,88,301461,1,8,2:0:0:0:
334,132,301521,1,2,0:2:0:0:
329,184,301581,1,8,2:0:0:0:
296,225,301641,6,0,P|216:207|102:187,1,150.000005722046,6|0,0:0|0:0,0:0:0:0:
22,117,301881,5,2,0:2:0:0:
58,107,301941,1,8,2:0:0:0:
94,97,302001,1,2,0:2:0:0:
130,87,302061,1,8,2:0:0:0:
166,78,302121,1,2,0:2:0:0:
202,69,302181,1,8,2:0:0:0:
238,60,302241,1,2,0:2:0:0:
274,51,302301,1,8,2:0:0:0:
310,42,302361,6,0,L|280:19,3,29.9999990844727,8|8|8|8,0:0|0:0|0:0|0:0,0:0:0:0:
365,110,302601,1,8,0:0:0:0:
378,115,302661,1,8,0:0:0:0:
391,120,302721,1,8,0:0:0:0:
404,125,302781,1,8,0:0:0:0:
417,130,302841,5,8,2:0:0:0:
256,221,302961,1,8,2:0:0:0:
391,278,303081,5,8,0:0:0:0:
396,274,303141,1,8,0:0:0:0:
401,270,303201,2,0,L|391:222,1,29.9999990844727,8|8,0:0|0:0,0:0:0:0:
318,176,303321,5,8,0:0:0:0:
313,172,303381,1,8,0:0:0:0:
308,168,303441,2,0,L|318:120,1,29.9999990844727,8|8,0:0|0:0,0:0:0:0:
451,26,303561,5,14,0:0:0:0:
508,89,303621,1,0,0:0:0:0:
512,174,303681,1,8,0:0:0:0:
462,245,303741,1,0,0:0:0:0:
379,268,303801,1,14,0:0:0:0:
297,241,303861,1,0,0:0:0:0:
257,164,303921,1,8,0:0:0:0:
179,126,303981,1,0,0:0:0:0:
95,144,304041,1,14,0:0:0:0:
40,210,304101,1,0,0:0:0:0:
39,298,304161,1,8,0:0:0:0:
99,359,304221,1,0,0:0:0:0:
187,361,304281,5,14,0:0:0:0:
251,323,304341,1,0,0:0:0:0:
261,247,304401,1,8,0:0:0:0:
213,188,304461,1,0,0:0:0:0:
138,173,304521,1,14,0:0:0:0:
89,115,304581,1,0,0:0:0:0:
97,39,304641,1,8,0:0:0:0:
163,3,304701,1,0,0:0:0:0:
236,16,304761,1,14,0:0:0:0:
272,82,304821,1,0,0:0:0:0:
248,153,304881,1,8,0:0:0:0:
180,186,304941,1,0,0:0:0:0:
113,162,305001,6,0,L|100:117,3,29.9999990844727,14|0|8|0,0:0|0:0|0:0|0:0,0:0:0:0:
242,67,305241,2,0,L|257:10,3,50,14|0|8|0,0:0|0:0|0:0|0:0,0:0:0:0:
297,220,305481,5,14,0:0:0:0:
363,270,305541,1,0,0:0:0:0:
447,272,305601,1,8,0:0:0:0:
501,209,305661,1,0,0:0:0:0:
493,126,305721,1,14,0:0:0:0:
431,67,305781,1,0,0:0:0:0:
346,61,305841,1,8,0:0:0:0:
273,104,305901,1,0,0:0:0:0:
228,177,305961,1,14,0:0:0:0:
228,263,306021,1,0,0:0:0:0:
265,339,306081,1,8,0:0:0:0:
342,373,306141,1,0,0:0:0:0:
425,372,306201,1,14,0:0:0:0:
493,321,306261,1,0,0:0:0:0:
506,237,306321,1,8,0:0:0:0:
465,166,306381,1,0,0:0:0:0:
390,131,306441,6,0,L|357:360,1,225.000008583069,6|0,0:0|0:0,0:0:0:0:
287,372,306681,6,0,L|242:360,3,29.9999990844727,8|8|8|8,0:0|0:0|0:0|0:0,0:0:0:0:
148,295,306961,5,8,0:0:0:0:
478,162,307201,5,8,0:0:0:0:
140,56,307401,6,0,B|150:25|194:4|194:4|199:1|199:1|94:-30|31:61|31:61|40:67|40:67|18:150|86:176|86:176|89:191|89:191|146:126|209:175|209:175|219:171|219:171|305:245|229:262|295:377|295:377|234:314|159:343|165:257|165:257|164:252|164:252|210:226|210:181,1,1080.00002636719,6|0,0:0|0:0,0:0:0:0:
512,121,309321,6,0,B|481:54|414:38|414:38|409:34|409:34|349:18|339:56|266:51|266:51|296:112|337:117|372:108|372:108|374:104|374:104|437:127|448:189|448:189|441:195|441:195|421:261|379:232|354:268|354:268|360:264|360:264|323:205|368:133,1,792.000019335938,14|0,0:0|0:0,0:0:0:0:
497,307,310761,6,0,B|520:318|510:379|461:389|408:350|430:318,1,150,0|0,2:0|0:0,0:0:0:0:
445,251,311001,2,1,B|470:225|470:225|492:217|459:150|414:209|435:219|435:219|450:264,1,150,0|0,2:0|0:0,0:0:0:0:
308,379,311241,6,0,B|363:304|313:213|313:213|307:214|307:214|221:149|145:202|145:202|140:199|140:199|74:213|-15:317|28:347|28:347|31:342|31:342|119:354|174:287|174:287|173:274|173:274|215:254|251:269|251:269|273:296|253:356|196:378,1,974.999955368044,6|0,0:0|0:0,0:0:0:0:
70,126,313161,5,8,0:0:0:0:
322,326,313401,1,0,0:0:0:0:
232,43,313641,1,6,0:0:0:0:
42,263,313881,1,0,0:0:0:0:
32,275,314361,5,0,0:0:0:0:
399,130,314601,1,2,0:0:0:0:
505,343,315081,6,0,P|377:304|177:252,1,324.999985122681,6|0,0:0|0:0,0:0:0:0:
81,281,315801,6,0,B|-3:298|-44:263|-42:107|91:67|138:117|150:184,1,375.000014305115
335,184,316521,6,0,B|402:144|392:12|279:-33|178:12|209:73|209:73|243:99|247:139,1,389.999982147218
276,384,317001,6,0,L|335:-4,1,375.000014305115,14|0,0:0|0:0,0:0:0:0:
295,88,317721,2,0,L|325:289,1,200
284,213,318441,2,0,L|292:184,1,30
406,29,318921,6,0,B|452:20|497:50|529:132|479:186|479:186|471:183|471:183|452:114|360:104|378:84|373:34|373:34|293:75|282:118|282:118|274:119|274:119|254:166|293:241|293:241|338:212|464:184|490:323|446:330|446:330|362:308|355:366|295:345|295:345|327:289|368:307|359:243,1,1210.00003692627,6|0,0:0|0:0,0:0:0:0:
507,291,320361,2,0,L|156:222,1,330.000010070801
421,79,320841,5,14,0:0:0:0:
191,369,321081,1,0,0:0:0:0:
227,35,321321,1,0,0:0:0:0:
439,325,321561,1,0,0:0:0:0:
120,187,321801,1,0,0:0:0:0:
370,18,322041,5,8,0:0:0:0:
298,382,322281,2,0,L|287:340,1,40,8|0,0:0|0:0,0:0:0:0:
