osu file format v14

[General]
AudioFilename: audio.mp3
AudioLeadIn: 0
PreviewTime: 147709
Countdown: 0
SampleSet: Drum
StackLeniency: 0.7
Mode: 3
LetterboxInBreaks: 0
SpecialStyle: 0
WidescreenStoryboard: 0

[Editor]
DistanceSpacing: 1
BeatDivisor: 4
GridSize: 32
TimelineZoom: 2.5

[Metadata]
Title:Of the Abyss
TitleUnicode:Of the Abyss
Artist:Lorna Shore
ArtistUnicode:Lorna Shore
Creator:Tre
Version:The Chasmic Abyss
Source:
Tags:Technical Symphonic Melodic Deathcore Death Metal stamina speed dump english ...And I Return to Nothingness EP extended play Adam DeMicco Austin Archey Andrew O'Connor Will Ramos Marathon Domajnyk Pear
BeatmapID:4352050
BeatmapSetID:2078439

[Difficulty]
HPDrainRate:8.6
CircleSize:4
OverallDifficulty:8.6
ApproachRate:5
SliderMultiplier:1.4
SliderTickRate:1

[Events]
//Background and Video events
0,0,"ca9241baa54c87c730186b487aad53c3.jpg",0,0
//Break Periods
//Storyboard Layer 0 (Background)
//Storyboard Layer 1 (Fail)
//Storyboard Layer 2 (Pass)
//Storyboard Layer 3 (Foreground)
//Storyboard Layer 4 (Overlay)
//Storyboard Sound Samples

[TimingPoints]
16633,230.769230769231,4,3,1,60,1,0
90594,-100,4,3,1,60,0,1
105248,-100,4,3,1,60,0,0
149671,-100,4,3,1,60,0,1
179094,461.538461538461,4,3,1,60,1,0
179094,-50,4,3,1,60,0,0
208632,857.142857142861,4,3,1,60,1,0
208632,-26.9541778975741,4,3,1,60,0,0
210917,571.428571428573,4,3,1,60,1,0
210917,-40.3225806451613,4,3,1,60,0,0
213774,285.714285714286,4,3,1,60,1,0
213774,-80.6451612903226,4,3,1,60,0,0
215488,571.428571428573,4,3,1,60,1,0
215488,-40.3225806451613,4,3,1,60,0,0
216630,285.714285714286,4,3,1,60,1,0
216630,-80.6451612903226,4,3,1,60,0,0
217774,857.142857142861,4,3,1,60,1,0
217774,-26.9541778975741,4,3,1,60,0,0
220059,571.428571428573,4,3,1,60,1,0
220059,-40.3225806451613,4,3,1,60,0,0
236059,428.571428571429,4,3,1,60,1,0
236059,-53.763440860215,4,3,1,60,0,0
238344,571.428571428573,4,3,1,60,1,0
238344,-40.3225806451613,4,3,1,60,0,0
245210,461.538461538463,4,3,1,60,1,0
245210,-50,4,3,1,60,0,0
248440,230.769230769231,4,3,1,60,1,0
248440,-100,4,3,1,60,0,0
248903,230.769230769231,4,3,1,60,1,0
248903,-100,4,3,1,60,0,1
252595,-100,4,3,1,60,0,0
256287,-100,4,3,1,60,0,1
267364,-100,4,3,1,60,0,0
271056,-100,4,3,1,60,0,1
289518,-100,4,3,1,60,0,0

[HitObjects]
448,192,16633,5,0,0:0:0:0:
64,192,16633,1,0,0:0:0:0:
320,192,16633,1,0,0:0:0:0:
192,192,16690,1,0,0:0:0:0:
320,192,16748,1,0,0:0:0:0:
64,192,16806,1,0,0:0:0:0:
448,192,16863,1,0,0:0:0:0:
192,192,16921,1,0,0:0:0:0:
320,192,16979,1,0,0:0:0:0:
64,192,17036,1,0,0:0:0:0:
448,192,17094,1,0,0:0:0:0:
320,192,17152,1,0,0:0:0:0:
448,192,17556,1,0,0:0:0:0:
64,192,17556,1,0,0:0:0:0:
192,192,17556,1,0,0:0:0:0:
320,192,17613,1,0,0:0:0:0:
192,192,17671,1,0,0:0:0:0:
64,192,17729,1,0,0:0:0:0:
448,192,17786,1,0,0:0:0:0:
192,192,17844,1,0,0:0:0:0:
320,192,17902,1,0,0:0:0:0:
448,192,17959,1,0,0:0:0:0:
64,192,18017,1,0,0:0:0:0:
320,192,18075,1,0,0:0:0:0:
64,192,18479,1,0,0:0:0:0:
448,192,18479,1,0,0:0:0:0:
320,192,18536,1,0,0:0:0:0:
192,192,18594,1,0,0:0:0:0:
448,192,18652,1,0,0:0:0:0:
64,192,18709,1,0,0:0:0:0:
192,192,18767,1,0,0:0:0:0:
320,192,18825,1,0,0:0:0:0:
448,192,18883,1,0,0:0:0:0:
64,192,18940,1,0,0:0:0:0:
320,192,18998,1,0,0:0:0:0:
448,192,19402,1,0,0:0:0:0:
64,192,19402,1,0,0:0:0:0:
192,192,19402,1,0,0:0:0:0:
320,192,19459,1,0,0:0:0:0:
192,192,19517,1,0,0:0:0:0:
64,192,19575,1,0,0:0:0:0:
448,192,19633,1,0,0:0:0:0:
192,192,19690,1,0,0:0:0:0:
320,192,19748,1,0,0:0:0:0:
448,192,19806,1,0,0:0:0:0:
64,192,19863,1,0,0:0:0:0:
192,192,20094,1,0,0:0:0:0:
320,192,20094,1,0,0:0:0:0:
448,192,20325,1,0,0:0:0:0:
64,192,20325,1,0,0:0:0:0:
320,192,20383,1,0,0:0:0:0:
192,192,20440,1,0,0:0:0:0:
448,192,20498,1,0,0:0:0:0:
64,192,20556,1,0,0:0:0:0:
320,192,20613,1,0,0:0:0:0:
448,192,20671,1,0,0:0:0:0:
192,192,20729,1,0,0:0:0:0:
64,192,20786,1,0,0:0:0:0:
448,192,20844,1,0,0:0:0:0:
448,192,21248,1,0,0:0:0:0:
320,192,21248,1,0,0:0:0:0:
192,192,21248,1,0,0:0:0:0:
64,192,21306,1,0,0:0:0:0:
192,192,21363,1,0,0:0:0:0:
448,192,21421,1,0,0:0:0:0:
320,192,21479,1,0,0:0:0:0:
192,192,21536,1,0,0:0:0:0:
64,192,21594,1,0,0:0:0:0:
448,192,21652,1,0,0:0:0:0:
320,192,21709,1,0,0:0:0:0:
192,192,21767,1,0,0:0:0:0:
64,192,22171,1,0,0:0:0:0:
448,192,22171,1,0,0:0:0:0:
192,192,22229,1,0,0:0:0:0:
320,192,22286,1,0,0:0:0:0:
448,192,22344,1,0,0:0:0:0:
192,192,22402,1,0,0:0:0:0:
64,192,22459,1,0,0:0:0:0:
448,192,22517,1,0,0:0:0:0:
320,192,22575,1,0,0:0:0:0:
192,192,22633,1,0,0:0:0:0:
64,192,22690,1,0,0:0:0:0:
64,192,23094,1,0,0:0:0:0:
192,192,23094,1,0,0:0:0:0:
448,192,23094,1,0,0:0:0:0:
320,192,23152,1,0,0:0:0:0:
448,192,23209,1,0,0:0:0:0:
64,192,23267,1,0,0:0:0:0:
192,192,23325,1,0,0:0:0:0:
320,192,23383,1,0,0:0:0:0:
448,192,23440,1,0,0:0:0:0:
64,192,23498,1,0,0:0:0:0:
192,192,23556,1,0,0:0:0:0:
320,192,23556,1,0,0:0:0:0:
448,192,24017,1,0,0:0:0:0:
320,192,24017,1,0,0:0:0:0:
192,192,24017,1,0,0:0:0:0:
64,192,24075,1,0,0:0:0:0:
192,192,24133,1,0,0:0:0:0:
320,192,24190,1,0,0:0:0:0:
448,192,24248,1,0,0:0:0:0:
64,192,24306,1,0,0:0:0:0:
320,192,24363,1,0,0:0:0:0:
192,192,24421,1,0,0:0:0:0:
448,192,24479,1,0,0:0:0:0:
64,192,24536,1,0,0:0:0:0:
448,192,24940,1,0,0:0:0:0:
64,192,24940,1,0,0:0:0:0:
320,192,24940,1,0,0:0:0:0:
192,192,24998,1,0,0:0:0:0:
320,192,25056,1,0,0:0:0:0:
448,192,25113,1,0,0:0:0:0:
64,192,25171,1,0,0:0:0:0:
192,192,25229,1,0,0:0:0:0:
320,192,25286,1,0,0:0:0:0:
64,192,25344,1,0,0:0:0:0:
448,192,25402,1,0,0:0:0:0:
320,192,25459,1,0,0:0:0:0:
64,192,25863,1,0,0:0:0:0:
192,192,25863,1,0,0:0:0:0:
320,192,25921,1,0,0:0:0:0:
448,192,25979,1,0,0:0:0:0:
64,192,26036,1,0,0:0:0:0:
320,192,26094,1,0,0:0:0:0:
192,192,26152,1,0,0:0:0:0:
448,192,26209,1,0,0:0:0:0:
64,192,26267,1,0,0:0:0:0:
192,192,26325,1,0,0:0:0:0:
320,192,26383,1,0,0:0:0:0:
64,192,26786,1,0,0:0:0:0:
448,192,26786,1,0,0:0:0:0:
320,192,26786,1,0,0:0:0:0:
192,192,26844,1,0,0:0:0:0:
320,192,26902,1,0,0:0:0:0:
64,192,26959,1,0,0:0:0:0:
448,192,27017,1,0,0:0:0:0:
320,192,27075,1,0,0:0:0:0:
192,192,27133,1,0,0:0:0:0:
64,192,27190,1,0,0:0:0:0:
448,192,27248,1,0,0:0:0:0:
192,192,27479,1,0,0:0:0:0:
64,192,27479,1,0,0:0:0:0:
448,192,27709,1,0,0:0:0:0:
64,192,27709,1,0,0:0:0:0:
192,192,27767,1,0,0:0:0:0:
320,192,27825,1,0,0:0:0:0:
448,192,27883,1,0,0:0:0:0:
64,192,27940,1,0,0:0:0:0:
320,192,27998,1,0,0:0:0:0:
192,192,28056,1,0,0:0:0:0:
448,192,28113,1,0,0:0:0:0:
64,192,28171,1,0,0:0:0:0:
192,192,28229,1,0,0:0:0:0:
448,192,28633,1,0,0:0:0:0:
64,192,28633,1,0,0:0:0:0:
320,192,28633,1,0,0:0:0:0:
192,192,28690,1,0,0:0:0:0:
320,192,28748,1,0,0:0:0:0:
64,192,28806,1,0,0:0:0:0:
448,192,28863,1,0,0:0:0:0:
192,192,28921,1,0,0:0:0:0:
320,192,28979,1,0,0:0:0:0:
448,192,29036,1,0,0:0:0:0:
192,192,29094,1,0,0:0:0:0:
320,192,29152,1,0,0:0:0:0:
64,192,29556,1,0,0:0:0:0:
192,192,29556,1,0,0:0:0:0:
320,192,29556,1,0,0:0:0:0:
448,192,29613,1,0,0:0:0:0:
320,192,29671,1,0,0:0:0:0:
192,192,29671,1,0,0:0:0:0:
64,192,29729,1,0,0:0:0:0:
320,192,29786,1,0,0:0:0:0:
448,192,29786,1,0,0:0:0:0:
192,192,29844,1,0,0:0:0:0:
64,192,29902,1,0,0:0:0:0:
320,192,29902,1,0,0:0:0:0:
448,192,29959,1,0,0:0:0:0:
192,192,30017,1,0,0:0:0:0:
64,192,30017,1,0,0:0:0:0:
320,192,30075,1,0,0:0:0:0:
192,192,30133,1,0,0:0:0:0:
448,192,30133,1,0,0:0:0:0:
64,192,30190,1,0,0:0:0:0:
192,192,30248,1,0,0:0:0:0:
448,192,30248,1,0,0:0:0:0:
320,192,30306,1,0,0:0:0:0:
64,192,30363,1,0,0:0:0:0:
192,192,30421,1,0,0:0:0:0:
320,192,30479,1,0,0:0:0:0:
448,192,30479,1,0,0:0:0:0:
192,192,30556,1,0,0:0:0:0:
448,192,30633,1,0,0:0:0:0:
320,192,30633,1,0,0:0:0:0:
192,192,30709,1,0,0:0:0:0:
64,192,30709,1,0,0:0:0:0:
448,192,30786,1,0,0:0:0:0:
192,192,30863,1,0,0:0:0:0:
320,192,30940,1,0,0:0:0:0:
448,192,30940,1,0,0:0:0:0:
192,192,31017,1,0,0:0:0:0:
64,192,31017,1,0,0:0:0:0:
320,192,31094,1,0,0:0:0:0:
448,192,31171,1,0,0:0:0:0:
192,192,31248,1,0,0:0:0:0:
64,192,31325,1,0,0:0:0:0:
320,192,31402,1,0,0:0:0:0:
448,192,31402,1,0,0:0:0:0:
64,192,31479,1,0,0:0:0:0:
192,192,31479,1,0,0:0:0:0:
320,192,31556,1,0,0:0:0:0:
64,192,31633,1,0,0:0:0:0:
448,192,31633,1,0,0:0:0:0:
320,192,31709,1,0,0:0:0:0:
192,192,31777,1,0,0:0:0:0:
64,192,31777,1,0,0:0:0:0:
448,192,31863,1,0,0:0:0:0:
320,192,31940,1,0,0:0:0:0:
192,192,31940,1,0,0:0:0:0:
64,192,32017,1,0,0:0:0:0:
448,192,32094,1,0,0:0:0:0:
192,192,32094,1,0,0:0:0:0:
320,192,32171,1,0,0:0:0:0:
448,192,32248,1,0,0:0:0:0:
64,192,32248,1,0,0:0:0:0:
192,192,32325,1,0,0:0:0:0:
320,192,32402,1,0,0:0:0:0:
64,192,32402,1,0,0:0:0:0:
448,192,32479,1,0,0:0:0:0:
192,192,32556,1,0,0:0:0:0:
64,192,32556,1,0,0:0:0:0:
448,192,32633,1,0,0:0:0:0:
192,192,32709,1,0,0:0:0:0:
320,192,32709,1,0,0:0:0:0:
64,192,32786,1,0,0:0:0:0:
448,192,32863,1,0,0:0:0:0:
192,192,32863,1,0,0:0:0:0:
320,192,32940,1,0,0:0:0:0:
448,192,33017,1,0,0:0:0:0:
64,192,33017,1,0,0:0:0:0:
192,192,33094,1,0,0:0:0:0:
448,192,33171,1,0,0:0:0:0:
320,192,33171,1,0,0:0:0:0:
64,192,33248,1,0,0:0:0:0:
192,192,33325,1,0,0:0:0:0:
320,192,33325,1,0,0:0:0:0:
448,192,33402,1,0,0:0:0:0:
64,192,33479,1,0,0:0:0:0:
320,192,33479,1,0,0:0:0:0:
192,192,33556,1,0,0:0:0:0:
64,192,33633,1,0,0:0:0:0:
448,192,33633,1,0,0:0:0:0:
320,192,33709,1,0,0:0:0:0:
192,192,33786,1,0,0:0:0:0:
64,192,33786,1,0,0:0:0:0:
448,192,33863,1,0,0:0:0:0:
320,192,33940,1,0,0:0:0:0:
192,192,33940,1,0,0:0:0:0:
64,192,34017,1,0,0:0:0:0:
448,192,34094,1,0,0:0:0:0:
192,192,34094,1,0,0:0:0:0:
320,192,34171,1,0,0:0:0:0:
64,192,34248,1,0,0:0:0:0:
448,192,34248,1,0,0:0:0:0:
192,192,34325,1,0,0:0:0:0:
320,192,34402,1,0,0:0:0:0:
64,192,34402,1,0,0:0:0:0:
448,192,34479,1,0,0:0:0:0:
192,192,34556,1,0,0:0:0:0:
320,192,34556,1,0,0:0:0:0:
64,192,34633,1,0,0:0:0:0:
448,192,34633,1,0,0:0:0:0:
192,192,34709,1,0,0:0:0:0:
320,192,34709,1,0,0:0:0:0:
64,192,34863,1,0,0:0:0:0:
192,192,34940,1,0,0:0:0:0:
448,192,34940,1,0,0:0:0:0:
320,192,35008,1,0,0:0:0:0:
64,192,35008,1,0,0:0:0:0:
192,192,35094,1,0,0:0:0:0:
320,192,35171,1,0,0:0:0:0:
448,192,35171,1,0,0:0:0:0:
192,192,35248,1,0,0:0:0:0:
448,192,35325,1,0,0:0:0:0:
320,192,35325,1,0,0:0:0:0:
192,192,35402,1,0,0:0:0:0:
64,192,35479,1,0,0:0:0:0:
448,192,35479,1,0,0:0:0:0:
320,192,35556,1,0,0:0:0:0:
192,192,35633,1,0,0:0:0:0:
64,192,35633,1,0,0:0:0:0:
448,192,35709,1,0,0:0:0:0:
64,192,35786,1,0,0:0:0:0:
192,192,35786,1,0,0:0:0:0:
320,192,35863,1,0,0:0:0:0:
64,192,35940,1,0,0:0:0:0:
448,192,35940,1,0,0:0:0:0:
192,192,36017,1,0,0:0:0:0:
320,192,36094,1,0,0:0:0:0:
448,192,36094,1,0,0:0:0:0:
64,192,36171,1,0,0:0:0:0:
192,192,36248,1,0,0:0:0:0:
320,192,36248,1,0,0:0:0:0:
448,192,36325,1,0,0:0:0:0:
64,192,36402,1,0,0:0:0:0:
192,192,36402,1,0,0:0:0:0:
448,192,36479,1,0,0:0:0:0:
320,192,36556,1,0,0:0:0:0:
192,192,36556,1,0,0:0:0:0:
64,192,36633,1,0,0:0:0:0:
448,192,36709,1,0,0:0:0:0:
320,192,36709,1,0,0:0:0:0:
192,192,36786,1,0,0:0:0:0:
448,192,36863,1,0,0:0:0:0:
64,192,36863,1,0,0:0:0:0:
320,192,36940,1,0,0:0:0:0:
192,192,37017,1,0,0:0:0:0:
64,192,37017,1,0,0:0:0:0:
448,192,37094,1,0,0:0:0:0:
320,192,37171,1,0,0:0:0:0:
64,192,37171,1,0,0:0:0:0:
192,192,37248,1,0,0:0:0:0:
448,192,37325,1,0,0:0:0:0:
320,192,37325,1,0,0:0:0:0:
64,192,37402,1,0,0:0:0:0:
192,192,37479,1,0,0:0:0:0:
320,192,37479,1,0,0:0:0:0:
448,192,37556,1,0,0:0:0:0:
64,192,37633,1,0,0:0:0:0:
320,192,37633,1,0,0:0:0:0:
192,192,37709,1,0,0:0:0:0:
64,192,37786,1,0,0:0:0:0:
448,192,37786,1,0,0:0:0:0:
320,192,37863,1,0,0:0:0:0:
192,192,37940,1,0,0:0:0:0:
64,192,37940,1,0,0:0:0:0:
448,192,38017,1,0,0:0:0:0:
320,192,38094,1,0,0:0:0:0:
192,192,38094,1,0,0:0:0:0:
64,192,38171,1,0,0:0:0:0:
448,192,38248,1,0,0:0:0:0:
320,192,38248,1,0,0:0:0:0:
64,192,38325,1,0,0:0:0:0:
192,192,38325,1,0,0:0:0:0:
448,192,38402,1,0,0:0:0:0:
320,192,38479,1,0,0:0:0:0:
448,192,38556,1,0,0:0:0:0:
64,192,38633,1,0,0:0:0:0:
192,192,38709,1,0,0:0:0:0:
448,192,38786,1,0,0:0:0:0:
320,192,38786,1,0,0:0:0:0:
192,192,38863,1,0,0:0:0:0:
64,192,38863,1,0,0:0:0:0:
320,192,38940,1,0,0:0:0:0:
448,192,39017,1,0,0:0:0:0:
64,192,39017,1,0,0:0:0:0:
192,192,39094,1,0,0:0:0:0:
448,192,39171,1,0,0:0:0:0:
320,192,39171,1,0,0:0:0:0:
64,192,39248,1,0,0:0:0:0:
448,192,39325,1,0,0:0:0:0:
192,192,39325,1,0,0:0:0:0:
320,192,39402,1,0,0:0:0:0:
448,192,39479,1,0,0:0:0:0:
64,192,39479,1,0,0:0:0:0:
192,192,39556,1,0,0:0:0:0:
64,192,39633,1,0,0:0:0:0:
320,192,39633,1,0,0:0:0:0:
448,192,39709,1,0,0:0:0:0:
320,192,39786,1,0,0:0:0:0:
192,192,39786,1,0,0:0:0:0:
64,192,39863,1,0,0:0:0:0:
448,192,39940,1,0,0:0:0:0:
192,192,39940,1,0,0:0:0:0:
320,192,40017,1,0,0:0:0:0:
448,192,40094,1,0,0:0:0:0:
64,192,40094,1,0,0:0:0:0:
192,192,40171,1,0,0:0:0:0:
320,192,40248,1,0,0:0:0:0:
448,192,40248,1,0,0:0:0:0:
64,192,40325,1,0,0:0:0:0:
192,192,40402,1,0,0:0:0:0:
320,192,40402,1,0,0:0:0:0:
448,192,40479,1,0,0:0:0:0:
64,192,40556,1,0,0:0:0:0:
320,192,40556,1,0,0:0:0:0:
192,192,40633,1,0,0:0:0:0:
64,192,40709,1,0,0:0:0:0:
448,192,40709,1,0,0:0:0:0:
320,192,40786,1,0,0:0:0:0:
192,192,40863,1,0,0:0:0:0:
64,192,40863,1,0,0:0:0:0:
448,192,40940,1,0,0:0:0:0:
192,192,41017,1,0,0:0:0:0:
320,192,41017,1,0,0:0:0:0:
64,192,41094,1,0,0:0:0:0:
448,192,41171,1,0,0:0:0:0:
192,192,41171,1,0,0:0:0:0:
320,192,41248,1,0,0:0:0:0:
448,192,41325,1,0,0:0:0:0:
64,192,41325,1,0,0:0:0:0:
192,192,41402,1,0,0:0:0:0:
64,192,41479,1,0,0:0:0:0:
320,192,41479,1,0,0:0:0:0:
448,192,41556,1,0,0:0:0:0:
192,192,41633,1,0,0:0:0:0:
320,192,41633,1,0,0:0:0:0:
64,192,41709,1,0,0:0:0:0:
448,192,41786,1,0,0:0:0:0:
320,192,41786,1,0,0:0:0:0:
192,192,41863,1,0,0:0:0:0:
448,192,41940,1,0,0:0:0:0:
64,192,41940,1,0,0:0:0:0:
320,192,42017,1,0,0:0:0:0:
192,192,42017,1,0,0:0:0:0:
448,192,42094,1,0,0:0:0:0:
64,192,42094,1,0,0:0:0:0:
64,192,42248,1,0,0:0:0:0:
320,192,42325,1,0,0:0:0:0:
448,192,42325,1,0,0:0:0:0:
192,192,42402,1,0,0:0:0:0:
448,192,42479,1,0,0:0:0:0:
320,192,42479,1,0,0:0:0:0:
192,192,42556,1,0,0:0:0:0:
64,192,42556,1,0,0:0:0:0:
320,192,42633,1,0,0:0:0:0:
448,192,42709,1,0,0:0:0:0:
64,192,42709,1,0,0:0:0:0:
192,192,42786,1,0,0:0:0:0:
448,192,42863,1,0,0:0:0:0:
320,192,42863,1,0,0:0:0:0:
64,192,42940,1,0,0:0:0:0:
192,192,43017,1,0,0:0:0:0:
448,192,43017,1,0,0:0:0:0:
320,192,43094,1,0,0:0:0:0:
64,192,43171,1,0,0:0:0:0:
448,192,43171,1,0,0:0:0:0:
320,192,43248,1,0,0:0:0:0:
64,192,43325,1,0,0:0:0:0:
192,192,43325,1,0,0:0:0:0:
448,192,43402,1,0,0:0:0:0:
320,192,43479,1,0,0:0:0:0:
64,192,43479,1,0,0:0:0:0:
192,192,43556,1,0,0:0:0:0:
320,192,43633,1,0,0:0:0:0:
448,192,43633,1,0,0:0:0:0:
64,192,43709,1,0,0:0:0:0:
320,192,43786,1,0,0:0:0:0:
192,192,43786,1,0,0:0:0:0:
448,192,43863,1,0,0:0:0:0:
192,192,43940,1,0,0:0:0:0:
64,192,43940,1,0,0:0:0:0:
448,192,44017,1,0,0:0:0:0:
320,192,44094,1,0,0:0:0:0:
192,192,44094,1,0,0:0:0:0:
64,192,44171,1,0,0:0:0:0:
448,192,44248,1,0,0:0:0:0:
320,192,44248,1,0,0:0:0:0:
192,192,44325,1,0,0:0:0:0:
64,192,44402,1,0,0:0:0:0:
448,192,44402,1,0,0:0:0:0:
320,192,44479,1,0,0:0:0:0:
448,192,44556,1,0,0:0:0:0:
64,192,44556,1,0,0:0:0:0:
192,192,44633,1,0,0:0:0:0:
64,192,44709,1,0,0:0:0:0:
320,192,44709,1,0,0:0:0:0:
448,192,44786,1,0,0:0:0:0:
192,192,44863,1,0,0:0:0:0:
320,192,44863,1,0,0:0:0:0:
64,192,44940,1,0,0:0:0:0:
448,192,45017,1,0,0:0:0:0:
192,192,45017,1,0,0:0:0:0:
320,192,45094,1,0,0:0:0:0:
64,192,45171,1,0,0:0:0:0:
448,192,45171,1,0,0:0:0:0:
320,192,45248,1,0,0:0:0:0:
192,192,45325,1,0,0:0:0:0:
448,192,45325,1,0,0:0:0:0:
64,192,45402,1,0,0:0:0:0:
320,192,45479,1,0,0:0:0:0:
192,192,45479,1,0,0:0:0:0:
64,192,45556,1,0,0:0:0:0:
448,192,45633,1,0,0:0:0:0:
320,192,45633,1,0,0:0:0:0:
192,192,45709,1,0,0:0:0:0:
64,192,45709,1,0,0:0:0:0:
320,192,45786,1,0,0:0:0:0:
64,192,45863,1,0,0:0:0:0:
320,192,45940,1,0,0:0:0:0:
448,192,46017,1,0,0:0:0:0:
320,192,46094,1,0,0:0:0:0:
64,192,46171,1,0,0:0:0:0:
192,192,46171,1,0,0:0:0:0:
448,192,46171,1,0,0:0:0:0:
320,192,46229,1,0,0:0:0:0:
192,192,46286,1,0,0:0:0:0:
64,192,46344,1,0,0:0:0:0:
448,192,46402,1,0,0:0:0:0:
192,192,46459,1,0,0:0:0:0:
320,192,46517,1,0,0:0:0:0:
448,192,46575,1,0,0:0:0:0:
64,192,46633,1,0,0:0:0:0:
192,192,46690,1,0,0:0:0:0:
320,192,46748,1,0,0:0:0:0:
448,192,46806,1,0,0:0:0:0:
64,192,46863,1,0,0:0:0:0:
320,192,46921,1,0,0:0:0:0:
192,192,46979,1,0,0:0:0:0:
64,192,47036,1,0,0:0:0:0:
448,192,47094,1,0,0:0:0:0:
320,192,47094,1,0,0:0:0:0:
192,192,47094,1,0,0:0:0:0:
64,192,47152,1,0,0:0:0:0:
448,192,47209,1,0,0:0:0:0:
320,192,47267,1,0,0:0:0:0:
192,192,47325,1,0,0:0:0:0:
64,192,47383,1,0,0:0:0:0:
448,192,47440,1,0,0:0:0:0:
320,192,47498,1,0,0:0:0:0:
64,192,47556,1,0,0:0:0:0:
192,192,47556,1,0,0:0:0:0:
64,192,48017,1,0,0:0:0:0:
448,192,48017,1,0,0:0:0:0:
192,192,48075,1,0,0:0:0:0:
320,192,48133,1,0,0:0:0:0:
448,192,48190,1,0,0:0:0:0:
192,192,48248,1,0,0:0:0:0:
64,192,48306,1,0,0:0:0:0:
448,192,48363,1,0,0:0:0:0:
192,192,48421,1,0,0:0:0:0:
320,192,48479,1,0,0:0:0:0:
448,192,48536,1,0,0:0:0:0:
64,192,48594,1,0,0:0:0:0:
320,192,48652,1,0,0:0:0:0:
192,192,48709,1,0,0:0:0:0:
64,192,48767,1,0,0:0:0:0:
448,192,48825,1,0,0:0:0:0:
320,192,48883,1,0,0:0:0:0:
192,192,48940,1,0,0:0:0:0:
64,192,48940,1,0,0:0:0:0:
448,192,48940,1,0,0:0:0:0:
320,192,48998,1,0,0:0:0:0:
192,192,49056,1,0,0:0:0:0:
448,192,49113,1,0,0:0:0:0:
64,192,49171,1,0,0:0:0:0:
192,192,49229,1,0,0:0:0:0:
320,192,49286,1,0,0:0:0:0:
448,192,49344,1,0,0:0:0:0:
64,192,49402,1,0,0:0:0:0:
320,192,49459,1,0,0:0:0:0:
192,192,49517,1,0,0:0:0:0:
64,192,49575,1,0,0:0:0:0:
448,192,49633,1,0,0:0:0:0:
192,192,49690,1,0,0:0:0:0:
320,192,49748,1,0,0:0:0:0:
448,192,49806,1,0,0:0:0:0:
64,192,49863,1,0,0:0:0:0:
192,192,49863,1,0,0:0:0:0:
320,192,49863,1,0,0:0:0:0:
448,192,49921,1,0,0:0:0:0:
192,192,49979,1,0,0:0:0:0:
64,192,50036,1,0,0:0:0:0:
448,192,50094,1,0,0:0:0:0:
192,192,50152,1,0,0:0:0:0:
320,192,50209,1,0,0:0:0:0:
448,192,50267,1,0,0:0:0:0:
64,192,50325,1,0,0:0:0:0:
320,192,50383,1,0,0:0:0:0:
192,192,50440,1,0,0:0:0:0:
64,192,50498,1,0,0:0:0:0:
448,192,50556,1,0,0:0:0:0:
192,192,50613,1,0,0:0:0:0:
320,192,50671,1,0,0:0:0:0:
448,192,50729,1,0,0:0:0:0:
64,192,50786,1,0,0:0:0:0:
192,192,50786,1,0,0:0:0:0:
320,192,50786,1,0,0:0:0:0:
448,192,50844,1,0,0:0:0:0:
192,192,50902,1,0,0:0:0:0:
64,192,50959,1,0,0:0:0:0:
448,192,51017,1,0,0:0:0:0:
320,192,51075,1,0,0:0:0:0:
64,192,51133,1,0,0:0:0:0:
192,192,51190,1,0,0:0:0:0:
320,192,51248,1,0,0:0:0:0:
448,192,51248,1,0,0:0:0:0:
448,192,51709,1,0,0:0:0:0:
64,192,51709,1,0,0:0:0:0:
320,192,51709,1,0,0:0:0:0:
192,192,51767,1,0,0:0:0:0:
320,192,51825,1,0,0:0:0:0:
448,192,51825,1,0,0:0:0:0:
64,192,51883,1,0,0:0:0:0:
192,192,51940,1,0,0:0:0:0:
320,192,51940,1,0,0:0:0:0:
448,192,51998,1,0,0:0:0:0:
64,192,52056,1,0,0:0:0:0:
192,192,52056,1,0,0:0:0:0:
320,192,52113,1,0,0:0:0:0:
64,192,52171,1,0,0:0:0:0:
448,192,52171,1,0,0:0:0:0:
192,192,52229,1,0,0:0:0:0:
448,192,52286,1,0,0:0:0:0:
320,192,52286,1,0,0:0:0:0:
64,192,52344,1,0,0:0:0:0:
320,192,52402,1,0,0:0:0:0:
192,192,52402,1,0,0:0:0:0:
448,192,52459,1,0,0:0:0:0:
64,192,52517,1,0,0:0:0:0:
192,192,52517,1,0,0:0:0:0:
320,192,52575,1,0,0:0:0:0:
448,192,52633,1,0,0:0:0:0:
64,192,52633,1,0,0:0:0:0:
192,192,52690,1,0,0:0:0:0:
320,192,52748,1,0,0:0:0:0:
448,192,52748,1,0,0:0:0:0:
64,192,52806,1,0,0:0:0:0:
192,192,52863,1,0,0:0:0:0:
448,192,52863,1,0,0:0:0:0:
320,192,52921,1,0,0:0:0:0:
192,192,52979,1,0,0:0:0:0:
64,192,52979,1,0,0:0:0:0:
448,192,53036,1,0,0:0:0:0:
320,192,53094,1,0,0:0:0:0:
64,192,53094,1,0,0:0:0:0:
192,192,53094,1,0,0:0:0:0:
64,192,53556,1,0,0:0:0:0:
448,192,53556,1,0,0:0:0:0:
320,192,53556,1,0,0:0:0:0:
192,192,53613,1,0,0:0:0:0:
320,192,53671,1,0,0:0:0:0:
448,192,53729,1,0,0:0:0:0:
64,192,53786,1,0,0:0:0:0:
320,192,53844,1,0,0:0:0:0:
192,192,53902,1,0,0:0:0:0:
448,192,53959,1,0,0:0:0:0:
320,192,54017,1,0,0:0:0:0:
64,192,54075,1,0,0:0:0:0:
192,192,54133,1,0,0:0:0:0:
320,192,54190,1,0,0:0:0:0:
448,192,54248,1,0,0:0:0:0:
64,192,54306,1,0,0:0:0:0:
320,192,54363,1,0,0:0:0:0:
192,192,54421,1,0,0:0:0:0:
64,192,54479,1,0,0:0:0:0:
448,192,54479,1,0,0:0:0:0:
320,192,54479,1,0,0:0:0:0:
192,192,54536,1,0,0:0:0:0:
64,192,54594,1,0,0:0:0:0:
448,192,54652,1,0,0:0:0:0:
192,192,54709,1,0,0:0:0:0:
320,192,54767,1,0,0:0:0:0:
448,192,54825,1,0,0:0:0:0:
64,192,54883,1,0,0:0:0:0:
192,192,54940,1,0,0:0:0:0:
320,192,54940,1,0,0:0:0:0:
64,192,55402,1,0,0:0:0:0:
192,192,55402,1,0,0:0:0:0:
448,192,55459,1,0,0:0:0:0:
320,192,55517,1,0,0:0:0:0:
192,192,55575,1,0,0:0:0:0:
64,192,55633,1,0,0:0:0:0:
448,192,55690,1,0,0:0:0:0:
192,192,55748,1,0,0:0:0:0:
320,192,55806,1,0,0:0:0:0:
448,192,55863,1,0,0:0:0:0:
64,192,55921,1,0,0:0:0:0:
320,192,55979,1,0,0:0:0:0:
192,192,56036,1,0,0:0:0:0:
64,192,56094,1,0,0:0:0:0:
448,192,56152,1,0,0:0:0:0:
320,192,56209,1,0,0:0:0:0:
192,192,56267,1,0,0:0:0:0:
64,192,56325,1,0,0:0:0:0:
448,192,56325,1,0,0:0:0:0:
320,192,56325,1,0,0:0:0:0:
192,192,56383,1,0,0:0:0:0:
448,192,56440,1,0,0:0:0:0:
320,192,56498,1,0,0:0:0:0:
64,192,56556,1,0,0:0:0:0:
192,192,56613,1,0,0:0:0:0:
320,192,56671,1,0,0:0:0:0:
448,192,56729,1,0,0:0:0:0:
64,192,56786,1,0,0:0:0:0:
320,192,56844,1,0,0:0:0:0:
192,192,56902,1,0,0:0:0:0:
448,192,56959,1,0,0:0:0:0:
64,192,57017,1,0,0:0:0:0:
192,192,57017,1,0,0:0:0:0:
320,192,57075,1,0,0:0:0:0:
448,192,57133,1,0,0:0:0:0:
64,192,57133,1,0,0:0:0:0:
192,192,57190,1,0,0:0:0:0:
320,192,57248,1,0,0:0:0:0:
448,192,57248,1,0,0:0:0:0:
64,192,57248,1,0,0:0:0:0:
192,192,57306,1,0,0:0:0:0:
448,192,57363,1,0,0:0:0:0:
320,192,57421,1,0,0:0:0:0:
192,192,57479,1,0,0:0:0:0:
64,192,57536,1,0,0:0:0:0:
448,192,57594,1,0,0:0:0:0:
192,192,57652,1,0,0:0:0:0:
320,192,57709,1,0,0:0:0:0:
448,192,57767,1,0,0:0:0:0:
64,192,57825,1,0,0:0:0:0:
192,192,57883,1,0,0:0:0:0:
320,192,57940,1,0,0:0:0:0:
64,192,57998,1,0,0:0:0:0:
448,192,58056,1,0,0:0:0:0:
192,192,58113,1,0,0:0:0:0:
64,192,58171,1,0,0:0:0:0:
320,192,58171,1,0,0:0:0:0:
448,192,58171,1,0,0:0:0:0:
192,192,58229,1,0,0:0:0:0:
320,192,58286,1,0,0:0:0:0:
448,192,58344,1,0,0:0:0:0:
64,192,58402,1,0,0:0:0:0:
320,192,58459,1,0,0:0:0:0:
192,192,58517,1,0,0:0:0:0:
64,192,58575,1,0,0:0:0:0:
448,192,58633,1,0,0:0:0:0:
320,192,58633,1,0,0:0:0:0:
64,192,59094,1,0,0:0:0:0:
192,192,59094,1,0,0:0:0:0:
448,192,59094,1,0,0:0:0:0:
320,192,59152,1,0,0:0:0:0:
448,192,59209,1,0,0:0:0:0:
192,192,59267,1,0,0:0:0:0:
64,192,59325,1,0,0:0:0:0:
448,192,59383,1,0,0:0:0:0:
192,192,59440,1,0,0:0:0:0:
320,192,59498,1,0,0:0:0:0:
448,192,59556,1,0,0:0:0:0:
64,192,59613,1,0,0:0:0:0:
192,192,59671,1,0,0:0:0:0:
320,192,59729,1,0,0:0:0:0:
64,192,59786,1,0,0:0:0:0:
448,192,59844,1,0,0:0:0:0:
320,192,59902,1,0,0:0:0:0:
192,192,59959,1,0,0:0:0:0:
448,192,60017,1,0,0:0:0:0:
64,192,60075,1,0,0:0:0:0:
320,192,60133,1,0,0:0:0:0:
192,192,60190,1,0,0:0:0:0:
448,192,60248,1,0,0:0:0:0:
64,192,60248,1,0,0:0:0:0:
320,192,60248,1,0,0:0:0:0:
192,192,60306,1,0,0:0:0:0:
320,192,60363,1,0,0:0:0:0:
192,192,60421,1,0,0:0:0:0:
448,192,60479,1,0,0:0:0:0:
64,192,60536,1,0,0:0:0:0:
448,192,60594,1,0,0:0:0:0:
64,192,60652,1,0,0:0:0:0:
320,192,60709,1,0,0:0:0:0:
448,192,60709,1,0,0:0:0:0:
192,192,60767,1,0,0:0:0:0:
64,192,60767,1,0,0:0:0:0:
320,192,60825,1,0,0:0:0:0:
448,192,60825,1,0,0:0:0:0:
64,192,60883,1,0,0:0:0:0:
320,192,60940,1,0,0:0:0:0:
192,192,60940,1,0,0:0:0:0:
448,192,60940,1,0,0:0:0:0:
64,192,61056,1,0,0:0:0:0:
192,192,61056,1,0,0:0:0:0:
448,192,61171,1,0,0:0:0:0:
64,192,61171,1,0,0:0:0:0:
320,192,61171,1,0,0:0:0:0:
320,192,61286,1,0,0:0:0:0:
448,192,61286,1,0,0:0:0:0:
192,192,61286,1,0,0:0:0:0:
64,192,61402,1,0,0:0:0:0:
320,192,61402,1,0,0:0:0:0:
192,192,61402,1,0,0:0:0:0:
64,192,61517,1,0,0:0:0:0:
448,192,61517,1,0,0:0:0:0:
64,192,61633,1,0,0:0:0:0:
192,192,61633,1,0,0:0:0:0:
320,192,61633,1,0,0:0:0:0:
448,192,61748,1,0,0:0:0:0:
320,192,61748,1,0,0:0:0:0:
192,192,61748,1,0,0:0:0:0:
64,192,61863,1,0,0:0:0:0:
448,192,61863,1,0,0:0:0:0:
192,192,61979,1,0,0:0:0:0:
320,192,61979,1,0,0:0:0:0:
64,192,61979,1,0,0:0:0:0:
448,192,62094,1,0,0:0:0:0:
192,192,62094,1,0,0:0:0:0:
320,192,62209,1,0,0:0:0:0:
448,192,62209,1,0,0:0:0:0:
64,192,62209,1,0,0:0:0:0:
64,192,62325,1,0,0:0:0:0:
192,192,62325,1,0,0:0:0:0:
448,192,62440,1,0,0:0:0:0:
192,192,62440,1,0,0:0:0:0:
320,192,62440,1,0,0:0:0:0:
64,192,62556,1,0,0:0:0:0:
448,192,62556,1,0,0:0:0:0:
192,192,62556,1,0,0:0:0:0:
320,192,62671,1,0,0:0:0:0:
448,192,62671,1,0,0:0:0:0:
64,192,62671,1,0,0:0:0:0:
64,192,62786,1,0,0:0:0:0:
192,192,62786,1,0,0:0:0:0:
448,192,62844,1,0,0:0:0:0:
320,192,62902,1,0,0:0:0:0:
192,192,62902,1,0,0:0:0:0:
64,192,62959,1,0,0:0:0:0:
448,192,63017,1,0,0:0:0:0:
320,192,63017,1,0,0:0:0:0:
192,192,63075,1,0,0:0:0:0:
64,192,63133,1,0,0:0:0:0:
448,192,63133,1,0,0:0:0:0:
320,192,63190,1,0,0:0:0:0:
192,192,63248,1,0,0:0:0:0:
448,192,63248,1,0,0:0:0:0:
64,192,63306,1,0,0:0:0:0:
320,192,63363,1,0,0:0:0:0:
192,192,63363,1,0,0:0:0:0:
64,192,63421,1,0,0:0:0:0:
320,192,63479,1,0,0:0:0:0:
448,192,63479,1,0,0:0:0:0:
192,192,63536,1,0,0:0:0:0:
64,192,63594,1,0,0:0:0:0:
192,192,63652,1,0,0:0:0:0:
448,192,63709,1,0,0:0:0:0:
320,192,63767,1,0,0:0:0:0:
64,192,63825,1,0,0:0:0:0:
192,192,63883,1,0,0:0:0:0:
448,192,63940,1,0,0:0:0:0:
192,192,63998,1,0,0:0:0:0:
320,192,64056,1,0,0:0:0:0:
192,192,64113,1,0,0:0:0:0:
320,192,64171,1,0,0:0:0:0:
448,192,64171,1,0,0:0:0:0:
64,192,64171,1,0,0:0:0:0:
64,192,64286,1,0,0:0:0:0:
192,192,64344,1,0,0:0:0:0:
320,192,64402,1,0,0:0:0:0:
192,192,64459,1,0,0:0:0:0:
320,192,64517,1,0,0:0:0:0:
192,192,64575,1,0,0:0:0:0:
448,192,64633,1,0,0:0:0:0:
64,192,64633,1,0,0:0:0:0:
320,192,64748,1,0,0:0:0:0:
448,192,64748,1,0,0:0:0:0:
320,192,64863,1,0,0:0:0:0:
448,192,64863,1,0,0:0:0:0:
64,192,64921,1,0,0:0:0:0:
192,192,64921,1,0,0:0:0:0:
320,192,64979,1,0,0:0:0:0:
64,192,65036,1,0,0:0:0:0:
448,192,65036,1,0,0:0:0:0:
192,192,65094,1,0,0:0:0:0:
448,192,65152,1,0,0:0:0:0:
64,192,65152,1,0,0:0:0:0:
320,192,65209,1,0,0:0:0:0:
192,192,65267,1,0,0:0:0:0:
448,192,65267,1,0,0:0:0:0:
64,192,65325,1,0,0:0:0:0:
192,192,65383,1,0,0:0:0:0:
320,192,65383,1,0,0:0:0:0:
448,192,65440,1,0,0:0:0:0:
64,192,65498,1,0,0:0:0:0:
192,192,65498,1,0,0:0:0:0:
320,192,65556,1,0,0:0:0:0:
448,192,65613,1,0,0:0:0:0:
64,192,65613,1,0,0:0:0:0:
320,192,65671,1,0,0:0:0:0:
64,192,65729,1,0,0:0:0:0:
192,192,65729,1,0,0:0:0:0:
448,192,65786,1,0,0:0:0:0:
320,192,65844,1,0,0:0:0:0:
64,192,65844,1,0,0:0:0:0:
192,192,65902,1,0,0:0:0:0:
320,192,65959,1,0,0:0:0:0:
448,192,65959,1,0,0:0:0:0:
64,192,66017,1,0,0:0:0:0:
320,192,66075,1,0,0:0:0:0:
448,192,66075,1,0,0:0:0:0:
192,192,66133,1,0,0:0:0:0:
64,192,66190,1,0,0:0:0:0:
448,192,66190,1,0,0:0:0:0:
320,192,66248,1,0,0:0:0:0:
64,192,66306,1,0,0:0:0:0:
192,192,66306,1,0,0:0:0:0:
320,192,66363,1,0,0:0:0:0:
64,192,66421,1,0,0:0:0:0:
448,192,66421,1,0,0:0:0:0:
192,192,66479,1,0,0:0:0:0:
320,192,66536,1,0,0:0:0:0:
64,192,66594,1,0,0:0:0:0:
448,192,66652,1,0,0:0:0:0:
64,192,66709,1,0,0:0:0:0:
192,192,66709,1,0,0:0:0:0:
320,192,66709,1,0,0:0:0:0:
448,192,66767,1,0,0:0:0:0:
192,192,66825,1,0,0:0:0:0:
320,192,66883,1,0,0:0:0:0:
64,192,66940,1,0,0:0:0:0:
192,192,66998,1,0,0:0:0:0:
448,192,67056,1,0,0:0:0:0:
64,192,67113,1,0,0:0:0:0:
320,192,67171,1,0,0:0:0:0:
192,192,67229,1,0,0:0:0:0:
448,192,67286,1,0,0:0:0:0:
64,192,67344,1,0,0:0:0:0:
448,192,67402,1,0,0:0:0:0:
320,192,67459,1,0,0:0:0:0:
192,192,67517,1,0,0:0:0:0:
64,192,67575,1,0,0:0:0:0:
320,192,67633,1,0,0:0:0:0:
448,192,67633,1,0,0:0:0:0:
192,192,67748,1,0,0:0:0:0:
64,192,67748,1,0,0:0:0:0:
64,192,67863,1,0,0:0:0:0:
320,192,67863,1,0,0:0:0:0:
448,192,67863,1,0,0:0:0:0:
192,192,67979,1,0,0:0:0:0:
320,192,68036,1,0,0:0:0:0:
64,192,68094,1,0,0:0:0:0:
320,192,68209,1,0,0:0:0:0:
448,192,68209,1,0,0:0:0:0:
64,192,68267,1,0,0:0:0:0:
448,192,68325,1,0,0:0:0:0:
320,192,68325,1,0,0:0:0:0:
192,192,68325,1,0,0:0:0:0:
448,192,68440,1,0,0:0:0:0:
192,192,68440,1,0,0:0:0:0:
192,192,68556,1,0,0:0:0:0:
64,192,68556,1,0,0:0:0:0:
320,192,68556,1,0,0:0:0:0:
320,192,68671,1,0,0:0:0:0:
448,192,68671,1,0,0:0:0:0:
64,192,68671,1,0,0:0:0:0:
448,192,68786,1,0,0:0:0:0:
64,192,68786,1,0,0:0:0:0:
192,192,68786,1,0,0:0:0:0:
320,192,68902,1,0,0:0:0:0:
192,192,68902,1,0,0:0:0:0:
448,192,69017,1,0,0:0:0:0:
192,192,69017,1,0,0:0:0:0:
64,192,69017,1,0,0:0:0:0:
320,192,69133,1,0,0:0:0:0:
448,192,69133,1,0,0:0:0:0:
64,192,69133,1,0,0:0:0:0:
64,192,69248,1,0,0:0:0:0:
192,192,69248,1,0,0:0:0:0:
192,192,69363,1,0,0:0:0:0:
320,192,69363,1,0,0:0:0:0:
448,192,69363,1,0,0:0:0:0:
448,192,69479,1,0,0:0:0:0:
64,192,69479,1,0,0:0:0:0:
64,192,69594,1,0,0:0:0:0:
192,192,69594,1,0,0:0:0:0:
320,192,69594,1,0,0:0:0:0:
448,192,69709,1,0,0:0:0:0:
192,192,69709,1,0,0:0:0:0:
320,192,69825,1,0,0:0:0:0:
192,192,69825,1,0,0:0:0:0:
64,192,69825,1,0,0:0:0:0:
64,192,69940,1,0,0:0:0:0:
448,192,69940,1,0,0:0:0:0:
320,192,69940,1,0,0:0:0:0:
192,192,70056,1,0,0:0:0:0:
320,192,70056,1,0,0:0:0:0:
448,192,70056,1,0,0:0:0:0:
192,192,70171,1,0,0:0:0:0:
64,192,70171,1,0,0:0:0:0:
448,192,70229,1,0,0:0:0:0:
320,192,70286,1,0,0:0:0:0:
64,192,70286,1,0,0:0:0:0:
192,192,70344,1,0,0:0:0:0:
320,192,70402,1,0,0:0:0:0:
448,192,70402,1,0,0:0:0:0:
64,192,70459,1,0,0:0:0:0:
192,192,70517,1,0,0:0:0:0:
320,192,70517,1,0,0:0:0:0:
448,192,70575,1,0,0:0:0:0:
192,192,70633,1,0,0:0:0:0:
64,192,70633,1,0,0:0:0:0:
320,192,70690,1,0,0:0:0:0:
448,192,70748,1,0,0:0:0:0:
64,192,70748,1,0,0:0:0:0:
320,192,70806,1,0,0:0:0:0:
192,192,70863,1,0,0:0:0:0:
64,192,70863,1,0,0:0:0:0:
448,192,70921,1,0,0:0:0:0:
192,192,70979,1,0,0:0:0:0:
64,192,71036,1,0,0:0:0:0:
448,192,71094,1,0,0:0:0:0:
320,192,71094,1,0,0:0:0:0:
192,192,71152,1,0,0:0:0:0:
64,192,71152,1,0,0:0:0:0:
320,192,71209,1,0,0:0:0:0:
448,192,71267,1,0,0:0:0:0:
64,192,71325,1,0,0:0:0:0:
192,192,71325,1,0,0:0:0:0:
320,192,71383,1,0,0:0:0:0:
448,192,71383,1,0,0:0:0:0:
192,192,71440,1,0,0:0:0:0:
64,192,71440,1,0,0:0:0:0:
320,192,71498,1,0,0:0:0:0:
64,192,71556,1,0,0:0:0:0:
192,192,71556,1,0,0:0:0:0:
448,192,71556,1,0,0:0:0:0:
320,192,71671,1,0,0:0:0:0:
192,192,71729,1,0,0:0:0:0:
448,192,71786,1,0,0:0:0:0:
320,192,71844,1,0,0:0:0:0:
64,192,71902,1,0,0:0:0:0:
192,192,71959,1,0,0:0:0:0:
320,192,72017,1,0,0:0:0:0:
448,192,72017,1,0,0:0:0:0:
64,192,72133,1,0,0:0:0:0:
192,192,72133,1,0,0:0:0:0:
448,192,72248,1,0,0:0:0:0:
64,192,72306,1,0,0:0:0:0:
320,192,72306,1,0,0:0:0:0:
192,192,72363,1,0,0:0:0:0:
64,192,72421,1,0,0:0:0:0:
448,192,72421,1,0,0:0:0:0:
320,192,72479,1,0,0:0:0:0:
192,192,72536,1,0,0:0:0:0:
64,192,72536,1,0,0:0:0:0:
448,192,72594,1,0,0:0:0:0:
320,192,72652,1,0,0:0:0:0:
64,192,72652,1,0,0:0:0:0:
192,192,72709,1,0,0:0:0:0:
320,192,72767,1,0,0:0:0:0:
448,192,72767,1,0,0:0:0:0:
192,192,72825,1,0,0:0:0:0:
64,192,72883,1,0,0:0:0:0:
448,192,72883,1,0,0:0:0:0:
320,192,72940,1,0,0:0:0:0:
448,192,72998,1,0,0:0:0:0:
192,192,72998,1,0,0:0:0:0:
64,192,73056,1,0,0:0:0:0:
192,192,73113,1,0,0:0:0:0:
448,192,73113,1,0,0:0:0:0:
320,192,73171,1,0,0:0:0:0:
64,192,73229,1,0,0:0:0:0:
192,192,73229,1,0,0:0:0:0:
320,192,73286,1,0,0:0:0:0:
448,192,73344,1,0,0:0:0:0:
64,192,73344,1,0,0:0:0:0:
192,192,73402,1,0,0:0:0:0:
320,192,73459,1,0,0:0:0:0:
448,192,73459,1,0,0:0:0:0:
64,192,73517,1,0,0:0:0:0:
448,192,73575,1,0,0:0:0:0:
192,192,73575,1,0,0:0:0:0:
320,192,73633,1,0,0:0:0:0:
192,192,73690,1,0,0:0:0:0:
64,192,73690,1,0,0:0:0:0:
448,192,73748,1,0,0:0:0:0:
320,192,73806,1,0,0:0:0:0:
192,192,73806,1,0,0:0:0:0:
64,192,73863,1,0,0:0:0:0:
320,192,74094,1,0,0:0:0:0:
448,192,74094,1,0,0:0:0:0:
320,192,74209,1,0,0:0:0:0:
448,192,74209,1,0,0:0:0:0:
192,192,74325,1,0,0:0:0:0:
64,192,74325,1,0,0:0:0:0:
320,192,74383,1,0,0:0:0:0:
448,192,74383,1,0,0:0:0:0:
192,192,74440,1,0,0:0:0:0:
64,192,74440,1,0,0:0:0:0:
320,192,74498,1,0,0:0:0:0:
448,192,74498,1,0,0:0:0:0:
192,192,74556,1,0,0:0:0:0:
64,192,74556,1,0,0:0:0:0:
320,192,74613,1,0,0:0:0:0:
448,192,74613,1,0,0:0:0:0:
64,192,74671,1,0,0:0:0:0:
192,192,74671,1,0,0:0:0:0:
320,192,74729,1,0,0:0:0:0:
64,192,74786,1,0,0:0:0:0:
192,192,74786,1,0,0:0:0:0:
448,192,74786,1,0,0:0:0:0:
320,192,74844,1,0,0:0:0:0:
64,192,74902,1,0,0:0:0:0:
448,192,74902,1,0,0:0:0:0:
192,192,74959,1,0,0:0:0:0:
320,192,75017,1,0,0:0:0:0:
192,192,75075,1,0,0:0:0:0:
320,192,75133,1,0,0:0:0:0:
192,192,75190,1,0,0:0:0:0:
448,192,75248,1,0,0:0:0:0:
64,192,75306,1,0,0:0:0:0:
448,192,75363,1,0,0:0:0:0:
64,192,75421,1,0,0:0:0:0:
320,192,75479,1,0,0:0:0:0:
192,192,75536,1,0,0:0:0:0:
320,192,75594,1,0,0:0:0:0:
192,192,75652,1,0,0:0:0:0:
64,192,75709,1,0,0:0:0:0:
448,192,75709,1,0,0:0:0:0:
320,192,75709,1,0,0:0:0:0:
64,192,78940,1,0,0:0:0:0:
448,192,78940,1,0,0:0:0:0:
320,192,78940,1,0,0:0:0:0:
320,192,79402,1,0,0:0:0:0:
448,192,79402,1,0,0:0:0:0:
64,192,81248,1,0,0:0:0:0:
192,192,81248,1,0,0:0:0:0:
448,192,81902,1,0,0:0:0:0:
64,192,82402,1,0,0:0:0:0:
192,192,82402,1,0,0:0:0:0:
320,192,82459,1,0,0:0:0:0:
448,192,82459,1,0,0:0:0:0:
192,192,82517,1,0,0:0:0:0:
64,192,82517,1,0,0:0:0:0:
320,192,82575,1,0,0:0:0:0:
192,192,82633,1,0,0:0:0:0:
64,192,82633,1,0,0:0:0:0:
448,192,82633,1,0,0:0:0:0:
448,192,83094,1,0,0:0:0:0:
64,192,83094,1,0,0:0:0:0:
192,192,83094,1,0,0:0:0:0:
64,192,84479,1,0,0:0:0:0:
448,192,84479,1,0,0:0:0:0:
192,192,84594,1,0,0:0:0:0:
320,192,84594,1,0,0:0:0:0:
64,192,85633,1,0,0:0:0:0:
320,192,86094,1,0,0:0:0:0:
448,192,86094,1,0,0:0:0:0:
64,192,86152,1,0,0:0:0:0:
192,192,86152,1,0,0:0:0:0:
320,192,86209,1,0,0:0:0:0:
448,192,86209,1,0,0:0:0:0:
192,192,86267,1,0,0:0:0:0:
320,192,86325,1,0,0:0:0:0:
448,192,86325,1,0,0:0:0:0:
64,192,86325,1,0,0:0:0:0:
192,192,86786,1,0,0:0:0:0:
64,192,86786,1,0,0:0:0:0:
448,192,86786,1,0,0:0:0:0:
64,192,87248,1,0,0:0:0:0:
448,192,87248,1,0,0:0:0:0:
320,192,87479,1,0,0:0:0:0:
192,192,87479,1,0,0:0:0:0:
64,192,87709,1,0,0:0:0:0:
192,192,87709,1,0,0:0:0:0:
448,192,87709,1,0,0:0:0:0:
320,192,87940,1,0,0:0:0:0:
448,192,87940,1,0,0:0:0:0:
64,192,87940,1,0,0:0:0:0:
192,192,88171,1,0,0:0:0:0:
320,192,88171,1,0,0:0:0:0:
448,192,88171,1,0,0:0:0:0:
64,192,88402,1,0,0:0:0:0:
448,192,88402,1,0,0:0:0:0:
192,192,88402,1,0,0:0:0:0:
64,192,88633,1,0,0:0:0:0:
192,192,88633,1,0,0:0:0:0:
448,192,88633,1,0,0:0:0:0:
320,192,88690,1,0,0:0:0:0:
192,192,88748,1,0,0:0:0:0:
64,192,88748,1,0,0:0:0:0:
448,192,88806,1,0,0:0:0:0:
320,192,88863,1,0,0:0:0:0:
192,192,88863,1,0,0:0:0:0:
64,192,88921,1,0,0:0:0:0:
448,192,88979,1,0,0:0:0:0:
320,192,88979,1,0,0:0:0:0:
192,192,89036,1,0,0:0:0:0:
64,192,89094,1,0,0:0:0:0:
448,192,89094,1,0,0:0:0:0:
320,192,89152,1,0,0:0:0:0:
64,192,89209,1,0,0:0:0:0:
448,192,89267,1,0,0:0:0:0:
320,192,89325,1,0,0:0:0:0:
192,192,89325,1,0,0:0:0:0:
64,192,89383,1,0,0:0:0:0:
448,192,89440,1,0,0:0:0:0:
320,192,89498,1,0,0:0:0:0:
64,192,89556,1,0,0:0:0:0:
192,192,89556,1,0,0:0:0:0:
320,192,89613,1,0,0:0:0:0:
448,192,89613,1,0,0:0:0:0:
192,192,89671,1,0,0:0:0:0:
64,192,89671,1,0,0:0:0:0:
320,192,89729,1,0,0:0:0:0:
448,192,89729,1,0,0:0:0:0:
192,192,89786,1,0,0:0:0:0:
64,192,89786,1,0,0:0:0:0:
320,192,89844,1,0,0:0:0:0:
448,192,89844,1,0,0:0:0:0:
192,192,89902,1,0,0:0:0:0:
64,192,89902,1,0,0:0:0:0:
320,192,89959,1,0,0:0:0:0:
64,192,90017,1,0,0:0:0:0:
192,192,90017,1,0,0:0:0:0:
448,192,90017,1,0,0:0:0:0:
320,192,90075,1,0,0:0:0:0:
448,192,90133,1,0,0:0:0:0:
192,192,90190,1,0,0:0:0:0:
64,192,90248,1,0,0:0:0:0:
320,192,90248,1,0,0:0:0:0:
320,192,90363,1,0,0:0:0:0:
192,192,90363,1,0,0:0:0:0:
64,192,90479,1,0,0:0:0:0:
192,192,90479,1,0,0:0:0:0:
448,192,90479,1,0,0:0:0:0:
448,192,90594,1,0,0:0:0:0:
64,192,90652,1,0,0:0:0:0:
320,192,90652,1,0,0:0:0:0:
192,192,90709,1,0,0:0:0:0:
448,192,90767,1,0,0:0:0:0:
64,192,90767,1,0,0:0:0:0:
192,192,90825,1,0,0:0:0:0:
320,192,90883,1,0,0:0:0:0:
448,192,90883,1,0,0:0:0:0:
64,192,90940,1,0,0:0:0:0:
320,192,90998,1,0,0:0:0:0:
448,192,90998,1,0,0:0:0:0:
192,192,91056,1,0,0:0:0:0:
64,192,91113,1,0,0:0:0:0:
320,192,91113,1,0,0:0:0:0:
448,192,91171,1,0,0:0:0:0:
64,192,91229,1,0,0:0:0:0:
192,192,91229,1,0,0:0:0:0:
320,192,91286,1,0,0:0:0:0:
448,192,91344,1,0,0:0:0:0:
64,192,91344,1,0,0:0:0:0:
192,192,91402,1,0,0:0:0:0:
448,192,91459,1,0,0:0:0:0:
320,192,91459,1,0,0:0:0:0:
64,192,91517,1,0,0:0:0:0:
192,192,91575,1,0,0:0:0:0:
320,192,91575,1,0,0:0:0:0:
448,192,91633,1,0,0:0:0:0:
192,192,91690,1,0,0:0:0:0:
64,192,91690,1,0,0:0:0:0:
320,192,91748,1,0,0:0:0:0:
64,192,91806,1,0,0:0:0:0:
448,192,91806,1,0,0:0:0:0:
192,192,91863,1,0,0:0:0:0:
64,192,91921,1,0,0:0:0:0:
320,192,91921,1,0,0:0:0:0:
448,192,91979,1,0,0:0:0:0:
192,192,92036,1,0,0:0:0:0:
320,192,92036,1,0,0:0:0:0:
64,192,92094,1,0,0:0:0:0:
448,192,92152,1,0,0:0:0:0:
192,192,92152,1,0,0:0:0:0:
64,192,92209,1,0,0:0:0:0:
448,192,92267,1,0,0:0:0:0:
320,192,92267,1,0,0:0:0:0:
192,192,92325,1,0,0:0:0:0:
64,192,92383,1,0,0:0:0:0:
320,192,92383,1,0,0:0:0:0:
448,192,92440,1,0,0:0:0:0:
64,192,92498,1,0,0:0:0:0:
192,192,92498,1,0,0:0:0:0:
320,192,92556,1,0,0:0:0:0:
448,192,92613,1,0,0:0:0:0:
64,192,92613,1,0,0:0:0:0:
192,192,92671,1,0,0:0:0:0:
320,192,92729,1,0,0:0:0:0:
448,192,92729,1,0,0:0:0:0:
64,192,92786,1,0,0:0:0:0:
320,192,92844,1,0,0:0:0:0:
448,192,92844,1,0,0:0:0:0:
192,192,92902,1,0,0:0:0:0:
64,192,92959,1,0,0:0:0:0:
320,192,92959,1,0,0:0:0:0:
448,192,93017,1,0,0:0:0:0:
64,192,93075,1,0,0:0:0:0:
192,192,93075,1,0,0:0:0:0:
320,192,93133,1,0,0:0:0:0:
448,192,93190,1,0,0:0:0:0:
192,192,93190,1,0,0:0:0:0:
64,192,93248,1,0,0:0:0:0:
448,192,93306,1,0,0:0:0:0:
320,192,93306,1,0,0:0:0:0:
192,192,93363,1,0,0:0:0:0:
64,192,93421,1,0,0:0:0:0:
320,192,93421,1,0,0:0:0:0:
448,192,93479,1,0,0:0:0:0:
320,192,93536,1,0,0:0:0:0:
192,192,93536,1,0,0:0:0:0:
64,192,93594,1,0,0:0:0:0:
448,192,93652,1,0,0:0:0:0:
192,192,93652,1,0,0:0:0:0:
320,192,93709,1,0,0:0:0:0:
448,192,93767,1,0,0:0:0:0:
64,192,93767,1,0,0:0:0:0:
320,192,93825,1,0,0:0:0:0:
192,192,93883,1,0,0:0:0:0:
64,192,93883,1,0,0:0:0:0:
448,192,93940,1,0,0:0:0:0:
320,192,93998,1,0,0:0:0:0:
192,192,93998,1,0,0:0:0:0:
64,192,94056,1,0,0:0:0:0:
448,192,94113,1,0,0:0:0:0:
320,192,94113,1,0,0:0:0:0:
192,192,94171,1,0,0:0:0:0:
64,192,94171,1,0,0:0:0:0:
448,192,94229,1,0,0:0:0:0:
320,192,94286,1,0,0:0:0:0:
448,192,94344,1,0,0:0:0:0:
192,192,94402,1,0,0:0:0:0:
64,192,94402,1,0,0:0:0:0:
448,192,94459,1,0,0:0:0:0:
320,192,94459,1,0,0:0:0:0:
64,192,94517,1,0,0:0:0:0:
192,192,94575,1,0,0:0:0:0:
320,192,94575,1,0,0:0:0:0:
448,192,94633,1,0,0:0:0:0:
320,192,94690,1,0,0:0:0:0:
64,192,94690,1,0,0:0:0:0:
192,192,94748,1,0,0:0:0:0:
320,192,94806,1,0,0:0:0:0:
448,192,94806,1,0,0:0:0:0:
64,192,94863,1,0,0:0:0:0:
192,192,94921,1,0,0:0:0:0:
320,192,94921,1,0,0:0:0:0:
448,192,94979,1,0,0:0:0:0:
64,192,95036,1,0,0:0:0:0:
192,192,95036,1,0,0:0:0:0:
320,192,95094,1,0,0:0:0:0:
64,192,95152,1,0,0:0:0:0:
448,192,95152,1,0,0:0:0:0:
192,192,95209,1,0,0:0:0:0:
64,192,95267,1,0,0:0:0:0:
320,192,95267,1,0,0:0:0:0:
448,192,95325,1,0,0:0:0:0:
192,192,95383,1,0,0:0:0:0:
320,192,95383,1,0,0:0:0:0:
64,192,95440,1,0,0:0:0:0:
448,192,95498,1,0,0:0:0:0:
192,192,95498,1,0,0:0:0:0:
320,192,95556,1,0,0:0:0:0:
448,192,95613,1,0,0:0:0:0:
64,192,95613,1,0,0:0:0:0:
192,192,95671,1,0,0:0:0:0:
320,192,95729,1,0,0:0:0:0:
448,192,95729,1,0,0:0:0:0:
192,192,95786,1,0,0:0:0:0:
64,192,95844,1,0,0:0:0:0:
448,192,95844,1,0,0:0:0:0:
320,192,95902,1,0,0:0:0:0:
192,192,95959,1,0,0:0:0:0:
64,192,95959,1,0,0:0:0:0:
320,192,96017,1,0,0:0:0:0:
448,192,96017,1,0,0:0:0:0:
320,192,96133,1,0,0:0:0:0:
192,192,96133,1,0,0:0:0:0:
64,192,96248,1,0,0:0:0:0:
448,192,96248,1,0,0:0:0:0:
320,192,96363,1,0,0:0:0:0:
448,192,96479,1,0,0:0:0:0:
64,192,96479,1,0,0:0:0:0:
64,192,96594,1,0,0:0:0:0:
320,192,96594,1,0,0:0:0:0:
448,192,96709,1,0,0:0:0:0:
320,192,96709,1,0,0:0:0:0:
192,192,96709,1,0,0:0:0:0:
192,192,96825,1,0,0:0:0:0:
64,192,96825,1,0,0:0:0:0:
448,192,96940,1,0,0:0:0:0:
320,192,96940,1,0,0:0:0:0:
64,192,96940,1,0,0:0:0:0:
192,192,97056,1,0,0:0:0:0:
320,192,97171,1,0,0:0:0:0:
448,192,97171,1,0,0:0:0:0:
64,192,97286,1,0,0:0:0:0:
192,192,97286,1,0,0:0:0:0:
448,192,97402,1,0,0:0:0:0:
64,192,97402,1,0,0:0:0:0:
320,192,97402,1,0,0:0:0:0:
192,192,97517,1,0,0:0:0:0:
448,192,97575,1,0,0:0:0:0:
320,192,97633,1,0,0:0:0:0:
64,192,97690,1,0,0:0:0:0:
192,192,97748,1,0,0:0:0:0:
448,192,97806,1,0,0:0:0:0:
64,192,97863,1,0,0:0:0:0:
320,192,97863,1,0,0:0:0:0:
192,192,97863,1,0,0:0:0:0:
448,192,97979,1,0,0:0:0:0:
64,192,98036,1,0,0:0:0:0:
320,192,98036,1,0,0:0:0:0:
192,192,98094,1,0,0:0:0:0:
448,192,98152,1,0,0:0:0:0:
320,192,98152,1,0,0:0:0:0:
64,192,98209,1,0,0:0:0:0:
320,192,98267,1,0,0:0:0:0:
448,192,98267,1,0,0:0:0:0:
192,192,98325,1,0,0:0:0:0:
64,192,98383,1,0,0:0:0:0:
320,192,98383,1,0,0:0:0:0:
448,192,98440,1,0,0:0:0:0:
64,192,98498,1,0,0:0:0:0:
192,192,98498,1,0,0:0:0:0:
320,192,98556,1,0,0:0:0:0:
64,192,98613,1,0,0:0:0:0:
448,192,98613,1,0,0:0:0:0:
320,192,98671,1,0,0:0:0:0:
192,192,98729,1,0,0:0:0:0:
64,192,98729,1,0,0:0:0:0:
448,192,98786,1,0,0:0:0:0:
320,192,98844,1,0,0:0:0:0:
192,192,98844,1,0,0:0:0:0:
64,192,98902,1,0,0:0:0:0:
448,192,98959,1,0,0:0:0:0:
320,192,98959,1,0,0:0:0:0:
192,192,99017,1,0,0:0:0:0:
64,192,99075,1,0,0:0:0:0:
448,192,99075,1,0,0:0:0:0:
320,192,99133,1,0,0:0:0:0:
64,192,99190,1,0,0:0:0:0:
448,192,99190,1,0,0:0:0:0:
192,192,99248,1,0,0:0:0:0:
320,192,99306,1,0,0:0:0:0:
64,192,99306,1,0,0:0:0:0:
192,192,99363,1,0,0:0:0:0:
320,192,99421,1,0,0:0:0:0:
448,192,99421,1,0,0:0:0:0:
64,192,99479,1,0,0:0:0:0:
192,192,99536,1,0,0:0:0:0:
320,192,99536,1,0,0:0:0:0:
448,192,99594,1,0,0:0:0:0:
64,192,99652,1,0,0:0:0:0:
192,192,99652,1,0,0:0:0:0:
320,192,99709,1,0,0:0:0:0:
192,192,99767,1,0,0:0:0:0:
64,192,99767,1,0,0:0:0:0:
448,192,99825,1,0,0:0:0:0:
192,192,99883,1,0,0:0:0:0:
320,192,99883,1,0,0:0:0:0:
64,192,99940,1,0,0:0:0:0:
448,192,99998,1,0,0:0:0:0:
320,192,99998,1,0,0:0:0:0:
192,192,100056,1,0,0:0:0:0:
64,192,100113,1,0,0:0:0:0:
320,192,100113,1,0,0:0:0:0:
448,192,100171,1,0,0:0:0:0:
320,192,100229,1,0,0:0:0:0:
192,192,100229,1,0,0:0:0:0:
64,192,100286,1,0,0:0:0:0:
448,192,100344,1,0,0:0:0:0:
192,192,100344,1,0,0:0:0:0:
320,192,100402,1,0,0:0:0:0:
64,192,100459,1,0,0:0:0:0:
448,192,100459,1,0,0:0:0:0:
320,192,100517,1,0,0:0:0:0:
64,192,100575,1,0,0:0:0:0:
192,192,100575,1,0,0:0:0:0:
320,192,100633,1,0,0:0:0:0:
448,192,100690,1,0,0:0:0:0:
64,192,100690,1,0,0:0:0:0:
192,192,100748,1,0,0:0:0:0:
320,192,100806,1,0,0:0:0:0:
448,192,100806,1,0,0:0:0:0:
64,192,100863,1,0,0:0:0:0:
192,192,100921,1,0,0:0:0:0:
320,192,100921,1,0,0:0:0:0:
448,192,100979,1,0,0:0:0:0:
64,192,101036,1,0,0:0:0:0:
192,192,101036,1,0,0:0:0:0:
320,192,101094,1,0,0:0:0:0:
192,192,101152,1,0,0:0:0:0:
448,192,101152,1,0,0:0:0:0:
64,192,101209,1,0,0:0:0:0:
320,192,101267,1,0,0:0:0:0:
448,192,101267,1,0,0:0:0:0:
192,192,101325,1,0,0:0:0:0:
64,192,101383,1,0,0:0:0:0:
448,192,101383,1,0,0:0:0:0:
320,192,101440,1,0,0:0:0:0:
192,192,101498,1,0,0:0:0:0:
64,192,101498,1,0,0:0:0:0:
320,192,101556,1,0,0:0:0:0:
448,192,101613,1,0,0:0:0:0:
320,192,101671,1,0,0:0:0:0:
192,192,101729,1,0,0:0:0:0:
64,192,101786,1,0,0:0:0:0:
448,192,101786,1,0,0:0:0:0:
320,192,101844,1,0,0:0:0:0:
448,192,101902,1,0,0:0:0:0:
64,192,101959,1,0,0:0:0:0:
192,192,102017,1,0,0:0:0:0:
320,192,102017,1,0,0:0:0:0:
448,192,102075,1,0,0:0:0:0:
192,192,102133,1,0,0:0:0:0:
320,192,102190,1,0,0:0:0:0:
192,192,102248,1,0,0:0:0:0:
448,192,102248,1,0,0:0:0:0:
64,192,102248,1,0,0:0:0:0:
320,192,102306,1,0,0:0:0:0:
64,192,102363,1,0,0:0:0:0:
192,192,102421,1,0,0:0:0:0:
448,192,102479,1,0,0:0:0:0:
320,192,102479,1,0,0:0:0:0:
64,192,102536,1,0,0:0:0:0:
192,192,102594,1,0,0:0:0:0:
448,192,102652,1,0,0:0:0:0:
320,192,102709,1,0,0:0:0:0:
64,192,102709,1,0,0:0:0:0:
192,192,102767,1,0,0:0:0:0:
448,192,102825,1,0,0:0:0:0:
320,192,102883,1,0,0:0:0:0:
192,192,102940,1,0,0:0:0:0:
64,192,102940,1,0,0:0:0:0:
448,192,102940,1,0,0:0:0:0:
320,192,102998,1,0,0:0:0:0:
64,192,103056,1,0,0:0:0:0:
192,192,103113,1,0,0:0:0:0:
320,192,103171,1,0,0:0:0:0:
448,192,103171,1,0,0:0:0:0:
64,192,103229,1,0,0:0:0:0:
192,192,103286,1,0,0:0:0:0:
448,192,103344,1,0,0:0:0:0:
320,192,103402,1,0,0:0:0:0:
64,192,103402,1,0,0:0:0:0:
192,192,103402,1,0,0:0:0:0:
64,192,103517,1,0,0:0:0:0:
192,192,103517,1,0,0:0:0:0:
320,192,103633,1,0,0:0:0:0:
448,192,103633,1,0,0:0:0:0:
64,192,103748,1,0,0:0:0:0:
448,192,103748,1,0,0:0:0:0:
320,192,103863,1,0,0:0:0:0:
448,192,103863,1,0,0:0:0:0:
64,192,103979,1,0,0:0:0:0:
192,192,103979,1,0,0:0:0:0:
448,192,104094,5,0,0:0:0:0:
320,192,104094,1,0,0:0:0:0:
64,192,104094,1,0,0:0:0:0:
192,192,104209,1,0,0:0:0:0:
320,192,104209,1,0,0:0:0:0:
192,192,104325,1,0,0:0:0:0:
64,192,104325,1,0,0:0:0:0:
448,192,104325,1,0,0:0:0:0:
448,192,104556,1,0,0:0:0:0:
320,192,104556,1,0,0:0:0:0:
64,192,104613,1,0,0:0:0:0:
192,192,104613,1,0,0:0:0:0:
320,192,104671,1,0,0:0:0:0:
448,192,104671,1,0,0:0:0:0:
64,192,104729,1,0,0:0:0:0:
192,192,104729,1,0,0:0:0:0:
448,192,104786,1,0,0:0:0:0:
320,192,104902,1,0,0:0:0:0:
64,192,105017,1,0,0:0:0:0:
192,192,105133,1,0,0:0:0:0:
448,192,105248,5,0,0:0:0:0:
320,192,105248,1,0,0:0:0:0:
64,192,105248,1,0,0:0:0:0:
192,192,105306,1,0,0:0:0:0:
320,192,105363,1,0,0:0:0:0:
448,192,105421,1,0,0:0:0:0:
64,192,105479,1,0,0:0:0:0:
320,192,105536,1,0,0:0:0:0:
192,192,105594,1,0,0:0:0:0:
64,192,105652,1,0,0:0:0:0:
448,192,105709,1,0,0:0:0:0:
320,192,105767,1,0,0:0:0:0:
192,192,105825,1,0,0:0:0:0:
64,192,105883,1,0,0:0:0:0:
448,192,105940,1,0,0:0:0:0:
192,192,105998,1,0,0:0:0:0:
320,192,106056,1,0,0:0:0:0:
448,192,106113,1,0,0:0:0:0:
64,192,106171,1,0,0:0:0:0:
192,192,106171,1,0,0:0:0:0:
320,192,106171,1,0,0:0:0:0:
448,192,106229,1,0,0:0:0:0:
64,192,106286,1,0,0:0:0:0:
192,192,106344,1,0,0:0:0:0:
320,192,106402,1,0,0:0:0:0:
448,192,106459,1,0,0:0:0:0:
64,192,106517,1,0,0:0:0:0:
192,192,106575,1,0,0:0:0:0:
448,192,106633,1,0,0:0:0:0:
320,192,106633,1,0,0:0:0:0:
64,192,106748,1,0,0:0:0:0:
192,192,106748,1,0,0:0:0:0:
448,192,107094,1,0,0:0:0:0:
64,192,107094,1,0,0:0:0:0:
320,192,107152,1,0,0:0:0:0:
192,192,107209,1,0,0:0:0:0:
64,192,107267,1,0,0:0:0:0:
320,192,107325,1,0,0:0:0:0:
448,192,107383,1,0,0:0:0:0:
64,192,107440,1,0,0:0:0:0:
320,192,107498,1,0,0:0:0:0:
192,192,107556,1,0,0:0:0:0:
64,192,107613,1,0,0:0:0:0:
448,192,107671,1,0,0:0:0:0:
192,192,107729,1,0,0:0:0:0:
320,192,107786,1,0,0:0:0:0:
448,192,107844,1,0,0:0:0:0:
64,192,107902,1,0,0:0:0:0:
192,192,107959,1,0,0:0:0:0:
320,192,108017,1,0,0:0:0:0:
448,192,108017,1,0,0:0:0:0:
64,192,108017,1,0,0:0:0:0:
192,192,108075,1,0,0:0:0:0:
320,192,108133,1,0,0:0:0:0:
64,192,108190,1,0,0:0:0:0:
448,192,108248,1,0,0:0:0:0:
320,192,108306,1,0,0:0:0:0:
192,192,108363,1,0,0:0:0:0:
64,192,108421,1,0,0:0:0:0:
448,192,108479,1,0,0:0:0:0:
192,192,108536,1,0,0:0:0:0:
320,192,108594,1,0,0:0:0:0:
448,192,108652,1,0,0:0:0:0:
64,192,108709,1,0,0:0:0:0:
320,192,108767,1,0,0:0:0:0:
192,192,108825,1,0,0:0:0:0:
64,192,108883,1,0,0:0:0:0:
448,192,108940,1,0,0:0:0:0:
320,192,108940,1,0,0:0:0:0:
192,192,108940,1,0,0:0:0:0:
64,192,108998,1,0,0:0:0:0:
320,192,109056,1,0,0:0:0:0:
448,192,109113,1,0,0:0:0:0:
64,192,109171,1,0,0:0:0:0:
320,192,109229,1,0,0:0:0:0:
192,192,109286,1,0,0:0:0:0:
64,192,109344,1,0,0:0:0:0:
448,192,109402,1,0,0:0:0:0:
192,192,109459,1,0,0:0:0:0:
320,192,109517,1,0,0:0:0:0:
448,192,109575,1,0,0:0:0:0:
64,192,109633,1,0,0:0:0:0:
320,192,109690,1,0,0:0:0:0:
192,192,109748,1,0,0:0:0:0:
64,192,109806,1,0,0:0:0:0:
448,192,109863,1,0,0:0:0:0:
320,192,109863,1,0,0:0:0:0:
192,192,109863,1,0,0:0:0:0:
64,192,109921,1,0,0:0:0:0:
320,192,109979,1,0,0:0:0:0:
448,192,110036,1,0,0:0:0:0:
64,192,110094,1,0,0:0:0:0:
192,192,110152,1,0,0:0:0:0:
448,192,110209,1,0,0:0:0:0:
320,192,110267,1,0,0:0:0:0:
192,192,110325,1,0,0:0:0:0:
64,192,110325,1,0,0:0:0:0:
320,192,110440,1,0,0:0:0:0:
448,192,110440,1,0,0:0:0:0:
64,192,110786,1,0,0:0:0:0:
448,192,110786,1,0,0:0:0:0:
192,192,110786,1,0,0:0:0:0:
320,192,110844,1,0,0:0:0:0:
192,192,110902,1,0,0:0:0:0:
64,192,110902,1,0,0:0:0:0:
448,192,110959,1,0,0:0:0:0:
320,192,111017,1,0,0:0:0:0:
192,192,111017,1,0,0:0:0:0:
64,192,111075,1,0,0:0:0:0:
448,192,111133,1,0,0:0:0:0:
320,192,111133,1,0,0:0:0:0:
192,192,111190,1,0,0:0:0:0:
448,192,111248,1,0,0:0:0:0:
64,192,111248,1,0,0:0:0:0:
320,192,111306,1,0,0:0:0:0:
64,192,111363,1,0,0:0:0:0:
192,192,111363,1,0,0:0:0:0:
448,192,111421,1,0,0:0:0:0:
192,192,111479,1,0,0:0:0:0:
320,192,111479,1,0,0:0:0:0:
64,192,111536,1,0,0:0:0:0:
448,192,111594,1,0,0:0:0:0:
320,192,111594,1,0,0:0:0:0:
192,192,111652,1,0,0:0:0:0:
64,192,111709,1,0,0:0:0:0:
448,192,111709,1,0,0:0:0:0:
320,192,111767,1,0,0:0:0:0:
192,192,111825,1,0,0:0:0:0:
64,192,111825,1,0,0:0:0:0:
448,192,111883,1,0,0:0:0:0:
320,192,111940,1,0,0:0:0:0:
64,192,111940,1,0,0:0:0:0:
192,192,111998,1,0,0:0:0:0:
320,192,112056,1,0,0:0:0:0:
448,192,112056,1,0,0:0:0:0:
64,192,112113,1,0,0:0:0:0:
192,192,112171,1,0,0:0:0:0:
448,192,112171,1,0,0:0:0:0:
320,192,112171,1,0,0:0:0:0:
448,192,112633,1,0,0:0:0:0:
64,192,112633,1,0,0:0:0:0:
192,192,112633,1,0,0:0:0:0:
320,192,112690,1,0,0:0:0:0:
192,192,112748,1,0,0:0:0:0:
64,192,112806,1,0,0:0:0:0:
448,192,112863,1,0,0:0:0:0:
192,192,112921,1,0,0:0:0:0:
320,192,112979,1,0,0:0:0:0:
64,192,113036,1,0,0:0:0:0:
192,192,113094,1,0,0:0:0:0:
448,192,113152,1,0,0:0:0:0:
320,192,113209,1,0,0:0:0:0:
192,192,113267,1,0,0:0:0:0:
64,192,113325,1,0,0:0:0:0:
448,192,113383,1,0,0:0:0:0:
192,192,113440,1,0,0:0:0:0:
320,192,113498,1,0,0:0:0:0:
448,192,113556,1,0,0:0:0:0:
64,192,113556,1,0,0:0:0:0:
192,192,113556,1,0,0:0:0:0:
320,192,113613,1,0,0:0:0:0:
448,192,113671,1,0,0:0:0:0:
64,192,113729,1,0,0:0:0:0:
320,192,113786,1,0,0:0:0:0:
192,192,113844,1,0,0:0:0:0:
64,192,113902,1,0,0:0:0:0:
448,192,113959,1,0,0:0:0:0:
320,192,114017,1,0,0:0:0:0:
192,192,114017,1,0,0:0:0:0:
64,192,114133,1,0,0:0:0:0:
448,192,114133,1,0,0:0:0:0:
448,192,114479,1,0,0:0:0:0:
320,192,114479,1,0,0:0:0:0:
64,192,114536,1,0,0:0:0:0:
192,192,114594,1,0,0:0:0:0:
320,192,114652,1,0,0:0:0:0:
448,192,114709,1,0,0:0:0:0:
64,192,114767,1,0,0:0:0:0:
320,192,114825,1,0,0:0:0:0:
192,192,114883,1,0,0:0:0:0:
64,192,114940,1,0,0:0:0:0:
448,192,114998,1,0,0:0:0:0:
192,192,115056,1,0,0:0:0:0:
320,192,115113,1,0,0:0:0:0:
448,192,115171,1,0,0:0:0:0:
64,192,115229,1,0,0:0:0:0:
192,192,115286,1,0,0:0:0:0:
320,192,115344,1,0,0:0:0:0:
448,192,115402,1,0,0:0:0:0:
64,192,115402,1,0,0:0:0:0:
192,192,115402,1,0,0:0:0:0:
320,192,115459,1,0,0:0:0:0:
64,192,115517,1,0,0:0:0:0:
192,192,115575,1,0,0:0:0:0:
448,192,115633,1,0,0:0:0:0:
320,192,115690,1,0,0:0:0:0:
192,192,115748,1,0,0:0:0:0:
64,192,115806,1,0,0:0:0:0:
448,192,115863,1,0,0:0:0:0:
192,192,115921,1,0,0:0:0:0:
320,192,115979,1,0,0:0:0:0:
64,192,116036,1,0,0:0:0:0:
448,192,116094,1,0,0:0:0:0:
320,192,116094,1,0,0:0:0:0:
192,192,116152,1,0,0:0:0:0:
64,192,116209,1,0,0:0:0:0:
448,192,116209,1,0,0:0:0:0:
320,192,116267,1,0,0:0:0:0:
192,192,116325,1,0,0:0:0:0:
64,192,116325,1,0,0:0:0:0:
448,192,116325,1,0,0:0:0:0:
320,192,116383,1,0,0:0:0:0:
64,192,116440,1,0,0:0:0:0:
192,192,116498,1,0,0:0:0:0:
320,192,116556,1,0,0:0:0:0:
448,192,116613,1,0,0:0:0:0:
64,192,116671,1,0,0:0:0:0:
320,192,116729,1,0,0:0:0:0:
192,192,116786,1,0,0:0:0:0:
64,192,116844,1,0,0:0:0:0:
448,192,116902,1,0,0:0:0:0:
320,192,116959,1,0,0:0:0:0:
192,192,117017,1,0,0:0:0:0:
448,192,117075,1,0,0:0:0:0:
64,192,117133,1,0,0:0:0:0:
320,192,117190,1,0,0:0:0:0:
448,192,117248,1,0,0:0:0:0:
192,192,117248,1,0,0:0:0:0:
64,192,117248,1,0,0:0:0:0:
320,192,117306,1,0,0:0:0:0:
192,192,117363,1,0,0:0:0:0:
64,192,117421,1,0,0:0:0:0:
448,192,117479,1,0,0:0:0:0:
192,192,117536,1,0,0:0:0:0:
320,192,117594,1,0,0:0:0:0:
448,192,117652,1,0,0:0:0:0:
64,192,117709,1,0,0:0:0:0:
192,192,117709,1,0,0:0:0:0:
320,192,117825,1,0,0:0:0:0:
448,192,117825,1,0,0:0:0:0:
448,192,118171,1,0,0:0:0:0:
320,192,118171,1,0,0:0:0:0:
64,192,118171,1,0,0:0:0:0:
192,192,118229,1,0,0:0:0:0:
448,192,118286,1,0,0:0:0:0:
320,192,118286,1,0,0:0:0:0:
192,192,118344,1,0,0:0:0:0:
64,192,118344,1,0,0:0:0:0:
448,192,118402,1,0,0:0:0:0:
64,192,118459,1,0,0:0:0:0:
320,192,118517,1,0,0:0:0:0:
192,192,118575,1,0,0:0:0:0:
64,192,118633,1,0,0:0:0:0:
320,192,118633,1,0,0:0:0:0:
448,192,118690,1,0,0:0:0:0:
320,192,118748,1,0,0:0:0:0:
192,192,118806,1,0,0:0:0:0:
448,192,118863,1,0,0:0:0:0:
64,192,118921,1,0,0:0:0:0:
192,192,118979,1,0,0:0:0:0:
320,192,119036,1,0,0:0:0:0:
64,192,119094,1,0,0:0:0:0:
192,192,119094,1,0,0:0:0:0:
448,192,119152,1,0,0:0:0:0:
320,192,119209,1,0,0:0:0:0:
64,192,119267,1,0,0:0:0:0:
448,192,119325,1,0,0:0:0:0:
192,192,119325,1,0,0:0:0:0:
320,192,119383,1,0,0:0:0:0:
192,192,119440,1,0,0:0:0:0:
64,192,119440,1,0,0:0:0:0:
320,192,119498,1,0,0:0:0:0:
448,192,119498,1,0,0:0:0:0:
192,192,119556,1,0,0:0:0:0:
320,192,119613,1,0,0:0:0:0:
64,192,119671,1,0,0:0:0:0:
448,192,119729,1,0,0:0:0:0:
192,192,119786,1,0,0:0:0:0:
64,192,119786,1,0,0:0:0:0:
320,192,119844,1,0,0:0:0:0:
448,192,119844,1,0,0:0:0:0:
192,192,119902,1,0,0:0:0:0:
64,192,119902,1,0,0:0:0:0:
448,192,119959,1,0,0:0:0:0:
320,192,120017,1,0,0:0:0:0:
192,192,120017,1,0,0:0:0:0:
64,192,120017,1,0,0:0:0:0:
448,192,120075,1,0,0:0:0:0:
192,192,120133,1,0,0:0:0:0:
64,192,120190,1,0,0:0:0:0:
448,192,120248,1,0,0:0:0:0:
192,192,120306,1,0,0:0:0:0:
320,192,120363,1,0,0:0:0:0:
448,192,120421,1,0,0:0:0:0:
64,192,120479,1,0,0:0:0:0:
192,192,120536,1,0,0:0:0:0:
320,192,120594,1,0,0:0:0:0:
448,192,120652,1,0,0:0:0:0:
64,192,120709,1,0,0:0:0:0:
320,192,120767,1,0,0:0:0:0:
192,192,120825,1,0,0:0:0:0:
64,192,120883,1,0,0:0:0:0:
192,192,120940,1,0,0:0:0:0:
320,192,120940,1,0,0:0:0:0:
448,192,120940,1,0,0:0:0:0:
64,192,120998,1,0,0:0:0:0:
448,192,121056,1,0,0:0:0:0:
320,192,121113,1,0,0:0:0:0:
192,192,121171,1,0,0:0:0:0:
64,192,121229,1,0,0:0:0:0:
448,192,121286,1,0,0:0:0:0:
320,192,121344,1,0,0:0:0:0:
192,192,121402,1,0,0:0:0:0:
64,192,121402,1,0,0:0:0:0:
64,192,121863,1,0,0:0:0:0:
448,192,121863,1,0,0:0:0:0:
192,192,121921,1,0,0:0:0:0:
320,192,121979,1,0,0:0:0:0:
448,192,122036,1,0,0:0:0:0:
192,192,122094,1,0,0:0:0:0:
64,192,122152,1,0,0:0:0:0:
448,192,122209,1,0,0:0:0:0:
192,192,122267,1,0,0:0:0:0:
320,192,122325,1,0,0:0:0:0:
448,192,122383,1,0,0:0:0:0:
64,192,122440,1,0,0:0:0:0:
320,192,122498,1,0,0:0:0:0:
192,192,122556,1,0,0:0:0:0:
64,192,122613,1,0,0:0:0:0:
448,192,122671,1,0,0:0:0:0:
320,192,122729,1,0,0:0:0:0:
448,192,122786,1,0,0:0:0:0:
64,192,122786,1,0,0:0:0:0:
192,192,122786,1,0,0:0:0:0:
320,192,122844,1,0,0:0:0:0:
192,192,122902,1,0,0:0:0:0:
448,192,122959,1,0,0:0:0:0:
64,192,123017,1,0,0:0:0:0:
192,192,123075,1,0,0:0:0:0:
320,192,123133,1,0,0:0:0:0:
448,192,123190,1,0,0:0:0:0:
64,192,123248,1,0,0:0:0:0:
320,192,123306,1,0,0:0:0:0:
192,192,123363,1,0,0:0:0:0:
64,192,123421,1,0,0:0:0:0:
448,192,123479,1,0,0:0:0:0:
192,192,123536,1,0,0:0:0:0:
320,192,123594,1,0,0:0:0:0:
448,192,123652,1,0,0:0:0:0:
320,192,123709,1,0,0:0:0:0:
192,192,123709,1,0,0:0:0:0:
64,192,123709,1,0,0:0:0:0:
448,192,123767,1,0,0:0:0:0:
192,192,123825,1,0,0:0:0:0:
64,192,123883,1,0,0:0:0:0:
448,192,123940,1,0,0:0:0:0:
192,192,123998,1,0,0:0:0:0:
320,192,124056,1,0,0:0:0:0:
448,192,124113,1,0,0:0:0:0:
64,192,124171,1,0,0:0:0:0:
320,192,124229,1,0,0:0:0:0:
192,192,124286,1,0,0:0:0:0:
64,192,124344,1,0,0:0:0:0:
448,192,124402,1,0,0:0:0:0:
192,192,124459,1,0,0:0:0:0:
320,192,124517,1,0,0:0:0:0:
448,192,124575,1,0,0:0:0:0:
320,192,124633,1,0,0:0:0:0:
192,192,124633,1,0,0:0:0:0:
64,192,124633,1,0,0:0:0:0:
448,192,124690,1,0,0:0:0:0:
192,192,124748,1,0,0:0:0:0:
64,192,124806,1,0,0:0:0:0:
448,192,124863,1,0,0:0:0:0:
320,192,124921,1,0,0:0:0:0:
64,192,124979,1,0,0:0:0:0:
192,192,125036,1,0,0:0:0:0:
448,192,125094,1,0,0:0:0:0:
320,192,125094,1,0,0:0:0:0:
192,192,125325,1,0,0:0:0:0:
64,192,125556,1,0,0:0:0:0:
448,192,125556,1,0,0:0:0:0:
320,192,125556,1,0,0:0:0:0:
192,192,125613,1,0,0:0:0:0:
448,192,125671,1,0,0:0:0:0:
320,192,125671,1,0,0:0:0:0:
64,192,125729,1,0,0:0:0:0:
320,192,125786,1,0,0:0:0:0:
192,192,125786,1,0,0:0:0:0:
448,192,125844,1,0,0:0:0:0:
192,192,125902,1,0,0:0:0:0:
64,192,125902,1,0,0:0:0:0:
320,192,125959,1,0,0:0:0:0:
448,192,126017,1,0,0:0:0:0:
64,192,126017,1,0,0:0:0:0:
192,192,126075,1,0,0:0:0:0:
320,192,126133,1,0,0:0:0:0:
448,192,126133,1,0,0:0:0:0:
64,192,126190,1,0,0:0:0:0:
192,192,126248,1,0,0:0:0:0:
320,192,126248,1,0,0:0:0:0:
448,192,126306,1,0,0:0:0:0:
192,192,126363,1,0,0:0:0:0:
64,192,126363,1,0,0:0:0:0:
320,192,126421,1,0,0:0:0:0:
64,192,126479,1,0,0:0:0:0:
448,192,126479,1,0,0:0:0:0:
192,192,126536,1,0,0:0:0:0:
448,192,126594,1,0,0:0:0:0:
320,192,126594,1,0,0:0:0:0:
64,192,126652,1,0,0:0:0:0:
448,192,126709,1,0,0:0:0:0:
192,192,126709,1,0,0:0:0:0:
320,192,126767,1,0,0:0:0:0:
64,192,126825,1,0,0:0:0:0:
192,192,126825,1,0,0:0:0:0:
448,192,126883,1,0,0:0:0:0:
192,192,126940,1,0,0:0:0:0:
64,192,126940,1,0,0:0:0:0:
320,192,126940,1,0,0:0:0:0:
448,192,127402,1,0,0:0:0:0:
64,192,127402,1,0,0:0:0:0:
320,192,127402,1,0,0:0:0:0:
192,192,127459,1,0,0:0:0:0:
320,192,127517,1,0,0:0:0:0:
448,192,127575,1,0,0:0:0:0:
64,192,127633,1,0,0:0:0:0:
320,192,127690,1,0,0:0:0:0:
192,192,127748,1,0,0:0:0:0:
448,192,127806,1,0,0:0:0:0:
320,192,127863,1,0,0:0:0:0:
64,192,127921,1,0,0:0:0:0:
192,192,127979,1,0,0:0:0:0:
320,192,128036,1,0,0:0:0:0:
448,192,128094,1,0,0:0:0:0:
64,192,128152,1,0,0:0:0:0:
320,192,128209,1,0,0:0:0:0:
192,192,128267,1,0,0:0:0:0:
320,192,128325,1,0,0:0:0:0:
448,192,128325,1,0,0:0:0:0:
64,192,128325,1,0,0:0:0:0:
192,192,128383,1,0,0:0:0:0:
64,192,128440,1,0,0:0:0:0:
448,192,128498,1,0,0:0:0:0:
192,192,128556,1,0,0:0:0:0:
320,192,128613,1,0,0:0:0:0:
448,192,128671,1,0,0:0:0:0:
64,192,128729,1,0,0:0:0:0:
320,192,128786,1,0,0:0:0:0:
192,192,128786,1,0,0:0:0:0:
64,192,129248,1,0,0:0:0:0:
192,192,129248,1,0,0:0:0:0:
448,192,129306,1,0,0:0:0:0:
320,192,129363,1,0,0:0:0:0:
192,192,129421,1,0,0:0:0:0:
64,192,129479,1,0,0:0:0:0:
448,192,129536,1,0,0:0:0:0:
192,192,129594,1,0,0:0:0:0:
320,192,129652,1,0,0:0:0:0:
448,192,129709,1,0,0:0:0:0:
64,192,129767,1,0,0:0:0:0:
320,192,129825,1,0,0:0:0:0:
192,192,129883,1,0,0:0:0:0:
64,192,129940,1,0,0:0:0:0:
448,192,129998,1,0,0:0:0:0:
320,192,130056,1,0,0:0:0:0:
192,192,130113,1,0,0:0:0:0:
320,192,130171,1,0,0:0:0:0:
448,192,130171,1,0,0:0:0:0:
64,192,130171,1,0,0:0:0:0:
192,192,130229,1,0,0:0:0:0:
448,192,130286,1,0,0:0:0:0:
320,192,130344,1,0,0:0:0:0:
64,192,130402,1,0,0:0:0:0:
192,192,130459,1,0,0:0:0:0:
320,192,130517,1,0,0:0:0:0:
448,192,130575,1,0,0:0:0:0:
64,192,130633,1,0,0:0:0:0:
320,192,130690,1,0,0:0:0:0:
192,192,130748,1,0,0:0:0:0:
448,192,130806,1,0,0:0:0:0:
192,192,130863,1,0,0:0:0:0:
64,192,130863,1,0,0:0:0:0:
320,192,130921,1,0,0:0:0:0:
64,192,130979,1,0,0:0:0:0:
448,192,130979,1,0,0:0:0:0:
192,192,131036,1,0,0:0:0:0:
64,192,131094,1,0,0:0:0:0:
448,192,131094,1,0,0:0:0:0:
320,192,131094,1,0,0:0:0:0:
192,192,131152,1,0,0:0:0:0:
448,192,131209,1,0,0:0:0:0:
320,192,131267,1,0,0:0:0:0:
192,192,131325,1,0,0:0:0:0:
64,192,131383,1,0,0:0:0:0:
448,192,131440,1,0,0:0:0:0:
192,192,131498,1,0,0:0:0:0:
320,192,131556,1,0,0:0:0:0:
448,192,131613,1,0,0:0:0:0:
64,192,131671,1,0,0:0:0:0:
192,192,131729,1,0,0:0:0:0:
320,192,131786,1,0,0:0:0:0:
64,192,131844,1,0,0:0:0:0:
448,192,131902,1,0,0:0:0:0:
192,192,131959,1,0,0:0:0:0:
448,192,132017,1,0,0:0:0:0:
320,192,132017,1,0,0:0:0:0:
64,192,132017,1,0,0:0:0:0:
192,192,132075,1,0,0:0:0:0:
320,192,132133,1,0,0:0:0:0:
448,192,132190,1,0,0:0:0:0:
64,192,132248,1,0,0:0:0:0:
320,192,132306,1,0,0:0:0:0:
192,192,132363,1,0,0:0:0:0:
64,192,132421,1,0,0:0:0:0:
448,192,132479,1,0,0:0:0:0:
320,192,132479,1,0,0:0:0:0:
448,192,132940,1,0,0:0:0:0:
192,192,132940,1,0,0:0:0:0:
64,192,132940,1,0,0:0:0:0:
320,192,132998,1,0,0:0:0:0:
64,192,133056,1,0,0:0:0:0:
192,192,133113,1,0,0:0:0:0:
320,192,133171,1,0,0:0:0:0:
448,192,133171,1,0,0:0:0:0:
64,192,133229,1,0,0:0:0:0:
192,192,133229,1,0,0:0:0:0:
320,192,133286,1,0,0:0:0:0:
448,192,133286,1,0,0:0:0:0:
192,192,133344,1,0,0:0:0:0:
64,192,133344,1,0,0:0:0:0:
448,192,133402,1,0,0:0:0:0:
320,192,133402,1,0,0:0:0:0:
64,192,133459,1,0,0:0:0:0:
192,192,133517,1,0,0:0:0:0:
320,192,133575,1,0,0:0:0:0:
64,192,133633,1,0,0:0:0:0:
448,192,133690,1,0,0:0:0:0:
320,192,133748,1,0,0:0:0:0:
192,192,133806,1,0,0:0:0:0:
448,192,133863,1,0,0:0:0:0:
64,192,133921,1,0,0:0:0:0:
192,192,133979,1,0,0:0:0:0:
448,192,134036,1,0,0:0:0:0:
192,192,134094,1,0,0:0:0:0:
320,192,134094,1,0,0:0:0:0:
64,192,134152,1,0,0:0:0:0:
320,192,134209,1,0,0:0:0:0:
448,192,134209,1,0,0:0:0:0:
192,192,134267,1,0,0:0:0:0:
320,192,134325,1,0,0:0:0:0:
64,192,134383,1,0,0:0:0:0:
448,192,134440,1,0,0:0:0:0:
64,192,134498,1,0,0:0:0:0:
448,192,134556,1,0,0:0:0:0:
320,192,134556,1,0,0:0:0:0:
64,192,134613,1,0,0:0:0:0:
192,192,134613,1,0,0:0:0:0:
448,192,134671,1,0,0:0:0:0:
320,192,134671,1,0,0:0:0:0:
192,192,134729,1,0,0:0:0:0:
320,192,134786,1,0,0:0:0:0:
448,192,134786,1,0,0:0:0:0:
64,192,134786,1,0,0:0:0:0:
64,192,134902,1,0,0:0:0:0:
192,192,134902,1,0,0:0:0:0:
64,192,135017,1,0,0:0:0:0:
192,192,135017,1,0,0:0:0:0:
320,192,135017,1,0,0:0:0:0:
448,192,135133,1,0,0:0:0:0:
320,192,135133,1,0,0:0:0:0:
192,192,135133,1,0,0:0:0:0:
320,192,135248,1,0,0:0:0:0:
64,192,135248,1,0,0:0:0:0:
448,192,135248,1,0,0:0:0:0:
192,192,135363,1,0,0:0:0:0:
448,192,135363,1,0,0:0:0:0:
192,192,135479,1,0,0:0:0:0:
64,192,135479,1,0,0:0:0:0:
320,192,135479,1,0,0:0:0:0:
320,192,135594,1,0,0:0:0:0:
448,192,135594,1,0,0:0:0:0:
64,192,135594,1,0,0:0:0:0:
448,192,135709,1,0,0:0:0:0:
192,192,135709,1,0,0:0:0:0:
64,192,135825,1,0,0:0:0:0:
320,192,135825,1,0,0:0:0:0:
192,192,135825,1,0,0:0:0:0:
192,192,135940,1,0,0:0:0:0:
448,192,135940,1,0,0:0:0:0:
448,192,136056,1,0,0:0:0:0:
320,192,136056,1,0,0:0:0:0:
64,192,136056,1,0,0:0:0:0:
192,192,136171,1,0,0:0:0:0:
320,192,136171,1,0,0:0:0:0:
192,192,136286,1,0,0:0:0:0:
448,192,136286,1,0,0:0:0:0:
64,192,136286,1,0,0:0:0:0:
448,192,136402,1,0,0:0:0:0:
64,192,136402,1,0,0:0:0:0:
320,192,136402,1,0,0:0:0:0:
192,192,136517,1,0,0:0:0:0:
320,192,136517,1,0,0:0:0:0:
64,192,136517,1,0,0:0:0:0:
448,192,136633,1,0,0:0:0:0:
64,192,136633,1,0,0:0:0:0:
192,192,136633,1,0,0:0:0:0:
320,192,136690,1,0,0:0:0:0:
192,192,136748,1,0,0:0:0:0:
448,192,136748,1,0,0:0:0:0:
64,192,136806,1,0,0:0:0:0:
320,192,136863,1,0,0:0:0:0:
448,192,136863,1,0,0:0:0:0:
192,192,136921,1,0,0:0:0:0:
448,192,136979,1,0,0:0:0:0:
64,192,136979,1,0,0:0:0:0:
320,192,137036,1,0,0:0:0:0:
192,192,137094,1,0,0:0:0:0:
64,192,137094,1,0,0:0:0:0:
320,192,137152,1,0,0:0:0:0:
192,192,137209,1,0,0:0:0:0:
448,192,137209,1,0,0:0:0:0:
64,192,137267,1,0,0:0:0:0:
320,192,137325,1,0,0:0:0:0:
448,192,137325,1,0,0:0:0:0:
64,192,137383,1,0,0:0:0:0:
192,192,137440,1,0,0:0:0:0:
320,192,137440,1,0,0:0:0:0:
448,192,137498,1,0,0:0:0:0:
64,192,137556,1,0,0:0:0:0:
192,192,137613,1,0,0:0:0:0:
64,192,137671,1,0,0:0:0:0:
448,192,137786,1,0,0:0:0:0:
320,192,137844,1,0,0:0:0:0:
192,192,137902,1,0,0:0:0:0:
64,192,137959,1,0,0:0:0:0:
448,192,138017,1,0,0:0:0:0:
320,192,138017,1,0,0:0:0:0:
192,192,138017,1,0,0:0:0:0:
64,192,138133,1,0,0:0:0:0:
192,192,138190,1,0,0:0:0:0:
320,192,138248,1,0,0:0:0:0:
192,192,138306,1,0,0:0:0:0:
320,192,138363,1,0,0:0:0:0:
192,192,138421,1,0,0:0:0:0:
64,192,138479,1,0,0:0:0:0:
448,192,138479,1,0,0:0:0:0:
448,192,138594,1,0,0:0:0:0:
320,192,138594,1,0,0:0:0:0:
320,192,138709,1,0,0:0:0:0:
64,192,138767,1,0,0:0:0:0:
192,192,138767,1,0,0:0:0:0:
448,192,138825,1,0,0:0:0:0:
64,192,138883,1,0,0:0:0:0:
320,192,138883,1,0,0:0:0:0:
192,192,138940,1,0,0:0:0:0:
448,192,138998,1,0,0:0:0:0:
320,192,138998,1,0,0:0:0:0:
64,192,139056,1,0,0:0:0:0:
192,192,139113,1,0,0:0:0:0:
448,192,139113,1,0,0:0:0:0:
320,192,139171,1,0,0:0:0:0:
64,192,139229,1,0,0:0:0:0:
192,192,139229,1,0,0:0:0:0:
320,192,139286,1,0,0:0:0:0:
64,192,139344,1,0,0:0:0:0:
448,192,139344,1,0,0:0:0:0:
192,192,139402,1,0,0:0:0:0:
448,192,139459,1,0,0:0:0:0:
64,192,139459,1,0,0:0:0:0:
320,192,139517,1,0,0:0:0:0:
64,192,139575,1,0,0:0:0:0:
192,192,139575,1,0,0:0:0:0:
320,192,139633,1,0,0:0:0:0:
192,192,139690,1,0,0:0:0:0:
448,192,139690,1,0,0:0:0:0:
64,192,139748,1,0,0:0:0:0:
320,192,139806,1,0,0:0:0:0:
448,192,139806,1,0,0:0:0:0:
64,192,139863,1,0,0:0:0:0:
448,192,139921,1,0,0:0:0:0:
320,192,139921,1,0,0:0:0:0:
192,192,139979,1,0,0:0:0:0:
320,192,140036,1,0,0:0:0:0:
64,192,140036,1,0,0:0:0:0:
448,192,140094,1,0,0:0:0:0:
64,192,140152,1,0,0:0:0:0:
192,192,140152,1,0,0:0:0:0:
320,192,140209,1,0,0:0:0:0:
448,192,140267,1,0,0:0:0:0:
64,192,140267,1,0,0:0:0:0:
320,192,140556,1,0,0:0:0:0:
192,192,140556,1,0,0:0:0:0:
64,192,140556,1,0,0:0:0:0:
448,192,140613,1,0,0:0:0:0:
64,192,140671,1,0,0:0:0:0:
192,192,140729,1,0,0:0:0:0:
448,192,140786,1,0,0:0:0:0:
320,192,140786,1,0,0:0:0:0:
64,192,140844,1,0,0:0:0:0:
192,192,140844,1,0,0:0:0:0:
448,192,140902,1,0,0:0:0:0:
320,192,140902,1,0,0:0:0:0:
64,192,140959,1,0,0:0:0:0:
192,192,140959,1,0,0:0:0:0:
448,192,141017,1,0,0:0:0:0:
320,192,141017,1,0,0:0:0:0:
192,192,141075,1,0,0:0:0:0:
64,192,141075,1,0,0:0:0:0:
448,192,141133,1,0,0:0:0:0:
320,192,141133,1,0,0:0:0:0:
192,192,141190,1,0,0:0:0:0:
64,192,141190,1,0,0:0:0:0:
448,192,141248,1,0,0:0:0:0:
320,192,141306,1,0,0:0:0:0:
192,192,141363,1,0,0:0:0:0:
64,192,141421,1,0,0:0:0:0:
448,192,141479,1,0,0:0:0:0:
320,192,141479,1,0,0:0:0:0:
64,192,141594,1,0,0:0:0:0:
192,192,141594,1,0,0:0:0:0:
448,192,141709,1,0,0:0:0:0:
320,192,141709,1,0,0:0:0:0:
64,192,141709,1,0,0:0:0:0:
192,192,141825,1,0,0:0:0:0:
320,192,141883,1,0,0:0:0:0:
64,192,141940,1,0,0:0:0:0:
448,192,142056,1,0,0:0:0:0:
320,192,142056,1,0,0:0:0:0:
192,192,142113,1,0,0:0:0:0:
448,192,142171,1,0,0:0:0:0:
320,192,142171,1,0,0:0:0:0:
64,192,142171,1,0,0:0:0:0:
192,192,142286,1,0,0:0:0:0:
448,192,142286,1,0,0:0:0:0:
64,192,142402,1,0,0:0:0:0:
192,192,142402,1,0,0:0:0:0:
320,192,142402,1,0,0:0:0:0:
448,192,142517,1,0,0:0:0:0:
320,192,142517,1,0,0:0:0:0:
64,192,142517,1,0,0:0:0:0:
448,192,142633,1,0,0:0:0:0:
192,192,142633,1,0,0:0:0:0:
320,192,142633,1,0,0:0:0:0:
64,192,142748,1,0,0:0:0:0:
192,192,142748,1,0,0:0:0:0:
192,192,142863,1,0,0:0:0:0:
448,192,142863,1,0,0:0:0:0:
64,192,142863,1,0,0:0:0:0:
448,192,142979,1,0,0:0:0:0:
320,192,142979,1,0,0:0:0:0:
64,192,142979,1,0,0:0:0:0:
320,192,143094,1,0,0:0:0:0:
192,192,143094,1,0,0:0:0:0:
64,192,143209,1,0,0:0:0:0:
192,192,143209,1,0,0:0:0:0:
448,192,143209,1,0,0:0:0:0:
320,192,143325,1,0,0:0:0:0:
448,192,143325,1,0,0:0:0:0:
192,192,143440,1,0,0:0:0:0:
64,192,143440,1,0,0:0:0:0:
320,192,143440,1,0,0:0:0:0:
448,192,143556,1,0,0:0:0:0:
64,192,143556,1,0,0:0:0:0:
192,192,143671,1,0,0:0:0:0:
320,192,143671,1,0,0:0:0:0:
448,192,143671,1,0,0:0:0:0:
448,192,143786,1,0,0:0:0:0:
64,192,143786,1,0,0:0:0:0:
192,192,143786,1,0,0:0:0:0:
192,192,143902,1,0,0:0:0:0:
64,192,143902,1,0,0:0:0:0:
320,192,143902,1,0,0:0:0:0:
320,192,144017,1,0,0:0:0:0:
448,192,144017,1,0,0:0:0:0:
64,192,144075,1,0,0:0:0:0:
320,192,144133,1,0,0:0:0:0:
192,192,144133,1,0,0:0:0:0:
448,192,144190,1,0,0:0:0:0:
192,192,144248,1,0,0:0:0:0:
64,192,144248,1,0,0:0:0:0:
320,192,144306,1,0,0:0:0:0:
64,192,144363,1,0,0:0:0:0:
448,192,144363,1,0,0:0:0:0:
192,192,144421,1,0,0:0:0:0:
320,192,144479,1,0,0:0:0:0:
448,192,144479,1,0,0:0:0:0:
64,192,144536,1,0,0:0:0:0:
192,192,144594,1,0,0:0:0:0:
448,192,144594,1,0,0:0:0:0:
320,192,144652,1,0,0:0:0:0:
64,192,144709,1,0,0:0:0:0:
192,192,144709,1,0,0:0:0:0:
448,192,144767,1,0,0:0:0:0:
192,192,144825,1,0,0:0:0:0:
64,192,144883,1,0,0:0:0:0:
320,192,144940,1,0,0:0:0:0:
192,192,144998,1,0,0:0:0:0:
320,192,145056,1,0,0:0:0:0:
448,192,145113,1,0,0:0:0:0:
192,192,145171,1,0,0:0:0:0:
64,192,145171,1,0,0:0:0:0:
448,192,145229,1,0,0:0:0:0:
320,192,145229,1,0,0:0:0:0:
64,192,145286,1,0,0:0:0:0:
192,192,145286,1,0,0:0:0:0:
320,192,145344,1,0,0:0:0:0:
448,192,145402,1,0,0:0:0:0:
192,192,145402,1,0,0:0:0:0:
64,192,145402,1,0,0:0:0:0:
320,192,145517,1,0,0:0:0:0:
192,192,145575,1,0,0:0:0:0:
448,192,145633,1,0,0:0:0:0:
320,192,145690,1,0,0:0:0:0:
64,192,145748,1,0,0:0:0:0:
192,192,145806,1,0,0:0:0:0:
448,192,145863,1,0,0:0:0:0:
320,192,145863,1,0,0:0:0:0:
64,192,145979,1,0,0:0:0:0:
448,192,145979,1,0,0:0:0:0:
320,192,146094,1,0,0:0:0:0:
192,192,146152,1,0,0:0:0:0:
64,192,146152,1,0,0:0:0:0:
448,192,146209,1,0,0:0:0:0:
320,192,146267,1,0,0:0:0:0:
192,192,146267,1,0,0:0:0:0:
64,192,146325,1,0,0:0:0:0:
448,192,146383,1,0,0:0:0:0:
320,192,146383,1,0,0:0:0:0:
192,192,146440,1,0,0:0:0:0:
448,192,146498,1,0,0:0:0:0:
320,192,146498,1,0,0:0:0:0:
64,192,146556,1,0,0:0:0:0:
448,192,146613,1,0,0:0:0:0:
192,192,146613,1,0,0:0:0:0:
320,192,146671,1,0,0:0:0:0:
64,192,146729,1,0,0:0:0:0:
192,192,146729,1,0,0:0:0:0:
320,192,146786,1,0,0:0:0:0:
448,192,146786,1,0,0:0:0:0:
192,192,146902,1,0,0:0:0:0:
64,192,146902,1,0,0:0:0:0:
448,192,146902,1,0,0:0:0:0:
64,192,147017,1,0,0:0:0:0:
192,192,147075,1,0,0:0:0:0:
320,192,147133,1,0,0:0:0:0:
448,192,147190,1,0,0:0:0:0:
192,192,147248,1,0,0:0:0:0:
448,192,147306,1,0,0:0:0:0:
320,192,147363,1,0,0:0:0:0:
64,192,147421,1,0,0:0:0:0:
192,192,147479,1,0,0:0:0:0:
320,192,147536,1,0,0:0:0:0:
448,192,147594,1,0,0:0:0:0:
64,192,147652,1,0,0:0:0:0:
320,192,147709,1,0,0:0:0:0:
192,192,147709,1,0,0:0:0:0:
448,192,147709,1,0,0:0:0:0:
64,192,149556,1,0,0:0:0:0:
448,192,149556,1,0,0:0:0:0:
192,192,149556,1,0,0:0:0:0:
192,192,149729,1,0,0:0:0:0:
64,192,149729,1,0,0:0:0:0:
448,192,149786,1,0,0:0:0:0:
64,192,149844,1,0,0:0:0:0:
320,192,149844,1,0,0:0:0:0:
192,192,149902,1,0,0:0:0:0:
320,192,149959,1,0,0:0:0:0:
448,192,149959,1,0,0:0:0:0:
64,192,150017,1,0,0:0:0:0:
192,192,150075,1,0,0:0:0:0:
448,192,150075,1,0,0:0:0:0:
320,192,150133,1,0,0:0:0:0:
64,192,150190,1,0,0:0:0:0:
192,192,150190,1,0,0:0:0:0:
448,192,150248,1,0,0:0:0:0:
64,192,150306,1,0,0:0:0:0:
192,192,150306,1,0,0:0:0:0:
448,192,150363,1,0,0:0:0:0:
320,192,150421,1,0,0:0:0:0:
192,192,150421,1,0,0:0:0:0:
64,192,150479,1,0,0:0:0:0:
448,192,150536,1,0,0:0:0:0:
320,192,150536,1,0,0:0:0:0:
64,192,150594,1,0,0:0:0:0:
192,192,150652,1,0,0:0:0:0:
448,192,150652,1,0,0:0:0:0:
320,192,150709,1,0,0:0:0:0:
192,192,150767,1,0,0:0:0:0:
64,192,150767,1,0,0:0:0:0:
448,192,150825,1,0,0:0:0:0:
192,192,150883,1,0,0:0:0:0:
320,192,150883,1,0,0:0:0:0:
64,192,150940,1,0,0:0:0:0:
448,192,150998,1,0,0:0:0:0:
320,192,150998,1,0,0:0:0:0:
192,192,151056,1,0,0:0:0:0:
64,192,151113,1,0,0:0:0:0:
320,192,151113,1,0,0:0:0:0:
448,192,151171,1,0,0:0:0:0:
320,192,151229,1,0,0:0:0:0:
192,192,151229,1,0,0:0:0:0:
64,192,151286,1,0,0:0:0:0:
448,192,151344,1,0,0:0:0:0:
192,192,151344,1,0,0:0:0:0:
320,192,151402,1,0,0:0:0:0:
64,192,151459,1,0,0:0:0:0:
192,192,151459,1,0,0:0:0:0:
448,192,151517,1,0,0:0:0:0:
64,192,151575,1,0,0:0:0:0:
192,192,151575,1,0,0:0:0:0:
320,192,151633,1,0,0:0:0:0:
448,192,151690,1,0,0:0:0:0:
64,192,151690,1,0,0:0:0:0:
192,192,151748,1,0,0:0:0:0:
320,192,151806,1,0,0:0:0:0:
448,192,151806,1,0,0:0:0:0:
64,192,151863,1,0,0:0:0:0:
192,192,151921,1,0,0:0:0:0:
320,192,151921,1,0,0:0:0:0:
448,192,151979,1,0,0:0:0:0:
64,192,152036,1,0,0:0:0:0:
192,192,152036,1,0,0:0:0:0:
448,192,152094,1,0,0:0:0:0:
64,192,152152,1,0,0:0:0:0:
320,192,152152,1,0,0:0:0:0:
192,192,152209,1,0,0:0:0:0:
448,192,152267,1,0,0:0:0:0:
320,192,152267,1,0,0:0:0:0:
64,192,152325,1,0,0:0:0:0:
192,192,152383,1,0,0:0:0:0:
320,192,152383,1,0,0:0:0:0:
448,192,152440,1,0,0:0:0:0:
192,192,152498,1,0,0:0:0:0:
64,192,152498,1,0,0:0:0:0:
448,192,152556,1,0,0:0:0:0:
320,192,152613,1,0,0:0:0:0:
192,192,152613,1,0,0:0:0:0:
64,192,152671,1,0,0:0:0:0:
448,192,152729,1,0,0:0:0:0:
320,192,152729,1,0,0:0:0:0:
192,192,152786,1,0,0:0:0:0:
448,192,152844,1,0,0:0:0:0:
64,192,152844,1,0,0:0:0:0:
320,192,152902,1,0,0:0:0:0:
192,192,152959,1,0,0:0:0:0:
64,192,152959,1,0,0:0:0:0:
448,192,153017,1,0,0:0:0:0:
320,192,153075,1,0,0:0:0:0:
192,192,153075,1,0,0:0:0:0:
64,192,153133,1,0,0:0:0:0:
448,192,153190,1,0,0:0:0:0:
192,192,153190,1,0,0:0:0:0:
320,192,153248,1,0,0:0:0:0:
64,192,153248,1,0,0:0:0:0:
448,192,153306,1,0,0:0:0:0:
192,192,153363,1,0,0:0:0:0:
320,192,153421,1,0,0:0:0:0:
448,192,153479,1,0,0:0:0:0:
64,192,153536,1,0,0:0:0:0:
192,192,153536,1,0,0:0:0:0:
448,192,153594,1,0,0:0:0:0:
320,192,153652,1,0,0:0:0:0:
64,192,153652,1,0,0:0:0:0:
192,192,153709,1,0,0:0:0:0:
320,192,153767,1,0,0:0:0:0:
448,192,153767,1,0,0:0:0:0:
192,192,153825,1,0,0:0:0:0:
64,192,153883,1,0,0:0:0:0:
320,192,153883,1,0,0:0:0:0:
448,192,153940,1,0,0:0:0:0:
64,192,153998,1,0,0:0:0:0:
192,192,153998,1,0,0:0:0:0:
448,192,154056,1,0,0:0:0:0:
64,192,154113,5,0,0:0:0:0:
320,192,154113,1,0,0:0:0:0:
192,192,154171,1,0,0:0:0:0:
448,192,154229,1,0,0:0:0:0:
320,192,154229,1,0,0:0:0:0:
64,192,154286,1,0,0:0:0:0:
192,192,154344,1,0,0:0:0:0:
448,192,154344,1,0,0:0:0:0:
320,192,154402,1,0,0:0:0:0:
192,192,154459,1,0,0:0:0:0:
64,192,154459,1,0,0:0:0:0:
448,192,154517,1,0,0:0:0:0:
64,192,154575,1,0,0:0:0:0:
192,192,154575,1,0,0:0:0:0:
320,192,154633,1,0,0:0:0:0:
448,192,154690,1,0,0:0:0:0:
64,192,154690,1,0,0:0:0:0:
192,192,154748,1,0,0:0:0:0:
320,192,154806,1,0,0:0:0:0:
448,192,154806,1,0,0:0:0:0:
192,192,154863,1,0,0:0:0:0:
64,192,154921,1,0,0:0:0:0:
448,192,154921,1,0,0:0:0:0:
320,192,154979,1,0,0:0:0:0:
64,192,155036,1,0,0:0:0:0:
448,192,155036,1,0,0:0:0:0:
192,192,155094,1,0,0:0:0:0:
320,192,155094,1,0,0:0:0:0:
64,192,155209,1,0,0:0:0:0:
448,192,155209,1,0,0:0:0:0:
192,192,155325,1,0,0:0:0:0:
64,192,155325,1,0,0:0:0:0:
320,192,155440,1,0,0:0:0:0:
448,192,155440,1,0,0:0:0:0:
64,192,155556,1,0,0:0:0:0:
448,192,155556,1,0,0:0:0:0:
192,192,155671,1,0,0:0:0:0:
64,192,155671,1,0,0:0:0:0:
448,192,155786,1,0,0:0:0:0:
64,192,155786,1,0,0:0:0:0:
320,192,155786,1,0,0:0:0:0:
192,192,155902,1,0,0:0:0:0:
320,192,155902,1,0,0:0:0:0:
192,192,156017,1,0,0:0:0:0:
448,192,156017,1,0,0:0:0:0:
64,192,156017,1,0,0:0:0:0:
448,192,156133,1,0,0:0:0:0:
320,192,156133,1,0,0:0:0:0:
192,192,156248,1,0,0:0:0:0:
64,192,156248,1,0,0:0:0:0:
448,192,156363,1,0,0:0:0:0:
64,192,156363,1,0,0:0:0:0:
448,192,156479,1,0,0:0:0:0:
320,192,156479,1,0,0:0:0:0:
192,192,156479,1,0,0:0:0:0:
64,192,156594,1,0,0:0:0:0:
192,192,156594,1,0,0:0:0:0:
320,192,156709,1,0,0:0:0:0:
192,192,156709,1,0,0:0:0:0:
448,192,156825,1,0,0:0:0:0:
320,192,156825,1,0,0:0:0:0:
64,192,156940,1,0,0:0:0:0:
192,192,156940,1,0,0:0:0:0:
320,192,156940,1,0,0:0:0:0:
448,192,156998,1,0,0:0:0:0:
192,192,157056,1,0,0:0:0:0:
448,192,157113,1,0,0:0:0:0:
64,192,157113,1,0,0:0:0:0:
320,192,157171,1,0,0:0:0:0:
448,192,157229,1,0,0:0:0:0:
64,192,157229,1,0,0:0:0:0:
192,192,157286,1,0,0:0:0:0:
320,192,157344,1,0,0:0:0:0:
448,192,157344,1,0,0:0:0:0:
192,192,157402,1,0,0:0:0:0:
64,192,157459,1,0,0:0:0:0:
320,192,157459,1,0,0:0:0:0:
448,192,157517,1,0,0:0:0:0:
192,192,157575,1,0,0:0:0:0:
64,192,157575,1,0,0:0:0:0:
320,192,157633,1,0,0:0:0:0:
448,192,157690,1,0,0:0:0:0:
64,192,157690,1,0,0:0:0:0:
192,192,157748,1,0,0:0:0:0:
64,192,157806,1,0,0:0:0:0:
320,192,157806,1,0,0:0:0:0:
448,192,157863,1,0,0:0:0:0:
320,192,157921,1,0,0:0:0:0:
192,192,157921,1,0,0:0:0:0:
64,192,157979,1,0,0:0:0:0:
448,192,158036,1,0,0:0:0:0:
192,192,158036,1,0,0:0:0:0:
320,192,158094,1,0,0:0:0:0:
64,192,158152,1,0,0:0:0:0:
192,192,158152,1,0,0:0:0:0:
448,192,158209,1,0,0:0:0:0:
320,192,158267,1,0,0:0:0:0:
64,192,158267,1,0,0:0:0:0:
192,192,158325,1,0,0:0:0:0:
448,192,158383,1,0,0:0:0:0:
64,192,158383,1,0,0:0:0:0:
320,192,158440,1,0,0:0:0:0:
448,192,158498,1,0,0:0:0:0:
64,192,158498,1,0,0:0:0:0:
192,192,158556,1,0,0:0:0:0:
320,192,158613,1,0,0:0:0:0:
448,192,158613,1,0,0:0:0:0:
64,192,158671,1,0,0:0:0:0:
192,192,158729,1,0,0:0:0:0:
320,192,158729,1,0,0:0:0:0:
448,192,158786,1,0,0:0:0:0:
64,192,158844,1,0,0:0:0:0:
320,192,158844,1,0,0:0:0:0:
192,192,158902,1,0,0:0:0:0:
64,192,158959,1,0,0:0:0:0:
448,192,158959,1,0,0:0:0:0:
320,192,159017,1,0,0:0:0:0:
192,192,159075,1,0,0:0:0:0:
448,192,159075,1,0,0:0:0:0:
64,192,159133,1,0,0:0:0:0:
192,192,159190,1,0,0:0:0:0:
320,192,159190,1,0,0:0:0:0:
448,192,159248,1,0,0:0:0:0:
64,192,159306,1,0,0:0:0:0:
192,192,159306,1,0,0:0:0:0:
320,192,159363,1,0,0:0:0:0:
192,192,159421,1,0,0:0:0:0:
448,192,159421,1,0,0:0:0:0:
64,192,159479,1,0,0:0:0:0:
320,192,159536,1,0,0:0:0:0:
448,192,159536,1,0,0:0:0:0:
192,192,159594,1,0,0:0:0:0:
320,192,159652,1,0,0:0:0:0:
64,192,159652,1,0,0:0:0:0:
448,192,159709,1,0,0:0:0:0:
192,192,159767,1,0,0:0:0:0:
320,192,159767,1,0,0:0:0:0:
64,192,159825,1,0,0:0:0:0:
448,192,159883,1,0,0:0:0:0:
192,192,159883,1,0,0:0:0:0:
320,192,159940,1,0,0:0:0:0:
64,192,159998,1,0,0:0:0:0:
192,192,159998,1,0,0:0:0:0:
448,192,160056,1,0,0:0:0:0:
320,192,160113,1,0,0:0:0:0:
64,192,160113,1,0,0:0:0:0:
192,192,160171,1,0,0:0:0:0:
320,192,160229,1,0,0:0:0:0:
448,192,160229,1,0,0:0:0:0:
64,192,160286,1,0,0:0:0:0:
192,192,160344,1,0,0:0:0:0:
448,192,160344,1,0,0:0:0:0:
320,192,160402,1,0,0:0:0:0:
64,192,160459,1,0,0:0:0:0:
448,192,160459,1,0,0:0:0:0:
192,192,160517,1,0,0:0:0:0:
320,192,160575,1,0,0:0:0:0:
448,192,160575,1,0,0:0:0:0:
64,192,160633,1,0,0:0:0:0:
192,192,160633,1,0,0:0:0:0:
320,192,160690,1,0,0:0:0:0:
448,192,160748,1,0,0:0:0:0:
192,192,160806,1,0,0:0:0:0:
64,192,160863,1,0,0:0:0:0:
320,192,160863,1,0,0:0:0:0:
448,192,160921,1,0,0:0:0:0:
64,192,160979,1,0,0:0:0:0:
192,192,161036,1,0,0:0:0:0:
320,192,161094,1,0,0:0:0:0:
448,192,161094,1,0,0:0:0:0:
64,192,161152,1,0,0:0:0:0:
192,192,161209,1,0,0:0:0:0:
448,192,161267,1,0,0:0:0:0:
320,192,161325,1,0,0:0:0:0:
64,192,161325,1,0,0:0:0:0:
192,192,161325,1,0,0:0:0:0:
448,192,161383,1,0,0:0:0:0:
64,192,161440,1,0,0:0:0:0:
192,192,161498,1,0,0:0:0:0:
320,192,161556,1,0,0:0:0:0:
448,192,161556,1,0,0:0:0:0:
64,192,161613,1,0,0:0:0:0:
192,192,161671,1,0,0:0:0:0:
448,192,161729,1,0,0:0:0:0:
320,192,161786,1,0,0:0:0:0:
64,192,161786,1,0,0:0:0:0:
192,192,161844,1,0,0:0:0:0:
448,192,161902,1,0,0:0:0:0:
320,192,161959,1,0,0:0:0:0:
192,192,162017,1,0,0:0:0:0:
64,192,162017,1,0,0:0:0:0:
448,192,162017,1,0,0:0:0:0:
320,192,162075,1,0,0:0:0:0:
64,192,162133,1,0,0:0:0:0:
192,192,162190,1,0,0:0:0:0:
320,192,162248,1,0,0:0:0:0:
448,192,162248,1,0,0:0:0:0:
64,192,162306,1,0,0:0:0:0:
192,192,162363,1,0,0:0:0:0:
448,192,162421,5,0,0:0:0:0:
320,192,162479,1,0,0:0:0:0:
192,192,162479,1,0,0:0:0:0:
64,192,162536,1,0,0:0:0:0:
448,192,162594,1,0,0:0:0:0:
320,192,162652,1,0,0:0:0:0:
64,192,162709,1,0,0:0:0:0:
192,192,162767,1,0,0:0:0:0:
320,192,162825,1,0,0:0:0:0:
448,192,162883,1,0,0:0:0:0:
64,192,162940,1,0,0:0:0:0:
192,192,162998,1,0,0:0:0:0:
448,192,163056,1,0,0:0:0:0:
320,192,163113,1,0,0:0:0:0:
192,192,163171,1,0,0:0:0:0:
64,192,163229,1,0,0:0:0:0:
448,192,163286,1,0,0:0:0:0:
192,192,163344,1,0,0:0:0:0:
320,192,163402,1,0,0:0:0:0:
64,192,163402,1,0,0:0:0:0:
448,192,163402,1,0,0:0:0:0:
192,192,163459,1,0,0:0:0:0:
64,192,163517,1,0,0:0:0:0:
320,192,163575,5,0,0:0:0:0:
64,192,163633,1,0,0:0:0:0:
192,192,163633,1,0,0:0:0:0:
320,192,163690,1,0,0:0:0:0:
448,192,163690,1,0,0:0:0:0:
192,192,163748,1,0,0:0:0:0:
64,192,163748,1,0,0:0:0:0:
448,192,163806,1,0,0:0:0:0:
320,192,163806,1,0,0:0:0:0:
64,192,163863,1,0,0:0:0:0:
320,192,163921,1,0,0:0:0:0:
192,192,163979,1,0,0:0:0:0:
64,192,164036,1,0,0:0:0:0:
320,192,164094,1,0,0:0:0:0:
448,192,164094,1,0,0:0:0:0:
192,192,164152,1,0,0:0:0:0:
64,192,164152,1,0,0:0:0:0:
320,192,164209,1,0,0:0:0:0:
448,192,164209,1,0,0:0:0:0:
192,192,164267,1,0,0:0:0:0:
64,192,164325,1,0,0:0:0:0:
448,192,164325,1,0,0:0:0:0:
320,192,164325,1,0,0:0:0:0:
192,192,164440,1,0,0:0:0:0:
64,192,164440,1,0,0:0:0:0:
448,192,164440,1,0,0:0:0:0:
192,192,164556,1,0,0:0:0:0:
64,192,164671,1,0,0:0:0:0:
320,192,164671,1,0,0:0:0:0:
448,192,164671,1,0,0:0:0:0:
320,192,164786,1,0,0:0:0:0:
448,192,164902,1,0,0:0:0:0:
64,192,164902,1,0,0:0:0:0:
192,192,164902,1,0,0:0:0:0:
448,192,165017,1,0,0:0:0:0:
64,192,165133,1,0,0:0:0:0:
192,192,165133,1,0,0:0:0:0:
320,192,165133,1,0,0:0:0:0:
64,192,165248,1,0,0:0:0:0:
320,192,165363,1,0,0:0:0:0:
192,192,165363,1,0,0:0:0:0:
448,192,165363,1,0,0:0:0:0:
192,192,165479,1,0,0:0:0:0:
448,192,165594,1,0,0:0:0:0:
320,192,165594,1,0,0:0:0:0:
64,192,165594,1,0,0:0:0:0:
320,192,165709,1,0,0:0:0:0:
64,192,165825,1,0,0:0:0:0:
448,192,165825,1,0,0:0:0:0:
192,192,165825,1,0,0:0:0:0:
64,192,165940,1,0,0:0:0:0:
320,192,166056,1,0,0:0:0:0:
448,192,166056,1,0,0:0:0:0:
192,192,166056,1,0,0:0:0:0:
320,192,166171,1,0,0:0:0:0:
448,192,166286,1,0,0:0:0:0:
192,192,166286,1,0,0:0:0:0:
64,192,166286,1,0,0:0:0:0:
448,192,166402,1,0,0:0:0:0:
192,192,166517,1,0,0:0:0:0:
64,192,166517,1,0,0:0:0:0:
320,192,166517,1,0,0:0:0:0:
64,192,166633,1,0,0:0:0:0:
192,192,166748,1,0,0:0:0:0:
320,192,166748,1,0,0:0:0:0:
448,192,166748,1,0,0:0:0:0:
448,192,166863,1,0,0:0:0:0:
192,192,166979,1,0,0:0:0:0:
64,192,166979,1,0,0:0:0:0:
320,192,166979,1,0,0:0:0:0:
320,192,167094,1,0,0:0:0:0:
448,192,167209,1,0,0:0:0:0:
64,192,167209,1,0,0:0:0:0:
192,192,167209,1,0,0:0:0:0:
192,192,167325,1,0,0:0:0:0:
64,192,167440,1,0,0:0:0:0:
320,192,167440,1,0,0:0:0:0:
448,192,167440,1,0,0:0:0:0:
448,192,167556,1,0,0:0:0:0:
64,192,167671,1,0,0:0:0:0:
192,192,167671,1,0,0:0:0:0:
320,192,167671,1,0,0:0:0:0:
320,192,167786,1,0,0:0:0:0:
64,192,167902,1,0,0:0:0:0:
448,192,167902,1,0,0:0:0:0:
192,192,167902,1,0,0:0:0:0:
320,192,168017,1,0,0:0:0:0:
448,192,168017,1,0,0:0:0:0:
192,192,168075,1,0,0:0:0:0:
320,192,168133,1,0,0:0:0:0:
448,192,168133,1,0,0:0:0:0:
64,192,168190,1,0,0:0:0:0:
320,192,168248,1,0,0:0:0:0:
448,192,168306,1,0,0:0:0:0:
64,192,168363,1,0,0:0:0:0:
192,192,168363,1,0,0:0:0:0:
320,192,168421,1,0,0:0:0:0:
192,192,168479,1,0,0:0:0:0:
320,192,168536,1,0,0:0:0:0:
64,192,168594,1,0,0:0:0:0:
448,192,168594,1,0,0:0:0:0:
192,192,168652,1,0,0:0:0:0:
320,192,168709,1,0,0:0:0:0:
448,192,168767,1,0,0:0:0:0:
192,192,168825,1,0,0:0:0:0:
64,192,168825,1,0,0:0:0:0:
448,192,168883,1,0,0:0:0:0:
320,192,168940,1,0,0:0:0:0:
64,192,168998,1,0,0:0:0:0:
192,192,169056,1,0,0:0:0:0:
448,192,169056,1,0,0:0:0:0:
320,192,169113,1,0,0:0:0:0:
64,192,169171,1,0,0:0:0:0:
192,192,169229,1,0,0:0:0:0:
448,192,169286,1,0,0:0:0:0:
64,192,169286,1,0,0:0:0:0:
320,192,169344,1,0,0:0:0:0:
192,192,169402,1,0,0:0:0:0:
64,192,169459,1,0,0:0:0:0:
320,192,169517,1,0,0:0:0:0:
448,192,169517,1,0,0:0:0:0:
192,192,169575,1,0,0:0:0:0:
320,192,169633,1,0,0:0:0:0:
448,192,169690,1,0,0:0:0:0:
64,192,169748,1,0,0:0:0:0:
192,192,169748,1,0,0:0:0:0:
448,192,169806,1,0,0:0:0:0:
320,192,169863,1,0,0:0:0:0:
64,192,169921,1,0,0:0:0:0:
192,192,169979,1,0,0:0:0:0:
448,192,169979,1,0,0:0:0:0:
320,192,170036,1,0,0:0:0:0:
192,192,170094,1,0,0:0:0:0:
64,192,170152,1,0,0:0:0:0:
448,192,170209,1,0,0:0:0:0:
320,192,170209,1,0,0:0:0:0:
192,192,170267,1,0,0:0:0:0:
320,192,170325,1,0,0:0:0:0:
448,192,170383,1,0,0:0:0:0:
192,192,170440,1,0,0:0:0:0:
64,192,170440,1,0,0:0:0:0:
320,192,170498,1,0,0:0:0:0:
448,192,170556,1,0,0:0:0:0:
192,192,170613,1,0,0:0:0:0:
64,192,170671,1,0,0:0:0:0:
320,192,170671,1,0,0:0:0:0:
448,192,170729,1,0,0:0:0:0:
320,192,170786,1,0,0:0:0:0:
192,192,170786,1,0,0:0:0:0:
64,192,170786,1,0,0:0:0:0:
448,192,170844,1,0,0:0:0:0:
192,192,170902,1,0,0:0:0:0:
64,192,170959,1,0,0:0:0:0:
192,192,171017,1,0,0:0:0:0:
320,192,171017,1,0,0:0:0:0:
448,192,171017,1,0,0:0:0:0:
448,192,171133,1,0,0:0:0:0:
320,192,171190,1,0,0:0:0:0:
192,192,171248,1,0,0:0:0:0:
320,192,171306,1,0,0:0:0:0:
192,192,171363,1,0,0:0:0:0:
320,192,171421,1,0,0:0:0:0:
64,192,171479,1,0,0:0:0:0:
192,192,171536,1,0,0:0:0:0:
448,192,171594,1,0,0:0:0:0:
320,192,171652,1,0,0:0:0:0:
64,192,171709,1,0,0:0:0:0:
192,192,171709,1,0,0:0:0:0:
448,192,171709,1,0,0:0:0:0:
320,192,171883,1,0,0:0:0:0:
448,192,171883,1,0,0:0:0:0:
64,192,171940,1,0,0:0:0:0:
192,192,171998,1,0,0:0:0:0:
448,192,171998,1,0,0:0:0:0:
320,192,172056,1,0,0:0:0:0:
448,192,172113,1,0,0:0:0:0:
64,192,172113,1,0,0:0:0:0:
320,192,172171,1,0,0:0:0:0:
192,192,172229,1,0,0:0:0:0:
64,192,172229,1,0,0:0:0:0:
448,192,172286,1,0,0:0:0:0:
320,192,172344,1,0,0:0:0:0:
192,192,172344,1,0,0:0:0:0:
64,192,172402,1,0,0:0:0:0:
192,192,172459,1,0,0:0:0:0:
448,192,172459,1,0,0:0:0:0:
320,192,172517,1,0,0:0:0:0:
64,192,172575,1,0,0:0:0:0:
448,192,172575,1,0,0:0:0:0:
192,192,172633,1,0,0:0:0:0:
64,192,172690,1,0,0:0:0:0:
320,192,172690,1,0,0:0:0:0:
448,192,172748,1,0,0:0:0:0:
320,192,172806,1,0,0:0:0:0:
192,192,172806,1,0,0:0:0:0:
64,192,172863,1,0,0:0:0:0:
448,192,172921,1,0,0:0:0:0:
192,192,172921,1,0,0:0:0:0:
320,192,172979,1,0,0:0:0:0:
64,192,173036,1,0,0:0:0:0:
448,192,173036,1,0,0:0:0:0:
192,192,173094,1,0,0:0:0:0:
320,192,173152,1,0,0:0:0:0:
448,192,173152,1,0,0:0:0:0:
64,192,173209,1,0,0:0:0:0:
192,192,173267,1,0,0:0:0:0:
320,192,173267,1,0,0:0:0:0:
448,192,173325,1,0,0:0:0:0:
64,192,173383,1,0,0:0:0:0:
320,192,173383,1,0,0:0:0:0:
192,192,173440,1,0,0:0:0:0:
448,192,173498,1,0,0:0:0:0:
64,192,173498,1,0,0:0:0:0:
320,192,173556,1,0,0:0:0:0:
448,192,173613,1,0,0:0:0:0:
64,192,173613,1,0,0:0:0:0:
192,192,173671,1,0,0:0:0:0:
320,192,173729,1,0,0:0:0:0:
448,192,173729,1,0,0:0:0:0:
64,192,173786,1,0,0:0:0:0:
192,192,173844,1,0,0:0:0:0:
320,192,173844,1,0,0:0:0:0:
448,192,173902,1,0,0:0:0:0:
64,192,173959,1,0,0:0:0:0:
320,192,173959,1,0,0:0:0:0:
192,192,174017,1,0,0:0:0:0:
64,192,174075,1,0,0:0:0:0:
448,192,174075,1,0,0:0:0:0:
320,192,174133,1,0,0:0:0:0:
192,192,174190,1,0,0:0:0:0:
64,192,174190,1,0,0:0:0:0:
448,192,174248,1,0,0:0:0:0:
64,192,174306,1,0,0:0:0:0:
320,192,174306,1,0,0:0:0:0:
192,192,174363,1,0,0:0:0:0:
448,192,174421,1,0,0:0:0:0:
320,192,174421,1,0,0:0:0:0:
64,192,174479,1,0,0:0:0:0:
192,192,174536,1,0,0:0:0:0:
320,192,174536,1,0,0:0:0:0:
448,192,174594,1,0,0:0:0:0:
64,192,174652,1,0,0:0:0:0:
192,192,174652,1,0,0:0:0:0:
448,192,174709,1,0,0:0:0:0:
320,192,174767,1,0,0:0:0:0:
64,192,174767,1,0,0:0:0:0:
192,192,174825,1,0,0:0:0:0:
448,192,174883,1,0,0:0:0:0:
64,192,174883,1,0,0:0:0:0:
320,192,174940,1,0,0:0:0:0:
192,192,174998,1,0,0:0:0:0:
64,192,174998,1,0,0:0:0:0:
448,192,175056,1,0,0:0:0:0:
320,192,175113,1,0,0:0:0:0:
64,192,175113,1,0,0:0:0:0:
192,192,175171,1,0,0:0:0:0:
448,192,175229,1,0,0:0:0:0:
320,192,175229,1,0,0:0:0:0:
192,192,175286,1,0,0:0:0:0:
64,192,175344,1,0,0:0:0:0:
448,192,175344,1,0,0:0:0:0:
320,192,175402,1,0,0:0:0:0:
192,192,175402,1,0,0:0:0:0:
448,192,175517,1,0,0:0:0:0:
64,192,175517,1,0,0:0:0:0:
320,192,175517,1,0,0:0:0:0:
64,192,175633,1,0,0:0:0:0:
192,192,175633,1,0,0:0:0:0:
448,192,175748,1,0,0:0:0:0:
64,192,175748,1,0,0:0:0:0:
320,192,175863,1,0,0:0:0:0:
448,192,175863,1,0,0:0:0:0:
64,192,175979,1,0,0:0:0:0:
192,192,175979,1,0,0:0:0:0:
192,192,176094,1,0,0:0:0:0:
448,192,176094,1,0,0:0:0:0:
320,192,176094,1,0,0:0:0:0:
64,192,176209,1,0,0:0:0:0:
448,192,176209,1,0,0:0:0:0:
320,192,176325,1,0,0:0:0:0:
192,192,176325,1,0,0:0:0:0:
64,192,176325,1,0,0:0:0:0:
192,192,176440,1,0,0:0:0:0:
448,192,176440,1,0,0:0:0:0:
64,192,176440,1,0,0:0:0:0:
320,192,176556,1,0,0:0:0:0:
448,192,176556,1,0,0:0:0:0:
192,192,176671,1,0,0:0:0:0:
64,192,176671,1,0,0:0:0:0:
448,192,176786,1,0,0:0:0:0:
64,192,176786,1,0,0:0:0:0:
320,192,176786,1,0,0:0:0:0:
320,192,176902,1,0,0:0:0:0:
192,192,176902,1,0,0:0:0:0:
64,192,177017,1,0,0:0:0:0:
192,192,177017,1,0,0:0:0:0:
320,192,177133,1,0,0:0:0:0:
448,192,177133,1,0,0:0:0:0:
64,192,177248,1,0,0:0:0:0:
448,192,177248,1,0,0:0:0:0:
320,192,177306,1,0,0:0:0:0:
192,192,177363,1,0,0:0:0:0:
64,192,177421,1,0,0:0:0:0:
448,192,177479,1,0,0:0:0:0:
320,192,177479,1,0,0:0:0:0:
192,192,177536,1,0,0:0:0:0:
320,192,177594,1,0,0:0:0:0:
448,192,177652,1,0,0:0:0:0:
64,192,177709,1,0,0:0:0:0:
192,192,177709,1,0,0:0:0:0:
320,192,177767,1,0,0:0:0:0:
448,192,177825,1,0,0:0:0:0:
192,192,177883,1,0,0:0:0:0:
64,192,177940,1,0,0:0:0:0:
320,192,177940,1,0,0:0:0:0:
448,192,177998,1,0,0:0:0:0:
192,192,178056,1,0,0:0:0:0:
64,192,178113,1,0,0:0:0:0:
320,192,178171,1,0,0:0:0:0:
448,192,178171,1,0,0:0:0:0:
192,192,178171,1,0,0:0:0:0:
64,192,178229,1,0,0:0:0:0:
320,192,178286,1,0,0:0:0:0:
192,192,178344,1,0,0:0:0:0:
64,192,178402,1,0,0:0:0:0:
448,192,178402,1,0,0:0:0:0:
320,192,178459,1,0,0:0:0:0:
192,192,178517,1,0,0:0:0:0:
448,192,178575,1,0,0:0:0:0:
320,192,178633,1,0,0:0:0:0:
192,192,178690,1,0,0:0:0:0:
320,192,178748,1,0,0:0:0:0:
192,192,178806,1,0,0:0:0:0:
320,192,178863,1,0,0:0:0:0:
448,192,178863,1,0,0:0:0:0:
64,192,178979,1,0,0:0:0:0:
192,192,178979,1,0,0:0:0:0:
320,192,179036,1,0,0:0:0:0:
448,192,179094,1,0,0:0:0:0:
192,192,179094,1,0,0:0:0:0:
64,192,179094,1,0,0:0:0:0:
320,192,179196,1,0,0:0:0:0:
64,192,179247,1,0,0:0:0:0:
448,192,179299,1,0,0:0:0:0:
448,192,179401,1,0,0:0:0:0:
192,192,179452,1,0,0:0:0:0:
64,192,179555,1,0,0:0:0:0:
192,192,179632,1,0,0:0:0:0:
320,192,179709,1,0,0:0:0:0:
64,192,179786,1,0,0:0:0:0:
192,192,179786,1,0,0:0:0:0:
448,192,179863,1,0,0:0:0:0:
64,192,179914,1,0,0:0:0:0:
320,192,179988,1,0,0:0:0:0:
192,192,180074,1,0,0:0:0:0:
320,192,180170,1,0,0:0:0:0:
448,192,180247,1,0,0:0:0:0:
192,192,180305,1,0,0:0:0:0:
448,192,180376,1,0,0:0:0:0:
192,192,180478,1,0,0:0:0:0:
64,192,180478,1,0,0:0:0:0:
320,192,180555,1,0,0:0:0:0:
64,192,180632,1,0,0:0:0:0:
320,192,180709,1,0,0:0:0:0:
192,192,180786,1,0,0:0:0:0:
320,192,180863,1,0,0:0:0:0:
448,192,180940,1,0,0:0:0:0:
64,192,180940,1,0,0:0:0:0:
192,192,181017,1,0,0:0:0:0:
64,192,181094,1,0,0:0:0:0:
320,192,181170,1,0,0:0:0:0:
448,192,181247,1,0,0:0:0:0:
64,192,181324,1,0,0:0:0:0:
448,192,181401,1,0,0:0:0:0:
64,192,181478,1,0,0:0:0:0:
320,192,181555,1,0,0:0:0:0:
64,192,181632,1,0,0:0:0:0:
192,192,181709,1,0,0:0:0:0:
320,192,181786,1,0,0:0:0:0:
448,192,181863,1,0,0:0:0:0:
192,192,181940,1,0,0:0:0:0:
448,192,182017,1,0,0:0:0:0:
320,192,182094,1,0,0:0:0:0:
64,192,182170,1,0,0:0:0:0:
320,192,182247,1,0,0:0:0:0:
192,192,182324,1,0,0:0:0:0:
64,192,182401,1,0,0:0:0:0:
192,192,182478,1,0,0:0:0:0:
320,192,182555,1,0,0:0:0:0:
192,192,182632,1,0,0:0:0:0:
320,192,182709,1,0,0:0:0:0:
448,192,182786,1,0,0:0:0:0:
192,192,182786,1,0,0:0:0:0:
64,192,182786,1,0,0:0:0:0:
448,192,182940,1,0,0:0:0:0:
320,192,183094,1,0,0:0:0:0:
192,192,183247,1,0,0:0:0:0:
448,192,183305,1,0,0:0:0:0:
320,192,183363,1,0,0:0:0:0:
64,192,183401,1,0,0:0:0:0:
448,192,183420,1,0,0:0:0:0:
192,192,183478,1,0,0:0:0:0:
320,192,183555,1,0,0:0:0:0:
64,192,183594,1,0,0:0:0:0:
448,192,183651,1,0,0:0:0:0:
192,192,183709,1,0,0:0:0:0:
320,192,183767,1,0,0:0:0:0:
64,192,183824,1,0,0:0:0:0:
448,192,183863,1,0,0:0:0:0:
192,192,183882,1,0,0:0:0:0:
320,192,183940,1,0,0:0:0:0:
64,192,183997,1,0,0:0:0:0:
448,192,184017,1,0,0:0:0:0:
192,192,184055,1,0,0:0:0:0:
64,192,184113,1,0,0:0:0:0:
320,192,184170,1,0,0:0:0:0:
192,192,184228,1,0,0:0:0:0:
448,192,184286,1,0,0:0:0:0:
320,192,184324,1,0,0:0:0:0:
64,192,184344,1,0,0:0:0:0:
448,192,184401,1,0,0:0:0:0:
64,192,184459,1,0,0:0:0:0:
320,192,184478,1,0,0:0:0:0:
192,192,184517,1,0,0:0:0:0:
448,192,184574,1,0,0:0:0:0:
192,192,184632,1,0,0:0:0:0:
64,192,184632,1,0,0:0:0:0:
320,192,184683,1,0,0:0:0:0:
64,192,184724,1,0,0:0:0:0:
448,192,184764,1,0,0:0:0:0:
320,192,184817,1,0,0:0:0:0:
320,192,185094,1,0,0:0:0:0:
192,192,185324,1,0,0:0:0:0:
64,192,185555,1,0,0:0:0:0:
192,192,185613,1,0,0:0:0:0:
448,192,185632,1,0,0:0:0:0:
64,192,185670,1,0,0:0:0:0:
320,192,185740,1,0,0:0:0:0:
192,192,185786,1,0,0:0:0:0:
320,192,185844,1,0,0:0:0:0:
64,192,185901,1,0,0:0:0:0:
448,192,185940,1,0,0:0:0:0:
192,192,185959,1,0,0:0:0:0:
320,192,186017,1,0,0:0:0:0:
64,192,186017,1,0,0:0:0:0:
64,192,186280,1,0,0:0:0:0:
192,192,186478,1,0,0:0:0:0:
64,192,186478,1,0,0:0:0:0:
448,192,186478,1,0,0:0:0:0:
320,192,186570,1,0,0:0:0:0:
192,192,186709,1,0,0:0:0:0:
448,192,186824,1,0,0:0:0:0:
64,192,186940,1,0,0:0:0:0:
320,192,187055,1,0,0:0:0:0:
192,192,187170,1,0,0:0:0:0:
64,192,187170,1,0,0:0:0:0:
448,192,187286,1,0,0:0:0:0:
64,192,187401,1,0,0:0:0:0:
320,192,187494,1,0,0:0:0:0:
192,192,187632,1,0,0:0:0:0:
320,192,187719,1,0,0:0:0:0:
320,192,187863,1,0,0:0:0:0:
64,192,187863,1,0,0:0:0:0:
448,192,187978,1,0,0:0:0:0:
320,192,188094,1,0,0:0:0:0:
192,192,188209,1,0,0:0:0:0:
320,192,188324,1,0,0:0:0:0:
448,192,188324,1,0,0:0:0:0:
64,192,188440,1,0,0:0:0:0:
320,192,188555,1,0,0:0:0:0:
192,192,188670,1,0,0:0:0:0:
448,192,188786,1,0,0:0:0:0:
64,192,188901,1,0,0:0:0:0:
448,192,189017,1,0,0:0:0:0:
192,192,189132,1,0,0:0:0:0:
320,192,189219,1,0,0:0:0:0:
192,192,189350,1,0,0:0:0:0:
64,192,189452,1,0,0:0:0:0:
192,192,189594,1,0,0:0:0:0:
448,192,189670,1,0,0:0:0:0:
448,192,189824,1,0,0:0:0:0:
192,192,189940,1,0,0:0:0:0:
192,192,190055,1,0,0:0:0:0:
64,192,190170,1,0,0:0:0:0:
448,192,190170,1,0,0:0:0:0:
320,192,190170,1,0,0:0:0:0:
64,192,190632,1,0,0:0:0:0:
448,192,190632,1,0,0:0:0:0:
320,192,190670,1,0,0:0:0:0:
192,192,190735,1,0,0:0:0:0:
64,192,190824,1,0,0:0:0:0:
192,192,190901,1,0,0:0:0:0:
320,192,190991,1,0,0:0:0:0:
64,192,191094,1,0,0:0:0:0:
448,192,191094,1,0,0:0:0:0:
192,192,191132,1,0,0:0:0:0:
320,192,191196,1,0,0:0:0:0:
192,192,191286,1,0,0:0:0:0:
64,192,191363,1,0,0:0:0:0:
320,192,191452,1,0,0:0:0:0:
64,192,191555,1,0,0:0:0:0:
192,192,191555,1,0,0:0:0:0:
448,192,191594,1,0,0:0:0:0:
192,192,191658,1,0,0:0:0:0:
448,192,191709,1,0,0:0:0:0:
320,192,191786,1,0,0:0:0:0:
192,192,192017,1,0,0:0:0:0:
64,192,192017,1,0,0:0:0:0:
448,192,192478,1,0,0:0:0:0:
64,192,192478,1,0,0:0:0:0:
320,192,192555,1,0,0:0:0:0:
448,192,192632,1,0,0:0:0:0:
64,192,192709,1,0,0:0:0:0:
192,192,192709,1,0,0:0:0:0:
320,192,192786,1,0,0:0:0:0:
192,192,192863,1,0,0:0:0:0:
320,192,192940,1,0,0:0:0:0:
448,192,192940,1,0,0:0:0:0:
192,192,192997,1,0,0:0:0:0:
64,192,192997,1,0,0:0:0:0:
320,192,193055,1,0,0:0:0:0:
448,192,193055,1,0,0:0:0:0:
64,192,193113,1,0,0:0:0:0:
448,192,193170,1,0,0:0:0:0:
320,192,193228,1,0,0:0:0:0:
192,192,193286,1,0,0:0:0:0:
320,192,193343,1,0,0:0:0:0:
192,192,193401,1,0,0:0:0:0:
64,192,193401,1,0,0:0:0:0:
448,192,193467,1,0,0:0:0:0:
64,192,193533,1,0,0:0:0:0:
448,192,193599,1,0,0:0:0:0:
192,192,193665,1,0,0:0:0:0:
320,192,193863,1,0,0:0:0:0:
448,192,193863,1,0,0:0:0:0:
64,192,193863,1,0,0:0:0:0:
192,192,193920,1,0,0:0:0:0:
448,192,193978,1,0,0:0:0:0:
320,192,194036,1,0,0:0:0:0:
64,192,194093,1,0,0:0:0:0:
448,192,194170,1,0,0:0:0:0:
64,192,194247,1,0,0:0:0:0:
192,192,194324,1,0,0:0:0:0:
320,192,194440,1,0,0:0:0:0:
192,192,194529,1,0,0:0:0:0:
448,192,194555,1,0,0:0:0:0:
64,192,194613,1,0,0:0:0:0:
192,192,194683,1,0,0:0:0:0:
320,192,194786,1,0,0:0:0:0:
448,192,194888,1,0,0:0:0:0:
192,192,194940,1,0,0:0:0:0:
64,192,195017,1,0,0:0:0:0:
192,192,195093,1,0,0:0:0:0:
320,192,195170,1,0,0:0:0:0:
64,192,195247,1,0,0:0:0:0:
192,192,195247,1,0,0:0:0:0:
448,192,195324,1,0,0:0:0:0:
64,192,195401,1,0,0:0:0:0:
320,192,195478,1,0,0:0:0:0:
64,192,195555,1,0,0:0:0:0:
192,192,195632,1,0,0:0:0:0:
320,192,195709,1,0,0:0:0:0:
448,192,195709,1,0,0:0:0:0:
64,192,195786,1,0,0:0:0:0:
448,192,195863,1,0,0:0:0:0:
192,192,195940,1,0,0:0:0:0:
448,192,196017,1,0,0:0:0:0:
320,192,196093,1,0,0:0:0:0:
192,192,196170,1,0,0:0:0:0:
64,192,196247,1,0,0:0:0:0:
320,192,196324,1,0,0:0:0:0:
64,192,196401,1,0,0:0:0:0:
192,192,196478,1,0,0:0:0:0:
64,192,196555,1,0,0:0:0:0:
320,192,196632,1,0,0:0:0:0:
192,192,196709,1,0,0:0:0:0:
320,192,196786,1,0,0:0:0:0:
192,192,196863,1,0,0:0:0:0:
320,192,196940,1,0,0:0:0:0:
448,192,197017,1,0,0:0:0:0:
192,192,197093,1,0,0:0:0:0:
448,192,197170,1,0,0:0:0:0:
320,192,197247,1,0,0:0:0:0:
192,192,197324,1,0,0:0:0:0:
320,192,197401,1,0,0:0:0:0:
64,192,197478,1,0,0:0:0:0:
192,192,197555,1,0,0:0:0:0:
320,192,197555,1,0,0:0:0:0:
448,192,197555,1,0,0:0:0:0:
64,192,197670,1,0,0:0:0:0:
320,192,197786,1,0,0:0:0:0:
192,192,197901,1,0,0:0:0:0:
448,192,198017,1,0,0:0:0:0:
64,192,198074,1,0,0:0:0:0:
192,192,198132,1,0,0:0:0:0:
448,192,198170,1,0,0:0:0:0:
64,192,198190,1,0,0:0:0:0:
320,192,198273,1,0,0:0:0:0:
192,192,198305,1,0,0:0:0:0:
64,192,198363,1,0,0:0:0:0:
320,192,198420,1,0,0:0:0:0:
192,192,198478,1,0,0:0:0:0:
320,192,198536,1,0,0:0:0:0:
64,192,198593,1,0,0:0:0:0:
448,192,198632,1,0,0:0:0:0:
192,192,198651,1,0,0:0:0:0:
320,192,198709,1,0,0:0:0:0:
64,192,198742,1,0,0:0:0:0:
448,192,198767,1,0,0:0:0:0:
320,192,198837,1,0,0:0:0:0:
64,192,198882,1,0,0:0:0:0:
448,192,198940,1,0,0:0:0:0:
192,192,198968,1,0,0:0:0:0:
64,192,199055,1,0,0:0:0:0:
320,192,199093,1,0,0:0:0:0:
448,192,199170,1,0,0:0:0:0:
192,192,199196,1,0,0:0:0:0:
64,192,199286,1,0,0:0:0:0:
320,192,199299,1,0,0:0:0:0:
64,192,199401,1,0,0:0:0:0:
192,192,199440,1,0,0:0:0:0:
320,192,199504,1,0,0:0:0:0:
192,192,199574,1,0,0:0:0:0:
64,192,199632,1,0,0:0:0:0:
448,192,199665,1,0,0:0:0:0:
192,192,199731,1,0,0:0:0:0:
448,192,199797,1,0,0:0:0:0:
64,192,199863,1,0,0:0:0:0:
192,192,199955,1,0,0:0:0:0:
320,192,200047,1,0,0:0:0:0:
64,192,200068,1,0,0:0:0:0:
448,192,200126,1,0,0:0:0:0:
320,192,200192,1,0,0:0:0:0:
192,192,200258,1,0,0:0:0:0:
64,192,200324,1,0,0:0:0:0:
192,192,200382,1,0,0:0:0:0:
448,192,200401,1,0,0:0:0:0:
64,192,200478,1,0,0:0:0:0:
320,192,200497,1,0,0:0:0:0:
192,192,200555,1,0,0:0:0:0:
320,192,200632,1,0,0:0:0:0:
64,192,200670,1,0,0:0:0:0:
448,192,200709,1,0,0:0:0:0:
192,192,200728,1,0,0:0:0:0:
64,192,200786,1,0,0:0:0:0:
320,192,200863,1,0,0:0:0:0:
192,192,200940,1,0,0:0:0:0:
320,192,201017,1,0,0:0:0:0:
448,192,201093,1,0,0:0:0:0:
192,192,201170,1,0,0:0:0:0:
448,192,201247,1,0,0:0:0:0:
64,192,201247,1,0,0:0:0:0:
320,192,201247,1,0,0:0:0:0:
192,192,201313,1,0,0:0:0:0:
320,192,201379,1,0,0:0:0:0:
64,192,201445,1,0,0:0:0:0:
320,192,201511,1,0,0:0:0:0:
192,192,201577,1,0,0:0:0:0:
64,192,201643,1,0,0:0:0:0:
320,192,201709,1,0,0:0:0:0:
64,192,201786,1,0,0:0:0:0:
192,192,201863,1,0,0:0:0:0:
320,192,201940,1,0,0:0:0:0:
448,192,201940,1,0,0:0:0:0:
64,192,201973,1,0,0:0:0:0:
192,192,202039,1,0,0:0:0:0:
448,192,202104,1,0,0:0:0:0:
64,192,202170,1,0,0:0:0:0:
448,192,202247,1,0,0:0:0:0:
192,192,202324,1,0,0:0:0:0:
320,192,202401,1,0,0:0:0:0:
448,192,202478,1,0,0:0:0:0:
320,192,202555,1,0,0:0:0:0:
192,192,202632,1,0,0:0:0:0:
64,192,202632,1,0,0:0:0:0:
448,192,202683,1,0,0:0:0:0:
64,192,202747,1,0,0:0:0:0:
320,192,202863,1,0,0:0:0:0:
192,192,202940,1,0,0:0:0:0:
448,192,202991,1,0,0:0:0:0:
64,192,203017,1,0,0:0:0:0:
192,192,203093,1,0,0:0:0:0:
320,192,203093,1,0,0:0:0:0:
448,192,203159,1,0,0:0:0:0:
320,192,203225,1,0,0:0:0:0:
192,192,203291,1,0,0:0:0:0:
64,192,203357,1,0,0:0:0:0:
320,192,203411,1,0,0:0:0:0:
192,192,203452,1,0,0:0:0:0:
64,192,203526,1,0,0:0:0:0:
320,192,203613,1,0,0:0:0:0:
448,192,203658,1,0,0:0:0:0:
320,192,203728,1,0,0:0:0:0:
192,192,203819,1,0,0:0:0:0:
64,192,203901,1,0,0:0:0:0:
192,192,203988,1,0,0:0:0:0:
448,192,204017,1,0,0:0:0:0:
320,192,204074,1,0,0:0:0:0:
64,192,204148,1,0,0:0:0:0:
448,192,204214,1,0,0:0:0:0:
192,192,204280,1,0,0:0:0:0:
64,192,204346,1,0,0:0:0:0:
320,192,204412,1,0,0:0:0:0:
192,192,204478,1,0,0:0:0:0:
64,192,204529,1,0,0:0:0:0:
448,192,204581,1,0,0:0:0:0:
192,192,204632,1,0,0:0:0:0:
320,192,204735,1,0,0:0:0:0:
448,192,204837,1,0,0:0:0:0:
320,192,204940,1,0,0:0:0:0:
192,192,204940,1,0,0:0:0:0:
64,192,204940,1,0,0:0:0:0:
448,192,205017,1,0,0:0:0:0:
192,192,205093,1,0,0:0:0:0:
320,192,205170,1,0,0:0:0:0:
192,192,205247,1,0,0:0:0:0:
64,192,205324,1,0,0:0:0:0:
448,192,205401,1,0,0:0:0:0:
320,192,205401,1,0,0:0:0:0:
192,192,205478,1,0,0:0:0:0:
320,192,205555,1,0,0:0:0:0:
64,192,205632,1,0,0:0:0:0:
448,192,205709,1,0,0:0:0:0:
64,192,205786,1,0,0:0:0:0:
448,192,205863,1,0,0:0:0:0:
192,192,205863,1,0,0:0:0:0:
320,192,205929,1,0,0:0:0:0:
64,192,205995,1,0,0:0:0:0:
192,192,206061,1,0,0:0:0:0:
448,192,206126,1,0,0:0:0:0:
64,192,206192,1,0,0:0:0:0:
320,192,206247,1,0,0:0:0:0:
192,192,206324,1,0,0:0:0:0:
448,192,206324,1,0,0:0:0:0:
64,192,206390,1,0,0:0:0:0:
320,192,206440,1,0,0:0:0:0:
192,192,206497,1,0,0:0:0:0:
320,192,206581,1,0,0:0:0:0:
192,192,206786,1,0,0:0:0:0:
64,192,206786,1,0,0:0:0:0:
320,192,206843,1,0,0:0:0:0:
448,192,206843,1,0,0:0:0:0:
192,192,206901,1,0,0:0:0:0:
64,192,206901,1,0,0:0:0:0:
448,192,206959,1,0,0:0:0:0:
64,192,207017,1,0,0:0:0:0:
320,192,207074,1,0,0:0:0:0:
192,192,207132,1,0,0:0:0:0:
64,192,207190,1,0,0:0:0:0:
320,192,207247,1,0,0:0:0:0:
448,192,207247,1,0,0:0:0:0:
64,192,207324,1,0,0:0:0:0:
448,192,207401,1,0,0:0:0:0:
192,192,207478,1,0,0:0:0:0:
320,192,207478,1,0,0:0:0:0:
448,192,207555,1,0,0:0:0:0:
192,192,207632,1,0,0:0:0:0:
64,192,207709,1,0,0:0:0:0:
320,192,207709,1,0,0:0:0:0:
192,192,207786,1,0,0:0:0:0:
448,192,207863,1,0,0:0:0:0:
64,192,207940,1,0,0:0:0:0:
192,192,207997,1,0,0:0:0:0:
320,192,208055,1,0,0:0:0:0:
192,192,208113,1,0,0:0:0:0:
64,192,208170,1,0,0:0:0:0:
448,192,208170,1,0,0:0:0:0:
320,192,208228,1,0,0:0:0:0:
448,192,208286,1,0,0:0:0:0:
192,192,208401,1,0,0:0:0:0:
320,192,208478,1,0,0:0:0:0:
64,192,208555,1,0,0:0:0:0:
192,192,208632,1,0,0:0:0:0:
448,192,208632,1,0,0:0:0:0:
320,192,208632,1,0,0:0:0:0:
64,192,208727,1,0,0:0:0:0:
192,192,208822,1,0,0:0:0:0:
320,192,208917,1,0,0:0:0:0:
448,192,209012,1,0,0:0:0:0:
320,192,209108,1,0,0:0:0:0:
192,192,209203,1,0,0:0:0:0:
64,192,209298,1,0,0:0:0:0:
320,192,209393,1,0,0:0:0:0:
64,192,209489,1,0,0:0:0:0:
448,192,209489,1,0,0:0:0:0:
192,192,209542,1,0,0:0:0:0:
320,192,209584,1,0,0:0:0:0:
448,192,209679,1,0,0:0:0:0:
320,192,209774,1,0,0:0:0:0:
192,192,209870,1,0,0:0:0:0:
64,192,209965,1,0,0:0:0:0:
192,192,210060,1,0,0:0:0:0:
320,192,210155,1,0,0:0:0:0:
448,192,210251,1,0,0:0:0:0:
64,192,210346,1,0,0:0:0:0:
320,192,210346,1,0,0:0:0:0:
192,192,210399,1,0,0:0:0:0:
448,192,210441,1,0,0:0:0:0:
64,192,210536,1,0,0:0:0:0:
320,192,210632,1,0,0:0:0:0:
192,192,210727,1,0,0:0:0:0:
320,192,210822,1,0,0:0:0:0:
448,192,210917,1,0,0:0:0:0:
64,192,210917,1,0,0:0:0:0:
320,192,211107,1,0,0:0:0:0:
64,192,211145,1,0,0:0:0:0:
192,192,211170,1,0,0:0:0:0:
448,192,211234,1,0,0:0:0:0:
64,192,211274,1,0,0:0:0:0:
320,192,211309,1,0,0:0:0:0:
448,192,211393,1,0,0:0:0:0:
320,192,211488,1,0,0:0:0:0:
192,192,211524,1,0,0:0:0:0:
64,192,211551,1,0,0:0:0:0:
192,192,211615,1,0,0:0:0:0:
320,192,211678,1,0,0:0:0:0:
448,192,211742,1,0,0:0:0:0:
320,192,211805,1,0,0:0:0:0:
64,192,211845,1,0,0:0:0:0:
192,192,211896,1,0,0:0:0:0:
64,192,211964,1,0,0:0:0:0:
448,192,212012,1,0,0:0:0:0:
192,192,212107,1,0,0:0:0:0:
320,192,212155,1,0,0:0:0:0:
448,192,212186,1,0,0:0:0:0:
64,192,212223,1,0,0:0:0:0:
320,192,212274,1,0,0:0:0:0:
192,192,212313,1,0,0:0:0:0:
448,192,212377,1,0,0:0:0:0:
64,192,212386,1,0,0:0:0:0:
192,192,212468,1,0,0:0:0:0:
320,192,212549,1,0,0:0:0:0:
192,192,212631,1,0,0:0:0:0:
448,192,212678,1,0,0:0:0:0:
192,192,212758,1,0,0:0:0:0:
448,192,212809,1,0,0:0:0:0:
320,192,212869,1,0,0:0:0:0:
64,192,212917,1,0,0:0:0:0:
448,192,212964,1,0,0:0:0:0:
192,192,212988,1,0,0:0:0:0:
64,192,213059,1,0,0:0:0:0:
320,192,213095,1,0,0:0:0:0:
64,192,213202,1,0,0:0:0:0:
448,192,213202,1,0,0:0:0:0:
192,192,213202,1,0,0:0:0:0:
320,192,213297,1,0,0:0:0:0:
192,192,213329,1,0,0:0:0:0:
64,192,213452,1,0,0:0:0:0:
320,192,213488,1,0,0:0:0:0:
448,192,213536,1,0,0:0:0:0:
320,192,213631,1,0,0:0:0:0:
448,192,213774,1,0,0:0:0:0:
64,192,213774,1,0,0:0:0:0:
192,192,213814,1,0,0:0:0:0:
320,192,213855,1,0,0:0:0:0:
64,192,213896,1,0,0:0:0:0:
448,192,213937,1,0,0:0:0:0:
192,192,213978,1,0,0:0:0:0:
320,192,214018,1,0,0:0:0:0:
64,192,214059,1,0,0:0:0:0:
192,192,214100,1,0,0:0:0:0:
448,192,214141,1,0,0:0:0:0:
64,192,214182,1,0,0:0:0:0:
320,192,214222,1,0,0:0:0:0:
448,192,214263,1,0,0:0:0:0:
192,192,214304,1,0,0:0:0:0:
320,192,214345,1,0,0:0:0:0:
64,192,214386,1,0,0:0:0:0:
192,192,214427,1,0,0:0:0:0:
448,192,214467,1,0,0:0:0:0:
64,192,214508,1,0,0:0:0:0:
320,192,214549,1,0,0:0:0:0:
192,192,214590,1,0,0:0:0:0:
448,192,214631,1,0,0:0:0:0:
64,192,214671,1,0,0:0:0:0:
320,192,214712,1,0,0:0:0:0:
448,192,214753,1,0,0:0:0:0:
192,192,214794,1,0,0:0:0:0:
64,192,214835,1,0,0:0:0:0:
320,192,214876,1,0,0:0:0:0:
192,192,214916,1,0,0:0:0:0:
448,192,214957,1,0,0:0:0:0:
320,192,214998,1,0,0:0:0:0:
64,192,215039,1,0,0:0:0:0:
448,192,215080,1,0,0:0:0:0:
192,192,215120,1,0,0:0:0:0:
320,192,215161,1,0,0:0:0:0:
64,192,215202,1,0,0:0:0:0:
192,192,215226,1,0,0:0:0:0:
320,192,215274,1,0,0:0:0:0:
64,192,215329,1,0,0:0:0:0:
448,192,215393,1,0,0:0:0:0:
192,192,215440,1,0,0:0:0:0:
64,192,215488,1,0,0:0:0:0:
320,192,215523,1,0,0:0:0:0:
448,192,215559,1,0,0:0:0:0:
192,192,215602,1,0,0:0:0:0:
320,192,215666,1,0,0:0:0:0:
64,192,215702,1,0,0:0:0:0:
448,192,215741,1,0,0:0:0:0:
320,192,215805,1,0,0:0:0:0:
192,192,215896,1,0,0:0:0:0:
64,192,215932,1,0,0:0:0:0:
448,192,215977,1,0,0:0:0:0:
192,192,216023,1,0,0:0:0:0:
320,192,216107,1,0,0:0:0:0:
192,192,216166,1,0,0:0:0:0:
64,192,216238,1,0,0:0:0:0:
320,192,216304,1,0,0:0:0:0:
448,192,216345,1,0,0:0:0:0:
192,192,216380,1,0,0:0:0:0:
320,192,216440,1,0,0:0:0:0:
192,192,216535,1,0,0:0:0:0:
64,192,216630,1,0,0:0:0:0:
320,192,216670,1,0,0:0:0:0:
192,192,216711,1,0,0:0:0:0:
448,192,216752,1,0,0:0:0:0:
320,192,216793,1,0,0:0:0:0:
64,192,216834,1,0,0:0:0:0:
448,192,216874,1,0,0:0:0:0:
192,192,216915,1,0,0:0:0:0:
320,192,216956,1,0,0:0:0:0:
64,192,216997,1,0,0:0:0:0:
192,192,217038,1,0,0:0:0:0:
448,192,217078,1,0,0:0:0:0:
64,192,217119,1,0,0:0:0:0:
320,192,217160,1,0,0:0:0:0:
192,192,217201,1,0,0:0:0:0:
448,192,217242,1,0,0:0:0:0:
320,192,217308,1,0,0:0:0:0:
448,192,217368,1,0,0:0:0:0:
192,192,217415,1,0,0:0:0:0:
320,192,217469,1,0,0:0:0:0:
192,192,217540,1,0,0:0:0:0:
64,192,217774,1,0,0:0:0:0:
448,192,217774,1,0,0:0:0:0:
320,192,217774,1,0,0:0:0:0:
192,192,217845,1,0,0:0:0:0:
320,192,217881,1,0,0:0:0:0:
64,192,217934,1,0,0:0:0:0:
320,192,217988,1,0,0:0:0:0:
64,192,218041,1,0,0:0:0:0:
448,192,218095,1,0,0:0:0:0:
192,192,218149,1,0,0:0:0:0:
320,192,218202,1,0,0:0:0:0:
64,192,218256,1,0,0:0:0:0:
320,192,218309,1,0,0:0:0:0:
192,192,218363,1,0,0:0:0:0:
64,192,218416,1,0,0:0:0:0:
448,192,218470,1,0,0:0:0:0:
192,192,218535,1,0,0:0:0:0:
320,192,218577,1,0,0:0:0:0:
192,192,218631,1,0,0:0:0:0:
64,192,218631,1,0,0:0:0:0:
448,192,218702,1,0,0:0:0:0:
64,192,218738,1,0,0:0:0:0:
320,192,218791,1,0,0:0:0:0:
192,192,218845,1,0,0:0:0:0:
448,192,218899,1,0,0:0:0:0:
192,192,218952,1,0,0:0:0:0:
320,192,219006,1,0,0:0:0:0:
448,192,219059,1,0,0:0:0:0:
64,192,219113,1,0,0:0:0:0:
192,192,219166,1,0,0:0:0:0:
320,192,219220,1,0,0:0:0:0:
64,192,219274,1,0,0:0:0:0:
448,192,219327,1,0,0:0:0:0:
192,192,219345,1,0,0:0:0:0:
64,192,219393,1,0,0:0:0:0:
448,192,219434,1,0,0:0:0:0:
320,192,219488,1,0,0:0:0:0:
192,192,219488,1,0,0:0:0:0:
64,192,219559,1,0,0:0:0:0:
320,192,219595,1,0,0:0:0:0:
192,192,219649,1,0,0:0:0:0:
448,192,219678,1,0,0:0:0:0:
64,192,219702,1,0,0:0:0:0:
192,192,219774,1,0,0:0:0:0:
320,192,219845,1,0,0:0:0:0:
64,192,219863,1,0,0:0:0:0:
448,192,219916,1,0,0:0:0:0:
320,192,219988,1,0,0:0:0:0:
64,192,220059,1,0,0:0:0:0:
192,192,220094,1,0,0:0:0:0:
320,192,220154,1,0,0:0:0:0:
192,192,220222,1,0,0:0:0:0:
448,192,220249,1,0,0:0:0:0:
64,192,220297,1,0,0:0:0:0:
320,192,220344,1,0,0:0:0:0:
192,192,220392,1,0,0:0:0:0:
64,192,220451,1,0,0:0:0:0:
448,192,220467,1,0,0:0:0:0:
192,192,220523,1,0,0:0:0:0:
320,192,220594,1,0,0:0:0:0:
64,192,220630,1,0,0:0:0:0:
448,192,220678,1,0,0:0:0:0:
64,192,220737,1,0,0:0:0:0:
320,192,220773,1,0,0:0:0:0:
192,192,220844,1,0,0:0:0:0:
448,192,220916,1,0,0:0:0:0:
64,192,220947,1,0,0:0:0:0:
320,192,220987,1,0,0:0:0:0:
448,192,221059,1,0,0:0:0:0:
192,192,221120,1,0,0:0:0:0:
320,192,221201,1,0,0:0:0:0:
192,192,221249,1,0,0:0:0:0:
64,192,221283,1,0,0:0:0:0:
448,192,221328,1,0,0:0:0:0:
64,192,221392,1,0,0:0:0:0:
320,192,221416,1,0,0:0:0:0:
448,192,221487,1,0,0:0:0:0:
192,192,221519,1,0,0:0:0:0:
320,192,221582,1,0,0:0:0:0:
64,192,221610,1,0,0:0:0:0:
192,192,221666,1,0,0:0:0:0:
448,192,221701,1,0,0:0:0:0:
64,192,221737,1,0,0:0:0:0:
320,192,221809,1,0,0:0:0:0:
192,192,221854,1,0,0:0:0:0:
448,192,221916,1,0,0:0:0:0:
64,192,221951,1,0,0:0:0:0:
192,192,221987,1,0,0:0:0:0:
448,192,222023,1,0,0:0:0:0:
64,192,222059,1,0,0:0:0:0:
320,192,222106,1,0,0:0:0:0:
192,192,222154,1,0,0:0:0:0:
448,192,222201,1,0,0:0:0:0:
320,192,222273,1,0,0:0:0:0:
192,192,222344,1,0,0:0:0:0:
64,192,222344,1,0,0:0:0:0:
448,192,222344,1,0,0:0:0:0:
448,192,222916,1,0,0:0:0:0:
320,192,222916,1,0,0:0:0:0:
64,192,222916,1,0,0:0:0:0:
192,192,222987,1,0,0:0:0:0:
448,192,223011,1,0,0:0:0:0:
320,192,223059,1,0,0:0:0:0:
64,192,223094,1,0,0:0:0:0:
448,192,223130,1,0,0:0:0:0:
192,192,223154,1,0,0:0:0:0:
64,192,223237,1,0,0:0:0:0:
320,192,223273,1,0,0:0:0:0:
192,192,223324,1,0,0:0:0:0:
320,192,223405,1,0,0:0:0:0:
64,192,223487,1,0,0:0:0:0:
448,192,223487,1,0,0:0:0:0:
192,192,223523,1,0,0:0:0:0:
320,192,223569,1,0,0:0:0:0:
64,192,223614,1,0,0:0:0:0:
320,192,223678,1,0,0:0:0:0:
64,192,223741,1,0,0:0:0:0:
448,192,223773,1,0,0:0:0:0:
192,192,223805,1,0,0:0:0:0:
320,192,223868,1,0,0:0:0:0:
64,192,223932,1,0,0:0:0:0:
320,192,223963,1,0,0:0:0:0:
192,192,224011,1,0,0:0:0:0:
64,192,224059,1,0,0:0:0:0:
448,192,224059,1,0,0:0:0:0:
320,192,224094,1,0,0:0:0:0:
192,192,224154,1,0,0:0:0:0:
448,192,224201,1,0,0:0:0:0:
64,192,224237,1,0,0:0:0:0:
320,192,224287,1,0,0:0:0:0:
448,192,224344,1,0,0:0:0:0:
192,192,224385,1,0,0:0:0:0:
320,192,224439,1,0,0:0:0:0:
64,192,224487,1,0,0:0:0:0:
320,192,224566,1,0,0:0:0:0:
192,192,224630,1,0,0:0:0:0:
64,192,224630,1,0,0:0:0:0:
64,192,225201,1,0,0:0:0:0:
448,192,225201,1,0,0:0:0:0:
192,192,225237,1,0,0:0:0:0:
320,192,225265,1,0,0:0:0:0:
320,192,225365,1,0,0:0:0:0:
192,192,225416,1,0,0:0:0:0:
64,192,225487,1,0,0:0:0:0:
448,192,225487,1,0,0:0:0:0:
320,192,225523,1,0,0:0:0:0:
192,192,225544,1,0,0:0:0:0:
64,192,225646,1,0,0:0:0:0:
320,192,225678,1,0,0:0:0:0:
448,192,225725,1,0,0:0:0:0:
192,192,225773,1,0,0:0:0:0:
64,192,225773,1,0,0:0:0:0:
320,192,225820,1,0,0:0:0:0:
192,192,225880,1,0,0:0:0:0:
448,192,225916,1,0,0:0:0:0:
64,192,225951,1,0,0:0:0:0:
320,192,225987,1,0,0:0:0:0:
64,192,226059,1,0,0:0:0:0:
448,192,226090,1,0,0:0:0:0:
192,192,226130,1,0,0:0:0:0:
320,192,226201,1,0,0:0:0:0:
64,192,226249,1,0,0:0:0:0:
448,192,226281,1,0,0:0:0:0:
320,192,226344,1,0,0:0:0:0:
192,192,226344,1,0,0:0:0:0:
64,192,226392,1,0,0:0:0:0:
192,192,226451,1,0,0:0:0:0:
448,192,226487,1,0,0:0:0:0:
64,192,226523,1,0,0:0:0:0:
320,192,226559,1,0,0:0:0:0:
448,192,226630,1,0,0:0:0:0:
192,192,226662,1,0,0:0:0:0:
320,192,226701,1,0,0:0:0:0:
192,192,226773,1,0,0:0:0:0:
64,192,226844,1,0,0:0:0:0:
320,192,226916,1,0,0:0:0:0:
192,192,226916,1,0,0:0:0:0:
448,192,226916,1,0,0:0:0:0:
64,192,226979,1,0,0:0:0:0:
448,192,227043,1,0,0:0:0:0:
320,192,227106,1,0,0:0:0:0:
192,192,227170,1,0,0:0:0:0:
320,192,227233,1,0,0:0:0:0:
64,192,227297,1,0,0:0:0:0:
192,192,227360,1,0,0:0:0:0:
448,192,227424,1,0,0:0:0:0:
64,192,227487,1,0,0:0:0:0:
320,192,227559,1,0,0:0:0:0:
192,192,227630,1,0,0:0:0:0:
64,192,227701,1,0,0:0:0:0:
192,192,227773,1,0,0:0:0:0:
448,192,227773,1,0,0:0:0:0:
320,192,227809,1,0,0:0:0:0:
64,192,227868,1,0,0:0:0:0:
320,192,227916,1,0,0:0:0:0:
192,192,227995,1,0,0:0:0:0:
64,192,228059,1,0,0:0:0:0:
448,192,228122,1,0,0:0:0:0:
192,192,228185,1,0,0:0:0:0:
320,192,228249,1,0,0:0:0:0:
64,192,228312,1,0,0:0:0:0:
192,192,228376,1,0,0:0:0:0:
448,192,228439,1,0,0:0:0:0:
64,192,228503,1,0,0:0:0:0:
320,192,228566,1,0,0:0:0:0:
448,192,228630,1,0,0:0:0:0:
64,192,228630,1,0,0:0:0:0:
192,192,228666,1,0,0:0:0:0:
320,192,228725,1,0,0:0:0:0:
64,192,228773,1,0,0:0:0:0:
448,192,228820,1,0,0:0:0:0:
192,192,228884,1,0,0:0:0:0:
320,192,228947,1,0,0:0:0:0:
192,192,229011,1,0,0:0:0:0:
448,192,229074,1,0,0:0:0:0:
64,192,229094,1,0,0:0:0:0:
320,192,229166,1,0,0:0:0:0:
192,192,229201,1,0,0:0:0:0:
64,192,229265,1,0,0:0:0:0:
192,192,229309,1,0,0:0:0:0:
448,192,229328,1,0,0:0:0:0:
64,192,229380,1,0,0:0:0:0:
320,192,229416,1,0,0:0:0:0:
192,192,229487,1,0,0:0:0:0:
448,192,229528,1,0,0:0:0:0:
64,192,229559,1,0,0:0:0:0:
320,192,229610,1,0,0:0:0:0:
192,192,229691,1,0,0:0:0:0:
320,192,229773,1,0,0:0:0:0:
64,192,229809,1,0,0:0:0:0:
448,192,229844,1,0,0:0:0:0:
192,192,229880,1,0,0:0:0:0:
64,192,229916,1,0,0:0:0:0:
320,192,229951,1,0,0:0:0:0:
448,192,230011,1,0,0:0:0:0:
320,192,230059,1,0,0:0:0:0:
192,192,230090,1,0,0:0:0:0:
64,192,230094,1,0,0:0:0:0:
448,192,230181,1,0,0:0:0:0:
192,192,230201,1,0,0:0:0:0:
320,192,230217,1,0,0:0:0:0:
448,192,230344,1,0,0:0:0:0:
320,192,230380,1,0,0:0:0:0:
192,192,230392,1,0,0:0:0:0:
64,192,230426,1,0,0:0:0:0:
192,192,230487,1,0,0:0:0:0:
64,192,230582,1,0,0:0:0:0:
448,192,230630,1,0,0:0:0:0:
320,192,230671,1,0,0:0:0:0:
192,192,230725,1,0,0:0:0:0:
320,192,230789,1,0,0:0:0:0:
64,192,230916,1,0,0:0:0:0:
448,192,230951,1,0,0:0:0:0:
192,192,230963,1,0,0:0:0:0:
320,192,230997,1,0,0:0:0:0:
64,192,231043,1,0,0:0:0:0:
192,192,231079,1,0,0:0:0:0:
448,192,231106,1,0,0:0:0:0:
64,192,231154,1,0,0:0:0:0:
320,192,231170,1,0,0:0:0:0:
192,192,231233,1,0,0:0:0:0:
320,192,231297,1,0,0:0:0:0:
64,192,231344,1,0,0:0:0:0:
448,192,231360,1,0,0:0:0:0:
192,192,231424,1,0,0:0:0:0:
320,192,231487,1,0,0:0:0:0:
64,192,231487,1,0,0:0:0:0:
448,192,231487,1,0,0:0:0:0:
448,192,232059,1,0,0:0:0:0:
64,192,232059,1,0,0:0:0:0:
192,192,232094,1,0,0:0:0:0:
448,192,232154,1,0,0:0:0:0:
64,192,232185,1,0,0:0:0:0:
320,192,232222,1,0,0:0:0:0:
64,192,232273,1,0,0:0:0:0:
448,192,232309,1,0,0:0:0:0:
192,192,232344,1,0,0:0:0:0:
320,192,232392,1,0,0:0:0:0:
192,192,232451,1,0,0:0:0:0:
64,192,232487,1,0,0:0:0:0:
192,192,232630,1,0,0:0:0:0:
448,192,232630,1,0,0:0:0:0:
320,192,232666,1,0,0:0:0:0:
192,192,232725,1,0,0:0:0:0:
448,192,232757,1,0,0:0:0:0:
64,192,232793,1,0,0:0:0:0:
320,192,232844,1,0,0:0:0:0:
64,192,232880,1,0,0:0:0:0:
192,192,232916,1,0,0:0:0:0:
320,192,232963,1,0,0:0:0:0:
448,192,233023,1,0,0:0:0:0:
64,192,233059,1,0,0:0:0:0:
192,192,233201,1,0,0:0:0:0:
64,192,233201,1,0,0:0:0:0:
320,192,233237,1,0,0:0:0:0:
192,192,233297,1,0,0:0:0:0:
448,192,233328,1,0,0:0:0:0:
320,192,233380,1,0,0:0:0:0:
64,192,233392,1,0,0:0:0:0:
192,192,233416,1,0,0:0:0:0:
448,192,233451,1,0,0:0:0:0:
64,192,233487,1,0,0:0:0:0:
320,192,233535,1,0,0:0:0:0:
192,192,233594,1,0,0:0:0:0:
320,192,233630,1,0,0:0:0:0:
448,192,233773,1,0,0:0:0:0:
64,192,233809,1,0,0:0:0:0:
192,192,233854,1,0,0:0:0:0:
320,192,233916,1,0,0:0:0:0:
448,192,233987,1,0,0:0:0:0:
320,192,234059,1,0,0:0:0:0:
192,192,234130,1,0,0:0:0:0:
64,192,234181,1,0,0:0:0:0:
448,192,234201,1,0,0:0:0:0:
192,192,234237,1,0,0:0:0:0:
320,192,234297,1,0,0:0:0:0:
448,192,234344,1,0,0:0:0:0:
64,192,234344,1,0,0:0:0:0:
192,192,234380,1,0,0:0:0:0:
64,192,234439,1,0,0:0:0:0:
320,192,234471,1,0,0:0:0:0:
192,192,234507,1,0,0:0:0:0:
448,192,234559,1,0,0:0:0:0:
192,192,234594,1,0,0:0:0:0:
320,192,234630,1,0,0:0:0:0:
448,192,234678,1,0,0:0:0:0:
64,192,234725,1,0,0:0:0:0:
320,192,234737,1,0,0:0:0:0:
192,192,234789,1,0,0:0:0:0:
64,192,234844,1,0,0:0:0:0:
192,192,234916,1,0,0:0:0:0:
320,192,234979,1,0,0:0:0:0:
448,192,235130,1,0,0:0:0:0:
320,192,235166,1,0,0:0:0:0:
192,192,235201,1,0,0:0:0:0:
448,192,235242,1,0,0:0:0:0:
64,192,235273,1,0,0:0:0:0:
192,192,235344,1,0,0:0:0:0:
320,192,235424,1,0,0:0:0:0:
192,192,235487,1,0,0:0:0:0:
64,192,235523,1,0,0:0:0:0:
448,192,235535,1,0,0:0:0:0:
64,192,235630,1,0,0:0:0:0:
192,192,235650,1,0,0:0:0:0:
320,192,235701,1,0,0:0:0:0:
192,192,235773,1,0,0:0:0:0:
192,192,236059,1,0,0:0:0:0:
64,192,236059,1,0,0:0:0:0:
448,192,236059,1,0,0:0:0:0:
320,192,236130,1,0,0:0:0:0:
192,192,236166,1,0,0:0:0:0:
448,192,236201,1,0,0:0:0:0:
64,192,236249,1,0,0:0:0:0:
320,192,236297,1,0,0:0:0:0:
192,192,236344,1,0,0:0:0:0:
448,192,236392,1,0,0:0:0:0:
64,192,236439,1,0,0:0:0:0:
192,192,236487,1,0,0:0:0:0:
320,192,236535,1,0,0:0:0:0:
64,192,236582,1,0,0:0:0:0:
448,192,236630,1,0,0:0:0:0:
192,192,236678,1,0,0:0:0:0:
64,192,236725,1,0,0:0:0:0:
320,192,236773,1,0,0:0:0:0:
192,192,236820,1,0,0:0:0:0:
448,192,236868,1,0,0:0:0:0:
64,192,236916,1,0,0:0:0:0:
320,192,236916,1,0,0:0:0:0:
192,192,236963,1,0,0:0:0:0:
448,192,237011,1,0,0:0:0:0:
64,192,237059,1,0,0:0:0:0:
320,192,237106,1,0,0:0:0:0:
448,192,237154,1,0,0:0:0:0:
192,192,237201,1,0,0:0:0:0:
320,192,237249,1,0,0:0:0:0:
64,192,237297,1,0,0:0:0:0:
192,192,237344,1,0,0:0:0:0:
448,192,237392,1,0,0:0:0:0:
64,192,237439,1,0,0:0:0:0:
320,192,237487,1,0,0:0:0:0:
448,192,237535,1,0,0:0:0:0:
192,192,237582,1,0,0:0:0:0:
320,192,237630,1,0,0:0:0:0:
64,192,237678,1,0,0:0:0:0:
448,192,237725,1,0,0:0:0:0:
320,192,237773,1,0,0:0:0:0:
192,192,237773,1,0,0:0:0:0:
64,192,237820,1,0,0:0:0:0:
448,192,237868,1,0,0:0:0:0:
192,192,237916,1,0,0:0:0:0:
320,192,237963,1,0,0:0:0:0:
192,192,238041,1,0,0:0:0:0:
64,192,238148,1,0,0:0:0:0:
320,192,238255,1,0,0:0:0:0:
448,192,238344,1,0,0:0:0:0:
64,192,238344,1,0,0:0:0:0:
192,192,238407,1,0,0:0:0:0:
448,192,238470,1,0,0:0:0:0:
64,192,238534,1,0,0:0:0:0:
320,192,238597,1,0,0:0:0:0:
64,192,238661,1,0,0:0:0:0:
320,192,238724,1,0,0:0:0:0:
192,192,238788,1,0,0:0:0:0:
448,192,238851,1,0,0:0:0:0:
192,192,238915,1,0,0:0:0:0:
320,192,238978,1,0,0:0:0:0:
448,192,239042,1,0,0:0:0:0:
64,192,239105,1,0,0:0:0:0:
192,192,239153,1,0,0:0:0:0:
448,192,239201,1,0,0:0:0:0:
64,192,239232,1,0,0:0:0:0:
320,192,239296,1,0,0:0:0:0:
192,192,239359,1,0,0:0:0:0:
320,192,239423,1,0,0:0:0:0:
448,192,239486,1,0,0:0:0:0:
64,192,239550,1,0,0:0:0:0:
448,192,239613,1,0,0:0:0:0:
192,192,239677,1,0,0:0:0:0:
320,192,239740,1,0,0:0:0:0:
192,192,239804,1,0,0:0:0:0:
64,192,239867,1,0,0:0:0:0:
320,192,239931,1,0,0:0:0:0:
64,192,239994,1,0,0:0:0:0:
192,192,240058,1,0,0:0:0:0:
448,192,240121,1,0,0:0:0:0:
192,192,240185,1,0,0:0:0:0:
320,192,240248,1,0,0:0:0:0:
64,192,240303,1,0,0:0:0:0:
448,192,240312,1,0,0:0:0:0:
192,192,240375,1,0,0:0:0:0:
448,192,240439,1,0,0:0:0:0:
64,192,240466,1,0,0:0:0:0:
320,192,240502,1,0,0:0:0:0:
192,192,240566,1,0,0:0:0:0:
320,192,240629,1,0,0:0:0:0:
64,192,240629,1,0,0:0:0:0:
448,192,240629,1,0,0:0:0:0:
448,192,241201,1,0,0:0:0:0:
192,192,241201,1,0,0:0:0:0:
64,192,241201,1,0,0:0:0:0:
320,192,241248,1,0,0:0:0:0:
192,192,241308,1,0,0:0:0:0:
448,192,241364,1,0,0:0:0:0:
64,192,241379,1,0,0:0:0:0:
192,192,241446,1,0,0:0:0:0:
320,192,241518,1,0,0:0:0:0:
64,192,241558,1,0,0:0:0:0:
448,192,241582,1,0,0:0:0:0:
192,192,241629,1,0,0:0:0:0:
64,192,241677,1,0,0:0:0:0:
320,192,241724,1,0,0:0:0:0:
448,192,241772,1,0,0:0:0:0:
192,192,241772,1,0,0:0:0:0:
320,192,241836,1,0,0:0:0:0:
64,192,241867,1,0,0:0:0:0:
448,192,241915,1,0,0:0:0:0:
192,192,241951,1,0,0:0:0:0:
320,192,242010,1,0,0:0:0:0:
64,192,242058,1,0,0:0:0:0:
192,192,242105,1,0,0:0:0:0:
448,192,242153,1,0,0:0:0:0:
64,192,242201,1,0,0:0:0:0:
320,192,242272,1,0,0:0:0:0:
64,192,242344,1,0,0:0:0:0:
192,192,242344,1,0,0:0:0:0:
448,192,242391,1,0,0:0:0:0:
192,192,242451,1,0,0:0:0:0:
448,192,242507,1,0,0:0:0:0:
320,192,242558,1,0,0:0:0:0:
64,192,242594,1,0,0:0:0:0:
448,192,242629,1,0,0:0:0:0:
192,192,242677,1,0,0:0:0:0:
64,192,242724,1,0,0:0:0:0:
320,192,242772,1,0,0:0:0:0:
192,192,242844,1,0,0:0:0:0:
448,192,242915,1,0,0:0:0:0:
64,192,242915,1,0,0:0:0:0:
320,192,242915,1,0,0:0:0:0:
448,192,243486,1,0,0:0:0:0:
64,192,243486,1,0,0:0:0:0:
192,192,243522,1,0,0:0:0:0:
320,192,243568,1,0,0:0:0:0:
64,192,243613,1,0,0:0:0:0:
448,192,243650,1,0,0:0:0:0:
192,192,243677,1,0,0:0:0:0:
64,192,243740,1,0,0:0:0:0:
320,192,243772,1,0,0:0:0:0:
448,192,243820,1,0,0:0:0:0:
192,192,243844,1,0,0:0:0:0:
320,192,243915,1,0,0:0:0:0:
192,192,243986,1,0,0:0:0:0:
64,192,244058,1,0,0:0:0:0:
448,192,244094,1,0,0:0:0:0:
320,192,244129,1,0,0:0:0:0:
64,192,244185,1,0,0:0:0:0:
448,192,244221,1,0,0:0:0:0:
192,192,244272,1,0,0:0:0:0:
320,192,244312,1,0,0:0:0:0:
64,192,244344,1,0,0:0:0:0:
192,192,244391,1,0,0:0:0:0:
320,192,244451,1,0,0:0:0:0:
64,192,244486,1,0,0:0:0:0:
448,192,244558,1,0,0:0:0:0:
64,192,244629,1,0,0:0:0:0:
192,192,244629,1,0,0:0:0:0:
320,192,244665,1,0,0:0:0:0:
192,192,244724,1,0,0:0:0:0:
64,192,244772,1,0,0:0:0:0:
320,192,244820,1,0,0:0:0:0:
192,192,244915,1,0,0:0:0:0:
448,192,244986,1,0,0:0:0:0:
192,192,245058,1,0,0:0:0:0:
320,192,245129,1,0,0:0:0:0:
64,192,245210,1,0,0:0:0:0:
448,192,245210,1,0,0:0:0:0:
192,192,245275,1,0,0:0:0:0:
320,192,245341,1,0,0:0:0:0:
64,192,245407,1,0,0:0:0:0:
320,192,245473,1,0,0:0:0:0:
448,192,245539,1,0,0:0:0:0:
64,192,245605,1,0,0:0:0:0:
192,192,245642,1,0,0:0:0:0:
448,192,245671,1,0,0:0:0:0:
64,192,245737,1,0,0:0:0:0:
320,192,245803,1,0,0:0:0:0:
192,192,245869,1,0,0:0:0:0:
448,192,245902,1,0,0:0:0:0:
320,192,245935,1,0,0:0:0:0:
64,192,246001,1,0,0:0:0:0:
448,192,246067,1,0,0:0:0:0:
192,192,246133,1,0,0:0:0:0:
320,192,246161,1,0,0:0:0:0:
64,192,246199,1,0,0:0:0:0:
192,192,246264,1,0,0:0:0:0:
448,192,246330,1,0,0:0:0:0:
320,192,246363,1,0,0:0:0:0:
64,192,246396,1,0,0:0:0:0:
448,192,246462,1,0,0:0:0:0:
192,192,246528,1,0,0:0:0:0:
320,192,246594,1,0,0:0:0:0:
64,192,246623,1,0,0:0:0:0:
192,192,246660,1,0,0:0:0:0:
448,192,246726,1,0,0:0:0:0:
64,192,246792,1,0,0:0:0:0:
320,192,246825,1,0,0:0:0:0:
192,192,246858,1,0,0:0:0:0:
64,192,246924,1,0,0:0:0:0:
448,192,246990,1,0,0:0:0:0:
192,192,247056,1,0,0:0:0:0:
320,192,247094,1,0,0:0:0:0:
448,192,247158,1,0,0:0:0:0:
320,192,247210,1,0,0:0:0:0:
192,192,247286,1,0,0:0:0:0:
64,192,247363,1,0,0:0:0:0:
192,192,247440,1,0,0:0:0:0:
320,192,247517,1,0,0:0:0:0:
64,192,247556,1,0,0:0:0:0:
448,192,247575,1,0,0:0:0:0:
192,192,247633,1,0,0:0:0:0:
64,192,247690,1,0,0:0:0:0:
448,192,247748,1,0,0:0:0:0:
192,192,247806,1,0,0:0:0:0:
320,192,247863,1,0,0:0:0:0:
64,192,247921,1,0,0:0:0:0:
192,192,247979,1,0,0:0:0:0:
448,192,248030,1,0,0:0:0:0:
64,192,248081,1,0,0:0:0:0:
320,192,248133,1,0,0:0:0:0:
448,192,248184,1,0,0:0:0:0:
192,192,248235,1,0,0:0:0:0:
320,192,248286,1,0,0:0:0:0:
64,192,248338,1,0,0:0:0:0:
192,192,248389,1,0,0:0:0:0:
448,192,248440,5,0,0:0:0:0:
320,192,248440,1,0,0:0:0:0:
192,192,248505,1,0,0:0:0:0:
448,192,248571,1,0,0:0:0:0:
320,192,248637,1,0,0:0:0:0:
64,192,248703,1,0,0:0:0:0:
320,192,248769,1,0,0:0:0:0:
192,192,248835,1,0,0:0:0:0:
64,192,248903,1,0,0:0:0:0:
448,192,248903,1,0,0:0:0:0:
320,192,248903,1,0,0:0:0:0:
64,192,249018,1,0,0:0:0:0:
192,192,249018,1,0,0:0:0:0:
448,192,249133,1,0,0:0:0:0:
320,192,249133,1,0,0:0:0:0:
64,192,249249,1,0,0:0:0:0:
448,192,249249,1,0,0:0:0:0:
320,192,249364,1,0,0:0:0:0:
192,192,249364,1,0,0:0:0:0:
320,192,249479,1,0,0:0:0:0:
448,192,249479,1,0,0:0:0:0:
64,192,249595,1,0,0:0:0:0:
192,192,249595,1,0,0:0:0:0:
448,192,249710,1,0,0:0:0:0:
192,192,249710,1,0,0:0:0:0:
448,192,249826,1,0,0:0:0:0:
320,192,249826,1,0,0:0:0:0:
192,192,249941,1,0,0:0:0:0:
64,192,249941,1,0,0:0:0:0:
320,192,250056,1,0,0:0:0:0:
448,192,250056,1,0,0:0:0:0:
64,192,250172,1,0,0:0:0:0:
192,192,250172,1,0,0:0:0:0:
64,192,250287,1,0,0:0:0:0:
320,192,250287,1,0,0:0:0:0:
320,192,250403,1,0,0:0:0:0:
448,192,250403,1,0,0:0:0:0:
192,192,250518,1,0,0:0:0:0:
64,192,250518,1,0,0:0:0:0:
320,192,250633,1,0,0:0:0:0:
64,192,250633,1,0,0:0:0:0:
192,192,250749,1,0,0:0:0:0:
320,192,250749,1,0,0:0:0:0:
448,192,250749,1,0,0:0:0:0:
64,192,250864,1,0,0:0:0:0:
448,192,250864,1,0,0:0:0:0:
192,192,250979,1,0,0:0:0:0:
64,192,250979,1,0,0:0:0:0:
448,192,251095,1,0,0:0:0:0:
320,192,251095,1,0,0:0:0:0:
64,192,251210,1,0,0:0:0:0:
448,192,251210,1,0,0:0:0:0:
192,192,251326,1,0,0:0:0:0:
320,192,251326,1,0,0:0:0:0:
448,192,251441,1,0,0:0:0:0:
64,192,251441,1,0,0:0:0:0:
64,192,251556,1,0,0:0:0:0:
192,192,251556,1,0,0:0:0:0:
320,192,251672,1,0,0:0:0:0:
448,192,251672,1,0,0:0:0:0:
64,192,251787,1,0,0:0:0:0:
320,192,251787,1,0,0:0:0:0:
448,192,251903,1,0,0:0:0:0:
192,192,251903,1,0,0:0:0:0:
64,192,252018,1,0,0:0:0:0:
192,192,252018,1,0,0:0:0:0:
320,192,252133,1,0,0:0:0:0:
448,192,252133,1,0,0:0:0:0:
64,192,252249,1,0,0:0:0:0:
448,192,252249,1,0,0:0:0:0:
192,192,252364,1,0,0:0:0:0:
64,192,252364,1,0,0:0:0:0:
320,192,252479,1,0,0:0:0:0:
448,192,252479,1,0,0:0:0:0:
192,192,252595,1,0,0:0:0:0:
320,192,252595,1,0,0:0:0:0:
64,192,252595,1,0,0:0:0:0:
448,192,253287,1,0,0:0:0:0:
320,192,253287,1,0,0:0:0:0:
64,192,253979,1,0,0:0:0:0:
192,192,253979,1,0,0:0:0:0:
64,192,254441,1,0,0:0:0:0:
192,192,254441,1,0,0:0:0:0:
320,192,254441,1,0,0:0:0:0:
448,192,254903,1,0,0:0:0:0:
192,192,255133,1,0,0:0:0:0:
320,192,255133,1,0,0:0:0:0:
320,192,255826,1,0,0:0:0:0:
448,192,255826,1,0,0:0:0:0:
64,192,256287,1,0,0:0:0:0:
448,192,256287,1,0,0:0:0:0:
64,192,256403,1,0,0:0:0:0:
192,192,256403,1,0,0:0:0:0:
320,192,256518,1,0,0:0:0:0:
448,192,256518,1,0,0:0:0:0:
64,192,256633,1,0,0:0:0:0:
448,192,256633,1,0,0:0:0:0:
192,192,256749,1,0,0:0:0:0:
64,192,256749,1,0,0:0:0:0:
320,192,256864,1,0,0:0:0:0:
448,192,256864,1,0,0:0:0:0:
448,192,256979,1,0,0:0:0:0:
64,192,256979,1,0,0:0:0:0:
320,192,257095,1,0,0:0:0:0:
192,192,257095,1,0,0:0:0:0:
64,192,257210,1,0,0:0:0:0:
192,192,257210,1,0,0:0:0:0:
320,192,257326,1,0,0:0:0:0:
448,192,257326,1,0,0:0:0:0:
64,192,257441,1,0,0:0:0:0:
192,192,257441,1,0,0:0:0:0:
448,192,257556,1,0,0:0:0:0:
64,192,257556,1,0,0:0:0:0:
320,192,257672,1,0,0:0:0:0:
448,192,257672,1,0,0:0:0:0:
64,192,257787,1,0,0:0:0:0:
192,192,257787,1,0,0:0:0:0:
448,192,257903,1,0,0:0:0:0:
64,192,257903,1,0,0:0:0:0:
320,192,258018,1,0,0:0:0:0:
448,192,258018,1,0,0:0:0:0:
192,192,258133,1,0,0:0:0:0:
320,192,258133,1,0,0:0:0:0:
64,192,258133,1,0,0:0:0:0:
64,192,258249,1,0,0:0:0:0:
192,192,258249,1,0,0:0:0:0:
448,192,258364,1,0,0:0:0:0:
320,192,258364,1,0,0:0:0:0:
64,192,258479,1,0,0:0:0:0:
448,192,258479,1,0,0:0:0:0:
192,192,258595,1,0,0:0:0:0:
320,192,258595,1,0,0:0:0:0:
64,192,258710,1,0,0:0:0:0:
192,192,258710,1,0,0:0:0:0:
320,192,258826,1,0,0:0:0:0:
448,192,258826,1,0,0:0:0:0:
64,192,258941,1,0,0:0:0:0:
448,192,258941,1,0,0:0:0:0:
192,192,259056,1,0,0:0:0:0:
320,192,259114,1,0,0:0:0:0:
448,192,259172,1,0,0:0:0:0:
64,192,259229,1,0,0:0:0:0:
320,192,259287,1,0,0:0:0:0:
192,192,259345,1,0,0:0:0:0:
64,192,259403,1,0,0:0:0:0:
448,192,259460,1,0,0:0:0:0:
320,192,259518,1,0,0:0:0:0:
192,192,259518,1,0,0:0:0:0:
64,192,259518,1,0,0:0:0:0:
448,192,259576,1,0,0:0:0:0:
320,192,259633,1,0,0:0:0:0:
64,192,259633,1,0,0:0:0:0:
192,192,259691,1,0,0:0:0:0:
320,192,259749,1,0,0:0:0:0:
448,192,259806,1,0,0:0:0:0:
192,192,259864,1,0,0:0:0:0:
320,192,259922,1,0,0:0:0:0:
448,192,259979,1,0,0:0:0:0:
64,192,259979,1,0,0:0:0:0:
192,192,259979,1,0,0:0:0:0:
320,192,260095,1,0,0:0:0:0:
64,192,260153,1,0,0:0:0:0:
192,192,260153,1,0,0:0:0:0:
320,192,260210,1,0,0:0:0:0:
448,192,260268,1,0,0:0:0:0:
64,192,260268,1,0,0:0:0:0:
192,192,260326,1,0,0:0:0:0:
320,192,260383,1,0,0:0:0:0:
448,192,260383,1,0,0:0:0:0:
64,192,260441,1,0,0:0:0:0:
192,192,260499,1,0,0:0:0:0:
448,192,260499,1,0,0:0:0:0:
320,192,260556,1,0,0:0:0:0:
192,192,260614,1,0,0:0:0:0:
64,192,260614,1,0,0:0:0:0:
448,192,260672,1,0,0:0:0:0:
320,192,260729,1,0,0:0:0:0:
192,192,260729,1,0,0:0:0:0:
64,192,260787,1,0,0:0:0:0:
448,192,260845,1,0,0:0:0:0:
320,192,260845,1,0,0:0:0:0:
64,192,260903,1,0,0:0:0:0:
192,192,260960,1,0,0:0:0:0:
320,192,260960,1,0,0:0:0:0:
448,192,261018,1,0,0:0:0:0:
64,192,261076,1,0,0:0:0:0:
192,192,261076,1,0,0:0:0:0:
320,192,261133,1,0,0:0:0:0:
448,192,261191,1,0,0:0:0:0:
64,192,261191,1,0,0:0:0:0:
320,192,261249,1,0,0:0:0:0:
192,192,261306,1,0,0:0:0:0:
64,192,261306,1,0,0:0:0:0:
448,192,261364,1,0,0:0:0:0:
320,192,261422,1,0,0:0:0:0:
192,192,261422,1,0,0:0:0:0:
64,192,261479,1,0,0:0:0:0:
320,192,261537,1,0,0:0:0:0:
448,192,261537,1,0,0:0:0:0:
192,192,261595,1,0,0:0:0:0:
448,192,261653,1,0,0:0:0:0:
320,192,261653,1,0,0:0:0:0:
64,192,261710,1,0,0:0:0:0:
192,192,261768,1,0,0:0:0:0:
320,192,261768,1,0,0:0:0:0:
448,192,261826,1,0,0:0:0:0:
64,192,261883,1,0,0:0:0:0:
192,192,261883,1,0,0:0:0:0:
320,192,261941,1,0,0:0:0:0:
448,192,261999,1,0,0:0:0:0:
64,192,261999,1,0,0:0:0:0:
320,192,262056,1,0,0:0:0:0:
192,192,262114,1,0,0:0:0:0:
64,192,262114,1,0,0:0:0:0:
448,192,262172,1,0,0:0:0:0:
192,192,262229,1,0,0:0:0:0:
320,192,262229,1,0,0:0:0:0:
64,192,262287,1,0,0:0:0:0:
320,192,262345,1,0,0:0:0:0:
448,192,262345,1,0,0:0:0:0:
192,192,262403,1,0,0:0:0:0:
448,192,262460,1,0,0:0:0:0:
64,192,262460,1,0,0:0:0:0:
320,192,262518,1,0,0:0:0:0:
64,192,262576,1,0,0:0:0:0:
192,192,262576,1,0,0:0:0:0:
320,192,262633,1,0,0:0:0:0:
64,192,262691,1,0,0:0:0:0:
448,192,262691,1,0,0:0:0:0:
192,192,262749,1,0,0:0:0:0:
320,192,262806,1,0,0:0:0:0:
448,192,262806,1,0,0:0:0:0:
64,192,262864,1,0,0:0:0:0:
448,192,262922,1,0,0:0:0:0:
192,192,262922,1,0,0:0:0:0:
320,192,262979,1,0,0:0:0:0:
64,192,263037,1,0,0:0:0:0:
192,192,263037,1,0,0:0:0:0:
448,192,263095,1,0,0:0:0:0:
320,192,263153,1,0,0:0:0:0:
64,192,263153,1,0,0:0:0:0:
192,192,263210,1,0,0:0:0:0:
320,192,263268,1,0,0:0:0:0:
448,192,263268,1,0,0:0:0:0:
64,192,263326,1,0,0:0:0:0:
192,192,263383,1,0,0:0:0:0:
448,192,263383,1,0,0:0:0:0:
320,192,263441,1,0,0:0:0:0:
192,192,263499,1,0,0:0:0:0:
64,192,263499,1,0,0:0:0:0:
448,192,263556,1,0,0:0:0:0:
320,192,263614,1,0,0:0:0:0:
192,192,263614,1,0,0:0:0:0:
64,192,263672,1,0,0:0:0:0:
448,192,263672,1,0,0:0:0:0:
192,192,263787,1,0,0:0:0:0:
320,192,263787,1,0,0:0:0:0:
64,192,263903,1,0,0:0:0:0:
192,192,263903,1,0,0:0:0:0:
448,192,264018,1,0,0:0:0:0:
64,192,264018,1,0,0:0:0:0:
320,192,264133,1,0,0:0:0:0:
448,192,264133,1,0,0:0:0:0:
64,192,264249,1,0,0:0:0:0:
192,192,264249,1,0,0:0:0:0:
448,192,264364,1,0,0:0:0:0:
64,192,264364,1,0,0:0:0:0:
320,192,264479,1,0,0:0:0:0:
192,192,264479,1,0,0:0:0:0:
64,192,264595,1,0,0:0:0:0:
192,192,264595,1,0,0:0:0:0:
448,192,264595,1,0,0:0:0:0:
320,192,264710,1,0,0:0:0:0:
448,192,264710,1,0,0:0:0:0:
64,192,264826,1,0,0:0:0:0:
192,192,264826,1,0,0:0:0:0:
448,192,264941,1,0,0:0:0:0:
64,192,264941,1,0,0:0:0:0:
320,192,265056,1,0,0:0:0:0:
448,192,265056,1,0,0:0:0:0:
64,192,265172,1,0,0:0:0:0:
192,192,265172,1,0,0:0:0:0:
192,192,265287,1,0,0:0:0:0:
320,192,265287,1,0,0:0:0:0:
448,192,265403,1,0,0:0:0:0:
64,192,265403,1,0,0:0:0:0:
320,192,265518,1,0,0:0:0:0:
448,192,265518,1,0,0:0:0:0:
64,192,265633,1,0,0:0:0:0:
192,192,265633,1,0,0:0:0:0:
448,192,265749,1,0,0:0:0:0:
64,192,265749,1,0,0:0:0:0:
192,192,265864,1,0,0:0:0:0:
320,192,265864,1,0,0:0:0:0:
448,192,265979,1,0,0:0:0:0:
64,192,265979,1,0,0:0:0:0:
64,192,266095,1,0,0:0:0:0:
192,192,266095,1,0,0:0:0:0:
320,192,266210,1,0,0:0:0:0:
448,192,266210,1,0,0:0:0:0:
64,192,266326,1,0,0:0:0:0:
448,192,266326,1,0,0:0:0:0:
320,192,266441,1,0,0:0:0:0:
192,192,266441,1,0,0:0:0:0:
64,192,266441,1,0,0:0:0:0:
448,192,266556,1,0,0:0:0:0:
320,192,266556,1,0,0:0:0:0:
64,192,266672,1,0,0:0:0:0:
448,192,266672,1,0,0:0:0:0:
192,192,266787,1,0,0:0:0:0:
64,192,266787,1,0,0:0:0:0:
320,192,266903,1,0,0:0:0:0:
192,192,266960,1,0,0:0:0:0:
448,192,267018,1,0,0:0:0:0:
64,192,267076,1,0,0:0:0:0:
192,192,267133,1,0,0:0:0:0:
320,192,267191,1,0,0:0:0:0:
448,192,267249,1,0,0:0:0:0:
192,192,267306,1,0,0:0:0:0:
64,192,267364,1,0,0:0:0:0:
320,192,267364,1,0,0:0:0:0:
64,192,268056,1,0,0:0:0:0:
192,192,268056,1,0,0:0:0:0:
320,192,268749,1,0,0:0:0:0:
448,192,268749,1,0,0:0:0:0:
64,192,269210,1,0,0:0:0:0:
448,192,269210,1,0,0:0:0:0:
320,192,269210,1,0,0:0:0:0:
320,192,269903,1,0,0:0:0:0:
192,192,269903,1,0,0:0:0:0:
64,192,270595,1,0,0:0:0:0:
192,192,270595,1,0,0:0:0:0:
320,192,271056,1,0,0:0:0:0:
448,192,271056,1,0,0:0:0:0:
64,192,271172,1,0,0:0:0:0:
448,192,271172,1,0,0:0:0:0:
192,192,271287,1,0,0:0:0:0:
64,192,271287,1,0,0:0:0:0:
448,192,271403,1,0,0:0:0:0:
320,192,271403,1,0,0:0:0:0:
64,192,271518,1,0,0:0:0:0:
448,192,271518,1,0,0:0:0:0:
320,192,271633,1,0,0:0:0:0:
192,192,271633,1,0,0:0:0:0:
64,192,271749,1,0,0:0:0:0:
192,192,271749,1,0,0:0:0:0:
448,192,271864,1,0,0:0:0:0:
320,192,271864,1,0,0:0:0:0:
64,192,271979,1,0,0:0:0:0:
192,192,271979,1,0,0:0:0:0:
448,192,272095,1,0,0:0:0:0:
64,192,272095,1,0,0:0:0:0:
320,192,272210,1,0,0:0:0:0:
448,192,272210,1,0,0:0:0:0:
64,192,272326,1,0,0:0:0:0:
192,192,272326,1,0,0:0:0:0:
320,192,272441,1,0,0:0:0:0:
192,192,272441,1,0,0:0:0:0:
64,192,272556,1,0,0:0:0:0:
448,192,272556,1,0,0:0:0:0:
320,192,272672,1,0,0:0:0:0:
448,192,272672,1,0,0:0:0:0:
64,192,272787,1,0,0:0:0:0:
192,192,272787,1,0,0:0:0:0:
64,192,272903,1,0,0:0:0:0:
320,192,272903,1,0,0:0:0:0:
448,192,272903,1,0,0:0:0:0:
192,192,273018,1,0,0:0:0:0:
320,192,273018,1,0,0:0:0:0:
448,192,273133,1,0,0:0:0:0:
64,192,273133,1,0,0:0:0:0:
320,192,273249,1,0,0:0:0:0:
448,192,273249,1,0,0:0:0:0:
64,192,273364,1,0,0:0:0:0:
192,192,273364,1,0,0:0:0:0:
448,192,273479,1,0,0:0:0:0:
64,192,273479,1,0,0:0:0:0:
192,192,273595,1,0,0:0:0:0:
320,192,273595,1,0,0:0:0:0:
64,192,273710,1,0,0:0:0:0:
192,192,273710,1,0,0:0:0:0:
448,192,273826,1,0,0:0:0:0:
192,192,273826,1,0,0:0:0:0:
320,192,273883,1,0,0:0:0:0:
64,192,273941,1,0,0:0:0:0:
192,192,273999,1,0,0:0:0:0:
320,192,274056,1,0,0:0:0:0:
448,192,274056,1,0,0:0:0:0:
192,192,274114,1,0,0:0:0:0:
64,192,274172,1,0,0:0:0:0:
448,192,274229,1,0,0:0:0:0:
320,192,274287,1,0,0:0:0:0:
192,192,274287,1,0,0:0:0:0:
64,192,274287,1,0,0:0:0:0:
448,192,274345,1,0,0:0:0:0:
64,192,274403,1,0,0:0:0:0:
192,192,274460,1,0,0:0:0:0:
320,192,274518,1,0,0:0:0:0:
448,192,274576,1,0,0:0:0:0:
64,192,274633,1,0,0:0:0:0:
320,192,274691,1,0,0:0:0:0:
64,192,274749,1,0,0:0:0:0:
192,192,274749,1,0,0:0:0:0:
320,192,274826,1,0,0:0:0:0:
448,192,274826,1,0,0:0:0:0:
192,192,274903,1,0,0:0:0:0:
320,192,274979,1,0,0:0:0:0:
448,192,274979,1,0,0:0:0:0:
192,192,275056,1,0,0:0:0:0:
448,192,275133,1,0,0:0:0:0:
64,192,275133,1,0,0:0:0:0:
320,192,275210,1,0,0:0:0:0:
64,192,275287,1,0,0:0:0:0:
192,192,275287,1,0,0:0:0:0:
448,192,275364,1,0,0:0:0:0:
64,192,275441,1,0,0:0:0:0:
320,192,275441,1,0,0:0:0:0:
192,192,275518,1,0,0:0:0:0:
448,192,275595,1,0,0:0:0:0:
320,192,275595,1,0,0:0:0:0:
64,192,275672,1,0,0:0:0:0:
192,192,275749,1,0,0:0:0:0:
448,192,275749,1,0,0:0:0:0:
320,192,275826,1,0,0:0:0:0:
192,192,275903,1,0,0:0:0:0:
64,192,275903,1,0,0:0:0:0:
448,192,275979,1,0,0:0:0:0:
64,192,276056,1,0,0:0:0:0:
320,192,276056,1,0,0:0:0:0:
192,192,276133,1,0,0:0:0:0:
448,192,276210,1,0,0:0:0:0:
320,192,276210,1,0,0:0:0:0:
64,192,276287,1,0,0:0:0:0:
192,192,276364,1,0,0:0:0:0:
320,192,276364,1,0,0:0:0:0:
448,192,276441,1,0,0:0:0:0:
64,192,276518,1,0,0:0:0:0:
320,192,276518,1,0,0:0:0:0:
192,192,276595,1,0,0:0:0:0:
320,192,276672,1,0,0:0:0:0:
448,192,276672,1,0,0:0:0:0:
64,192,276749,1,0,0:0:0:0:
192,192,276826,1,0,0:0:0:0:
448,192,276826,1,0,0:0:0:0:
320,192,276903,1,0,0:0:0:0:
64,192,276979,1,0,0:0:0:0:
192,192,276979,1,0,0:0:0:0:
448,192,277056,1,0,0:0:0:0:
320,192,277133,1,0,0:0:0:0:
192,192,277133,1,0,0:0:0:0:
64,192,277210,1,0,0:0:0:0:
320,192,277287,1,0,0:0:0:0:
448,192,277287,1,0,0:0:0:0:
64,192,277364,1,0,0:0:0:0:
448,192,277441,1,0,0:0:0:0:
192,192,277441,1,0,0:0:0:0:
320,192,277518,1,0,0:0:0:0:
448,192,277595,1,0,0:0:0:0:
64,192,277595,1,0,0:0:0:0:
192,192,277672,1,0,0:0:0:0:
448,192,277749,1,0,0:0:0:0:
320,192,277749,1,0,0:0:0:0:
64,192,277826,1,0,0:0:0:0:
192,192,277903,1,0,0:0:0:0:
320,192,277903,1,0,0:0:0:0:
64,192,277979,1,0,0:0:0:0:
448,192,277979,1,0,0:0:0:0:
192,192,278056,1,0,0:0:0:0:
320,192,278056,1,0,0:0:0:0:
448,192,278133,1,0,0:0:0:0:
192,192,278210,1,0,0:0:0:0:
448,192,278287,1,0,0:0:0:0:
320,192,278287,1,0,0:0:0:0:
64,192,278364,1,0,0:0:0:0:
192,192,278364,1,0,0:0:0:0:
320,192,278441,1,0,0:0:0:0:
448,192,278441,1,0,0:0:0:0:
64,192,278518,1,0,0:0:0:0:
192,192,278518,1,0,0:0:0:0:
320,192,278585,1,0,0:0:0:0:
448,192,278672,1,0,0:0:0:0:
192,192,278672,1,0,0:0:0:0:
320,192,278749,1,0,0:0:0:0:
64,192,278826,1,0,0:0:0:0:
192,192,278826,1,0,0:0:0:0:
448,192,278903,1,0,0:0:0:0:
64,192,278979,1,0,0:0:0:0:
320,192,278979,1,0,0:0:0:0:
192,192,279056,1,0,0:0:0:0:
448,192,279133,1,0,0:0:0:0:
320,192,279133,1,0,0:0:0:0:
64,192,279210,1,0,0:0:0:0:
192,192,279287,1,0,0:0:0:0:
320,192,279287,1,0,0:0:0:0:
448,192,279364,1,0,0:0:0:0:
64,192,279441,1,0,0:0:0:0:
320,192,279441,1,0,0:0:0:0:
192,192,279518,1,0,0:0:0:0:
448,192,279595,1,0,0:0:0:0:
320,192,279595,1,0,0:0:0:0:
64,192,279672,1,0,0:0:0:0:
448,192,279749,1,0,0:0:0:0:
192,192,279749,1,0,0:0:0:0:
320,192,279826,1,0,0:0:0:0:
64,192,279903,1,0,0:0:0:0:
192,192,279903,1,0,0:0:0:0:
448,192,279979,1,0,0:0:0:0:
192,192,280056,1,0,0:0:0:0:
320,192,280056,1,0,0:0:0:0:
64,192,280133,1,0,0:0:0:0:
448,192,280210,1,0,0:0:0:0:
320,192,280210,1,0,0:0:0:0:
64,192,280287,1,0,0:0:0:0:
192,192,280364,1,0,0:0:0:0:
448,192,280364,1,0,0:0:0:0:
320,192,280441,1,0,0:0:0:0:
64,192,280518,1,0,0:0:0:0:
192,192,280518,1,0,0:0:0:0:
448,192,280595,1,0,0:0:0:0:
64,192,280672,1,0,0:0:0:0:
320,192,280672,1,0,0:0:0:0:
192,192,280749,1,0,0:0:0:0:
64,192,280826,1,0,0:0:0:0:
448,192,280826,1,0,0:0:0:0:
320,192,280903,1,0,0:0:0:0:
448,192,280979,1,0,0:0:0:0:
64,192,280979,1,0,0:0:0:0:
192,192,281056,1,0,0:0:0:0:
448,192,281133,1,0,0:0:0:0:
320,192,281133,1,0,0:0:0:0:
64,192,281210,1,0,0:0:0:0:
192,192,281287,1,0,0:0:0:0:
320,192,281287,1,0,0:0:0:0:
448,192,281364,1,0,0:0:0:0:
64,192,281441,1,0,0:0:0:0:
320,192,281441,1,0,0:0:0:0:
192,192,281518,1,0,0:0:0:0:
320,192,281595,1,0,0:0:0:0:
448,192,281595,1,0,0:0:0:0:
192,192,281672,1,0,0:0:0:0:
64,192,281672,1,0,0:0:0:0:
320,192,281749,1,0,0:0:0:0:
448,192,281749,1,0,0:0:0:0:
64,192,281826,1,0,0:0:0:0:
320,192,281903,1,0,0:0:0:0:
64,192,281979,1,0,0:0:0:0:
192,192,281979,1,0,0:0:0:0:
448,192,282056,1,0,0:0:0:0:
64,192,282133,1,0,0:0:0:0:
320,192,282133,1,0,0:0:0:0:
448,192,282210,1,0,0:0:0:0:
192,192,282210,1,0,0:0:0:0:
64,192,282287,1,0,0:0:0:0:
192,192,282364,1,0,0:0:0:0:
448,192,282364,1,0,0:0:0:0:
320,192,282441,1,0,0:0:0:0:
64,192,282518,1,0,0:0:0:0:
192,192,282518,1,0,0:0:0:0:
448,192,282595,1,0,0:0:0:0:
320,192,282672,1,0,0:0:0:0:
64,192,282672,1,0,0:0:0:0:
192,192,282749,1,0,0:0:0:0:
320,192,282826,1,0,0:0:0:0:
448,192,282826,1,0,0:0:0:0:
64,192,282903,1,0,0:0:0:0:
192,192,282979,1,0,0:0:0:0:
320,192,282979,1,0,0:0:0:0:
448,192,283056,1,0,0:0:0:0:
64,192,283133,1,0,0:0:0:0:
192,192,283133,1,0,0:0:0:0:
448,192,283210,1,0,0:0:0:0:
320,192,283287,1,0,0:0:0:0:
64,192,283287,1,0,0:0:0:0:
192,192,283364,1,0,0:0:0:0:
448,192,283441,1,0,0:0:0:0:
320,192,283441,1,0,0:0:0:0:
64,192,283518,1,0,0:0:0:0:
448,192,283595,1,0,0:0:0:0:
192,192,283595,1,0,0:0:0:0:
64,192,283672,1,0,0:0:0:0:
320,192,283749,1,0,0:0:0:0:
448,192,283749,1,0,0:0:0:0:
192,192,283826,1,0,0:0:0:0:
64,192,283903,1,0,0:0:0:0:
448,192,283903,1,0,0:0:0:0:
320,192,283979,1,0,0:0:0:0:
64,192,284056,1,0,0:0:0:0:
192,192,284056,1,0,0:0:0:0:
448,192,284133,1,0,0:0:0:0:
64,192,284210,1,0,0:0:0:0:
320,192,284210,1,0,0:0:0:0:
192,192,284287,1,0,0:0:0:0:
448,192,284364,1,0,0:0:0:0:
320,192,284364,1,0,0:0:0:0:
64,192,284441,1,0,0:0:0:0:
448,192,284518,1,0,0:0:0:0:
192,192,284518,1,0,0:0:0:0:
320,192,284595,1,0,0:0:0:0:
192,192,284672,1,0,0:0:0:0:
64,192,284672,1,0,0:0:0:0:
448,192,284749,1,0,0:0:0:0:
64,192,284826,1,0,0:0:0:0:
320,192,284826,1,0,0:0:0:0:
192,192,284903,1,0,0:0:0:0:
448,192,284979,1,0,0:0:0:0:
320,192,284979,1,0,0:0:0:0:
64,192,285056,1,0,0:0:0:0:
192,192,285133,1,0,0:0:0:0:
320,192,285133,1,0,0:0:0:0:
448,192,285210,1,0,0:0:0:0:
64,192,285287,1,0,0:0:0:0:
192,192,285287,1,0,0:0:0:0:
320,192,285364,1,0,0:0:0:0:
448,192,285364,1,0,0:0:0:0:
64,192,285441,1,0,0:0:0:0:
192,192,285441,1,0,0:0:0:0:
448,192,285518,1,0,0:0:0:0:
64,192,285595,1,0,0:0:0:0:
448,192,285672,1,0,0:0:0:0:
320,192,285672,1,0,0:0:0:0:
64,192,285749,1,0,0:0:0:0:
192,192,285749,1,0,0:0:0:0:
448,192,285826,1,0,0:0:0:0:
320,192,285826,1,0,0:0:0:0:
192,192,285903,1,0,0:0:0:0:
64,192,285903,1,0,0:0:0:0:
320,192,285979,1,0,0:0:0:0:
448,192,286056,1,0,0:0:0:0:
192,192,286056,1,0,0:0:0:0:
64,192,286133,1,0,0:0:0:0:
448,192,286210,1,0,0:0:0:0:
192,192,286210,1,0,0:0:0:0:
320,192,286287,1,0,0:0:0:0:
64,192,286364,1,0,0:0:0:0:
448,192,286364,1,0,0:0:0:0:
192,192,286441,1,0,0:0:0:0:
448,192,286518,1,0,0:0:0:0:
320,192,286518,1,0,0:0:0:0:
64,192,286595,1,0,0:0:0:0:
192,192,286672,1,0,0:0:0:0:
320,192,286672,1,0,0:0:0:0:
448,192,286749,1,0,0:0:0:0:
64,192,286826,1,0,0:0:0:0:
320,192,286826,1,0,0:0:0:0:
192,192,286903,1,0,0:0:0:0:
64,192,286979,1,0,0:0:0:0:
448,192,286979,1,0,0:0:0:0:
320,192,287056,1,0,0:0:0:0:
64,192,287124,1,0,0:0:0:0:
192,192,287124,1,0,0:0:0:0:
448,192,287210,1,0,0:0:0:0:
64,192,287287,1,0,0:0:0:0:
320,192,287287,1,0,0:0:0:0:
192,192,287364,1,0,0:0:0:0:
448,192,287441,1,0,0:0:0:0:
320,192,287441,1,0,0:0:0:0:
64,192,287518,1,0,0:0:0:0:
192,192,287595,1,0,0:0:0:0:
320,192,287595,1,0,0:0:0:0:
448,192,287672,1,0,0:0:0:0:
64,192,287749,1,0,0:0:0:0:
192,192,287749,1,0,0:0:0:0:
448,192,287826,1,0,0:0:0:0:
320,192,287903,1,0,0:0:0:0:
192,192,287903,1,0,0:0:0:0:
64,192,287979,1,0,0:0:0:0:
448,192,288056,1,0,0:0:0:0:
320,192,288056,1,0,0:0:0:0:
192,192,288133,1,0,0:0:0:0:
64,192,288210,1,0,0:0:0:0:
320,192,288210,1,0,0:0:0:0:
192,192,288287,1,0,0:0:0:0:
448,192,288364,1,0,0:0:0:0:
320,192,288364,1,0,0:0:0:0:
64,192,288441,1,0,0:0:0:0:
448,192,288518,1,0,0:0:0:0:
192,192,288518,1,0,0:0:0:0:
320,192,288595,1,0,0:0:0:0:
64,192,288672,1,0,0:0:0:0:
192,192,288672,1,0,0:0:0:0:
448,192,288749,1,0,0:0:0:0:
192,192,288826,1,0,0:0:0:0:
320,192,288826,1,0,0:0:0:0:
64,192,288903,1,0,0:0:0:0:
448,192,288979,1,0,0:0:0:0:
320,192,288979,1,0,0:0:0:0:
64,192,289056,1,0,0:0:0:0:
192,192,289056,1,0,0:0:0:0:
448,192,289133,1,0,0:0:0:0:
320,192,289133,1,0,0:0:0:0:
64,192,289210,1,0,0:0:0:0:
448,192,289287,1,0,0:0:0:0:
320,192,289364,1,0,0:0:0:0:
192,192,289364,1,0,0:0:0:0:
64,192,289441,1,0,0:0:0:0:
448,192,289441,1,0,0:0:0:0:
320,192,289518,1,0,0:0:0:0:
192,192,289518,1,0,0:0:0:0:
64,192,289576,1,0,0:0:0:0:
192,192,289633,1,0,0:0:0:0:
320,192,289691,1,0,0:0:0:0:
448,192,289749,1,0,0:0:0:0:
192,192,289806,1,0,0:0:0:0:
320,192,289864,1,0,0:0:0:0:
448,192,289922,1,0,0:0:0:0:
64,192,289979,1,0,0:0:0:0:
192,192,290037,1,0,0:0:0:0:
448,192,290095,1,0,0:0:0:0:
448,192,290441,1,0,0:0:0:0:
64,192,290441,1,0,0:0:0:0:
192,192,290441,1,0,0:0:0:0:
320,192,290499,1,0,0:0:0:0:
192,192,290556,1,0,0:0:0:0:
64,192,290614,1,0,0:0:0:0:
448,192,290672,1,0,0:0:0:0:
192,192,290729,1,0,0:0:0:0:
320,192,290787,1,0,0:0:0:0:
448,192,290845,1,0,0:0:0:0:
192,192,290903,1,0,0:0:0:0:
320,192,290960,1,0,0:0:0:0:
448,192,291364,1,0,0:0:0:0:
320,192,291364,1,0,0:0:0:0:
192,192,291364,1,0,0:0:0:0:
64,192,291422,1,0,0:0:0:0:
192,192,291479,1,0,0:0:0:0:
448,192,291537,1,0,0:0:0:0:
320,192,291595,1,0,0:0:0:0:
192,192,291653,1,0,0:0:0:0:
64,192,291710,1,0,0:0:0:0:
448,192,291768,1,0,0:0:0:0:
192,192,291826,1,0,0:0:0:0:
320,192,291883,1,0,0:0:0:0:
64,192,292287,1,0,0:0:0:0:
448,192,292287,1,0,0:0:0:0:
192,192,292287,1,0,0:0:0:0:
320,192,292345,1,0,0:0:0:0:
192,192,292403,1,0,0:0:0:0:
448,192,292460,1,0,0:0:0:0:
64,192,292518,1,0,0:0:0:0:
192,192,292576,1,0,0:0:0:0:
320,192,292633,1,0,0:0:0:0:
448,192,292691,1,0,0:0:0:0:
64,192,292749,1,0,0:0:0:0:
320,192,292979,1,0,0:0:0:0:
448,192,292979,1,0,0:0:0:0:
192,192,293210,1,0,0:0:0:0:
64,192,293210,1,0,0:0:0:0:
448,192,293268,1,0,0:0:0:0:
320,192,293326,1,0,0:0:0:0:
64,192,293383,1,0,0:0:0:0:
192,192,293441,1,0,0:0:0:0:
320,192,293499,1,0,0:0:0:0:
448,192,293556,1,0,0:0:0:0:
64,192,293614,1,0,0:0:0:0:
320,192,293672,1,0,0:0:0:0:
192,192,293729,1,0,0:0:0:0:
64,192,294133,1,0,0:0:0:0:
448,192,294133,1,0,0:0:0:0:
320,192,294133,1,0,0:0:0:0:
192,192,294191,1,0,0:0:0:0:
320,192,294249,1,0,0:0:0:0:
448,192,294306,1,0,0:0:0:0:
64,192,294364,1,0,0:0:0:0:
320,192,294422,1,0,0:0:0:0:
192,192,294479,1,0,0:0:0:0:
64,192,294537,1,0,0:0:0:0:
320,192,294595,1,0,0:0:0:0:
192,192,294653,1,0,0:0:0:0:
64,192,295056,1,0,0:0:0:0:
448,192,295056,1,0,0:0:0:0:
320,192,295056,1,0,0:0:0:0:
192,192,295114,1,0,0:0:0:0:
320,192,295172,1,0,0:0:0:0:
448,192,295172,1,0,0:0:0:0:
64,192,295229,1,0,0:0:0:0:
192,192,295287,1,0,0:0:0:0:
320,192,295287,1,0,0:0:0:0:
448,192,295345,1,0,0:0:0:0:
192,192,295403,1,0,0:0:0:0:
64,192,295403,1,0,0:0:0:0:
320,192,295460,1,0,0:0:0:0:
64,192,295518,1,0,0:0:0:0:
448,192,295518,1,0,0:0:0:0:
192,192,295576,1,0,0:0:0:0:
320,192,295633,1,0,0:0:0:0:
448,192,295633,1,0,0:0:0:0:
64,192,295749,1,0,0:0:0:0:
192,192,295749,1,0,0:0:0:0:
448,192,295864,1,0,0:0:0:0:
64,192,295864,1,0,0:0:0:0:
320,192,295979,1,0,0:0:0:0:
448,192,295979,1,0,0:0:0:0:
192,192,296037,1,0,0:0:0:0:
64,192,296095,1,0,0:0:0:0:
448,192,296095,1,0,0:0:0:0:
320,192,296153,1,0,0:0:0:0:
192,192,296210,1,0,0:0:0:0:
64,192,296210,1,0,0:0:0:0:
448,192,296268,1,0,0:0:0:0:
320,192,296326,1,0,0:0:0:0:
192,192,296326,1,0,0:0:0:0:
64,192,296383,1,0,0:0:0:0:
448,192,296441,1,0,0:0:0:0:
192,192,296441,1,0,0:0:0:0:
320,192,296441,1,0,0:0:0:0:
64,192,296903,1,0,0:0:0:0:
448,192,296903,1,0,0:0:0:0:
320,192,296903,1,0,0:0:0:0:
192,192,296960,1,0,0:0:0:0:
448,192,297018,1,0,0:0:0:0:
320,192,297076,1,0,0:0:0:0:
64,192,297133,1,0,0:0:0:0:
448,192,297191,1,0,0:0:0:0:
320,192,297249,1,0,0:0:0:0:
64,192,297306,1,0,0:0:0:0:
192,192,297364,1,0,0:0:0:0:
320,192,297422,1,0,0:0:0:0:
64,192,297826,1,0,0:0:0:0:
448,192,297826,1,0,0:0:0:0:
192,192,297826,1,0,0:0:0:0:
320,192,297883,1,0,0:0:0:0:
192,192,297941,1,0,0:0:0:0:
448,192,297999,1,0,0:0:0:0:
64,192,298056,1,0,0:0:0:0:
192,192,298114,1,0,0:0:0:0:
320,192,298172,1,0,0:0:0:0:
448,192,298229,1,0,0:0:0:0:
192,192,298287,1,0,0:0:0:0:
320,192,298345,1,0,0:0:0:0:
64,192,298749,1,0,0:0:0:0:
192,192,298749,1,0,0:0:0:0:
320,192,298806,1,0,0:0:0:0:
448,192,298864,1,0,0:0:0:0:
192,192,298922,1,0,0:0:0:0:
64,192,298979,1,0,0:0:0:0:
448,192,299037,1,0,0:0:0:0:
320,192,299095,1,0,0:0:0:0:
192,192,299153,1,0,0:0:0:0:
448,192,299210,1,0,0:0:0:0:
64,192,299268,1,0,0:0:0:0:
64,192,299672,1,0,0:0:0:0:
192,192,299672,1,0,0:0:0:0:
320,192,299672,1,0,0:0:0:0:
448,192,299729,1,0,0:0:0:0:
320,192,299787,1,0,0:0:0:0:
64,192,299845,1,0,0:0:0:0:
192,192,299903,1,0,0:0:0:0:
320,192,299960,1,0,0:0:0:0:
448,192,300018,1,0,0:0:0:0:
64,192,300076,1,0,0:0:0:0:
320,192,300133,1,0,0:0:0:0:
64,192,300364,1,0,0:0:0:0:
192,192,300364,1,0,0:0:0:0:
448,192,300595,1,0,0:0:0:0:
320,192,300595,1,0,0:0:0:0:
192,192,300595,1,0,0:0:0:0:
64,192,300653,1,0,0:0:0:0:
192,192,300710,1,0,0:0:0:0:
448,192,300710,1,0,0:0:0:0:
320,192,300768,1,0,0:0:0:0:
192,192,300826,1,0,0:0:0:0:
64,192,300826,1,0,0:0:0:0:
448,192,300883,1,0,0:0:0:0:
320,192,300941,1,0,0:0:0:0:
64,192,300941,1,0,0:0:0:0:
192,192,300999,1,0,0:0:0:0:
320,192,301056,1,0,0:0:0:0:
448,192,301056,1,0,0:0:0:0:
64,192,301114,1,0,0:0:0:0:
192,192,301172,1,0,0:0:0:0:
448,192,301172,1,0,0:0:0:0:
320,192,301229,1,0,0:0:0:0:
192,192,301287,1,0,0:0:0:0:
64,192,301287,1,0,0:0:0:0:
448,192,301345,1,0,0:0:0:0:
320,192,301403,1,0,0:0:0:0:
64,192,301403,1,0,0:0:0:0:
192,192,301460,1,0,0:0:0:0:
320,192,301518,1,0,0:0:0:0:
448,192,301518,1,0,0:0:0:0:
64,192,301576,1,0,0:0:0:0:
192,192,301633,1,0,0:0:0:0:
448,192,301633,1,0,0:0:0:0:
320,192,301691,1,0,0:0:0:0:
192,192,301749,1,0,0:0:0:0:
64,192,301749,1,0,0:0:0:0:
448,192,301806,1,0,0:0:0:0:
320,192,301864,1,0,0:0:0:0:
64,192,301864,1,0,0:0:0:0:
192,192,301922,1,0,0:0:0:0:
320,192,301979,1,0,0:0:0:0:
448,192,301979,1,0,0:0:0:0:
64,192,302037,1,0,0:0:0:0:
192,192,302095,1,0,0:0:0:0:
448,192,302095,1,0,0:0:0:0:
320,192,302153,1,0,0:0:0:0:
192,192,302210,1,0,0:0:0:0:
64,192,302210,1,0,0:0:0:0:
448,192,302268,1,0,0:0:0:0:
320,192,302326,1,0,0:0:0:0:
64,192,302326,1,0,0:0:0:0:
192,192,302383,1,0,0:0:0:0:
448,192,302441,1,0,0:0:0:0:
64,192,302499,1,0,0:0:0:0:
320,192,302556,1,0,0:0:0:0:
192,192,302614,1,0,0:0:0:0:
64,192,302672,1,0,0:0:0:0:
448,192,302729,1,0,0:0:0:0:
320,192,302787,1,0,0:0:0:0:
448,192,302845,1,0,0:0:0:0:
192,192,302903,1,0,0:0:0:0:
64,192,302903,1,0,0:0:0:0:
320,192,302960,1,0,0:0:0:0:
448,192,303018,1,0,0:0:0:0:
64,192,303076,1,0,0:0:0:0:
320,192,303133,5,0,0:0:0:0:
192,192,303191,1,0,0:0:0:0:
64,192,303249,1,0,0:0:0:0:
448,192,303306,1,0,0:0:0:0:
192,192,303364,1,0,0:0:0:0:
320,192,303364,1,0,0:0:0:0:
64,192,303364,1,0,0:0:0:0:
448,192,303422,1,0,0:0:0:0:
64,192,303479,1,0,0:0:0:0:
192,192,303537,1,0,0:0:0:0:
320,192,303595,1,0,0:0:0:0:
448,192,303653,1,0,0:0:0:0:
64,192,303710,1,0,0:0:0:0:
320,192,303768,1,0,0:0:0:0:
192,192,303826,1,0,0:0:0:0:
64,192,303826,1,0,0:0:0:0:
448,192,303826,1,0,0:0:0:0:
448,192,304287,5,0,0:0:0:0:
320,192,304287,1,0,0:0:0:0:
