osu file format v14

[General]
AudioFilename: audio.mp3
AudioLeadIn: 0
PreviewTime: 106459
Countdown: 0
SampleSet: Drum
StackLeniency: 0.7
Mode: 2
LetterboxInBreaks: 0
WidescreenStoryboard: 0

[Editor]
DistanceSpacing: 0.7
BeatDivisor: 4
GridSize: 8
TimelineZoom: 3.799999

[Metadata]
Title:Immortal
TitleUnicode:Immortal
Artist:Lorna Shore
ArtistUnicode:Lorna Shore
Creator:Daletto
Version:In death, was once beauty...
Source:
Tags:blackened symphonic deathcore metal rock english CJ McCreery NyalettOwO x3
BeatmapID:3529698
BeatmapSetID:1727167

[Difficulty]
HPDrainRate:4
CircleSize:4.3
OverallDifficulty:9.9
ApproachRate:9.9
SliderMultiplier:2.1
SliderTickRate:2

[Events]
//Background and Video events
0,0,"bg.jpg",0,0
//Break Periods
2,110467,111648
2,178774,179955
2,213851,216879
2,221236,223340
2,228620,231648
2,282159,283779
2,302730,305757
2,339653,342680
2,343345,344526
2,387653,398065
//Storyboard Layer 0 (Background)
//Storyboard Layer 1 (Fail)
//Storyboard Layer 2 (Pass)
//Storyboard Layer 3 (Foreground)
//Storyboard Layer 4 (Overlay)
//Storyboard Sound Samples

[TimingPoints]
1344,230.769230769231,4,3,1,70,1,0
54882,-333.333333333333,4,3,1,70,0,0
58574,-100,4,3,1,70,0,0
60420,-100,4,3,1,40,0,0
60478,-100,4,3,1,41,0,0
60536,-100,4,3,1,42,0,0
60594,-100,4,3,1,43,0,0
60651,-100,4,3,1,44,0,0
60709,-100,4,3,1,45,0,0
60767,-100,4,3,1,46,0,0
60824,-100,4,3,1,47,0,0
60882,-100,4,3,1,48,0,0
60940,-100,4,3,1,49,0,0
60997,-100,4,3,1,50,0,0
61055,-100,4,3,1,51,0,0
61113,-100,4,3,1,52,0,0
61170,-100,4,3,1,53,0,0
61228,-100,4,3,1,54,0,0
61286,-100,4,3,1,55,0,0
61344,-1000,4,3,1,60,0,0
62209,-1000,4,3,1,5,0,0
62267,-100,4,3,1,80,0,1
62324,-100,4,3,1,80,0,0
65959,-100,4,3,2,80,0,0
69651,-100,4,3,1,80,0,0
73344,-100,4,3,1,75,0,0
75190,-100,4,3,1,70,0,0
76113,-100,4,3,1,75,0,0
76574,-100,4,3,1,70,0,0
77036,-100,4,3,1,80,0,0
88113,-100,4,3,2,75,0,0
89959,-100,4,3,2,80,0,0
90190,-100,4,3,2,75,0,0
90882,-100,4,3,2,80,0,0
91113,-100,4,3,2,75,0,0
91574,-100,4,3,2,70,0,0
91805,-100,4,3,1,85,0,0
91920,-100,4,3,1,80,0,0
97344,-100,4,3,2,80,0,0
99190,-100,4,3,1,80,0,0
104728,-100,4,3,2,80,0,0
106574,-100,4,3,1,85,0,1
106632,-100,4,3,1,50,0,0
110267,-100,4,3,1,60,0,0
112113,-100,4,3,2,65,0,0
113036,-100,4,3,1,70,0,0
113959,-100,4,3,1,90,0,1
120420,-100,4,3,2,90,0,1
121344,-100,4,3,1,90,0,1
127805,-100,4,3,2,90,0,1
128728,-100,4,3,1,90,0,1
131497,-100,4,3,2,90,0,1
132420,-100,4,3,1,90,0,1
135190,-100,4,3,2,90,0,1
136055,-100,4,3,1,90,0,0
136113,-100,4,3,1,85,0,1
136170,-100,4,3,1,80,0,0
139805,-100,4,3,2,80,0,0
142574,-100,4,3,1,90,0,1
143036,-100,4,3,1,85,0,1
143497,-100,4,3,1,80,0,0
150420,-100,4,3,1,75,0,0
150882,-100,4,3,1,80,0,0
162882,-100,4,3,2,80,0,0
165190,-100,4,3,2,75,0,0
165651,-100,4,3,1,85,0,0
165767,-100,4,3,2,80,0,0
169344,-100,4,3,1,80,0,0
171190,-100,4,3,2,75,0,0
173036,-100,4,3,1,80,0,0
174882,-100,4,3,2,75,0,0
176728,-100,4,3,1,80,0,0
178574,-100,4,3,2,80,0,0
180420,-100,4,3,1,90,0,1
180478,-100,4,3,1,90,0,1
184113,-100,4,3,2,90,0,1
184170,-100,4,3,1,90,0,1
194267,-100,4,3,2,85,0,1
195190,-133.333333333333,4,3,1,90,0,0
195882,-133.333333333333,4,3,2,80,0,0
198882,-100,4,3,1,90,0,1
201651,-100,4,3,2,90,0,1
202574,-100,4,3,1,90,0,1
209959,-333.333333333333,4,3,1,85,0,0
210017,-333.333333333333,4,3,2,70,0,0
217344,-333.333333333333,4,3,1,80,0,0
217401,-333.333333333333,4,3,2,70,0,0
223805,-1000,4,3,1,75,0,0
224728,-333.333333333333,4,3,1,85,0,0
224786,-333.333333333333,4,3,2,70,0,0
232113,-333.333333333333,4,3,1,85,0,0
232170,-333.333333333333,4,3,2,70,0,0
235805,-100,4,3,1,70,0,0
237651,-100,4,3,1,40,0,0
237709,-100,4,3,1,41,0,0
237767,-100,4,3,1,42,0,0
237824,-100,4,3,1,43,0,0
237882,-100,4,3,1,44,0,0
237940,-100,4,3,1,45,0,0
237997,-100,4,3,1,46,0,0
238055,-100,4,3,1,47,0,0
238113,-100,4,3,1,48,0,0
238170,-100,4,3,1,49,0,0
238228,-100,4,3,1,50,0,0
238286,-100,4,3,1,51,0,0
238344,-100,4,3,1,52,0,0
238401,-100,4,3,1,53,0,0
238459,-100,4,3,1,54,0,0
238517,-100,4,3,1,55,0,0
238574,-100,4,3,1,60,0,0
239497,-100,4,3,1,70,0,0
244113,-100,4,3,2,70,0,0
246882,-100,4,3,1,70,0,0
251497,-100,4,3,2,70,0,0
254267,-100,4,3,1,70,0,0
258882,-100,4,3,2,70,0,0
261651,-100,4,3,1,70,0,0
267190,-100,4,3,1,60,0,0
267247,-100,4,3,1,61,0,0
267305,-100,4,3,1,62,0,0
267363,-100,4,3,1,63,0,0
267420,-100,4,3,1,64,0,0
267478,-100,4,3,1,65,0,0
267536,-100,4,3,1,66,0,0
267594,-100,4,3,1,67,0,0
267651,-100,4,3,1,68,0,0
267709,-100,4,3,1,69,0,0
267767,-100,4,3,1,70,0,0
267824,-100,4,3,1,71,0,0
267882,-100,4,3,1,72,0,0
267940,-100,4,3,1,73,0,0
267997,-100,4,3,1,74,0,0
268055,-100,4,3,1,75,0,0
268113,-100,4,3,1,80,0,0
269036,-100,4,3,1,70,0,0
275497,-100,4,3,2,70,0,0
276420,-100,4,3,1,70,0,0
281497,-100,4,3,1,75,0,0
281651,-100,4,3,1,70,0,0
281959,380.952380952381,3,3,1,65,1,0
284244,-100,3,3,1,75,0,1
284339,-100,3,3,1,70,0,0
286530,-100,3,3,2,70,0,0
287673,-76.9230769230769,3,3,2,70,0,0
288435,-100,3,3,2,70,0,0
288816,-100,3,3,1,70,0,0
291101,-76.9230769230769,3,3,2,70,0,0
291863,-100,3,3,2,70,0,0
293387,-100,3,3,1,70,0,0
295673,-100,3,3,2,70,0,0
296816,-76.9230769230769,3,3,2,70,0,0
297578,-100,3,3,2,70,0,0
297959,-100,3,3,1,70,0,0
298530,-100,3,3,2,65,0,0
299101,-100,3,3,1,70,0,0
299673,-100,3,3,2,65,0,0
301387,-100,3,3,1,70,0,0
301768,-100,3,3,2,70,0,0
302530,230.769230769231,4,3,1,70,1,0
306222,-100,4,3,1,40,0,0
306914,-100,4,3,1,45,0,0
307606,-100,4,3,1,50,0,0
308299,-100,4,3,1,55,0,0
308760,-100,4,3,1,5,0,0
308991,-100,4,3,1,70,0,0
309914,-100,4,3,1,90,0,1
309972,-100,4,3,1,80,0,0
316376,-100,4,3,1,75,0,0
317299,-100,4,3,1,80,0,0
331145,-100,4,3,1,75,0,0
332068,-100,4,3,1,85,0,1
338530,-100,4,3,2,80,0,1
339453,-100,4,3,1,70,0,0
343145,-100,4,3,1,50,0,0
344991,-100,4,3,1,40,0,0
345453,-100,4,3,1,45,0,0
345914,-100,4,3,1,50,0,0
346376,-100,4,3,1,55,0,0
346837,-100,4,3,1,80,0,1
346895,-100,4,3,1,75,0,0
348683,-100,4,3,2,75,0,0
350530,-100,4,3,1,75,0,0
352376,-100,4,3,2,75,0,0
353299,-100,4,3,2,70,0,0
354222,-100,4,3,1,75,0,0
356068,-100,4,3,2,75,0,0
357914,-100,4,3,1,75,0,0
359760,-100,4,3,2,75,0,0
361606,-100,4,3,1,75,0,0
363453,-100,4,3,2,75,0,0
365299,-100,4,3,1,75,0,0
367145,-100,4,3,2,75,0,0
368068,-100,4,3,2,65,0,0
368991,-100,4,3,1,70,0,0
374530,-100,4,3,2,70,0,0
376376,-100,4,3,1,70,0,0
381914,-100,4,3,2,70,0,0
383760,-100,4,3,1,75,0,0
383876,-100,4,3,1,70,0,0
384683,-100,4,3,1,60,0,0
385606,-100,4,3,1,50,0,0
386530,-100,4,3,1,40,0,0
386760,-100,4,3,1,30,0,0
386991,-100,4,3,1,20,0,0
387222,-100,4,3,1,10,0,0
387453,-100,4,3,1,5,0,0
398530,-100,4,3,1,50,0,0
400376,-100,4,3,1,55,0,0
400837,-100,4,3,1,60,0,0
401299,-100,4,3,1,65,0,0
401760,-100,4,3,1,70,0,0
402222,-100,4,3,1,5,0,0

[Colours]
Combo1 : 169,143,1
Combo2 : 102,170,0
Combo3 : 113,57,57
Combo4 : 15,98,113
Combo5 : 191,191,191
Combo6 : 71,100,70

[HitObjects]
336,352,54882,6,0,P|384:304|72:304,1,881.999973083497,4|8,0:0|0:0,0:0:0:0:
280,296,58267,1,8,0:0:0:0:
64,336,58420,1,8,0:0:0:0:
280,384,58574,6,0,P|328:336|328:8,1,420,8|8,0:0|0:0,0:0:0:0:
112,216,59190,1,8,0:0:0:0:
376,320,59497,6,0,L|72:16,1,420,8|8,0:0|0:0,0:0:0:0:
296,240,60113,1,8,0:0:0:0:
32,264,60420,6,0,L|24:208,7,52.5,8|8|8|8|8|8|8|8,0:0|0:0|0:0|0:0|0:0|0:0|0:0|0:0,0:0:0:0:
48,264,60882,1,8,0:0:0:0:
80,264,60940,1,8,0:0:0:0:
120,264,60998,1,8,0:0:0:0:
168,264,61055,1,8,0:0:0:0:
224,264,61113,1,8,0:0:0:0:
288,264,61171,1,8,0:0:0:0:
360,264,61228,1,8,0:0:0:0:
432,264,61286,1,8,0:0:0:0:
360,264,61344,6,0,L|360:184,1,78.75
120,256,62267,5,6,0:0:0:0:
64,224,62324,1,0,0:0:0:0:
40,176,62382,1,0,0:0:0:0:
64,224,62440,1,0,0:0:0:0:
248,216,62497,1,2,0:0:0:0:
232,176,62555,1,0,0:0:0:0:
192,136,62613,1,0,0:0:0:0:
136,120,62670,1,0,0:0:0:0:
320,160,62728,5,2,0:0:0:0:
376,144,62786,1,0,0:0:0:0:
416,104,62844,1,0,0:0:0:0:
432,64,62901,1,0,0:0:0:0:
248,216,62959,1,2,0:0:0:0:
264,176,63017,1,0,0:0:0:0:
304,136,63075,1,0,0:0:0:0:
360,120,63132,1,0,0:0:0:0:
168,240,63190,6,0,L|112:240,1,52.5,2|0,0:0|0:0,0:0:0:0:
176,232,63305,2,0,L|232:232,1,52.5
40,136,63420,2,0,L|32:80,1,52.5,2|0,0:0|0:0,0:0:0:0:
224,208,63536,5,2,0:0:0:0:
280,176,63593,1,0,0:0:0:0:
304,128,63651,1,0,0:0:0:0:
280,176,63709,1,0,0:0:0:0:
216,200,63767,2,0,L|152:200,1,52.5
360,216,63882,2,0,L|304:216,1,52.5,2|0,0:0|0:0,0:0:0:0:
120,200,63997,2,0,L|64:200,1,52.5
304,296,64113,5,2,0:0:0:0:
360,280,64171,1,0,0:0:0:0:
400,240,64229,1,0,0:0:0:0:
416,200,64286,1,0,0:0:0:0:
232,168,64344,2,0,L|176:168,1,52.5,2|0,0:0|0:0,0:0:0:0:
240,160,64459,2,0,L|296:160,1,52.5
112,256,64574,5,2,0:0:0:0:
56,224,64631,1,0,0:0:0:0:
32,176,64689,1,0,0:0:0:0:
56,224,64747,1,0,0:0:0:0:
216,152,64805,2,0,L|272:152,1,52.5,2|0,0:0|0:0,0:0:0:0:
104,144,64920,2,0,L|40:144,1,52.5
272,184,65036,6,0,L|280:128,1,52.5,2|0,0:0|0:0,0:0:0:0:
216,128,65151,2,0,L|224:72,1,52.5
408,144,65267,2,0,L|472:144,1,52.5,2|0,0:0|0:0,0:0:0:0:
272,240,65382,6,0,L|264:184,1,52.5,2|0,0:0|0:0,0:0:0:0:
328,184,65497,2,0,L|320:128,1,52.5
256,128,65613,2,0,L|200:128,1,52.5
344,120,65728,1,10,0:0:0:0:
480,120,65786,1,8,0:0:0:0:
344,120,65844,2,0,L|264:120,1,52.5,8|8,0:0|0:0,0:0:0:0:
104,128,65959,6,0,L|48:128,1,52.5,6|0,0:0|0:0,0:0:0:0:
216,176,66074,2,0,L|296:176,1,52.5
104,256,66190,1,2,0:0:0:0:
120,216,66248,1,0,0:0:0:0:
160,176,66306,1,0,0:0:0:0:
216,160,66363,1,0,0:0:0:0:
152,144,66420,6,0,L|96:144,1,52.5
168,136,66536,2,0,L|232:136,1,52.5
408,152,66651,2,0,L|464:152,1,52.5,2|0,0:0|0:0,0:0:0:0:
392,144,66767,2,0,L|328:144,1,52.5
152,272,66882,6,0,L|144:216,1,52.5,10|0,0:0|0:0,0:0:0:0:
208,224,66997,2,0,L|216:168,1,52.5
280,160,67113,2,0,L|320:120,1,52.5
384,120,67228,2,0,L|448:120,1,52.5
248,224,67344,6,0,L|192:224,1,52.5,2|0,0:0|0:0,0:0:0:0:
264,216,67460,2,0,L|328:216,1,52.5
136,200,67574,5,2,0:0:0:0:
80,168,67631,1,0,0:0:0:0:
56,120,67689,1,0,0:0:0:0:
80,168,67747,1,0,0:0:0:0:
144,192,67805,2,0,L|208:192,1,52.5
384,184,67920,2,0,L|440:184,1,52.5
248,160,68036,6,0,L|192:160,1,52.5,2|0,0:0|0:0,0:0:0:0:
264,152,68151,2,0,L|336:152,1,52.5
248,136,68267,2,0,L|184:136,1,52.5
360,144,68382,2,0,L|424:144,1,52.5
248,248,68497,2,0,L|184:248,1,52.5,2|0,0:0|0:0,0:0:0:0:
384,240,68613,2,0,L|312:240,1,52.5
64,208,68728,5,10,0:0:0:0:
192,208,68786,1,8,0:0:0:0:
320,216,68844,1,8,0:0:0:0:
376,184,68901,1,8,0:0:0:0:
400,136,68959,1,10,0:0:0:0:
376,184,69017,1,8,0:0:0:0:
312,208,69075,2,0,L|248:208,1,52.5,8|8,0:0|0:0,0:0:0:0:
96,152,69190,2,0,L|32:152,1,52.5,2|0,0:0|0:0,0:0:0:0:
104,144,69305,2,0,L|168:144,1,52.5
224,144,69420,2,0,L|216:88,1,52.5
152,112,69535,2,0,L|144:56,1,52.5
363,168,69651,6,0,L|467:168,1,105,6|8,0:0|0:0,0:0:0:0:
267,120,69882,2,0,L|163:120,1,105,10|8,0:0|0:0,0:0:0:0:
363,88,70113,2,0,L|259:88,1,105,10|8,0:0|0:0,0:0:0:0:
51,176,70344,2,0,L|195:176,1,105,10|8,0:0|0:0,0:0:0:0:
355,208,70574,6,0,L|363:104,1,105,10|8,0:0|0:0,0:0:0:0:
163,216,70805,2,0,L|275:216,1,105,10|8,0:0|0:0,0:0:0:0:
155,208,71036,2,0,L|259:208,1,105,8|8,0:0|0:0,0:0:0:0:
147,200,71267,2,0,L|43:200,1,105,8|8,0:0|0:0,0:0:0:0:
267,168,71497,6,0,L|259:64,1,105,10|8,0:0|0:0,0:0:0:0:
371,144,71728,2,0,L|363:248,1,105,8|8,0:0|0:0,0:0:0:0:
155,160,71959,2,0,L|163:56,1,105,10|8,0:0|0:0,0:0:0:0:
51,136,72190,2,0,L|59:240,1,105,8|8,0:0|0:0,0:0:0:0:
267,152,72420,6,0,L|371:152,1,105,10|8,0:0|0:0,0:0:0:0:
259,144,72651,2,0,L|155:144,1,105,8|8,0:0|0:0,0:0:0:0:
267,136,72882,2,0,L|123:136,1,105,8|8,0:0|0:0,0:0:0:0:
395,88,73113,1,8,0:0:0:0:
163,96,73228,1,8,0:0:0:0:
440,240,73344,6,0,L|448:184,1,52.5,4|0,0:0|0:0,0:0:0:0:
384,184,73459,2,0,L|328:184,1,52.5
264,208,73574,2,0,L|256:152,1,52.5
320,152,73689,2,0,L|376:152,1,52.5
184,144,73805,6,0,L|128:144,1,52.5,2|0,0:0|0:0,0:0:0:0:
200,168,73920,1,0,0:0:0:0:
256,136,73977,1,0,0:0:0:0:
280,88,74035,1,0,0:0:0:0:
256,136,74093,1,0,0:0:0:0:
192,160,74151,2,0,L|128:160,1,52.5
328,192,74267,6,0,L|384:192,1,52.5,10|0,0:0|0:0,0:0:0:0:
320,184,74382,2,0,L|256:184,1,52.5
80,192,74497,6,0,L|24:192,1,52.5,2|0,0:0|0:0,0:0:0:0:
88,184,74612,2,0,L|152:184,1,52.5
200,184,74728,2,0,L|144:184,1,52.5
88,184,74844,2,0,L|152:184,1,52.5
328,152,74959,2,0,L|320:96,1,52.5,2|0,0:0|0:0,0:0:0:0:
256,104,75074,2,0,L|248:48,1,52.5
440,240,75190,5,2,0:0:0:0:
424,200,75248,1,0,0:0:0:0:
384,160,75306,1,0,0:0:0:0:
328,144,75363,1,0,0:0:0:0:
264,240,75420,1,0,0:0:0:0:
280,200,75478,1,0,0:0:0:0:
320,160,75536,1,0,0:0:0:0:
376,144,75593,1,0,0:0:0:0:
440,144,75651,6,0,L|384:144,1,52.5,2|0,0:0|0:0,0:0:0:0:
320,144,75767,2,0,L|256:144,1,52.5
104,168,75882,2,0,L|176:168,1,52.5
320,176,75997,2,0,L|392:176,1,52.5
128,272,76113,6,0,L|64:272,1,52.5,10|8,0:0|0:0,0:0:0:0:
208,216,76228,1,8,0:0:0:0:
344,216,76286,1,8,0:0:0:0:
208,216,76344,2,0,L|136:216,1,52.5
344,216,76459,2,0,L|408:216,1,52.5
184,136,76574,6,0,L|72:136,1,105,2|0,0:0|0:0,0:0:0:0:
192,128,76805,2,0,L|80:128,1,105,2|0,0:0|0:0,0:0:0:0:
408,152,77036,6,0,L|400:48,1,105,6|0,0:0|0:0,0:0:0:0:
288,176,77267,2,0,L|280:280,1,105
480,272,77497,2,0,L|472:168,1,105,2|0,0:0|0:0,0:0:0:0:
264,144,77728,2,0,L|376:144,1,105,2|0,0:0|0:0,0:0:0:0:
160,176,77959,6,0,L|56:176,1,105,2|0,0:0|0:0,0:0:0:0:
264,128,78190,2,0,L|368:128,1,105,2|0,0:0|0:0,0:0:0:0:
248,128,78420,2,0,L|240:232,1,105
448,232,78651,6,0,L|344:232,1,105,2|0,0:0|0:0,0:0:0:0:
224,240,78882,2,0,L|328:240,1,105
208,232,79113,2,0,L|328:232,1,105
104,192,79344,2,0,L|96:88,1,105,2|0,0:0|0:0,0:0:0:0:
216,184,79574,2,0,L|208:80,1,105
416,176,79805,6,0,L|312:176,1,105,2|0,0:0|0:0,0:0:0:0:
112,240,80036,2,0,L|264:240,1,105,2|0,0:0|0:0,0:0:0:0:
16,288,80267,2,0,L|24:184,1,105,2|0,0:0|0:0,0:0:0:0:
224,144,80497,1,2,0:0:0:0:
24,144,80613,1,0,0:0:0:0:
240,152,80728,6,0,L|352:152,1,105,2|0,0:0|0:0,0:0:0:0:
224,144,80959,2,0,L|112:144,1,105
328,272,81190,2,0,L|336:168,1,105,2|0,0:0|0:0,0:0:0:0:
136,248,81420,2,0,L|128:144,1,105,2|0,0:0|0:0,0:0:0:0:
336,168,81651,6,0,L|232:168,1,105,2|0,0:0|0:0,0:0:0:0:
440,264,81882,2,0,L|448:160,1,105,2|0,0:0|0:0,0:0:0:0:
240,128,82113,2,0,L|368:128,1,105,2|0,0:0|0:0,0:0:0:0:
136,176,82344,2,0,L|264:176,1,105,2|0,0:0|0:0,0:0:0:0:
448,224,82574,6,0,L|344:224,1,105,2|0,0:0|0:0,0:0:0:0:
136,224,82805,2,0,L|24:224,1,105,2|0,0:0|0:0,0:0:0:0:
240,136,83036,2,0,L|136:136,1,105,2|0,0:0|0:0,0:0:0:0:
344,208,83267,2,0,L|352:104,1,105,2|0,0:0|0:0,0:0:0:0:
144,256,83497,6,0,L|248:256,1,105,2|0,0:0|0:0,0:0:0:0:
456,256,83728,2,0,L|448:152,1,105,2|0,0:0|0:0,0:0:0:0:
240,144,83959,2,0,L|344:144,1,105,2|0,0:0|0:0,0:0:0:0:
136,160,84190,1,2,0:0:0:0:
344,176,84305,1,0,0:0:0:0:
112,264,84420,6,0,L|104:160,1,105,2|0,0:0|0:0,0:0:0:0:
224,200,84651,2,0,L|232:96,1,105
352,176,84882,2,0,L|344:72,1,105
136,152,85113,2,0,L|248:152,1,105,2|0,0:0|0:0,0:0:0:0:
448,200,85344,6,0,L|456:96,1,105,2|0,0:0|0:0,0:0:0:0:
336,112,85574,2,0,L|448:112,1,105
215,168,85805,2,0,L|111:168,1,105,2|0,0:0|0:0,0:0:0:0:
320,168,86036,2,0,L|216:168,1,105,2|0,0:0|0:0,0:0:0:0:
424,208,86267,6,0,L|432:104,1,105,2|0,0:0|0:0,0:0:0:0:
312,120,86497,2,0,L|304:224,1,105
96,224,86728,2,0,L|200:224,1,105,2|0,0:0|0:0,0:0:0:0:
408,224,86959,2,0,L|400:120,1,105,2|0,0:0|0:0,0:0:0:0:
192,200,87190,6,0,L|200:96,1,105,2|0,0:0|0:0,0:0:0:0:
408,176,87420,2,0,L|304:176,1,105,2|0,0:0|0:0,0:0:0:0:
96,176,87651,2,0,L|216:176,1,105,2|0,0:0|0:0,0:0:0:0:
408,144,87882,1,2,0:0:0:0:
208,144,87997,1,0,0:0:0:0:
432,216,88113,6,0,L|440:160,1,52.5,6|0,0:0|0:0,0:0:0:0:
376,200,88228,2,0,L|336:160,1,52.5
272,176,88344,2,0,L|216:176,1,52.5
280,168,88459,2,0,L|352:168,1,52.5
152,240,88574,5,2,0:0:0:0:
168,200,88632,1,0,0:0:0:0:
208,160,88690,1,0,0:0:0:0:
264,144,88747,1,0,0:0:0:0:
328,184,88805,1,0,0:0:0:0:
312,144,88863,1,0,0:0:0:0:
272,104,88921,1,0,0:0:0:0:
216,88,88978,1,0,0:0:0:0:
32,200,89036,6,0,L|24:144,1,52.5,2|0,0:0|0:0,0:0:0:0:
88,152,89151,2,0,L|96:96,1,52.5
32,88,89267,2,0,L|88:88,1,52.5
144,88,89382,2,0,L|200:88,1,52.5
376,232,89497,5,2,0:0:0:0:
432,216,89555,1,0,0:0:0:0:
472,176,89613,1,0,0:0:0:0:
488,136,89670,1,0,0:0:0:0:
304,288,89728,1,2,0:0:0:0:
320,248,89786,1,0,0:0:0:0:
360,208,89844,1,0,0:0:0:0:
416,192,89901,1,0,0:0:0:0:
184,152,89959,6,0,L|120:152,1,52.5,10|8,0:0|0:0,0:0:0:0:
272,112,90074,1,8,0:0:0:0:
408,112,90132,1,8,0:0:0:0:
272,112,90190,2,0,L|192:112,1,52.5,2|0,0:0|0:0,0:0:0:0:
280,104,90305,2,0,L|336:104,1,52.5
272,224,90420,5,2,0:0:0:0:
216,192,90477,1,0,0:0:0:0:
192,144,90535,1,0,0:0:0:0:
216,192,90593,1,0,0:0:0:0:
280,216,90651,2,0,L|344:216,1,52.5,2|0,0:0|0:0,0:0:0:0:
144,128,90767,2,0,L|88:128,1,52.5
304,168,90882,6,0,L|312:112,1,52.5,10|8,0:0|0:0,0:0:0:0:
176,184,90997,1,8,0:0:0:0:
40,184,91055,1,8,0:0:0:0:
176,184,91113,2,0,L|232:184,1,52.5,2|0,0:0|0:0,0:0:0:0:
288,184,91228,2,0,L|232:184,1,52.5
176,184,91344,5,2,0:0:0:0:
192,144,91402,1,0,0:0:0:0:
232,104,91460,1,0,0:0:0:0:
288,88,91517,1,0,0:0:0:0:
352,104,91574,2,0,L|416:104,1,52.5
168,96,91690,2,0,L|104:96,1,52.5
384,256,91805,6,0,L|488:256,1,105,6|0,0:0|0:0,0:0:0:0:
376,248,92036,2,0,L|480:248,1,105,8|0,0:0|0:0,0:0:0:0:
264,184,92267,2,0,L|368:184,1,105,8|0,0:0|0:0,0:0:0:0:
256,176,92498,2,0,L|360:176,1,105,8|0,0:0|0:0,0:0:0:0:
144,120,92728,5,10,0:0:0:0:
360,128,92844,1,2,0:0:0:0:
144,120,92959,2,0,L|264:120,1,105,8|0,0:0|0:0,0:0:0:0:
192,96,93132,1,0,0:0:0:0:
136,112,93190,2,0,L|128:56,1,52.5,8|0,0:0|0:0,0:0:0:0:
192,64,93305,2,0,L|248:64,1,52.5
424,64,93420,2,0,L|368:64,1,52.5,8|8,0:0|0:0,0:0:0:0:
184,152,93536,2,0,L|120:152,1,52.5,8|8,0:0|0:0,0:0:0:0:
368,200,93651,5,10,0:0:0:0:
384,240,93709,1,0,0:0:0:0:
368,200,93767,1,0,0:0:0:0:
328,160,93825,1,0,0:0:0:0:
280,144,93882,1,8,0:0:0:0:
224,144,93940,1,0,0:0:0:0:
296,128,93997,2,0,L|360:128,1,52.5
160,208,94113,6,0,L|96:208,1,52.5,10|0,0:0|0:0,0:0:0:0:
296,200,94228,2,0,L|360:200,1,52.5
160,216,94344,1,10,0:0:0:0:
104,200,94402,1,0,0:0:0:0:
64,160,94460,1,0,0:0:0:0:
48,120,94517,1,0,0:0:0:0:
232,272,94574,5,10,0:0:0:0:
216,232,94633,1,0,0:0:0:0:
176,192,94691,1,0,0:0:0:0:
120,176,94748,1,0,0:0:0:0:
304,240,94805,1,10,0:0:0:0:
360,224,94863,1,0,0:0:0:0:
400,184,94921,1,0,0:0:0:0:
416,144,94978,1,0,0:0:0:0:
232,112,95036,6,0,L|168:112,1,52.5,8|0,0:0|0:0,0:0:0:0:
360,72,95151,2,0,L|296:72,1,52.5
120,152,95267,2,0,L|56:152,1,52.5,10|0,0:0|0:0,0:0:0:0:
128,144,95382,2,0,L|192:144,1,52.5
392,208,95497,6,0,L|464:208,1,52.5,14|0,0:0|0:0,0:0:0:0:
384,200,95613,2,0,L|328:200,1,52.5
264,240,95728,1,8,0:0:0:0:
280,200,95787,1,0,0:0:0:0:
320,160,95845,1,0,0:0:0:0:
376,144,95902,1,0,0:0:0:0:
192,240,95959,5,10,0:0:0:0:
136,224,96017,1,0,0:0:0:0:
96,184,96075,1,0,0:0:0:0:
80,144,96132,1,0,0:0:0:0:
152,152,96190,2,0,L|208:152,1,52.5,8|0,0:0|0:0,0:0:0:0:
136,144,96305,2,0,L|200:144,1,52.5
376,160,96420,6,0,L|312:160,1,52.5,10|0,0:0|0:0,0:0:0:0:
136,128,96536,2,0,L|80:128,1,52.5,2|0,0:0|0:0,0:0:0:0:
272,96,96651,2,0,L|328:96,1,52.5,10|0,0:0|0:0,0:0:0:0:
264,88,96767,2,0,L|208:88,1,52.5
400,184,96882,6,0,L|464:184,1,52.5,8|8,0:0|0:0,0:0:0:0:
320,168,96997,1,8,0:0:0:0:
184,160,97055,1,8,0:0:0:0:
320,168,97113,1,8,0:0:0:0:
376,136,97170,1,0,0:0:0:0:
400,88,97228,1,0,0:0:0:0:
376,136,97286,1,0,0:0:0:0:
192,152,97344,6,0,L|136:152,1,52.5,12|0,0:0|0:0,0:0:0:0:
80,152,97459,2,0,L|24:152,1,52.5
88,152,97574,2,0,L|200:152,1,105,8|0,0:0|0:0,0:0:0:0:
408,152,97805,2,0,L|304:152,1,105,10|0,0:0|0:0,0:0:0:0:
416,152,98036,2,0,L|424:256,1,105,8|0,0:0|0:0,0:0:0:0:
208,144,98267,5,10,0:0:0:0:
320,160,98382,2,0,L|312:56,1,105,0|8,0:0|0:0,0:0:0:0:
256,56,98555,1,0,0:0:0:0:
200,56,98613,1,0,0:0:0:0:
256,56,98670,1,0,0:0:0:0:
312,56,98728,1,10,0:0:0:0:
136,80,98844,1,2,0:0:0:0:
312,112,98959,2,0,L|320:168,3,52.5,10|0|0|0,0:0|0:0|0:0|0:0,0:0:0:0:
112,208,99190,6,0,L|48:208,1,52.5,6|0,0:0|0:0,0:0:0:0:
120,200,99305,1,0,0:0:0:0:
176,168,99362,1,0,0:0:0:0:
200,120,99420,1,8,0:0:0:0:
176,168,99478,1,0,0:0:0:0:
112,160,99536,2,0,L|48:160,1,52.5
248,240,99651,2,0,L|320:240,1,52.5,10|0,0:0|0:0,0:0:0:0:
240,232,99767,2,0,L|176:232,1,52.5
248,224,99882,2,0,L|304:224,1,52.5,8|0,0:0|0:0,0:0:0:0:
240,216,99997,2,0,L|184:216,1,52.5
376,168,100113,6,0,L|312:168,1,52.5,10|0,0:0|0:0,0:0:0:0:
136,160,100228,2,0,L|80:160,1,52.5,2|0,0:0|0:0,0:0:0:0:
272,256,100344,1,10,0:0:0:0:
328,240,100402,1,0,0:0:0:0:
368,200,100460,1,0,0:0:0:0:
384,160,100517,1,0,0:0:0:0:
200,240,100574,5,8,0:0:0:0:
216,200,100633,1,0,0:0:0:0:
256,160,100691,1,0,0:0:0:0:
312,144,100748,1,0,0:0:0:0:
128,112,100805,2,0,L|72:112,1,52.5,10|0,0:0|0:0,0:0:0:0:
264,104,100920,2,0,L|328:104,1,52.5
128,280,101036,6,0,L|24:280,1,105,10|0,0:0|0:0,0:0:0:0:
136,272,101267,2,0,L|32:272,1,105,8|0,0:0|0:0,0:0:0:0:
248,224,101497,2,0,L|128:224,1,105,10|0,0:0|0:0,0:0:0:0:
360,232,101728,2,0,L|480:232,1,105,10|0,0:0|0:0,0:0:0:0:
248,208,101959,5,10,0:0:0:0:
424,208,102074,1,2,0:0:0:0:
248,200,102190,2,0,L|128:200,1,105,10|0,0:0|0:0,0:0:0:0:
424,176,102420,1,8,0:0:0:0:
432,168,102478,1,0,0:0:0:0:
440,160,102536,1,0,0:0:0:0:
448,152,102594,1,0,0:0:0:0:
328,136,102651,1,8,0:0:0:0:
208,136,102709,1,8,0:0:0:0:
328,136,102767,2,0,L|408:136,1,52.5,8|8,0:0|0:0,0:0:0:0:
168,256,102882,5,6,0:0:0:0:
112,224,102939,1,0,0:0:0:0:
88,176,102997,1,0,0:0:0:0:
112,224,103055,1,0,0:0:0:0:
176,232,103113,2,0,L|240:232,1,52.5,8|0,0:0|0:0,0:0:0:0:
168,224,103228,2,0,L|88:224,1,52.5
304,232,103344,6,0,L|376:232,1,52.5,10|0,0:0|0:0,0:0:0:0:
416,224,103459,2,0,L|424:168,1,52.5
360,168,103575,2,0,L|352:112,1,52.5,10|0,0:0|0:0,0:0:0:0:
288,120,103690,2,0,L|224:120,1,52.5
424,128,103805,6,0,L|480:128,1,52.5,10|0,0:0|0:0,0:0:0:0:
288,80,103920,2,0,L|224:80,1,52.5,2|0,0:0|0:0,0:0:0:0:
48,144,104036,2,0,L|40:88,1,52.5,10|0,0:0|0:0,0:0:0:0:
104,96,104151,2,0,L|160:96,1,52.5
344,152,104267,6,0,L|352:96,1,52.5,10|0,0:0|0:0,0:0:0:0:
288,104,104382,2,0,L|232:104,1,52.5
48,96,104497,2,0,L|112:96,1,52.5,10|0,0:0|0:0,0:0:0:0:
288,104,104613,2,0,L|360:104,1,52.5
128,240,104728,5,6,0:0:0:0:
144,200,104786,1,0,0:0:0:0:
184,160,104844,1,0,0:0:0:0:
240,144,104901,1,0,0:0:0:0:
304,144,104959,2,0,L|176:144,1,105,2|0,0:0|0:0,0:0:0:0:
416,208,105190,2,0,L|312:208,1,105,2|0,0:0|0:0,0:0:0:0:
96,168,105420,2,0,L|88:64,1,105,2|0,0:0|0:0,0:0:0:0:
304,192,105651,6,0,L|408:192,1,105,2|0,0:0|0:0,0:0:0:0:
296,184,105882,1,2,0:0:0:0:
352,184,105940,1,0,0:0:0:0:
384,184,105997,1,2,0:0:0:0:
352,184,106055,1,0,0:0:0:0:
296,184,106113,5,2,0:0:0:0:
472,128,106228,1,0,0:0:0:0:
296,112,106344,2,0,L|360:112,1,52.5,2|0,0:0|0:0,0:0:0:0:
400,112,106459,2,0,L|456:112,1,52.5,2|0,0:0|0:0,0:0:0:0:
184,216,106574,5,6,0:0:0:0:
256,192,106690,12,0,110267,0:0:0:0:
384,208,112113,5,4,0:0:0:0:
128,208,112574,1,4,0:0:0:0:
384,208,113036,6,0,L|440:208,1,52.5,14|8,0:0|0:0,0:0:0:0:
304,176,113151,1,8,0:0:0:0:
168,176,113209,1,8,0:0:0:0:
304,176,113267,2,0,L|376:176,1,52.5
416,176,113382,2,0,L|488:176,1,52.5
256,176,113497,5,2,0:0:0:0:
240,216,113555,1,0,0:0:0:0:
256,176,113613,1,0,0:0:0:0:
296,136,113671,1,0,0:0:0:0:
344,120,113728,1,2,0:0:0:0:
400,120,113786,1,0,0:0:0:0:
328,104,113843,2,0,L|264:104,1,52.5
56,232,113959,6,0,L|48:128,1,105,6|0,0:0|0:0,0:0:0:0:
168,168,114190,2,0,L|64:168,1,105,0|0,0:0|0:0,0:0:0:0:
280,224,114420,2,0,L|168:224,1,105,2|0,0:0|0:0,0:0:0:0:
56,224,114651,2,0,L|160:224,1,105,0|0,0:0|0:0,0:0:0:0:
376,216,114882,6,0,L|368:112,1,105,2|0,0:0|0:0,0:0:0:0:
248,160,115113,2,0,L|240:56,1,105
360,64,115344,2,0,L|248:64,1,105
376,112,115574,2,0,L|480:112,1,105
360,160,115805,6,0,L|256:160,1,105,2|0,0:0|0:0,0:0:0:0:
136,168,116036,2,0,L|280:168,1,105
120,224,116267,2,0,L|16:224,1,105
136,208,116497,2,0,L|32:208,1,105
152,192,116728,6,0,L|264:192,1,105,2|0,0:0|0:0,0:0:0:0:
136,264,116959,2,0,L|128:160,1,105
248,224,117190,2,0,L|256:120,1,105
376,176,117420,2,0,L|368:72,1,105
152,56,117651,6,0,P|152:112|392:352,1,420,6|2,0:0|0:0,0:0:0:0:
304,272,118344,2,0,L|200:272,1,105
320,248,118574,2,0,L|328:144,1,105,2|0,0:0|0:0,0:0:0:0:
208,144,118805,2,0,L|320:144,1,105,2|0,0:0|0:0,0:0:0:0:
432,152,119036,1,2,0:0:0:0:
104,96,119497,5,10,0:0:0:0:
328,160,119728,2,0,L|320:56,1,105
200,120,119959,2,0,L|192:224,1,105
312,168,120190,2,0,L|416:168,1,105
176,136,120420,5,6,0:0:0:0:
104,136,120497,2,0,L|96:64,1,70
288,120,120651,2,0,L|208:120,1,70,6|0,0:0|0:0,0:0:0:0:
72,112,120805,1,0,0:0:0:0:
218,120,120882,2,0,L|272:120,1,52.5,10|8,0:0|0:0,0:0:0:0:
456,120,120997,2,0,L|384:120,1,52.5,8|8,0:0|0:0,0:0:0:0:
216,280,121113,2,0,L|208:224,1,52.5
272,232,121228,2,0,L|336:232,1,52.5
104,264,121344,6,0,L|96:160,1,105,6|0,0:0|0:0,0:0:0:0:
216,168,121574,2,0,L|328:168,1,105
440,168,121805,2,0,L|336:168,1,105
456,160,122036,2,0,L|352:160,1,105
232,152,122267,6,0,L|344:152,1,105
216,144,122497,2,0,L|96:144,1,105
232,248,122728,2,0,L|240:144,1,105
120,224,122959,2,0,L|112:120,1,105
328,200,123190,6,0,L|432:200,1,105,2|0,0:0|0:0,0:0:0:0:
312,192,123420,2,0,L|440:192,1,105
296,176,123651,2,0,L|192:176,1,105
312,160,123882,2,0,L|192:160,1,105
424,200,124113,6,0,L|432:96,1,105,2|0,0:0|0:0,0:0:0:0:
312,144,124344,2,0,L|304:248,1,105
184,264,124574,2,0,L|192:160,1,105
72,256,124805,2,0,L|64:152,1,105
280,216,125036,6,0,L|400:216,1,105,2|0,0:0|0:0,0:0:0:0:
264,200,125267,2,0,L|256:96,1,105
136,192,125497,2,0,L|144:80,1,105
360,96,125728,2,0,L|248:96,1,105,2|0,0:0|0:0,0:0:0:0:
472,224,125959,5,10,0:0:0:0:
352,232,126074,2,0,L|464:232,1,105
240,152,126305,1,2,0:0:0:0:
360,160,126420,2,0,L|248:160,1,105
472,120,126651,2,0,L|368:120,1,105,2|0,0:0|0:0,0:0:0:0:
152,256,126882,6,0,L|144:144,1,105,2|0,0:0|0:0,0:0:0:0:
264,160,127113,2,0,L|152:160,1,105
280,152,127344,2,0,L|392:152,1,105,2|0,0:0|0:0,0:0:0:0:
264,144,127574,2,0,L|368:144,1,105
152,264,127805,6,0,L|96:264,1,52.5,14|8,0:0|0:0,0:0:0:0:
256,240,127920,1,8,0:0:0:0:
416,232,127978,1,8,0:0:0:0:
256,240,128036,2,0,L|248:184,1,52.5
464,216,128151,2,0,L|408:216,1,52.5
192,248,128267,6,0,L|128:248,1,52.5,2|0,0:0|0:0,0:0:0:0:
200,240,128382,1,0,0:0:0:0:
256,208,128439,1,0,0:0:0:0:
280,160,128497,1,2,0:0:0:0:
256,208,128555,1,0,0:0:0:0:
40,168,128613,2,0,L|104:168,1,52.5
304,200,128728,5,6,0:0:0:0:
360,168,128785,1,0,0:0:0:0:
384,120,128843,1,0,0:0:0:0:
360,168,128901,1,0,0:0:0:0:
296,192,128959,2,0,L|232:192,1,52.5
304,160,129074,2,0,L|360:160,1,52.5
168,216,129190,5,2,0:0:0:0:
152,256,129248,1,0,0:0:0:0:
168,216,129306,1,0,0:0:0:0:
208,176,129364,1,0,0:0:0:0:
256,160,129421,1,0,0:0:0:0:
312,160,129479,1,0,0:0:0:0:
240,144,129536,2,0,L|176:144,1,52.5
376,224,129651,5,2,0:0:0:0:
432,192,129708,1,0,0:0:0:0:
456,144,129766,1,0,0:0:0:0:
432,192,129824,1,0,0:0:0:0:
272,112,129882,2,0,L|216:112,1,52.5
280,104,129997,2,0,L|336:104,1,52.5
168,232,130113,5,2,0:0:0:0:
112,200,130170,1,0,0:0:0:0:
88,152,130228,1,0,0:0:0:0:
112,200,130286,1,0,0:0:0:0:
272,256,130344,2,0,L|344:256,1,52.5
384,256,130459,2,0,L|448:256,1,52.5
248,208,130574,5,10,0:0:0:0:
192,176,130631,1,0,0:0:0:0:
168,128,130689,1,0,0:0:0:0:
192,176,130747,1,0,0:0:0:0:
352,152,130805,2,0,L|360:96,3,52.5
200,128,131036,6,0,L|192:72,3,52.5,2|0|0|0,0:0|0:0|0:0|0:0,0:0:0:0:
352,152,131267,2,0,L|360:96,1,52.5
200,128,131382,2,0,L|192:72,1,52.5
384,248,131497,6,0,L|440:248,1,52.5,6|0,0:0|0:0,0:0:0:0:
496,248,131613,2,0,L|504:192,1,52.5
440,192,131728,2,0,L|432:136,1,52.5
368,136,131844,2,0,L|312:136,1,52.5
152,240,131959,5,2,0:0:0:0:
96,224,132017,1,0,0:0:0:0:
56,184,132075,1,0,0:0:0:0:
40,144,132132,1,0,0:0:0:0:
32,120,132190,2,0,L|40:224,1,105
360,56,132420,6,0,P|416:56|416:184,1,210,6|0,0:0|0:0,0:0:0:0:
224,224,132882,2,0,L|376:72,1,210,2|0,0:0|0:0,0:0:0:0:
248,136,133228,1,0,0:0:0:0:
368,224,133344,2,0,L|360:120,1,105,2|0,0:0|0:0,0:0:0:0:
240,176,133574,2,0,L|232:72,1,105
112,160,133805,1,2,0:0:0:0:
440,104,134266,5,10,0:0:0:0:
208,160,134497,2,0,L|104:160,1,105
216,152,134728,2,0,L|320:152,1,105
208,144,134959,2,0,L|104:144,1,105
344,208,135190,6,0,L|352:152,1,52.5,14|8,0:0|0:0,0:0:0:0:
216,112,135305,1,8,0:0:0:0:
80,112,135363,1,8,0:0:0:0:
216,112,135420,2,0,L|288:112,1,52.5
80,112,135536,2,0,L|24:112,1,52.5
216,208,135651,5,2,0:0:0:0:
272,176,135708,1,0,0:0:0:0:
296,128,135766,1,0,0:0:0:0:
272,176,135824,1,0,0:0:0:0:
208,200,135882,2,0,L|144:200,1,52.5,2|0,0:0|0:0,0:0:0:0:
368,176,135997,2,0,L|432:176,1,52.5
200,280,136113,5,6,0:0:0:0:
144,248,136170,1,0,0:0:0:0:
120,200,136228,1,0,0:0:0:0:
144,248,136286,1,0,0:0:0:0:
208,232,136344,2,0,L|216:176,1,52.5,10|0,0:0|0:0,0:0:0:0:
152,168,136459,2,0,L|160:112,1,52.5
344,176,136574,6,0,L|352:112,1,52.5,10|0,0:0|0:0,0:0:0:0:
288,120,136690,2,0,L|232:120,1,52.5
424,152,136805,2,0,L|432:88,1,52.5,10|0,0:0|0:0,0:0:0:0:
280,96,136921,2,0,L|224:96,1,52.5
80,240,137036,6,0,L|72:184,1,52.5,10|0,0:0|0:0,0:0:0:0:
264,208,137151,2,0,L|272:152,1,52.5
80,168,137267,2,0,L|24:168,1,52.5,10|0,0:0|0:0,0:0:0:0:
216,152,137382,2,0,L|280:152,1,52.5
456,152,137497,6,0,L|392:152,1,52.5,10|0,0:0|0:0,0:0:0:0:
216,120,137613,2,0,L|160:120,1,52.5
352,240,137728,2,0,L|360:184,1,52.5,10|0,0:0|0:0,0:0:0:0:
168,192,137844,2,0,L|160:136,1,52.5
352,144,137959,6,0,L|280:144,1,52.5,10|0,0:0|0:0,0:0:0:0:
112,136,138074,2,0,L|56:136,1,52.5
248,120,138190,2,0,L|336:120,1,52.5,10|0,0:0|0:0,0:0:0:0:
488,120,138305,2,0,L|432:120,1,52.5
248,272,138420,6,0,L|240:216,1,52.5,10|0,0:0|0:0,0:0:0:0:
432,232,138536,2,0,L|440:176,1,52.5
248,168,138651,2,0,L|192:168,1,52.5,10|0,0:0|0:0,0:0:0:0:
256,160,138767,2,0,L|328:160,1,52.5
120,200,138882,6,0,L|48:200,1,52.5,10|0,0:0|0:0,0:0:0:0:
256,176,138997,2,0,L|264:120,1,52.5
72,112,139113,2,0,L|128:112,1,52.5,10|0,0:0|0:0,0:0:0:0:
312,88,139228,2,0,L|376:88,1,52.5
176,232,139344,6,0,L|112:232,1,52.5,10|0,0:0|0:0,0:0:0:0:
64,232,139459,2,0,L|56:176,1,52.5
256,176,139574,2,0,L|264:120,1,52.5,10|8,0:0|0:0,0:0:0:0:
64,120,139690,2,0,L|120:120,1,52.5,8|8,0:0|0:0,0:0:0:0:
304,224,139805,5,6,0:0:0:0:
360,192,139862,1,0,0:0:0:0:
384,144,139920,1,0,0:0:0:0:
360,192,139978,1,0,0:0:0:0:
296,184,140036,2,0,L|208:184,1,52.5,2|0,0:0|0:0,0:0:0:0:
56,168,140151,2,0,L|112:168,1,52.5
296,248,140267,6,0,L|352:248,1,52.5,2|0,0:0|0:0,0:0:0:0:
288,240,140382,1,0,0:0:0:0:
232,208,140439,1,0,0:0:0:0:
208,160,140497,1,2,0:0:0:0:
232,208,140555,1,0,0:0:0:0:
296,200,140612,2,0,L|384:200,1,52.5
160,176,140728,5,10,0:0:0:0:
104,144,140785,1,0,0:0:0:0:
80,96,140843,1,0,0:0:0:0:
104,144,140901,1,0,0:0:0:0:
168,136,140959,2,0,L|256:136,1,52.5,2|0,0:0|0:0,0:0:0:0:
152,128,141074,2,0,L|144:72,1,52.5
336,248,141190,6,0,L|392:248,1,52.5,2|0,0:0|0:0,0:0:0:0:
448,248,141305,2,0,L|456:192,1,52.5
400,184,141420,2,0,L|392:128,1,52.5,2|0,0:0|0:0,0:0:0:0:
336,128,141536,2,0,L|264:128,1,52.5
96,272,141651,6,0,L|88:216,1,52.5,2|0,0:0|0:0,0:0:0:0:
152,224,141767,2,0,L|192:184,1,52.5
248,184,141882,2,0,L|320:184,1,52.5
112,136,141997,6,0,L|56:136,1,52.5,2|0,0:0|0:0,0:0:0:0:
120,128,142113,2,0,L|184:128,1,52.5
112,120,142228,2,0,L|56:120,1,52.5
208,120,142344,6,0,L|264:120,1,52.5,2|0,0:0|0:0,0:0:0:0:
408,112,142459,2,0,L|344:112,1,52.5
88,192,142574,5,14,0:0:0:0:
208,192,142632,1,8,0:0:0:0:
424,192,142690,1,8,0:0:0:0:
304,192,142748,1,8,0:0:0:0:
88,192,142805,1,10,0:0:0:0:
208,192,142863,1,8,0:0:0:0:
424,192,142921,1,8,0:0:0:0:
304,192,142979,1,8,0:0:0:0:
88,192,143036,6,0,L|32:192,1,52.5,2|0,0:0|0:0,0:0:0:0:
224,176,143151,2,0,L|288:176,1,52.5,2|0,0:0|0:0,0:0:0:0:
464,176,143267,2,0,L|408:176,1,52.5,2|0,0:0|0:0,0:0:0:0:
200,144,143382,2,0,L|120:144,1,52.5,2|0,0:0|0:0,0:0:0:0:
360,256,143497,6,0,L|472:256,1,105,14|8,0:0|0:0,0:0:0:0:
256,208,143728,2,0,L|392:208,1,105,8|8,0:0|0:0,0:0:0:0:
152,184,143959,2,0,L|264:184,1,105,8|8,0:0|0:0,0:0:0:0:
368,184,144190,2,0,L|248:184,1,105,8|8,0:0|0:0,0:0:0:0:
56,176,144420,5,8,0:0:0:0:
168,176,144536,2,0,L|64:176,1,105,8|8,0:0|0:0,0:0:0:0:
280,176,144767,1,8,0:0:0:0:
168,176,144882,2,0,L|160:72,1,105,8|8,0:0|0:0,0:0:0:0:
376,96,145113,2,0,L|480:96,1,105,8|8,0:0|0:0,0:0:0:0:
264,256,145344,6,0,L|272:152,1,105,8|8,0:0|0:0,0:0:0:0:
384,168,145574,2,0,L|376:272,1,105,8|8,0:0|0:0,0:0:0:0:
160,152,145805,2,0,L|56:152,1,105,8|8,0:0|0:0,0:0:0:0:
168,200,146036,2,0,L|64:200,1,105,8|8,0:0|0:0,0:0:0:0:
280,240,146267,6,0,L|392:240,1,105,8|8,0:0|0:0,0:0:0:0:
168,176,146497,2,0,L|160:72,1,105,8|8,0:0|0:0,0:0:0:0:
376,104,146728,2,0,L|272:104,1,105,8|8,0:0|0:0,0:0:0:0:
56,160,146959,2,0,L|48:104,1,52.5,8|0,0:0|0:0,0:0:0:0:
288,176,147074,2,0,L|344:176,1,52.5,8|0,0:0|0:0,0:0:0:0:
120,280,147190,5,6,0:0:0:0:
64,248,147247,1,0,0:0:0:0:
40,200,147305,1,0,0:0:0:0:
64,248,147363,1,0,0:0:0:0:
128,256,147420,2,0,L|192:256,1,52.5
112,240,147536,2,0,L|176:240,1,52.5
352,232,147651,6,0,L|416:232,1,52.5,2|0,0:0|0:0,0:0:0:0:
344,224,147767,2,0,L|272:224,1,52.5
352,208,147882,2,0,L|416:208,1,52.5
464,208,147997,2,0,L|400:208,1,52.5
224,168,148113,6,0,L|216:112,1,52.5,10|0,0:0|0:0,0:0:0:0:
280,120,148228,2,0,L|288:64,1,52.5
224,64,148344,2,0,L|280:64,1,52.5
344,64,148459,2,0,L|400:64,1,52.5
208,216,148574,6,0,L|152:216,1,52.5,2|0,0:0|0:0,0:0:0:0:
96,216,148690,2,0,L|88:160,1,52.5
152,160,148805,2,0,L|144:104,1,52.5
80,112,148920,2,0,L|72:56,1,52.5
288,208,149036,5,2,0:0:0:0:
336,208,149093,1,0,0:0:0:0:
384,208,149151,1,0,0:0:0:0:
432,208,149209,1,0,0:0:0:0:
448,208,149266,1,0,0:0:0:0:
432,208,149324,1,0,0:0:0:0:
368,160,149382,2,0,L|304:160,1,52.5
152,208,149497,6,0,L|88:208,1,52.5,2|0,0:0|0:0,0:0:0:0:
160,200,149613,1,0,0:0:0:0:
208,176,149670,1,0,0:0:0:0:
224,136,149728,1,0,0:0:0:0:
208,176,149786,1,0,0:0:0:0:
160,200,149844,1,0,0:0:0:0:
104,200,149901,1,0,0:0:0:0:
248,192,149959,5,10,0:0:0:0:
392,192,150017,1,8,0:0:0:0:
248,192,150074,2,0,L|184:192,1,52.5,8|8,0:0|0:0,0:0:0:0:
384,256,150190,1,0,0:0:0:0:
440,224,150247,1,0,0:0:0:0:
464,176,150305,1,0,0:0:0:0:
440,224,150363,1,0,0:0:0:0:
256,136,150420,5,0,0:0:0:0:
304,136,150478,1,0,0:0:0:0:
352,136,150536,1,0,0:0:0:0:
400,136,150594,1,0,0:0:0:0:
448,136,150651,1,0,0:0:0:0:
48,224,150882,6,0,L|40:120,1,105,14|0,0:0|0:0,0:0:0:0:
160,216,151113,2,0,L|168:112,1,105,8|0,0:0|0:0,0:0:0:0:
368,144,151344,2,0,L|264:144,1,105,10|0,0:0|0:0,0:0:0:0:
384,136,151574,2,0,L|496:136,1,105,8|0,0:0|0:0,0:0:0:0:
272,192,151805,6,0,L|376:192,1,105,10|0,0:0|0:0,0:0:0:0:
256,184,152035,2,0,L|144:184,1,105,8|0,0:0|0:0,0:0:0:0:
376,272,152267,2,0,L|480:272,1,105,10|0,0:0|0:0,0:0:0:0:
360,264,152497,2,0,L|248:264,1,105,8|0,0:0|0:0,0:0:0:0:
376,256,152728,6,0,L|256:256,1,105,8|0,0:0|0:0,0:0:0:0:
392,248,152959,2,0,L|496:248,1,105,8|0,0:0|0:0,0:0:0:0:
280,184,153190,2,0,L|288:80,1,105,10|0,0:0|0:0,0:0:0:0:
408,128,153420,2,0,L|416:24,1,105,8|0,0:0|0:0,0:0:0:0:
200,208,153651,6,0,L|192:104,1,105,10|0,0:0|0:0,0:0:0:0:
72,152,153881,2,0,L|64:48,1,105,8|0,0:0|0:0,0:0:0:0:
280,144,154113,2,0,L|384:144,1,105,10|0,0:0|0:0,0:0:0:0:
264,136,154344,2,0,L|144:136,1,105,8|0,0:0|0:0,0:0:0:0:
376,232,154574,6,0,L|480:232,1,105,10|0,0:0|0:0,0:0:0:0:
360,224,154805,2,0,L|256:224,1,105,8|0,0:0|0:0,0:0:0:0:
136,224,155036,2,0,L|248:224,1,105,8|0,0:0|0:0,0:0:0:0:
360,224,155267,2,0,L|464:224,1,105,8|0,0:0|0:0,0:0:0:0:
248,192,155497,6,0,L|256:88,1,105,10|0,0:0|0:0,0:0:0:0:
376,120,155728,2,0,L|368:16,1,105,8|0,0:0|0:0,0:0:0:0:
248,144,155959,2,0,L|144:144,1,105,8|0,0:0|0:0,0:0:0:0:
264,136,156190,2,0,L|400:136,1,105,8|0,0:0|0:0,0:0:0:0:
48,280,156420,6,0,L|40:176,1,105,10|0,0:0|0:0,0:0:0:0:
248,120,156651,1,8,0:0:0:0:
40,128,156767,1,0,0:0:0:0:
256,184,156882,2,0,L|144:184,1,105,10|0,0:0|0:0,0:0:0:0:
360,104,157113,1,8,0:0:0:0:
152,112,157229,1,0,0:0:0:0:
368,208,157344,6,0,L|480:208,1,105,10|0,0:0|0:0,0:0:0:0:
264,128,157575,1,8,0:0:0:0:
472,136,157691,1,0,0:0:0:0:
256,192,157805,2,0,L|368:192,1,105,10|0,0:0|0:0,0:0:0:0:
152,112,158036,1,8,0:0:0:0:
360,120,158151,1,0,0:0:0:0:
144,224,158267,6,0,L|40:224,1,105,10|0,0:0|0:0,0:0:0:0:
248,128,158497,1,8,0:0:0:0:
40,128,158613,1,0,0:0:0:0:
248,216,158728,2,0,L|144:216,1,105,10|0,0:0|0:0,0:0:0:0:
352,200,158959,2,0,L|360:96,1,105,8|0,0:0|0:0,0:0:0:0:
136,264,159190,6,0,L|32:264,1,105,10|0,0:0|0:0,0:0:0:0:
152,256,159420,2,0,L|160:152,1,105,8|0,0:0|0:0,0:0:0:0:
376,176,159651,2,0,L|264:176,1,105,10|0,0:0|0:0,0:0:0:0:
152,176,159882,2,0,L|32:176,1,105,8|0,0:0|0:0,0:0:0:0:
264,208,160113,6,0,L|368:208,1,105,10|0,0:0|0:0,0:0:0:0:
248,184,160344,2,0,L|240:80,1,105,8|0,0:0|0:0,0:0:0:0:
456,160,160574,2,0,L|352:160,1,105,10|0,0:0|0:0,0:0:0:0:
472,144,160805,2,0,L|344:144,1,105,8|0,0:0|0:0,0:0:0:0:
248,144,161036,6,0,L|376:144,1,105,8|0,0:0|0:0,0:0:0:0:
232,136,161267,2,0,L|352:136,1,105,8|0,0:0|0:0,0:0:0:0:
216,184,161497,2,0,L|112:184,1,105,8|0,0:0|0:0,0:0:0:0:
312,136,161728,1,8,0:0:0:0:
104,144,161844,1,8,0:0:0:0:
384,224,161959,6,0,L|440:224,1,52.5,6|0,0:0|0:0,0:0:0:0:
376,216,162074,2,0,L|368:160,5,52.5
208,216,162420,2,0,L|216:160,3,52.5,2|0|0|0,0:0|0:0|0:0|0:0,0:0:0:0:
56,208,162651,2,0,L|48:152,3,52.5,2|0|0|0,0:0|0:0|0:0|0:0,0:0:0:0:
232,216,162882,6,0,L|288:216,1,52.5,6|0,0:0|0:0,0:0:0:0:
344,216,162997,1,0,0:0:0:0:
328,176,163055,1,0,0:0:0:0:
288,136,163113,1,0,0:0:0:0:
232,120,163170,1,0,0:0:0:0:
296,112,163228,2,0,L|384:112,1,52.5
160,208,163344,5,6,0:0:0:0:
144,248,163402,1,0,0:0:0:0:
160,208,163460,1,0,0:0:0:0:
200,168,163518,1,0,0:0:0:0:
248,152,163575,1,0,0:0:0:0:
304,152,163633,1,0,0:0:0:0:
232,136,163690,2,0,L|168:136,1,52.5
392,192,163805,6,0,L|448:192,1,52.5,10|8,0:0|0:0,0:0:0:0:
304,120,163920,1,8,0:0:0:0:
168,112,163978,1,8,0:0:0:0:
304,120,164036,2,0,L|368:120,1,52.5
296,112,164151,2,0,L|240:112,1,52.5
304,88,164267,5,2,0:0:0:0:
352,80,164324,1,0,0:0:0:0:
392,80,164382,1,0,0:0:0:0:
424,104,164440,1,0,0:0:0:0:
440,136,164497,1,0,0:0:0:0:
424,104,164555,1,0,0:0:0:0:
360,152,164613,2,0,L|304:152,1,52.5
120,256,164728,6,0,L|112:200,1,52.5,10|8,0:0|0:0,0:0:0:0:
256,216,164844,1,8,0:0:0:0:
392,216,164901,1,8,0:0:0:0:
256,216,164959,2,0,L|192:216,1,52.5
264,208,165074,2,0,L|328:208,1,52.5
152,152,165190,6,0,L|48:152,1,105,2|0,0:0|0:0,0:0:0:0:
264,144,165420,2,0,L|376:144,1,105,2|0,0:0|0:0,0:0:0:0:
128,256,165651,6,0,L|24:256,1,105,14|0,0:0|0:0,0:0:0:0:
136,248,165882,2,0,L|32:248,1,105,8|0,0:0|0:0,0:0:0:0:
248,184,166113,2,0,L|144:184,1,105,10|0,0:0|0:0,0:0:0:0:
256,176,166344,2,0,L|152:176,1,105,8|0,0:0|0:0,0:0:0:0:
368,120,166574,5,10,0:0:0:0:
152,128,166690,1,2,0:0:0:0:
368,120,166805,2,0,L|248:120,1,105,10|0,0:0|0:0,0:0:0:0:
320,96,166978,1,0,0:0:0:0:
368,80,167036,1,8,0:0:0:0:
384,40,167094,1,0,0:0:0:0:
368,80,167151,1,0,0:0:0:0:
320,96,167209,1,0,0:0:0:0:
136,184,167267,2,0,L|200:184,1,52.5,10|8,0:0|0:0,0:0:0:0:
368,184,167382,2,0,L|432:184,1,52.5,8|8,0:0|0:0,0:0:0:0:
208,304,167497,6,0,L|144:304,1,52.5,10|0,0:0|0:0,0:0:0:0:
96,304,167613,2,0,L|88:248,1,52.5
152,248,167728,2,0,L|216:248,1,52.5,8|0,0:0|0:0,0:0:0:0:
136,240,167844,2,0,L|80:240,1,52.5
272,200,167959,6,0,L|328:200,1,52.5,10|0,0:0|0:0,0:0:0:0:
136,192,168074,2,0,L|80:192,1,52.5
272,208,168190,1,10,0:0:0:0:
328,192,168248,1,0,0:0:0:0:
368,152,168306,1,0,0:0:0:0:
384,112,168363,1,0,0:0:0:0:
200,264,168420,6,0,L|144:264,1,52.5,10|0,0:0|0:0,0:0:0:0:
208,256,168536,2,0,L|272:256,1,52.5
448,224,168651,2,0,L|504:224,1,52.5,10|0,0:0|0:0,0:0:0:0:
440,216,168767,2,0,L|376:216,1,52.5
200,184,168882,6,0,L|136:184,1,52.5,10|0,0:0|0:0,0:0:0:0:
336,176,168997,2,0,L|280:176,1,52.5
96,256,169113,1,10,0:0:0:0:
40,224,169170,1,0,0:0:0:0:
16,176,169228,1,0,0:0:0:0:
40,224,169286,1,0,0:0:0:0:
256,232,169344,5,14,0:0:0:0:
312,200,169401,1,0,0:0:0:0:
336,152,169459,1,0,0:0:0:0:
312,200,169517,1,0,0:0:0:0:
248,232,169574,2,0,L|304:232,1,52.5,8|0,0:0|0:0,0:0:0:0:
368,232,169690,2,0,L|312:232,1,52.5
128,272,169805,6,0,L|120:216,1,52.5,10|0,0:0|0:0,0:0:0:0:
184,216,169920,2,0,L|248:216,1,52.5
304,240,170036,2,0,L|312:184,1,52.5,8|0,0:0|0:0,0:0:0:0:
248,184,170151,2,0,L|184:184,1,52.5
384,144,170267,6,0,L|448:144,1,52.5,10|0,0:0|0:0,0:0:0:0:
248,128,170382,2,0,L|192:128,1,52.5,2|0,0:0|0:0,0:0:0:0:
384,256,170497,1,10,0:0:0:0:
440,224,170554,1,0,0:0:0:0:
464,176,170612,1,0,0:0:0:0:
440,224,170670,1,0,0:0:0:0:
248,144,170728,6,0,L|192:144,1,52.5,10|8,0:0|0:0,0:0:0:0:
336,128,170844,1,8,0:0:0:0:
472,128,170901,1,8,0:0:0:0:
336,128,170959,2,0,L|328:72,1,52.5,8|0,0:0|0:0,0:0:0:0:
392,80,171074,2,0,L|448:80,1,52.5
232,200,171190,6,0,L|176:200,1,52.5,14|0,0:0|0:0,0:0:0:0:
240,192,171305,2,0,L|304:192,1,52.5
232,208,171420,2,0,L|128:208,1,105,8|0,0:0|0:0,0:0:0:0:
344,240,171651,2,0,L|448:240,1,105,10|0,0:0|0:0,0:0:0:0:
328,232,171882,2,0,L|320:120,1,105,8|0,0:0|0:0,0:0:0:0:
104,152,172113,5,10,0:0:0:0:
224,144,172228,2,0,L|120:144,1,105,0|8,0:0|0:0,0:0:0:0:
152,136,172401,1,0,0:0:0:0:
192,136,172459,1,0,0:0:0:0:
240,136,172517,1,0,0:0:0:0:
296,136,172574,1,10,0:0:0:0:
120,80,172690,1,2,0:0:0:0:
296,104,172805,1,10,0:0:0:0:
256,104,172863,1,0,0:0:0:0:
208,104,172921,1,0,0:0:0:0:
152,104,172978,1,0,0:0:0:0:
368,248,173036,6,0,L|424:248,1,52.5,14|0,0:0|0:0,0:0:0:0:
360,240,173151,2,0,L|304:240,1,52.5
240,256,173267,1,8,0:0:0:0:
256,216,173324,1,0,0:0:0:0:
296,176,173382,1,0,0:0:0:0:
352,160,173441,1,0,0:0:0:0:
176,256,173497,6,0,L|112:256,1,52.5,10|0,0:0|0:0,0:0:0:0:
184,248,173612,1,0,0:0:0:0:
240,216,173669,1,0,0:0:0:0:
264,168,173727,1,8,0:0:0:0:
240,216,173785,1,0,0:0:0:0:
176,208,173844,2,0,L|232:208,1,52.5
416,136,173959,6,0,L|352:136,1,52.5,10|0,0:0|0:0,0:0:0:0:
176,128,174074,2,0,L|120:128,1,52.5,2|0,0:0|0:0,0:0:0:0:
312,216,174190,1,10,0:0:0:0:
368,200,174248,1,0,0:0:0:0:
408,160,174306,1,0,0:0:0:0:
424,120,174363,1,0,0:0:0:0:
240,272,174421,5,10,0:0:0:0:
256,232,174479,1,0,0:0:0:0:
296,192,174537,1,0,0:0:0:0:
352,176,174594,1,0,0:0:0:0:
168,152,174651,2,0,L|112:152,1,52.5,8|0,0:0|0:0,0:0:0:0:
304,144,174767,2,0,L|368:144,1,52.5
144,288,174882,6,0,L|40:288,1,105,6|0,0:0|0:0,0:0:0:0:
160,280,175113,2,0,L|272:280,1,105,8|0,0:0|0:0,0:0:0:0:
472,208,175344,2,0,L|360:208,1,105,10|0,0:0|0:0,0:0:0:0:
160,200,175574,2,0,L|48:200,1,105,8|0,0:0|0:0,0:0:0:0:
264,152,175805,5,10,0:0:0:0:
64,144,175920,1,2,0:0:0:0:
264,152,176036,2,0,L|392:152,1,105,10|0,0:0|0:0,0:0:0:0:
152,272,176267,5,10,0:0:0:0:
96,240,176324,1,0,0:0:0:0:
72,192,176382,1,0,0:0:0:0:
96,240,176440,1,0,0:0:0:0:
232,216,176497,1,10,0:0:0:0:
376,216,176555,1,8,0:0:0:0:
232,216,176613,2,0,L|152:216,1,52.5,8|8,0:0|0:0,0:0:0:0:
368,240,176728,5,14,0:0:0:0:
424,224,176786,1,0,0:0:0:0:
464,184,176844,1,0,0:0:0:0:
480,144,176901,1,0,0:0:0:0:
408,152,176959,2,0,L|352:152,1,52.5,8|0,0:0|0:0,0:0:0:0:
424,144,177074,2,0,L|360:144,1,52.5
184,160,177190,6,0,L|120:160,1,52.5,10|0,0:0|0:0,0:0:0:0:
192,152,177305,2,0,L|256:152,1,52.5
304,152,177420,2,0,L|248:152,1,52.5,8|0,0:0|0:0,0:0:0:0:
192,152,177536,2,0,L|112:152,1,52.5
328,112,177651,6,0,L|392:112,1,52.5,10|0,0:0|0:0,0:0:0:0:
192,104,177767,2,0,L|136:104,1,52.5,2|0,0:0|0:0,0:0:0:0:
352,216,177882,1,10,0:0:0:0:
336,176,177939,1,0,0:0:0:0:
296,136,177997,1,0,0:0:0:0:
240,120,178054,1,0,0:0:0:0:
48,248,178113,5,8,0:0:0:0:
64,208,178170,1,0,0:0:0:0:
104,168,178228,1,0,0:0:0:0:
160,152,178285,1,0,0:0:0:0:
352,144,178344,2,0,L|416:144,1,52.5,8|0,0:0|0:0,0:0:0:0:
216,128,178459,2,0,L|280:128,1,52.5
456,256,178574,5,6,0:0:0:0:
160,248,180420,6,0,L|56:248,1,105,6|0,0:3|0:0,0:0:0:0:
176,240,180651,2,0,L|312:240,1,105
160,232,180882,2,0,L|288:232,1,105
144,224,181113,2,0,L|40:224,1,105
160,216,181344,6,0,L|264:216,1,105
384,216,181574,2,0,L|272:216,1,105
400,208,181805,2,0,L|512:208,1,105
384,200,182036,2,0,L|496:200,1,105
272,144,182267,6,0,L|152:144,1,105,2|0,0:0|0:0,0:0:0:0:
288,136,182497,2,0,L|424:136,1,105
272,128,182728,2,0,L|416:128,1,105
256,120,182959,2,0,L|152:120,1,105
376,240,183190,6,0,L|496:240,1,105,2|0,0:0|0:0,0:0:0:0:
362,232,183420,2,0,L|250:232,1,105
136,232,183651,2,0,L|240:232,1,105
120,224,183882,2,0,L|232:224,1,105
464,200,184113,6,0,L|344:200,1,105,6|0,0:0|0:0,0:0:0:0:
240,192,184344,2,0,L|368:192,1,105
136,176,184574,2,0,L|264:176,1,105,2|0,0:0|0:0,0:0:0:0:
120,168,184805,2,0,L|240:168,1,105
448,184,185036,6,0,L|320:184,1,105,2|0,0:0|0:0,0:0:0:0:
128,160,185267,2,0,L|248:160,1,105,2|0,0:0|0:0,0:0:0:0:
352,160,185497,2,0,L|240:160,1,105
24,192,185728,6,0,L|144:192,1,105,2|0,0:0|0:0,0:0:0:0:
248,176,185959,2,0,L|128:176,1,105
264,168,186190,2,0,L|376:168,1,105
488,176,186420,2,0,L|360:176,1,105
184,112,186651,1,0,0:0:0:0:
384,112,186767,1,0,0:0:0:0:
136,240,186882,6,0,L|80:240,1,52.5,10|8,0:0|0:0,0:0:0:0:
240,216,186997,1,8,0:0:0:0:
400,208,187055,1,8,0:0:0:0:
240,216,187113,2,0,L|184:216,1,52.5,2|0,0:0|0:0,0:0:0:0:
400,208,187228,2,0,L|456:208,1,52.5
232,224,187344,5,2,0:0:0:0:
176,192,187401,1,0,0:0:0:0:
152,144,187459,1,0,0:0:0:0:
176,192,187517,1,0,0:0:0:0:
240,184,187574,2,0,L|328:184,1,52.5
456,136,187690,2,0,L|392:136,1,52.5
184,136,187805,6,0,L|72:136,1,105,6|0,0:0|0:0,0:0:0:0:
200,136,188036,2,0,L|320:136,1,105
80,256,188267,2,0,L|200:256,1,105,2|0,0:0|0:0,0:0:0:0:
64,248,188497,2,0,L|184:248,1,105
392,184,188728,6,0,L|256:184,1,105,2|0,0:0|0:0,0:0:0:0:
168,184,188959,2,0,L|280:184,1,105
152,176,189190,2,0,L|256:176,1,105
376,176,189420,2,0,L|248:176,1,105
64,240,189651,6,0,L|176:240,1,105,10|0,0:0|0:0,0:0:0:0:
288,240,189882,2,0,L|176:240,1,105
304,232,190113,2,0,L|432:232,1,105
288,224,190344,2,0,L|400:224,1,105
176,168,190574,6,0,L|72:168,1,105,2|0,0:0|0:0,0:0:0:0:
192,160,190805,2,0,L|320:160,1,105
176,144,191036,2,0,L|112:144,1,52.5,2|0,0:0|0:0,0:0:0:0:
184,136,191151,1,0,0:0:0:0:
304,120,191267,2,0,L|192:120,1,105
408,48,191497,6,0,P|408:280|272:280,1,420,6|2,0:0|0:0,0:0:0:0:
360,288,192190,2,0,L|368:184,1,105
248,256,192420,2,0,L|256:152,1,105,2|0,0:0|0:0,0:0:0:0:
136,216,192651,2,0,L|144:320,1,105,2|0,0:0|0:0,0:0:0:0:
376,232,192882,1,2,0:0:0:0:
48,192,193344,5,10,0:0:0:0:
264,208,193574,2,0,L|256:104,1,105
136,120,193805,2,0,L|128:224,1,105
248,160,194036,2,0,L|144:160,1,105
408,232,194267,6,0,L|416:176,1,52.5,6|0,0:0|0:0,0:0:0:0:
256,176,194382,1,0,0:0:0:0:
96,176,194440,1,0,0:0:0:0:
256,176,194497,2,0,L|312:176,1,52.5,6|0,0:0|0:0,0:0:0:0:
96,176,194613,2,0,L|40:176,1,52.5
256,288,194728,6,0,L|320:288,1,52.5,2|0,0:0|0:0,0:0:0:0:
368,288,194844,2,0,L|312:288,1,52.5
256,288,194959,2,0,L|192:288,1,52.5
368,288,195074,2,0,L|440:288,1,52.5
136,344,195190,6,0,P|136:184|392:184,2,472.500018024445,6|6|6,0:0|0:0|0:0,0:0:0:0:
352,216,197036,5,10,0:0:0:0:
168,216,197267,1,2,0:0:0:0:
488,264,197959,6,0,L|248:264,2,210.000008010865,6|6|6,0:0|0:0|0:0,0:0:0:0:
112,168,198882,6,0,L|32:168,1,52.5,6|0,0:0|0:0,0:0:0:0:
120,160,198997,2,0,L|176:160,1,52.5
112,280,199112,1,0,0:0:0:0:
56,248,199169,1,0,0:0:0:0:
32,200,199227,1,0,0:0:0:0:
56,248,199285,1,0,0:0:0:0:
120,272,199343,2,0,L|184:272,1,52.5
360,192,199459,2,0,L|416:192,1,52.5
224,224,199574,5,2,0:0:0:0:
240,184,199632,1,0,0:0:0:0:
280,144,199690,1,0,0:0:0:0:
336,128,199747,1,0,0:0:0:0:
400,160,199805,1,0,0:0:0:0:
384,120,199863,1,0,0:0:0:0:
344,80,199921,1,0,0:0:0:0:
288,64,199978,1,0,0:0:0:0:
352,88,200036,2,0,L|416:88,1,52.5
216,112,200151,2,0,L|128:112,1,52.5
352,208,200267,5,2,0:0:0:0:
368,248,200325,1,0,0:0:0:0:
352,208,200383,1,0,0:0:0:0:
312,168,200441,1,0,0:0:0:0:
264,152,200498,1,0,0:0:0:0:
208,152,200556,1,0,0:0:0:0:
272,136,200613,2,0,L|336:136,1,52.5
256,120,200728,2,0,L|192:120,1,52.5,8|0,0:0|0:0,0:0:0:0:
400,256,200844,2,0,L|408:200,1,52.5
216,264,200959,6,0,L|160:264,1,52.5,2|0,0:0|0:0,0:0:0:0:
224,256,201074,2,0,L|280:256,1,52.5
336,248,201190,1,0,0:0:0:0:
320,208,201248,1,0,0:0:0:0:
280,168,201306,1,0,0:0:0:0:
224,152,201363,1,0,0:0:0:0:
384,144,201420,2,0,L|328:144,1,52.5
168,120,201536,2,0,L|96:120,1,52.5
352,192,201651,6,0,L|416:192,1,52.5,14|8,0:0|0:0,0:0:0:0:
248,152,201767,1,8,0:0:0:0:
96,152,201824,1,8,0:0:0:0:
248,152,201882,2,0,L|256:96,1,52.5,2|0,0:0|0:0,0:0:0:0:
96,152,201997,2,0,L|88:96,1,52.5
304,208,202113,6,0,L|360:208,1,52.5,2|0,0:0|0:0,0:0:0:0:
416,208,202228,2,0,L|424:152,1,52.5
368,152,202344,2,0,L|312:152,1,52.5
128,200,202459,2,0,L|200:200,1,52.5
392,256,202574,6,0,L|496:256,1,105,6|0,0:0|0:0,0:0:0:0:
376,248,202805,2,0,L|256:248,1,105
72,176,203036,2,0,L|224:176,1,105,2|0,0:0|0:0,0:0:0:0:
296,176,203267,2,0,L|408:176,1,105
176,224,203497,6,0,L|64:224,1,105,2|0,0:0|0:0,0:0:0:0:
192,216,203728,2,0,L|312:216,1,105
176,208,203959,2,0,L|288:208,1,105
400,208,204190,2,0,L|288:208,1,105
72,176,204420,6,0,L|200:176,1,105,2|0,0:0|0:0,0:0:0:0:
296,168,204651,2,0,L|184:168,1,105
312,160,204882,2,0,L|424:160,1,105
296,152,205113,2,0,L|408:152,1,105
176,232,205344,6,0,L|72:232,1,105,2|0,0:0|0:0,0:0:0:0:
192,224,205574,2,0,L|296:224,1,105
72,184,205805,2,0,L|176:184,1,105,2|0,0:0|0:0,0:0:0:0:
376,136,206036,1,0,0:0:0:0:
184,144,206151,1,0,0:0:0:0:
400,264,206267,6,0,P|400:208|296:104,1,210,6|0,0:0|0:0,0:0:0:0:
96,272,206728,2,0,P|96:216|200:112,1,210,2|0,0:0|0:0,0:0:0:0:
320,112,207074,1,0,0:0:0:0:
200,112,207190,2,0,L|192:216,1,105,2|0,0:0|0:0,0:0:0:0:
312,112,207420,2,0,L|320:216,1,105,2|0,0:0|0:0,0:0:0:0:
200,224,207651,1,2,0:0:0:0:
472,184,208113,5,10,0:0:0:0:
256,208,208343,2,0,L|248:104,1,105
368,152,208574,2,0,L|264:152,1,105
384,192,208805,2,0,L|392:88,1,105
112,216,209036,6,0,L|56:216,1,52.5,6|8,0:0|0:0,0:0:0:0:
208,176,209151,1,8,0:0:0:0:
360,176,209209,1,8,0:0:0:0:
208,176,209267,2,0,L|144:176,1,52.5,2|0,0:0|0:0,0:0:0:0:
360,176,209382,2,0,L|368:120,1,52.5
184,280,209497,6,0,L|128:280,1,52.5,2|0,0:0|0:0,0:0:0:0:
200,272,209613,2,0,L|256:272,1,52.5
320,272,209728,2,0,L|264:272,1,52.5
80,240,209844,2,0,L|160:240,1,52.5
384,360,209959,6,0,P|432:312|168:312,1,734.999977569581,6|0,0:0|0:0,0:0:0:0:
248,160,212728,5,6,0:0:0:0:
264,144,212805,1,0,0:0:0:0:
280,128,212882,1,0,0:0:0:0:
200,128,212959,1,6,0:0:0:0:
184,112,213036,1,0,0:0:0:0:
168,96,213113,1,0,0:0:0:0:
248,144,213190,1,6,0:0:0:0:
264,128,213267,1,0,0:0:0:0:
280,112,213344,1,0,0:0:0:0:
360,128,213421,1,6,0:0:0:0:
344,112,213498,1,0,0:0:0:0:
328,96,213575,1,0,0:0:0:0:
464,104,213651,5,6,0:0:0:0:
176,352,217344,6,0,P|128:304|440:304,1,881.999973083497,6|8,0:0|0:0,0:0:0:0:
232,304,220729,5,8,0:0:0:0:
448,336,220882,1,8,0:0:0:0:
224,384,221036,1,10,0:0:0:0:
472,256,223805,6,0,L|480:224,2,28,2|2|2,0:0|0:0|0:0,0:0:0:0:
32,240,224728,6,0,P|32:168|224:360,1,734.999977569581,6|0,0:0|0:0,0:0:0:0:
160,304,227497,5,6,0:0:0:0:
200,304,227574,1,0,0:0:0:0:
248,304,227651,1,0,0:0:0:0:
328,304,227728,1,6,0:0:0:0:
288,304,227805,1,0,0:0:0:0:
240,304,227882,1,0,0:0:0:0:
320,256,227959,1,6,0:0:0:0:
360,256,228036,1,0,0:0:0:0:
408,256,228113,1,0,0:0:0:0:
488,256,228190,1,6,0:0:0:0:
448,256,228267,1,0,0:0:0:0:
400,256,228344,1,0,0:0:0:0:
264,184,228420,5,6,0:0:0:0:
344,312,232113,6,0,P|336:24|328:312,1,881.999973083497,6|8,0:0|0:0,0:0:0:0:
112,288,235497,5,8,0:0:0:0:
328,296,235651,1,8,0:0:0:0:
104,328,235805,6,0,L|408:24,1,420,10|8,0:0|0:0,0:0:0:0:
184,248,236421,1,8,0:0:0:0:
448,336,236728,2,0,L|144:32,1,420,10|8,0:0|0:0,0:0:0:0:
368,256,237344,1,8,0:0:0:0:
104,264,237651,5,10,0:0:0:0:
64,264,237709,1,8,0:0:0:0:
48,264,237767,2,0,L|40:208,5,52.5,8|8|8|8|8|8,0:0|0:0|0:0|0:0|0:0|0:0,0:0:0:0:
104,216,238113,6,0,L|112:160,1,52.5,10|8,0:0|0:0,0:0:0:0:
176,160,238228,2,0,L|168:104,1,52.5,8|8,0:0|0:0,0:0:0:0:
232,136,238344,2,0,L|240:80,1,52.5,8|8,0:0|0:0,0:0:0:0:
304,104,238459,2,0,L|296:48,1,52.5,8|8,0:0|0:0,0:0:0:0:
456,104,238574,5,2,0:0:0:0:
128,352,239497,6,0,P|128:296|368:56,1,420,6|2,0:0|0:0,0:0:0:0:
312,64,240017,1,0,0:0:0:0:
264,64,240074,1,0,0:0:0:0:
248,64,240132,1,0,0:0:0:0:
264,64,240190,1,0,0:0:0:0:
312,64,240247,1,0,0:0:0:0:
360,64,240305,1,0,0:0:0:0:
408,64,240363,1,0,0:0:0:0:
248,184,240420,5,2,0:0:0:0:
112,176,241344,5,10,0:0:0:0:
152,176,241401,1,0,0:0:0:0:
192,176,241459,1,0,0:0:0:0:
232,176,241517,1,0,0:0:0:0:
160,160,241574,1,0,0:0:0:0:
120,160,241631,1,0,0:0:0:0:
80,160,241689,1,0,0:0:0:0:
40,160,241747,1,0,0:0:0:0:
112,128,241805,1,2,0:0:0:0:
328,192,242267,5,2,0:0:0:0:
288,192,242324,1,0,0:0:0:0:
248,192,242382,1,0,0:0:0:0:
208,192,242440,1,0,0:0:0:0:
280,176,242497,1,0,0:0:0:0:
320,176,242554,1,0,0:0:0:0:
360,176,242612,1,0,0:0:0:0:
400,176,242670,1,0,0:0:0:0:
328,144,242728,1,2,0:0:0:0:
112,352,243190,6,0,B|8:344|8:344|112:336|112:336|64:328|64:136,1,420,6|2,0:0|0:0,0:0:0:0:
112,144,243709,1,0,0:0:0:0:
160,144,243767,1,0,0:0:0:0:
208,144,243824,1,0,0:0:0:0:
256,144,243882,1,0,0:0:0:0:
304,144,243940,1,0,0:0:0:0:
352,144,243997,1,0,0:0:0:0:
400,144,244055,1,0,0:0:0:0:
240,352,244113,6,0,P|136:352|136:104,1,420,6|2,0:0|0:0,0:0:0:0:
344,208,245036,5,10,0:0:0:0:
384,208,245093,1,0,0:0:0:0:
424,208,245151,1,0,0:0:0:0:
464,208,245209,1,0,0:0:0:0:
392,192,245266,1,0,0:0:0:0:
352,192,245323,1,0,0:0:0:0:
312,192,245381,1,0,0:0:0:0:
272,192,245439,1,0,0:0:0:0:
344,160,245497,1,2,0:0:0:0:
232,160,245651,1,0,0:0:0:0:
352,152,245805,1,0,0:0:0:0:
80,280,245959,6,0,L|72:64,1,210,6|0,0:0|0:0,0:0:0:0:
368,144,246420,1,6,0:0:0:0:
80,152,246651,1,0,0:0:0:0:
424,352,246882,6,0,P|424:296|184:56,1,420,6|2,0:0|0:0,0:0:0:0:
240,64,247402,1,0,0:0:0:0:
288,64,247459,1,0,0:0:0:0:
304,64,247517,1,0,0:0:0:0:
288,64,247575,1,0,0:0:0:0:
240,64,247632,1,0,0:0:0:0:
192,64,247690,1,0,0:0:0:0:
144,64,247748,1,0,0:0:0:0:
304,184,247805,5,2,0:0:0:0:
168,176,248728,5,10,0:0:0:0:
128,176,248785,1,0,0:0:0:0:
88,176,248843,1,0,0:0:0:0:
48,176,248901,1,0,0:0:0:0:
120,160,248958,1,0,0:0:0:0:
160,160,249017,1,0,0:0:0:0:
200,160,249073,1,0,0:0:0:0:
240,160,249131,1,0,0:0:0:0:
168,128,249189,1,2,0:0:0:0:
384,144,249651,5,2,0:0:0:0:
344,144,249708,1,0,0:0:0:0:
304,144,249766,1,0,0:0:0:0:
264,144,249824,1,0,0:0:0:0:
336,128,249881,1,0,0:0:0:0:
376,128,249940,1,0,0:0:0:0:
416,128,249996,1,0,0:0:0:0:
456,128,250054,1,0,0:0:0:0:
384,96,250112,1,2,0:0:0:0:
168,368,250574,6,0,P|128:328|320:136,1,420,6|2,0:0|0:0,0:0:0:0:
360,224,251093,1,0,0:0:0:0:
384,176,251151,1,0,0:0:0:0:
360,224,251209,1,0,0:0:0:0:
288,200,251267,1,0,0:0:0:0:
232,168,251324,1,0,0:0:0:0:
208,120,251382,1,0,0:0:0:0:
232,168,251440,1,0,0:0:0:0:
304,144,251497,5,6,0:0:0:0:
136,80,251728,1,0,0:0:0:0:
208,80,251844,1,0,0:0:0:0:
280,80,251959,1,2,0:0:0:0:
112,104,252190,1,0,0:0:0:0:
400,192,252420,5,10,0:0:0:0:
408,192,252478,1,0,0:0:0:0:
400,192,252536,1,0,0:0:0:0:
384,192,252594,1,0,0:0:0:0:
360,192,252651,1,0,0:0:0:0:
328,192,252709,1,0,0:0:0:0:
288,192,252767,1,0,0:0:0:0:
240,192,252824,1,0,0:0:0:0:
184,192,252882,1,2,0:0:0:0:
304,152,253036,1,0,0:0:0:0:
192,152,253190,1,0,0:0:0:0:
416,288,253344,6,0,P|456:248|456:104,1,210,6|0,0:0|0:0,0:0:0:0:
160,152,253805,1,6,0:0:0:0:
448,160,254036,1,0,0:0:0:0:
96,200,254267,6,0,P|56:160|216:160,1,420,6|2,0:0|0:0,0:0:0:0:
168,160,254786,1,0,0:0:0:0:
120,160,254844,1,0,0:0:0:0:
72,160,254901,1,0,0:0:0:0:
56,160,254959,1,0,0:0:0:0:
72,160,255017,1,0,0:0:0:0:
120,160,255074,1,0,0:0:0:0:
168,160,255132,1,0,0:0:0:0:
328,160,255190,5,2,0:0:0:0:
96,216,256113,5,10,0:0:0:0:
136,216,256170,1,0,0:0:0:0:
176,216,256228,1,0,0:0:0:0:
216,216,256286,1,0,0:0:0:0:
144,192,256344,1,0,0:0:0:0:
88,160,256401,1,0,0:0:0:0:
64,112,256459,1,0,0:0:0:0:
88,160,256517,1,0,0:0:0:0:
160,176,256574,1,2,0:0:0:0:
376,224,257036,5,2,0:0:0:0:
336,224,257093,1,0,0:0:0:0:
296,224,257151,1,0,0:0:0:0:
256,224,257209,1,0,0:0:0:0:
328,200,257267,1,0,0:0:0:0:
384,168,257324,1,0,0:0:0:0:
408,120,257382,1,0,0:0:0:0:
384,168,257440,1,0,0:0:0:0:
312,184,257497,1,2,0:0:0:0:
64,344,257959,6,0,P|64:288|304:48,1,420,6|2,0:0|0:0,0:0:0:0:
248,48,258478,1,0,0:0:0:0:
200,48,258536,1,0,0:0:0:0:
152,48,258594,1,0,0:0:0:0:
136,48,258651,1,0,0:0:0:0:
152,48,258709,1,0,0:0:0:0:
200,48,258767,1,0,0:0:0:0:
248,48,258824,1,0,0:0:0:0:
408,336,258882,6,0,L|400:120,1,210,6|0,0:0|0:0,0:0:0:0:
232,184,259344,1,2,0:0:0:0:
160,184,259460,1,0,0:0:0:0:
88,184,259575,1,0,0:0:0:0:
400,256,259805,5,10,0:0:0:0:
408,248,259863,1,0,0:0:0:0:
416,240,259920,1,0,0:0:0:0:
424,232,259978,1,0,0:0:0:0:
352,216,260036,1,0,0:0:0:0:
312,216,260093,1,0,0:0:0:0:
272,216,260151,1,0,0:0:0:0:
232,216,260209,1,0,0:0:0:0:
304,192,260267,1,2,0:0:0:0:
416,192,260421,1,0,0:0:0:0:
296,184,260575,1,0,0:0:0:0:
80,280,260728,6,0,L|72:64,1,210,6|0,0:0|0:0,0:0:0:0:
368,144,261189,1,6,0:0:0:0:
80,152,261420,1,0,0:0:0:0:
400,288,261651,6,0,P|440:248|248:56,1,420,6|2,0:0|0:0,0:0:0:0:
208,48,262170,1,0,0:0:0:0:
184,48,262228,1,0,0:0:0:0:
208,48,262286,1,0,0:0:0:0:
256,48,262344,1,0,0:0:0:0:
304,48,262401,1,0,0:0:0:0:
320,48,262459,1,0,0:0:0:0:
304,48,262517,1,0,0:0:0:0:
144,176,262574,5,2,0:0:0:0:
400,224,263497,5,10,0:0:0:0:
448,224,263555,1,0,0:0:0:0:
400,224,263613,1,0,0:0:0:0:
352,224,263670,1,0,0:0:0:0:
280,200,263728,1,0,0:0:0:0:
232,200,263786,1,0,0:0:0:0:
280,200,263844,1,0,0:0:0:0:
328,200,263901,1,0,0:0:0:0:
400,176,263959,1,2,0:0:0:0:
184,224,264420,5,2,0:0:0:0:
144,224,264477,1,0,0:0:0:0:
104,224,264535,1,0,0:0:0:0:
64,224,264593,1,0,0:0:0:0:
136,208,264650,1,0,0:0:0:0:
176,208,264709,1,0,0:0:0:0:
216,208,264767,1,0,0:0:0:0:
256,208,264824,1,0,0:0:0:0:
96,176,264882,1,10,0:0:0:0:
312,168,265035,1,8,0:0:0:0:
88,168,265189,1,8,0:0:0:0:
368,384,265344,6,0,P|416:336|416:8,1,420,10|8,0:0|0:0,0:0:0:0:
200,216,265960,1,8,0:0:0:0:
464,320,266267,6,0,L|160:16,1,420,10|8,0:0|0:0,0:0:0:0:
384,240,266883,1,8,0:0:0:0:
120,272,267190,5,10,0:0:0:0:
112,264,267247,1,8,0:0:0:0:
272,240,267305,1,8,0:0:0:0:
288,240,267363,1,8,0:0:0:0:
104,256,267420,1,8,0:0:0:0:
80,256,267478,1,8,0:0:0:0:
296,232,267536,1,8,0:0:0:0:
328,232,267594,1,8,0:0:0:0:
96,248,267651,5,10,0:0:0:0:
56,248,267709,1,8,0:0:0:0:
296,152,267767,1,8,0:0:0:0:
344,152,267824,1,8,0:0:0:0:
88,240,267882,1,8,0:0:0:0:
32,240,267940,1,8,0:0:0:0:
320,152,267997,1,8,0:0:0:0:
384,152,268055,1,8,0:0:0:0:
168,224,268113,5,10,0:0:0:0:
408,384,269036,6,0,B|416:168|416:168|424:384,1,420,6|2,0:0|0:0,0:0:0:0:
376,368,269555,1,0,0:0:0:0:
328,368,269613,1,0,0:0:0:0:
280,368,269670,1,0,0:0:0:0:
232,368,269728,1,0,0:0:0:0:
184,368,269786,1,0,0:0:0:0:
168,368,269844,1,0,0:0:0:0:
184,368,269901,1,0,0:0:0:0:
368,272,269959,5,2,0:0:0:0:
96,208,270882,5,10,0:0:0:0:
232,208,270940,1,0,0:0:0:0:
360,184,270997,1,0,0:0:0:0:
408,184,271054,1,0,0:0:0:0:
424,184,271112,1,0,0:0:0:0:
408,184,271170,1,0,0:0:0:0:
360,184,271227,1,0,0:0:0:0:
312,184,271285,1,0,0:0:0:0:
264,184,271343,1,0,0:0:0:0:
112,176,271805,5,2,0:0:0:0:
152,176,271862,1,0,0:0:0:0:
192,176,271920,1,0,0:0:0:0:
232,176,271978,1,0,0:0:0:0:
160,160,272035,1,0,0:0:0:0:
120,160,272094,1,0,0:0:0:0:
80,160,272150,1,0,0:0:0:0:
40,160,272208,1,0,0:0:0:0:
112,128,272266,1,2,0:0:0:0:
264,328,272728,6,0,P|304:288|112:96,1,420,6|2,0:0|0:0,0:0:0:0:
112,96,273247,1,0,0:0:0:0:
128,96,273305,1,0,0:0:0:0:
176,96,273363,1,0,0:0:0:0:
224,96,273420,1,0,0:0:0:0:
272,96,273478,1,0,0:0:0:0:
288,96,273536,1,0,0:0:0:0:
272,96,273594,1,0,0:0:0:0:
88,168,273651,1,2,0:0:0:0:
384,152,274574,5,10,0:0:0:0:
248,152,274632,1,0,0:0:0:0:
112,152,274690,1,0,0:0:0:0:
96,144,274747,1,0,0:0:0:0:
112,152,274805,1,0,0:0:0:0:
144,152,274863,1,0,0:0:0:0:
184,152,274920,1,0,0:0:0:0:
232,152,274978,1,0,0:0:0:0:
304,144,275036,1,2,0:0:0:0:
192,144,275190,1,0,0:0:0:0:
312,136,275344,1,0,0:0:0:0:
96,176,275497,5,6,0:0:0:0:
288,176,275728,1,0,0:0:0:0:
88,168,275959,1,6,0:0:0:0:
408,144,276190,1,0,0:0:0:0:
80,312,276420,6,0,P|72:208|288:0,1,420,6|2,0:0|0:0,0:0:0:0:
296,32,276940,1,0,0:0:0:0:
280,32,276997,1,0,0:0:0:0:
232,32,277055,1,0,0:0:0:0:
184,32,277113,1,0,0:0:0:0:
168,32,277170,1,0,0:0:0:0:
184,32,277228,1,0,0:0:0:0:
232,32,277286,1,0,0:0:0:0:
392,80,277344,5,2,0:0:0:0:
128,232,278267,5,10,0:0:0:0:
272,232,278324,1,0,0:0:0:0:
416,232,278382,1,0,0:0:0:0:
464,208,278440,1,0,0:0:0:0:
480,176,278497,1,0,0:0:0:0:
464,208,278555,1,0,0:0:0:0:
416,232,278613,1,0,0:0:0:0:
368,224,278670,2,0,L|304:224,1,52.5,0|2,0:0|0:0,0:0:0:0:
152,216,279190,5,2,0:0:0:0:
192,216,279247,1,0,0:0:0:0:
232,216,279305,1,0,0:0:0:0:
272,216,279363,1,0,0:0:0:0:
200,208,279420,1,0,0:0:0:0:
144,176,279477,1,0,0:0:0:0:
120,128,279535,1,0,0:0:0:0:
144,176,279593,1,0,0:0:0:0:
216,152,279651,1,2,0:0:0:0:
384,288,280113,6,0,P|328:288|328:24,1,420,6|2,0:0|0:0,0:0:0:0:
344,40,280632,1,0,0:0:0:0:
328,48,280690,1,0,0:0:0:0:
288,56,280747,1,0,0:0:0:0:
240,56,280805,1,0,0:0:0:0:
184,56,280863,1,0,0:0:0:0:
120,56,280920,1,0,0:0:0:0:
184,56,280978,1,0,0:0:0:0:
248,56,281036,1,2,0:0:0:0:
400,160,281497,5,10,0:0:0:0:
248,160,281574,1,8,0:0:0:0:
96,176,281651,2,0,L|176:176,1,70
320,112,281805,2,0,L|240:112,1,70
424,176,281959,5,2,0:0:0:0:
144,360,284244,6,0,P|144:304|320:128,1,315,14|0,0:0|0:0,0:0:0:0:
464,120,285006,5,0,0:0:0:0:
312,96,285197,1,0,0:0:0:0:
464,104,285387,1,2,0:0:0:0:
144,184,285959,1,2,0:0:0:0:
464,120,286530,5,14,0:0:0:0:
312,96,286721,1,0,0:0:0:0:
464,104,286911,1,0,0:0:0:0:
312,96,287101,1,2,0:0:0:0:
32,208,287673,6,0,P|88:208|232:64,2,272.999987503052,2|2|2,0:0|0:0|0:0,0:0:0:0:
480,320,288816,6,0,P|480:264|312:96,1,294,14|0,0:0|0:0,0:0:0:0:
264,88,289425,1,0,0:0:0:0:
200,88,289501,1,0,0:0:0:0:
264,88,289578,1,0,0:0:0:0:
328,88,289654,1,0,0:0:0:0:
264,88,289730,1,0,0:0:0:0:
328,88,289806,1,0,0:0:0:0:
392,88,289882,1,0,0:0:0:0:
144,320,289959,6,0,B|40:328|40:328|32:112,1,315,2|0,0:0|0:0,0:0:0:0:
352,208,291101,6,0,P|296:208|152:64,2,272.999987503052,10|2|2,0:0|0:0|0:0,0:0:0:0:
176,176,292244,5,2,0:0:0:0:
104,176,292308,2,0,L|96:136,1,35
168,128,292435,1,0,0:0:0:0:
216,112,292498,1,0,0:0:0:0:
224,88,292583,1,0,0:0:0:0:
152,112,292667,1,0,0:0:0:0:
80,128,292752,1,0,0:0:0:0:
240,128,292816,5,2,0:0:0:0:
296,144,292880,1,0,0:0:0:0:
360,144,292943,1,0,0:0:0:0:
296,144,293006,2,0,L|256:104,2,42
368,128,293235,1,0,0:0:0:0:
448,128,293311,1,0,0:0:0:0:
200,328,293387,6,0,B|96:328|96:328|208:320|208:176,1,315,14|0,0:0|0:0,0:0:0:0:
56,120,294149,1,0,0:0:0:0:
208,96,294340,1,0,0:0:0:0:
56,104,294530,1,2,0:0:0:0:
376,184,295102,1,2,0:0:0:0:
56,120,295673,5,14,0:0:0:0:
208,96,295864,1,0,0:0:0:0:
56,104,296054,1,0,0:0:0:0:
208,96,296244,1,2,0:0:0:0:
488,208,296816,6,0,P|432:208|288:64,2,272.999987503052,2|2|2,0:0|0:0|0:0,0:0:0:0:
40,320,297959,6,0,P|40:264|216:88,1,315,6|0,0:0|0:0,0:0:0:0:
416,296,299101,2,0,L|192:72,1,315,6|0,0:0|0:0,0:0:0:0:
400,168,300244,5,14,0:0:0:0:
248,168,300435,2,0,L|240:64,1,105
88,168,300816,1,2,0:0:0:0:
240,168,301007,2,0,L|232:64,1,105
488,208,301387,6,0,L|480:152,1,52.5,6|0,0:0|0:0,0:0:0:0:
384,160,301578,2,0,L|392:104,1,52.5
232,192,301768,2,0,L|240:136,1,52.5,6|0,0:0|0:0,0:0:0:0:
336,144,301959,2,0,L|328:88,1,52.5
168,184,302149,2,0,L|160:128,1,52.5,6|0,0:0|0:0,0:0:0:0:
64,136,302340,2,0,L|72:80,1,52.5
288,152,302530,5,6,0:0:0:0:
256,192,306222,12,0,308760,0:0:0:0:
304,136,308991,5,10,0:0:0:0:
96,128,309106,1,8,0:0:0:0:
304,136,309222,2,0,L|360:136,1,52.5,10|8,0:0|0:0,0:0:0:0:
144,128,309337,2,0,L|88:128,1,52.5,8|8,0:0|0:0,0:0:0:0:
304,136,309453,1,2,0:0:0:0:
368,136,309568,1,0,0:0:0:0:
304,136,309683,1,0,0:0:0:0:
184,136,309799,1,0,0:0:0:0:
432,384,309914,6,0,P|440:328|112:-80,2,630,6|2|2,0:0|0:0|0:0,0:0:0:0:
168,368,311760,6,0,P|168:312|408:72,1,420,10|0,0:0|0:0,0:0:0:0:
136,384,312683,2,0,B|128:168|128:168|120:384,1,420,2|0,0:0|0:0,0:0:0:0:
384,344,313606,6,0,P|424:304|192:304,2,630,6|2|2,0:0|0:0|0:0,0:0:0:0:
120,320,315453,6,0,L|424:16,1,420,10|0,0:0|0:0,0:0:0:0:
152,200,316376,6,0,L|264:200,1,105,10|0,0:0|0:0,0:0:0:0:
136,192,316606,2,0,L|32:192,1,105,2|0,0:0|0:0,0:0:0:0:
152,176,316837,1,2,0:0:0:0:
160,168,316895,1,0,0:0:0:0:
168,160,316953,1,0,0:0:0:0:
48,144,317068,2,0,L|152:144,1,105,2|0,0:0|0:0,0:0:0:0:
392,368,317299,6,0,P|432:328|160:24,2,630,6|2|2,0:0|0:0|0:0,0:0:0:0:
128,336,319145,6,0,B|120:120|120:120|112:336,1,420,10|0,0:0|0:0,0:0:0:0:
376,336,320068,2,0,L|72:32,1,420,2|0,0:0|0:0,0:0:0:0:
344,384,320991,6,0,P|240:384|240:-8,2,630,6|2|2,0:0|0:0|0:0,0:0:0:0:
80,336,322837,6,0,L|72:280,1,52.5,10|8,0:0|0:0,0:0:0:0:
288,288,322953,2,0,L|352:288,1,52.5,8|8,0:0|0:0,0:0:0:0:
128,272,323068,5,2,0:0:0:0:
72,240,323125,1,0,0:0:0:0:
48,192,323183,1,0,0:0:0:0:
72,240,323241,1,0,0:0:0:0:
288,200,323299,6,0,L|344:200,1,52.5,2|0,0:0|0:0,0:0:0:0:
152,160,323414,2,0,L|208:160,1,52.5
400,176,323530,2,0,L|456:176,1,52.5,10|8,0:0|0:0,0:0:0:0:
288,136,323645,1,8,0:0:0:0:
120,136,323703,1,8,0:0:0:0:
328,232,323760,6,0,L|392:232,1,52.5,2|0,0:0|0:0,0:0:0:0:
320,224,323875,1,0,0:0:0:0:
264,192,323932,1,0,0:0:0:0:
240,144,323990,1,0,0:0:0:0:
264,192,324048,1,0,0:0:0:0:
328,216,324106,2,0,L|408:216,1,52.5
160,136,324222,6,0,L|152:80,1,52.5,2|0,0:0|0:0,0:0:0:0:
368,144,324337,2,0,L|432:144,1,52.5
256,96,324453,1,10,0:0:0:0:
40,104,324568,1,8,0:0:0:0:
304,336,324683,6,0,P|360:336|200:176,2,630,6|2|2,0:0|0:0|0:0,0:0:0:0:
40,320,326530,6,0,B|48:104|48:104|56:320,1,420,10|0,0:0|0:0,0:0:0:0:
320,344,327453,2,0,P|320:288|80:48,1,420,2|0,0:0|0:0,0:0:0:0:
344,312,328376,6,0,P|336:104|328:312,2,630,6|2|2,0:0|0:0|0:0,0:0:0:0:
80,320,330222,6,0,L|384:16,1,420,10|0,0:0|0:0,0:0:0:0:
112,208,331145,6,0,L|224:208,1,105,10|0,0:0|0:0,0:0:0:0:
96,200,331376,2,0,L|200:200,1,105,2|0,0:0|0:0,0:0:0:0:
80,184,331606,2,0,L|72:128,2,52.5,2|0|0,0:0|0:0|0:0,0:0:0:0:
200,128,331837,2,0,L|96:128,1,105,2|0,0:0|0:0,0:0:0:0:
360,272,332068,6,0,L|464:272,1,105,6|0,0:0|0:0,0:0:0:0:
344,264,332299,2,0,L|456:264,1,105
232,248,332530,2,0,L|128:248,1,105,2|0,0:0|0:0,0:0:0:0:
248,240,332760,2,0,L|360:240,1,105
136,272,332991,6,0,L|128:168,1,105,2|0,0:0|0:0,0:0:0:0:
248,168,333222,2,0,L|128:168,1,105
264,160,333453,2,0,L|376:160,1,105
248,152,333683,2,0,L|352:152,1,105
136,304,333914,6,0,L|32:304,1,105,2|0,0:0|0:0,0:0:0:0:
152,296,334145,2,0,L|256:296,1,105
136,288,334376,2,0,L|240:288,1,105
120,272,334606,2,0,L|8:272,1,105
232,240,334837,6,0,L|336:240,1,105,2|0,0:0|0:0,0:0:0:0:
216,224,335067,2,0,L|104:224,1,105
328,176,335299,2,0,L|432:176,1,105,2|0,0:0|0:0,0:0:0:0:
216,128,335530,1,0,0:0:0:0:
432,136,335645,1,0,0:0:0:0:
192,304,335760,6,0,P|136:304|136:176,1,210,6|0,0:0|0:0,0:0:0:0:
336,272,336222,2,0,L|176:112,1,210,2|0,0:0|0:0,0:0:0:0:
304,128,336568,1,0,0:0:0:0:
184,192,336683,2,0,L|176:296,1,105,2|0,0:0|0:0,0:0:0:0:
296,240,336914,2,0,L|304:344,1,105,2|0,0:0|0:0,0:0:0:0:
424,216,337145,1,2,0:0:0:0:
96,184,337607,5,10,0:0:0:0:
312,208,337837,2,0,L|320:104,1,105
200,128,338068,2,0,L|304:128,1,105
184,120,338299,2,0,L|72:120,1,105
304,144,338530,6,0,L|384:144,1,52.5,14|8,0:0|0:0,0:0:0:0:
216,208,338645,1,8,0:0:0:0:
72,208,338703,1,8,0:0:0:0:
216,208,338760,2,0,L|288:208,1,52.5,2|0,0:0|0:0,0:0:0:0:
80,168,338876,2,0,L|72:112,1,52.5
256,256,338991,5,2,0:0:0:0:
312,224,339048,1,0,0:0:0:0:
336,176,339106,1,0,0:0:0:0:
312,224,339164,1,0,0:0:0:0:
248,248,339222,2,0,L|184:248,1,52.5
408,272,339337,2,0,L|472:272,1,52.5
160,224,339453,5,6,0:0:0:0:
256,192,343145,5,2,0:0:0:0:
256,192,344991,12,0,346376,0:0:0:0:
352,256,346837,5,6,0:0:0:0:
408,224,346894,1,0,0:0:0:0:
432,176,346952,1,0,0:0:0:0:
408,224,347010,1,0,0:0:0:0:
344,248,347068,2,0,L|288:248,1,52.5
360,224,347183,2,0,L|416:224,1,52.5
216,168,347299,6,0,L|160:168,1,52.5,2|0,0:0|0:0,0:0:0:0:
232,144,347414,2,0,L|288:144,1,52.5
88,152,347530,2,0,L|32:152,1,52.5,2|0,0:0|0:0,0:0:0:0:
104,144,347645,2,0,L|160:144,1,52.5
352,192,347760,5,10,0:0:0:0:
408,176,347818,1,0,0:0:0:0:
448,136,347876,1,0,0:0:0:0:
464,96,347933,1,0,0:0:0:0:
280,248,347991,1,2,0:0:0:0:
296,208,348049,1,0,0:0:0:0:
336,168,348107,1,0,0:0:0:0:
392,152,348164,1,0,0:0:0:0:
200,224,348222,5,2,0:0:0:0:
144,208,348280,1,0,0:0:0:0:
104,168,348338,1,0,0:0:0:0:
88,128,348395,1,0,0:0:0:0:
272,280,348453,1,2,0:0:0:0:
256,240,348511,1,0,0:0:0:0:
216,200,348569,1,0,0:0:0:0:
160,184,348626,1,0,0:0:0:0:
352,240,348683,5,6,0:0:0:0:
408,208,348740,1,0,0:0:0:0:
432,160,348798,1,0,0:0:0:0:
408,208,348856,1,0,0:0:0:0:
240,136,348914,2,0,L|232:80,1,52.5,2|0,0:0|0:0,0:0:0:0:
304,104,349030,2,0,L|312:48,1,52.5
144,112,349145,6,0,L|88:112,1,52.5,2|0,0:0|0:0,0:0:0:0:
24,112,349260,2,0,L|88:112,1,52.5
248,104,349376,2,0,L|304:104,1,52.5,2|0,0:0|0:0,0:0:0:0:
232,96,349491,2,0,L|168:96,1,52.5
344,208,349606,5,10,0:0:0:0:
400,192,349664,1,0,0:0:0:0:
440,152,349722,1,0,0:0:0:0:
456,112,349779,1,0,0:0:0:0:
272,216,349837,1,2,0:0:0:0:
216,200,349895,1,0,0:0:0:0:
176,160,349953,1,0,0:0:0:0:
160,120,350010,1,0,0:0:0:0:
328,128,350068,6,0,L|384:128,1,52.5,2|0,0:0|0:0,0:0:0:0:
312,120,350183,2,0,L|256:120,1,52.5
72,104,350299,2,0,L|144:104,1,52.5,2|0,0:0|0:0,0:0:0:0:
312,96,350414,2,0,L|384:96,1,52.5
176,264,350530,6,0,L|112:264,1,52.5,6|0,0:0|0:0,0:0:0:0:
184,256,350646,1,0,0:0:0:0:
232,232,350703,1,0,0:0:0:0:
248,192,350761,1,0,0:0:0:0:
232,232,350819,1,0,0:0:0:0:
184,256,350877,1,0,0:0:0:0:
128,256,350934,1,0,0:0:0:0:
312,160,350991,6,0,L|320:104,1,52.5,2|0,0:0|0:0,0:0:0:0:
256,120,351106,2,0,L|248:64,1,52.5
440,216,351222,2,0,L|448:160,3,52.5,2|0|0|0,0:0|0:0|0:0|0:0,0:0:0:0:
248,248,351453,5,10,0:0:0:0:
192,216,351510,1,0,0:0:0:0:
168,168,351568,1,0,0:0:0:0:
192,216,351626,1,0,0:0:0:0:
384,192,351683,2,0,L|448:192,1,52.5,2|0,0:0|0:0,0:0:0:0:
496,192,351799,2,0,L|440:192,1,52.5
256,160,351914,6,0,L|192:160,1,52.5,2|0,0:0|0:0,0:0:0:0:
272,152,352030,2,0,L|336:152,1,52.5
136,192,352145,2,0,L|72:192,1,52.5,2|0,0:0|0:0,0:0:0:0:
24,192,352261,2,0,L|80:192,1,52.5
264,248,352376,5,6,0:0:0:0:
248,208,352434,1,0,0:0:0:0:
208,168,352492,1,0,0:0:0:0:
152,152,352549,1,0,0:0:0:0:
336,224,352606,1,2,0:0:0:0:
392,208,352664,1,0,0:0:0:0:
432,168,352722,1,0,0:0:0:0:
448,128,352779,1,0,0:0:0:0:
264,128,352837,6,0,L|256:72,1,52.5,2|0,0:0|0:0,0:0:0:0:
320,88,352953,2,0,L|328:144,1,52.5
144,224,353068,1,2,0:0:0:0:
88,208,353126,1,0,0:0:0:0:
48,168,353184,1,0,0:0:0:0:
32,128,353241,1,0,0:0:0:0:
248,192,353299,6,0,L|328:192,1,70,10|0,0:0|0:0,0:0:0:0:
240,184,353453,1,0,0:0:0:0:
72,144,353530,2,0,L|144:144,1,70,2|0,0:0|0:0,0:0:0:0:
216,144,353683,1,0,0:0:0:0:
392,136,353760,6,0,L|320:136,1,70,2|0,0:0|0:0,0:0:0:0:
248,136,353914,1,0,0:0:0:0:
416,152,353991,2,0,L|504:152,1,70,2|0,0:0|0:0,0:0:0:0:
272,112,354145,1,0,0:0:0:0:
488,248,354222,6,0,L|496:192,1,52.5,6|0,0:0|0:0,0:0:0:0:
432,200,354337,2,0,L|376:200,1,52.5
312,192,354453,2,0,L|304:136,1,52.5
368,144,354568,2,0,L|424:144,1,52.5
232,184,354683,6,0,L|176:184,1,52.5,2|0,0:0|0:0,0:0:0:0:
112,184,354799,2,0,L|104:128,1,52.5
288,176,354914,2,0,L|344:176,1,52.5,2|0,0:0|0:0,0:0:0:0:
408,176,355030,2,0,L|416:120,1,52.5
224,256,355145,5,10,0:0:0:0:
240,216,355203,1,0,0:0:0:0:
280,176,355261,1,0,0:0:0:0:
336,160,355318,1,0,0:0:0:0:
144,232,355376,1,2,0:0:0:0:
88,216,355434,1,0,0:0:0:0:
48,176,355492,1,0,0:0:0:0:
32,136,355549,1,0,0:0:0:0:
216,288,355607,5,2,0:0:0:0:
200,248,355665,1,0,0:0:0:0:
160,208,355723,1,0,0:0:0:0:
104,192,355780,1,0,0:0:0:0:
288,256,355837,1,2,0:0:0:0:
344,240,355895,1,0,0:0:0:0:
384,200,355953,1,0,0:0:0:0:
400,160,356010,1,0,0:0:0:0:
208,144,356068,6,0,L|152:144,1,52.5,6|0,0:0|0:0,0:0:0:0:
96,144,356183,2,0,L|40:144,1,52.5
208,128,356299,2,0,L|216:72,1,52.5,2|0,0:0|0:0,0:0:0:0:
152,80,356414,2,0,L|144:24,1,52.5
312,176,356530,6,0,L|368:176,1,52.5,2|0,0:0|0:0,0:0:0:0:
424,176,356645,2,0,L|480:176,1,52.5
288,144,356760,2,0,L|280:88,1,52.5,2|0,0:0|0:0,0:0:0:0:
344,96,356875,2,0,L|352:40,1,52.5
160,256,356991,5,10,0:0:0:0:
104,224,357048,1,0,0:0:0:0:
80,176,357106,1,0,0:0:0:0:
104,224,357164,1,0,0:0:0:0:
296,176,357222,2,0,L|360:176,1,52.5,2|0,0:0|0:0,0:0:0:0:
280,168,357337,2,0,L|224:168,1,52.5
424,256,357453,6,0,L|432:200,3,52.5,2|0|0|0,0:0|0:0|0:0|0:0,0:0:0:0:
240,216,357683,2,0,L|184:216,1,52.5,2|0,0:0|0:0,0:0:0:0:
384,216,357799,2,0,L|448:216,1,52.5
216,152,357914,6,0,L|160:152,1,52.5,6|0,0:0|0:0,0:0:0:0:
232,144,358030,2,0,L|296:144,1,52.5
352,176,358145,1,0,0:0:0:0:
336,136,358203,1,0,0:0:0:0:
296,96,358261,1,0,0:0:0:0:
240,80,358318,1,0,0:0:0:0:
48,192,358376,6,0,L|40:136,1,52.5,2|0,0:0|0:0,0:0:0:0:
104,152,358491,2,0,L|184:152,1,52.5
304,192,358606,2,0,L|312:136,1,52.5,2|0,0:0|0:0,0:0:0:0:
248,152,358721,2,0,L|168:152,1,52.5
344,272,358837,5,10,0:0:0:0:
400,240,358895,1,0,0:0:0:0:
424,192,358953,1,0,0:0:0:0:
400,240,359010,1,0,0:0:0:0:
224,136,359068,2,0,L|168:136,1,52.5,2|0,0:0|0:0,0:0:0:0:
240,120,359183,2,0,L|312:120,1,52.5
112,264,359299,5,2,0:0:0:0:
56,232,359357,1,0,0:0:0:0:
32,184,359415,1,0,0:0:0:0:
56,232,359472,1,0,0:0:0:0:
232,128,359530,2,0,L|288:128,1,52.5,2|0,0:0|0:0,0:0:0:0:
216,112,359645,2,0,L|144:112,1,52.5
352,192,359760,5,6,0:0:0:0:
408,176,359818,1,0,0:0:0:0:
448,136,359876,1,0,0:0:0:0:
464,96,359933,1,0,0:0:0:0:
280,224,359991,2,0,L|272:168,1,52.5,2|0,0:0|0:0,0:0:0:0:
336,168,360106,2,0,L|344:112,1,52.5
152,200,360222,5,2,0:0:0:0:
96,184,360280,1,0,0:0:0:0:
56,144,360338,1,0,0:0:0:0:
40,104,360395,1,0,0:0:0:0:
256,208,360453,1,2,0:0:0:0:
240,168,360511,1,0,0:0:0:0:
200,128,360569,1,0,0:0:0:0:
144,112,360626,1,0,0:0:0:0:
352,264,360683,6,0,L|360:208,1,52.5,10|8,0:0|0:0,0:0:0:0:
224,208,360799,1,8,0:0:0:0:
88,208,360856,1,8,0:0:0:0:
224,208,360914,1,2,0:0:0:0:
280,192,360972,1,0,0:0:0:0:
320,152,361030,1,0,0:0:0:0:
336,112,361087,1,0,0:0:0:0:
144,136,361145,6,0,L|88:136,1,52.5,2|0,0:0|0:0,0:0:0:0:
304,120,361260,2,0,L|312:64,1,52.5
96,88,361376,2,0,L|160:88,1,52.5,2|0,0:0|0:0,0:0:0:0:
360,112,361491,2,0,L|416:112,1,52.5
176,312,361606,6,0,L|112:312,1,52.5,6|0,0:0|0:0,0:0:0:0:
64,312,361722,2,0,L|56:256,1,52.5
112,248,361837,2,0,L|120:192,1,52.5
176,192,361953,2,0,L|232:192,1,52.5
416,208,362068,5,2,0:0:0:0:
400,168,362126,1,0,0:0:0:0:
360,128,362184,1,0,0:0:0:0:
304,112,362241,1,0,0:0:0:0:
119,196,362299,1,2,0:0:0:0:
135,156,362357,1,0,0:0:0:0:
175,116,362415,1,0,0:0:0:0:
231,100,362472,1,0,0:0:0:0:
424,256,362530,6,0,L|480:256,1,52.5,10|0,0:0|0:0,0:0:0:0:
408,248,362645,2,0,L|352:248,1,52.5
192,248,362760,2,0,L|264:248,1,52.5,2|0,0:0|0:0,0:0:0:0:
304,248,362876,2,0,L|248:248,1,52.5
88,240,362991,6,0,L|32:240,1,52.5,2|0,0:0|0:0,0:0:0:0:
96,232,363106,2,0,L|152:232,1,52.5
312,224,363222,2,0,L|240:224,1,52.5,2|0,0:0|0:0,0:0:0:0:
200,224,363338,2,0,L|256:224,1,52.5
440,232,363453,5,6,0:0:0:0:
424,192,363511,1,0,0:0:0:0:
384,152,363569,1,0,0:0:0:0:
328,136,363626,1,0,0:0:0:0:
144,224,363683,1,2,0:0:0:0:
88,208,363741,1,0,0:0:0:0:
48,168,363799,1,0,0:0:0:0:
32,128,363856,1,0,0:0:0:0:
224,280,363914,5,2,0:0:0:0:
208,240,363972,1,0,0:0:0:0:
168,200,364030,1,0,0:0:0:0:
112,184,364087,1,0,0:0:0:0:
304,256,364145,1,2,0:0:0:0:
360,240,364203,1,0,0:0:0:0:
400,200,364261,1,0,0:0:0:0:
416,160,364318,1,0,0:0:0:0:
224,152,364376,6,0,L|168:152,1,52.5,10|0,0:0|0:0,0:0:0:0:
240,144,364491,2,0,L|304:144,1,52.5
104,256,364606,1,2,0:0:0:0:
48,224,364663,1,0,0:0:0:0:
24,176,364721,1,0,0:0:0:0:
48,224,364779,1,0,0:0:0:0:
240,224,364837,6,0,L|296:224,1,52.5,2|0,0:0|0:0,0:0:0:0:
224,216,364952,2,0,L|160:216,1,52.5
392,160,365068,2,0,L|400:104,1,52.5,2|0,0:0|0:0,0:0:0:0:
184,144,365183,2,0,L|120:144,1,52.5
352,272,365299,5,6,0:0:0:0:
408,256,365357,1,0,0:0:0:0:
448,216,365415,1,0,0:0:0:0:
464,176,365472,1,0,0:0:0:0:
392,184,365530,2,0,L|336:184,1,52.5
408,176,365645,2,0,L|344:176,1,52.5
176,256,365760,6,0,L|168:200,1,52.5,2|0,0:0|0:0,0:0:0:0:
232,208,365876,2,0,L|240:152,1,52.5
56,248,365991,1,2,0:0:0:0:
72,208,366049,1,0,0:0:0:0:
112,168,366107,1,0,0:0:0:0:
168,152,366164,1,0,0:0:0:0:
352,176,366222,6,0,L|408:176,1,52.5,10|0,0:0|0:0,0:0:0:0:
472,176,366337,2,0,L|408:176,1,52.5
248,144,366453,2,0,L|192:144,1,52.5,2|0,0:0|0:0,0:0:0:0:
264,136,366568,2,0,L|328:136,1,52.5
152,192,366683,6,0,L|96:192,1,52.5,2|0,0:0|0:0,0:0:0:0:
32,192,366798,2,0,L|96:192,1,52.5
256,160,366914,2,0,L|312:160,1,52.5,2|0,0:0|0:0,0:0:0:0:
240,152,367029,2,0,L|176:152,1,52.5
376,272,367145,5,6,0:0:0:0:
432,240,367203,1,0,0:0:0:0:
456,192,367261,1,0,0:0:0:0:
432,240,367318,1,0,0:0:0:0:
248,136,367376,2,0,L|192:136,1,52.5,2|0,0:0|0:0,0:0:0:0:
264,120,367491,2,0,L|336:120,1,52.5
128,272,367606,5,2,0:0:0:0:
120,264,367664,1,0,0:0:0:0:
112,256,367722,1,0,0:0:0:0:
104,248,367780,1,0,0:0:0:0:
288,224,367837,2,0,L|344:224,1,52.5,2|0,0:0|0:0,0:0:0:0:
152,200,367953,2,0,L|208:200,1,52.5
416,184,368068,5,2,0:0:0:0:
224,328,368991,6,0,P|232:56|240:328,1,840,6|10,0:0|0:0,0:0:0:0:
64,232,370837,5,2,0:0:0:0:
56,224,371068,1,0,0:0:0:0:
280,224,371760,5,2,0:0:0:0:
96,224,371991,1,0,0:0:0:0:
280,224,372222,2,0,L|176:224,1,105,2|0,0:0|0:0,0:0:0:0:
296,216,372453,2,0,L|408:216,1,105,2|0,0:0|0:0,0:0:0:0:
160,328,372683,6,0,P|120:288|416:288,1,840,6|10,0:0|0:0,0:0:0:0:
240,272,374068,5,2,0:0:0:0:
424,272,374299,1,0,0:0:0:0:
104,232,374530,6,0,L|32:232,1,52.5,6|0,0:0|0:0,0:0:0:0:
120,224,374645,2,0,L|192:224,1,52.5
104,216,374760,2,0,L|40:216,1,52.5
272,208,374876,6,0,L|344:208,1,52.5,2|0,0:0|0:0,0:0:0:0:
256,200,374991,2,0,L|184:200,1,52.5
272,192,375106,2,0,L|336:192,1,52.5
104,232,375222,6,0,L|32:232,1,52.5,2|0,0:0|0:0,0:0:0:0:
264,240,375337,2,0,L|336:240,1,52.5
96,152,375453,6,0,L|24:152,1,70,2|0,0:0|0:0,0:0:0:0:
104,144,375606,1,0,0:0:0:0:
272,144,375683,2,0,L|200:144,1,70
128,144,375836,1,0,0:0:0:0:
288,224,375914,6,0,L|360:224,1,70,2|0,0:0|0:0,0:0:0:0:
432,224,376067,1,0,0:0:0:0:
264,160,376145,2,0,L|184:160,1,70,2|0,0:0|0:0,0:0:0:0:
392,152,376299,1,0,0:0:0:0:
200,384,376376,6,0,P|144:384|144:120,1,420,6|0,0:0|0:0,0:0:0:0:
376,368,377299,2,0,L|72:64,1,420,10|0,0:0|0:0,0:0:0:0:
312,208,378222,5,2,0:0:0:0:
320,200,378453,1,0,0:0:0:0:
96,208,379145,5,2,0:0:0:0:
280,208,379376,1,0,0:0:0:0:
96,208,379606,2,0,L|200:208,1,105,2|0,0:0|0:0,0:0:0:0:
320,152,379837,2,0,L|208:152,1,105,2|0,0:0|0:0,0:0:0:0:
456,384,380068,6,0,B|464:168|464:168|472:384,1,420,6|0,0:0|0:0,0:0:0:0:
240,360,380991,2,0,P|200:320|392:128,1,420,10|0,0:0|0:0,0:0:0:0:
192,112,381683,1,0,0:0:0:0:
480,264,381914,6,0,L|488:208,1,52.5,6|0,0:0|0:0,0:0:0:0:
296,200,382030,2,0,L|240:200,1,52.5
56,256,382145,1,0,0:0:0:0:
72,216,382203,1,0,0:0:0:0:
112,176,382261,1,0,0:0:0:0:
168,160,382318,1,0,0:0:0:0:
352,248,382376,5,2,0:0:0:0:
336,208,382434,1,0,0:0:0:0:
296,168,382492,1,0,0:0:0:0:
240,152,382549,1,0,0:0:0:0:
424,144,382606,2,0,L|480:144,1,52.5,2|0,0:0|0:0,0:0:0:0:
288,128,382722,2,0,L|232:128,1,52.5
424,216,382837,6,0,L|496:216,1,70,2|0,0:0|0:0,0:0:0:0:
416,208,382990,1,0,0:0:0:0:
240,208,383068,1,0,0:0:0:0:
320,208,383145,2,0,L|328:136,1,70
152,200,383299,5,2,0:0:0:0:
72,200,383376,2,0,L|64:128,1,70
240,160,383530,2,0,L|336:160,1,70,2|0,0:0|0:0,0:0:0:0:
96,120,383683,1,0,0:0:0:0:
312,224,383760,5,6,0:0:0:0:
256,192,383876,12,0,387453,0:0:0:0:
256,192,398530,5,2,0:0:0:0:
256,192,400376,12,0,402222,0:0:0:0:
