osu file format v14

[General]
AudioFilename: audio.mp3
AudioLeadIn: 0
PreviewTime: 95177
Countdown: 0
SampleSet: Soft
StackLeniency: 0.7
Mode: 3
LetterboxInBreaks: 0
SpecialStyle: 0
WidescreenStoryboard: 0

[Editor]
Bookmarks: 13152,28786,54138,67659
DistanceSpacing: 3.3
BeatDivisor: 16
GridSize: 8
TimelineZoom: 3.199999

[Metadata]
Title:Bizarre
TitleUnicode:Bizarre
Artist:Lorenzo ft. Vald
ArtistUnicode:Lorenzo ft. Vald
Creator:Combistein
Version:MAP CONSCIENT
Source:
Tags:mamèn bizarre
BeatmapID:1719121
BeatmapSetID:820015

[Difficulty]
HPDrainRate:8
CircleSize:4
OverallDifficulty:8
ApproachRate:5
SliderMultiplier:1.4
SliderTickRate:1

[Events]
//Background and Video events
0,0,"lorenzo-vald-bizarre.png",0,0
//Break Periods
2,23915,107023
//Storyboard Layer 0 (Background)
//Storyboard Layer 1 (Fail)
//Storyboard Layer 2 (Pass)
//Storyboard Layer 3 (Foreground)
//Storyboard Sound Samples

[TimingPoints]
54,422.535211267606,4,2,0,10,1,0
135476,-66.6666666666667,4,2,0,10,0,0
135582,-133.333333333333,4,2,0,10,0,0
135687,-100,4,2,0,10,0,0
136814,-133.333333333333,4,2,0,10,0,0
136955,-66.6666666666667,4,2,0,10,0,0
137096,-133.333333333333,4,2,0,10,0,0
137237,-83.3333333333333,4,2,0,10,0,0
137377,-100,4,2,0,10,0,0
138504,-133.333333333333,4,2,0,10,0,0
138645,-66.6666666666667,4,2,0,10,0,0
138786,-133.333333333333,4,2,0,10,0,0
138927,-83.3333333333333,4,2,0,10,0,0
139068,-100,4,2,0,10,0,0
140194,-133.333333333333,4,2,0,10,0,0
140335,-66.6666666666667,4,2,0,10,0,0
140476,-133.333333333333,4,2,0,10,0,0
140617,-83.3333333333333,4,2,0,10,0,0
140758,-100,4,2,0,10,0,0
141884,-133.333333333333,4,2,0,10,0,0
142025,-66.6666666666667,4,2,0,10,0,0
142166,-133.333333333333,4,2,0,10,0,0
142307,-83.3333333333333,4,2,0,10,0,0
142448,-100,4,2,0,10,0,0
143575,-133.333333333333,4,2,0,10,0,0
143715,-66.6666666666667,4,2,0,10,0,0
143856,-133.333333333333,4,2,0,10,0,0
143997,-83.3333333333333,4,2,0,10,0,0
144138,-100,4,2,0,10,0,0
145265,-133.333333333333,4,2,0,10,0,0
145406,-66.6666666666667,4,2,0,10,0,0
145546,-133.333333333333,4,2,0,10,0,0
145687,-83.3333333333333,4,2,0,10,0,0
145828,-100,4,2,0,10,0,0
145863,-66.6666666666667,4,2,0,10,0,0
145899,-133.333333333333,4,2,0,10,0,0
145934,-100,4,2,0,10,0,0
146004,-66.6666666666667,4,2,0,10,0,0
146039,-133.333333333333,4,2,0,10,0,0
146075,-100,4,2,0,10,0,0
146145,-66.6666666666667,4,2,0,10,0,0
146180,-133.333333333333,4,2,0,10,0,0
146215,-100,4,2,0,10,0,0
146286,-66.6666666666667,4,2,0,10,0,0
146321,-133.333333333333,4,2,0,10,0,0
146356,-100,4,2,0,10,0,0
146427,-66.6666666666667,4,2,0,10,0,0
146462,-133.333333333333,4,2,0,10,0,0
146497,-100,4,2,0,10,0,0
146568,-66.6666666666667,4,2,0,10,0,0
146603,-133.333333333333,4,2,0,10,0,0
146638,-100,4,2,0,10,0,0
146708,-66.6666666666667,4,2,0,10,0,0
146744,-133.333333333333,4,2,0,10,0,0
146779,-100,4,2,0,10,0,0
146955,-133.333333333333,4,2,0,10,0,0
147096,-66.6666666666667,4,2,0,10,0,0
147237,-133.333333333333,4,2,0,10,0,0
147377,-83.3333333333333,4,2,0,10,0,0
147554,-66.6666666666667,4,2,0,10,0,0
147589,-133.333333333333,4,2,0,10,0,0
147624,-100,4,2,0,10,0,0
147694,-66.6666666666667,4,2,0,10,0,0
147730,-133.333333333333,4,2,0,10,0,0
147765,-100,4,2,0,10,0,0
147835,-66.6666666666667,4,2,0,10,0,0
147870,-133.333333333333,4,2,0,10,0,0
147906,-100,4,2,0,10,0,0
147976,-66.6666666666667,4,2,0,10,0,0
148011,-133.333333333333,4,2,0,10,0,0
148046,-100,4,2,0,10,0,0
148117,-66.6666666666667,4,2,0,10,0,0
148152,-133.333333333333,4,2,0,10,0,0
148187,-100,4,2,0,10,0,0
148258,-66.6666666666667,4,2,0,10,0,0
148293,-133.333333333333,4,2,0,10,0,0
148328,-100,4,2,0,10,0,0
148399,-66.6666666666667,4,2,0,10,0,0
148434,-133.333333333333,4,2,0,10,0,0
148469,-100,4,2,0,10,0,0
159666,-1000,4,2,0,10,0,0
159983,-100,4,2,0,10,0,0

[HitObjects]
192,192,54,5,0,0:0:0:0:
320,192,265,1,0,0:0:0:0:
64,192,476,1,0,0:0:0:0:
448,192,687,1,0,0:0:0:0:
320,192,899,1,0,0:0:0:0:
320,192,1110,1,0,0:0:0:0:
448,192,1321,1,0,0:0:0:0:
192,192,1532,1,0,0:0:0:0:
64,192,1744,1,0,0:0:0:0:
448,192,1955,1,0,0:0:0:0:
64,192,2166,1,0,0:0:0:0:
192,192,2377,1,0,0:0:0:0:
448,192,2589,1,0,0:0:0:0:
448,192,2800,1,0,0:0:0:0:
320,192,3011,1,0,0:0:0:0:
64,192,3223,1,0,0:0:0:0:
320,192,3434,1,0,0:0:0:0:
320,192,3645,1,0,0:0:0:0:
448,192,3856,1,0,0:0:0:0:
64,192,4068,1,0,0:0:0:0:
192,192,4279,1,0,0:0:0:0:
448,192,4490,1,0,0:0:0:0:
64,192,4701,1,0,0:0:0:0:
320,192,4913,1,0,0:0:0:0:
448,192,5124,1,0,0:0:0:0:
448,192,5335,1,0,0:0:0:0:
64,192,5546,1,0,0:0:0:0:
320,192,5758,1,0,0:0:0:0:
64,192,5969,1,0,0:0:0:0:
192,192,6180,1,0,0:0:0:0:
448,192,6392,1,0,0:0:0:0:
64,192,6603,1,0,0:0:0:0:
320,192,6814,128,0,6920:0:0:0:0:
192,192,6814,128,0,6920:0:0:0:0:
448,192,7025,128,0,7237:0:0:0:0:
64,192,7237,1,0,0:0:0:0:
448,192,7448,1,0,0:0:0:0:
192,192,7448,1,0,0:0:0:0:
320,192,7659,1,0,0:0:0:0:
64,192,7870,1,0,0:0:0:0:
448,192,8082,1,0,0:0:0:0:
320,192,8293,1,0,0:0:0:0:
64,192,8293,1,0,0:0:0:0:
192,192,8504,1,0,0:0:0:0:
448,192,8715,128,0,8927:0:0:0:0:
64,192,8927,1,0,0:0:0:0:
320,192,9138,1,0,0:0:0:0:
320,192,9349,1,0,0:0:0:0:
64,192,9561,1,0,0:0:0:0:
192,192,9772,1,0,0:0:0:0:
192,192,9983,1,0,0:0:0:0:
320,192,10194,128,0,10300:0:0:0:0:
448,192,10194,128,0,10300:0:0:0:0:
64,192,10406,128,0,10617:0:0:0:0:
192,192,10617,1,0,0:0:0:0:
448,192,10828,1,0,0:0:0:0:
64,192,11039,1,0,0:0:0:0:
320,192,11251,1,0,0:0:0:0:
320,192,11462,1,0,0:0:0:0:
192,192,11673,1,0,0:0:0:0:
448,192,11884,128,0,12730:0:0:0:0:
64,192,11884,128,0,12730:0:0:0:0:
192,192,13293,1,0,0:0:0:0:
64,192,13293,1,0,0:0:0:0:
320,192,13434,1,0,0:0:0:0:
448,192,13575,1,0,0:0:0:0:
64,192,13575,1,0,0:0:0:0:
192,192,13680,1,0,0:0:0:0:
320,192,13786,1,0,0:0:0:0:
448,192,13786,1,0,0:0:0:0:
64,192,13997,1,0,0:0:0:0:
192,192,13997,1,0,0:0:0:0:
320,192,14138,1,0,0:0:0:0:
64,192,14279,1,0,0:0:0:0:
448,192,14349,128,0,14420:0:0:0:0:
192,192,14420,1,0,0:0:0:0:
320,192,14420,1,0,0:0:0:0:
64,192,14561,1,0,0:0:0:0:
192,192,14701,128,0,14842:0:0:0:0:
320,192,14842,1,0,0:0:0:0:
448,192,14842,1,0,0:0:0:0:
64,192,14842,1,0,0:0:0:0:
64,192,15159,1,0,0:0:0:0:
192,192,15265,1,0,0:0:0:0:
320,192,15265,1,0,0:0:0:0:
448,192,15406,1,0,0:0:0:0:
64,192,15511,1,0,0:0:0:0:
192,192,15511,128,0,15687:0:0:0:0:
320,192,15687,1,0,0:0:0:0:
448,192,15687,1,0,0:0:0:0:
64,192,15828,1,0,0:0:0:0:
320,192,15969,1,0,0:0:0:0:
64,192,16110,1,0,0:0:0:0:
192,192,16110,1,0,0:0:0:0:
448,192,16215,1,0,0:0:0:0:
192,192,16356,1,0,0:0:0:0:
320,192,16356,128,0,16532:0:0:0:0:
448,192,16532,128,0,16779:0:0:0:0:
64,192,16779,128,0,16955:0:0:0:0:
448,192,16955,1,0,0:0:0:0:
320,192,16955,1,0,0:0:0:0:
192,192,17087,128,0,17193:0:0:0:0:
320,192,17193,1,0,0:0:0:0:
64,192,17193,1,0,0:0:0:0:
448,192,17325,1,0,0:0:0:0:
320,192,17509,1,0,0:0:0:0:
192,192,17615,1,0,0:0:0:0:
192,192,17800,1,0,0:0:0:0:
64,192,17800,1,0,0:0:0:0:
448,192,17932,1,0,0:0:0:0:
192,192,18038,1,0,0:0:0:0:
320,192,18038,1,0,0:0:0:0:
192,192,18196,1,0,0:0:0:0:
320,192,18355,1,0,0:0:0:0:
192,192,18487,128,0,18645:0:0:0:0:
448,192,18487,1,0,0:0:0:0:
320,192,18645,1,0,0:0:0:0:
64,192,18645,1,0,0:0:0:0:
448,192,18786,1,0,0:0:0:0:
192,192,18927,128,0,18997:0:0:0:0:
320,192,18997,128,0,19068:0:0:0:0:
448,192,19068,1,0,0:0:0:0:
64,192,19208,1,0,0:0:0:0:
320,192,19349,1,0,0:0:0:0:
64,192,19490,1,0,0:0:0:0:
192,192,19490,1,0,0:0:0:0:
448,192,19631,1,0,0:0:0:0:
320,192,19701,1,0,0:0:0:0:
192,192,19772,1,0,0:0:0:0:
320,192,19913,1,0,0:0:0:0:
448,192,19913,128,0,20335:0:0:0:0:
64,192,19913,1,0,0:0:0:0:
320,192,20335,1,0,0:0:0:0:
64,192,20335,1,0,0:0:0:0:
192,192,20652,1,0,0:0:0:0:
320,192,20758,128,0,20899:0:0:0:0:
448,192,20899,1,0,0:0:0:0:
320,192,21039,128,0,21180:0:0:0:0:
64,192,21180,1,0,0:0:0:0:
192,192,21180,1,0,0:0:0:0:
192,192,21286,128,0,21418:0:0:0:0:
320,192,21418,128,0,21550:0:0:0:0:
448,192,21550,1,0,0:0:0:0:
64,192,21682,1,0,0:0:0:0:
192,192,21814,1,0,0:0:0:0:
320,192,21814,128,0,21990:0:0:0:0:
448,192,21990,1,0,0:0:0:0:
192,192,21990,1,0,0:0:0:0:
64,192,21990,1,0,0:0:0:0:
320,192,22342,128,0,22474:0:0:0:0:
192,192,22474,128,0,22633:0:0:0:0:
64,192,22633,1,0,0:0:0:0:
320,192,22738,1,0,0:0:0:0:
64,192,22870,1,0,0:0:0:0:
192,192,22870,1,0,0:0:0:0:
320,192,23055,128,0,23187:0:0:0:0:
448,192,23055,1,0,0:0:0:0:
192,192,23187,1,0,0:0:0:0:
64,192,23319,1,0,0:0:0:0:
192,192,23425,1,0,0:0:0:0:
448,192,23539,128,0,23715:0:0:0:0:
320,192,23539,1,0,0:0:0:0:
192,192,23715,1,0,0:0:0:0:
64,192,23715,1,0,0:0:0:0:
192,192,108223,5,0,0:0:0:0:
64,192,108223,1,0,0:0:0:0:
320,192,108223,1,0,0:0:0:0:
448,192,108223,1,0,0:0:0:0:
64,192,108645,1,0,0:0:0:0:
320,192,108645,1,0,0:0:0:0:
448,192,108645,1,0,0:0:0:0:
192,192,108856,1,0,0:0:0:0:
448,192,109068,1,0,0:0:0:0:
192,192,109068,1,0,0:0:0:0:
448,192,109279,1,0,0:0:0:0:
192,192,109490,1,0,0:0:0:0:
320,192,109490,1,0,0:0:0:0:
64,192,109701,1,0,0:0:0:0:
320,192,109913,1,0,0:0:0:0:
192,192,109913,1,0,0:0:0:0:
320,192,110124,1,0,0:0:0:0:
64,192,110335,1,0,0:0:0:0:
448,192,110335,1,0,0:0:0:0:
192,192,110546,1,0,0:0:0:0:
320,192,110758,1,0,0:0:0:0:
448,192,110758,1,0,0:0:0:0:
64,192,110969,1,0,0:0:0:0:
448,192,111180,128,0,111392:0:0:0:0:
192,192,111180,1,0,0:0:0:0:
320,192,111392,128,0,111603:0:0:0:0:
64,192,111603,1,0,0:0:0:0:
192,192,111603,1,0,0:0:0:0:
448,192,111603,1,0,0:0:0:0:
192,192,111814,1,0,0:0:0:0:
64,192,111814,1,0,0:0:0:0:
64,192,112025,1,0,0:0:0:0:
320,192,112025,1,0,0:0:0:0:
448,192,112131,1,0,0:0:0:0:
192,192,112237,1,0,0:0:0:0:
320,192,112237,1,0,0:0:0:0:
64,192,112342,1,0,0:0:0:0:
192,192,112448,1,0,0:0:0:0:
320,192,112448,1,0,0:0:0:0:
448,192,112448,1,0,0:0:0:0:
320,192,112659,1,0,0:0:0:0:
64,192,112659,1,0,0:0:0:0:
448,192,112870,1,0,0:0:0:0:
192,192,112870,1,0,0:0:0:0:
320,192,113082,1,0,0:0:0:0:
64,192,113082,1,0,0:0:0:0:
448,192,113293,1,0,0:0:0:0:
64,192,113293,1,0,0:0:0:0:
192,192,113293,1,0,0:0:0:0:
192,192,113504,1,0,0:0:0:0:
320,192,113715,1,0,0:0:0:0:
448,192,113715,1,0,0:0:0:0:
192,192,113821,1,0,0:0:0:0:
64,192,113927,1,0,0:0:0:0:
192,192,114138,1,0,0:0:0:0:
320,192,114138,1,0,0:0:0:0:
448,192,114138,1,0,0:0:0:0:
64,192,114349,1,0,0:0:0:0:
192,192,114349,1,0,0:0:0:0:
448,192,114349,1,0,0:0:0:0:
320,192,114455,1,0,0:0:0:0:
448,192,114561,1,0,0:0:0:0:
192,192,114561,1,0,0:0:0:0:
64,192,114772,1,0,0:0:0:0:
192,192,114772,1,0,0:0:0:0:
320,192,114772,1,0,0:0:0:0:
192,192,114983,1,0,0:0:0:0:
448,192,114983,1,0,0:0:0:0:
320,192,115089,1,0,0:0:0:0:
64,192,115194,1,0,0:0:0:0:
192,192,115194,128,0,115406:0:0:0:0:
320,192,115406,128,0,115458:0:0:0:0:
448,192,115617,1,0,0:0:0:0:
192,192,115723,1,0,0:0:0:0:
64,192,115828,1,0,0:0:0:0:
448,192,115828,1,0,0:0:0:0:
320,192,115828,128,0,116039:0:0:0:0:
192,192,116039,128,0,116251:0:0:0:0:
64,192,116039,1,0,0:0:0:0:
448,192,116251,1,0,0:0:0:0:
320,192,116356,1,0,0:0:0:0:
64,192,116462,1,0,0:0:0:0:
192,192,116673,1,0,0:0:0:0:
448,192,116673,1,0,0:0:0:0:
320,192,116884,1,0,0:0:0:0:
192,192,116884,1,0,0:0:0:0:
320,192,117096,1,0,0:0:0:0:
448,192,117096,1,0,0:0:0:0:
64,192,117201,1,0,0:0:0:0:
192,192,117307,1,0,0:0:0:0:
64,192,117518,1,0,0:0:0:0:
192,192,117518,1,0,0:0:0:0:
448,192,117518,1,0,0:0:0:0:
64,192,117730,1,0,0:0:0:0:
448,192,117730,1,0,0:0:0:0:
320,192,117835,1,0,0:0:0:0:
192,192,117941,1,0,0:0:0:0:
320,192,118152,1,0,0:0:0:0:
448,192,118152,1,0,0:0:0:0:
64,192,118152,1,0,0:0:0:0:
192,192,118363,1,0,0:0:0:0:
320,192,118363,1,0,0:0:0:0:
64,192,118363,128,0,118575:0:0:0:0:
448,192,118469,1,0,0:0:0:0:
192,192,118575,1,0,0:0:0:0:
448,192,118786,128,0,119103:0:0:0:0:
320,192,118786,128,0,119103:0:0:0:0:
64,192,118786,128,0,119103:0:0:0:0:
64,192,119208,1,0,0:0:0:0:
192,192,119208,1,0,0:0:0:0:
320,192,119208,1,0,0:0:0:0:
192,192,119420,1,0,0:0:0:0:
448,192,119420,1,0,0:0:0:0:
320,192,119631,1,0,0:0:0:0:
64,192,119631,1,0,0:0:0:0:
448,192,119842,1,0,0:0:0:0:
448,192,120054,1,0,0:0:0:0:
192,192,120054,1,0,0:0:0:0:
192,192,120265,1,0,0:0:0:0:
64,192,120476,1,0,0:0:0:0:
320,192,120476,1,0,0:0:0:0:
320,192,120687,1,0,0:0:0:0:
64,192,120899,1,0,0:0:0:0:
448,192,120899,1,0,0:0:0:0:
192,192,121110,1,0,0:0:0:0:
320,192,121321,1,0,0:0:0:0:
448,192,121321,128,0,121532:0:0:0:0:
64,192,121532,128,0,121744:0:0:0:0:
192,192,121744,1,0,0:0:0:0:
320,192,121744,1,0,0:0:0:0:
448,192,121744,1,0,0:0:0:0:
192,192,122166,1,0,0:0:0:0:
320,192,122166,1,0,0:0:0:0:
64,192,122166,1,0,0:0:0:0:
448,192,122307,1,0,0:0:0:0:
64,192,122448,1,0,0:0:0:0:
192,192,122589,1,0,0:0:0:0:
320,192,122589,1,0,0:0:0:0:
448,192,122589,1,0,0:0:0:0:
64,192,122730,1,0,0:0:0:0:
448,192,122870,1,0,0:0:0:0:
320,192,123011,1,0,0:0:0:0:
64,192,123011,1,0,0:0:0:0:
192,192,123152,1,0,0:0:0:0:
320,192,123293,1,0,0:0:0:0:
448,192,123434,128,0,123856:0:0:0:0:
192,192,123434,128,0,123645:0:0:0:0:
64,192,123645,1,0,0:0:0:0:
192,192,123856,1,0,0:0:0:0:
320,192,123856,1,0,0:0:0:0:
64,192,123997,1,0,0:0:0:0:
192,192,124138,1,0,0:0:0:0:
448,192,124138,1,0,0:0:0:0:
320,192,124279,1,0,0:0:0:0:
448,192,124420,1,0,0:0:0:0:
192,192,124420,1,0,0:0:0:0:
64,192,124561,1,0,0:0:0:0:
448,192,124701,128,0,124983:0:0:0:0:
320,192,124701,128,0,124983:0:0:0:0:
192,192,124701,1,0,0:0:0:0:
320,192,125124,1,0,0:0:0:0:
448,192,125124,1,0,0:0:0:0:
192,192,125124,1,0,0:0:0:0:
64,192,125230,1,0,0:0:0:0:
192,192,125335,1,0,0:0:0:0:
320,192,125335,1,0,0:0:0:0:
64,192,125546,1,0,0:0:0:0:
448,192,125546,1,0,0:0:0:0:
64,192,125687,1,0,0:0:0:0:
448,192,125687,1,0,0:0:0:0:
192,192,125828,1,0,0:0:0:0:
320,192,125969,1,0,0:0:0:0:
448,192,125969,1,0,0:0:0:0:
64,192,125969,1,0,0:0:0:0:
320,192,126110,128,0,126392:0:0:0:0:
192,192,126110,1,0,0:0:0:0:
192,192,126392,1,0,0:0:0:0:
448,192,126392,1,0,0:0:0:0:
192,192,126532,1,0,0:0:0:0:
192,192,126673,1,0,0:0:0:0:
448,192,126673,1,0,0:0:0:0:
320,192,126814,1,0,0:0:0:0:
64,192,126814,128,0,127377:0:0:0:0:
448,192,126814,128,0,127377:0:0:0:0:
192,192,127377,1,0,0:0:0:0:
320,192,127518,1,0,0:0:0:0:
64,192,127659,1,0,0:0:0:0:
192,192,127659,1,0,0:0:0:0:
448,192,127659,1,0,0:0:0:0:
320,192,127800,1,0,0:0:0:0:
192,192,127941,1,0,0:0:0:0:
448,192,128082,128,0,128363:0:0:0:0:
320,192,128082,1,0,0:0:0:0:
64,192,128082,1,0,0:0:0:0:
64,192,128504,1,0,0:0:0:0:
192,192,128504,1,0,0:0:0:0:
448,192,128504,1,0,0:0:0:0:
320,192,128610,1,0,0:0:0:0:
448,192,128715,1,0,0:0:0:0:
448,192,128927,1,0,0:0:0:0:
64,192,128927,1,0,0:0:0:0:
192,192,129068,1,0,0:0:0:0:
320,192,129208,1,0,0:0:0:0:
64,192,129208,1,0,0:0:0:0:
192,192,129349,1,0,0:0:0:0:
448,192,129349,1,0,0:0:0:0:
320,192,129490,1,0,0:0:0:0:
192,192,129631,1,0,0:0:0:0:
448,192,129631,1,0,0:0:0:0:
320,192,129772,1,0,0:0:0:0:
64,192,129772,1,0,0:0:0:0:
192,192,129913,1,0,0:0:0:0:
64,192,130054,1,0,0:0:0:0:
192,192,130194,128,0,130617:0:0:0:0:
448,192,130194,128,0,130617:0:0:0:0:
320,192,130406,1,0,0:0:0:0:
64,192,130406,1,0,0:0:0:0:
64,192,130617,1,0,0:0:0:0:
320,192,130617,1,0,0:0:0:0:
192,192,130758,1,0,0:0:0:0:
448,192,130899,1,0,0:0:0:0:
64,192,130899,1,0,0:0:0:0:
192,192,131039,1,0,0:0:0:0:
320,192,131039,1,0,0:0:0:0:
64,192,131180,1,0,0:0:0:0:
448,192,131321,1,0,0:0:0:0:
192,192,131321,1,0,0:0:0:0:
320,192,131462,128,0,131884:0:0:0:0:
64,192,131462,128,0,131884:0:0:0:0:
192,192,131673,1,0,0:0:0:0:
448,192,131673,1,0,0:0:0:0:
448,192,131884,1,0,0:0:0:0:
192,192,131884,1,0,0:0:0:0:
192,192,132096,1,0,0:0:0:0:
64,192,132307,1,0,0:0:0:0:
448,192,132307,1,0,0:0:0:0:
320,192,132448,1,0,0:0:0:0:
192,192,132448,1,0,0:0:0:0:
448,192,132589,1,0,0:0:0:0:
64,192,132730,1,0,0:0:0:0:
192,192,132730,1,0,0:0:0:0:
320,192,132730,1,0,0:0:0:0:
448,192,132870,1,0,0:0:0:0:
192,192,133011,1,0,0:0:0:0:
64,192,133152,1,0,0:0:0:0:
320,192,133152,1,0,0:0:0:0:
448,192,133293,1,0,0:0:0:0:
320,192,133434,1,0,0:0:0:0:
448,192,133575,128,0,133997:0:0:0:0:
64,192,133575,128,0,133997:0:0:0:0:
192,192,133575,1,0,0:0:0:0:
64,192,134138,128,0,134279:0:0:0:0:
448,192,134138,128,0,134279:0:0:0:0:
192,192,134279,1,0,0:0:0:0:
320,192,134420,1,0,0:0:0:0:
448,192,134420,1,0,0:0:0:0:
192,192,134561,1,0,0:0:0:0:
64,192,134701,1,0,0:0:0:0:
448,192,134701,1,0,0:0:0:0:
192,192,134842,128,0,135124:0:0:0:0:
320,192,134842,128,0,135124:0:0:0:0:
64,192,135265,1,0,0:0:0:0:
192,192,135265,1,0,0:0:0:0:
448,192,135265,1,0,0:0:0:0:
320,192,135370,1,0,0:0:0:0:
448,192,135476,1,0,0:0:0:0:
64,192,135687,1,0,0:0:0:0:
320,192,135687,1,0,0:0:0:0:
192,192,135828,1,0,0:0:0:0:
448,192,135828,1,0,0:0:0:0:
320,192,135969,1,0,0:0:0:0:
64,192,136110,1,0,0:0:0:0:
192,192,136110,1,0,0:0:0:0:
448,192,136110,1,0,0:0:0:0:
320,192,136251,1,0,0:0:0:0:
192,192,136392,1,0,0:0:0:0:
64,192,136532,1,0,0:0:0:0:
448,192,136532,1,0,0:0:0:0:
320,192,136673,128,0,136814:0:0:0:0:
192,192,136955,1,0,0:0:0:0:
64,192,137096,1,0,0:0:0:0:
320,192,137096,1,0,0:0:0:0:
192,192,137377,1,0,0:0:0:0:
320,192,137377,1,0,0:0:0:0:
448,192,137377,1,0,0:0:0:0:
64,192,137518,1,0,0:0:0:0:
192,192,137659,1,0,0:0:0:0:
448,192,137659,1,0,0:0:0:0:
320,192,137800,1,0,0:0:0:0:
64,192,137941,1,0,0:0:0:0:
192,192,138082,1,0,0:0:0:0:
448,192,138082,1,0,0:0:0:0:
320,192,138223,1,0,0:0:0:0:
192,192,138363,128,0,138504:0:0:0:0:
448,192,138645,1,0,0:0:0:0:
320,192,138786,1,0,0:0:0:0:
64,192,138786,1,0,0:0:0:0:
64,192,139068,1,0,0:0:0:0:
192,192,139068,1,0,0:0:0:0:
448,192,139208,1,0,0:0:0:0:
320,192,139349,1,0,0:0:0:0:
64,192,139349,1,0,0:0:0:0:
192,192,139490,1,0,0:0:0:0:
448,192,139490,1,0,0:0:0:0:
320,192,139631,1,0,0:0:0:0:
64,192,139772,1,0,0:0:0:0:
448,192,139772,1,0,0:0:0:0:
192,192,139913,1,0,0:0:0:0:
320,192,139913,1,0,0:0:0:0:
448,192,140054,128,0,140194:0:0:0:0:
64,192,140335,1,0,0:0:0:0:
192,192,140335,1,0,0:0:0:0:
448,192,140476,1,0,0:0:0:0:
64,192,140758,1,0,0:0:0:0:
448,192,140758,1,0,0:0:0:0:
192,192,140899,1,0,0:0:0:0:
320,192,141039,1,0,0:0:0:0:
448,192,141039,1,0,0:0:0:0:
64,192,141180,1,0,0:0:0:0:
192,192,141321,1,0,0:0:0:0:
448,192,141321,1,0,0:0:0:0:
320,192,141462,1,0,0:0:0:0:
192,192,141603,1,0,0:0:0:0:
64,192,141603,1,0,0:0:0:0:
320,192,141744,128,0,141884:0:0:0:0:
64,192,142025,1,0,0:0:0:0:
448,192,142025,1,0,0:0:0:0:
192,192,142166,1,0,0:0:0:0:
320,192,142166,1,0,0:0:0:0:
64,192,142448,1,0,0:0:0:0:
192,192,142448,1,0,0:0:0:0:
448,192,142448,1,0,0:0:0:0:
448,192,142589,1,0,0:0:0:0:
64,192,142730,1,0,0:0:0:0:
320,192,142730,1,0,0:0:0:0:
192,192,142870,1,0,0:0:0:0:
448,192,142870,1,0,0:0:0:0:
320,192,143011,1,0,0:0:0:0:
320,192,143152,1,0,0:0:0:0:
64,192,143152,1,0,0:0:0:0:
192,192,143293,1,0,0:0:0:0:
448,192,143434,128,0,143575:0:0:0:0:
64,192,143715,1,0,0:0:0:0:
192,192,143715,1,0,0:0:0:0:
320,192,143856,1,0,0:0:0:0:
448,192,143856,1,0,0:0:0:0:
64,192,144138,1,0,0:0:0:0:
192,192,144138,1,0,0:0:0:0:
320,192,144138,1,0,0:0:0:0:
192,192,144279,1,0,0:0:0:0:
448,192,144279,1,0,0:0:0:0:
320,192,144420,1,0,0:0:0:0:
64,192,144420,1,0,0:0:0:0:
192,192,144561,1,0,0:0:0:0:
320,192,144561,1,0,0:0:0:0:
448,192,144561,1,0,0:0:0:0:
64,192,144701,1,0,0:0:0:0:
192,192,144842,1,0,0:0:0:0:
448,192,144842,1,0,0:0:0:0:
320,192,144983,1,0,0:0:0:0:
192,192,145124,1,0,0:0:0:0:
64,192,145124,128,0,145265:0:0:0:0:
192,192,145406,1,0,0:0:0:0:
320,192,145406,1,0,0:0:0:0:
448,192,145546,1,0,0:0:0:0:
64,192,145546,1,0,0:0:0:0:
320,192,145828,1,0,0:0:0:0:
448,192,145828,1,0,0:0:0:0:
192,192,145969,1,0,0:0:0:0:
64,192,145969,1,0,0:0:0:0:
320,192,146110,1,0,0:0:0:0:
448,192,146251,1,0,0:0:0:0:
192,192,146251,1,0,0:0:0:0:
64,192,146251,1,0,0:0:0:0:
320,192,146392,1,0,0:0:0:0:
192,192,146532,1,0,0:0:0:0:
448,192,146532,1,0,0:0:0:0:
64,192,146673,1,0,0:0:0:0:
192,192,146814,1,0,0:0:0:0:
320,192,146814,128,0,146955:0:0:0:0:
448,192,146814,128,0,146955:0:0:0:0:
64,192,147096,1,0,0:0:0:0:
192,192,147096,1,0,0:0:0:0:
448,192,147237,1,0,0:0:0:0:
320,192,147237,1,0,0:0:0:0:
64,192,147518,1,0,0:0:0:0:
192,192,147518,1,0,0:0:0:0:
320,192,147659,1,0,0:0:0:0:
448,192,147659,1,0,0:0:0:0:
64,192,147800,1,0,0:0:0:0:
192,192,147800,1,0,0:0:0:0:
320,192,147941,1,0,0:0:0:0:
448,192,147941,1,0,0:0:0:0:
192,192,148082,1,0,0:0:0:0:
64,192,148082,1,0,0:0:0:0:
320,192,148223,1,0,0:0:0:0:
448,192,148363,1,0,0:0:0:0:
64,192,148363,1,0,0:0:0:0:
320,192,148504,128,0,148786:0:0:0:0:
192,192,148504,128,0,148786:0:0:0:0:
64,192,148786,1,0,0:0:0:0:
448,192,148786,128,0,148927:0:0:0:0:
64,192,149068,128,0,149208:0:0:0:0:
192,192,149068,128,0,149208:0:0:0:0:
192,192,149349,128,0,149490:0:0:0:0:
448,192,149349,128,0,149490:0:0:0:0:
320,192,149631,128,0,149913:0:0:0:0:
64,192,149913,128,0,150054:0:0:0:0:
448,192,149913,128,0,150054:0:0:0:0:
64,192,150582,128,0,150899:0:0:0:0:
448,192,150582,128,0,150899:0:0:0:0:
192,192,150899,128,0,151215:0:0:0:0:
320,192,151215,128,0,151427:0:0:0:0:
448,192,151427,128,0,151744:0:0:0:0:
64,192,151427,128,0,151744:0:0:0:0:
192,192,151744,128,0,151849:0:0:0:0:
320,192,152061,128,0,152272:0:0:0:0:
192,192,152272,128,0,152377:0:0:0:0:
64,192,152272,128,0,152377:0:0:0:0:
192,192,152589,128,0,152694:0:0:0:0:
448,192,152589,128,0,152694:0:0:0:0:
448,192,152906,128,0,153011:0:0:0:0:
320,192,152906,128,0,153011:0:0:0:0:
64,192,153117,128,0,153434:0:0:0:0:
448,192,153117,128,0,153434:0:0:0:0:
192,192,153434,128,0,153504:0:0:0:0:
320,192,153434,128,0,153504:0:0:0:0:
64,192,153962,128,0,154068:0:0:0:0:
448,192,153962,128,0,154068:0:0:0:0:
320,192,154279,128,0,154420:0:0:0:0:
64,192,154279,128,0,154420:0:0:0:0:
192,192,154596,128,0,154701:0:0:0:0:
320,192,154807,128,0,155124:0:0:0:0:
448,192,155124,128,0,155546:0:0:0:0:
64,192,155124,128,0,155546:0:0:0:0:
192,192,155652,128,0,155969:0:0:0:0:
448,192,155969,128,0,156286:0:0:0:0:
64,192,156286,128,0,156497:0:0:0:0:
320,192,156497,128,0,156814:0:0:0:0:
192,192,156814,128,0,157096:0:0:0:0:
64,192,156814,128,0,157096:0:0:0:0:
448,192,157342,128,0,157659:0:0:0:0:
192,192,157659,128,0,157765:0:0:0:0:
64,192,157659,128,0,157765:0:0:0:0:
64,192,157976,128,0,158082:0:0:0:0:
320,192,157976,128,0,158082:0:0:0:0:
448,192,158187,128,0,158504:0:0:0:0:
320,192,158504,128,0,159138:0:0:0:0:
64,192,158504,128,0,159138:0:0:0:0:
192,192,160194,128,0,160406:0:0:0:0:
448,192,160406,128,0,160617:0:0:0:0:
320,192,160617,128,0,160934:0:0:0:0:
64,192,160617,128,0,160934:0:0:0:0:
192,192,160934,128,0,161251:0:0:0:0:
448,192,160934,128,0,161251:0:0:0:0:
320,192,161251,128,0,161462:0:0:0:0:
64,192,161462,128,0,162096:0:0:0:0:
448,192,161462,128,0,162307:0:0:0:0:
192,192,162096,1,0,0:0:0:0:
320,192,162201,1,0,0:0:0:0:
64,192,162307,1,0,0:0:0:0:
192,192,162307,1,0,0:0:0:0:
