osu file format v14

[General]
AudioFilename: audio.mp3
AudioLeadIn: 0
PreviewTime: 32060
Countdown: 1
SampleSet: None
StackLeniency: 0.7
Mode: 0
LetterboxInBreaks: 0
WidescreenStoryboard: 0

[Editor]
Bookmarks: 16185,96185
DistanceSpacing: 1
BeatDivisor: 1
GridSize: 4
TimelineZoom: 2.1

[Metadata]
Title:Freestyle Du Sale
TitleUnicode:Freestyle Du Sale
Artist:Lorenzo
ArtistUnicode:Lorenzo
Creator:Ovoui
Version:Freestyle De La Saucisse
Source:
Tags:Mamene
BeatmapID:1066890
BeatmapSetID:500870

[Difficulty]
HPDrainRate:4
CircleSize:4
OverallDifficulty:8
ApproachRate:9
SliderMultiplier:2.5
SliderTickRate:1

[Events]
//Background and Video events
0,0,"35a0feac4cd2ad97324b3c51bec0b41e.1000x667x1.jpg",0,0
//Break Periods
//Storyboard Layer 0 (Background)
//Storyboard Layer 1 (Fail)
//Storyboard Layer 2 (Pass)
//Storyboard Layer 3 (Foreground)
//Storyboard Sound Samples

[TimingPoints]
185,500,4,3,0,44,1,0
60185,-100,4,3,0,44,0,1
63935,-100,4,3,0,44,0,0

[HitObjects]
140,128,16185,5,0,0:0:0:0:
364,124,16435,1,0,0:0:0:0:
256,320,16685,1,0,0:0:0:0:
256,20,17018,1,0,0:0:0:0:
256,20,17185,5,0,0:0:0:0:
400,192,17351,1,0,0:0:0:0:
412,304,17518,1,0,0:0:0:0:
504,240,17685,1,0,0:0:0:0:
504,240,17851,1,0,0:0:0:0:
412,304,18018,1,0,0:0:0:0:
400,192,18185,6,0,L|392:96,1,83.3333333333334
256,244,18518,1,0,0:0:0:0:
118,108,18685,2,0,L|112:192,1,83.3333333333334
256,36,19018,1,0,0:0:0:0:
400,192,19185,6,0,P|456:196|500:180,1,83.3333333333333
256,124,19518,1,0,0:0:0:0:
30,188,19685,2,0,B|76:204|116:188|116:188|160:200|192:232,1,166.666666666667
256,352,20185,6,0,P|300:360|352:348,1,83.3333333333333
472,192,20518,1,0,0:0:0:0:
268,225,20685,2,0,L|184:225,1,83.3333333333333
256,16,21018,1,0,0:0:0:0:
344,256,21185,6,0,P|300:300|264:304,1,83.3333333333333
72,224,21517,1,0,0:0:0:0:
332,160,21685,2,0,P|400:176|420:200,1,83.3333333333333
256,372,22018,1,0,0:0:0:0:
60,260,22185,5,0,0:0:0:0:
256,146,22351,1,0,0:0:0:0:
152,348,22518,1,0,0:0:0:0:
32,156,22685,2,0,L|20:64,1,83.3333333333333
256,268,23018,1,0,0:0:0:0:
480,156,23185,6,0,L|492:64,1,83.3333333333333
256,160,23518,1,0,0:0:0:0:
452,320,23685,2,0,L|464:228,1,83.3333333333333
140,128,24185,5,0,0:0:0:0:
364,124,24435,1,0,0:0:0:0:
256,320,24685,1,0,0:0:0:0:
256,48,25018,1,0,0:0:0:0:
256,48,25185,6,0,L|256:140,1,83.3333333333333
144,344,25518,1,0,0:0:0:0:
80,288,25684,2,0,P|72:232|84:196,1,83.3333333333333
368,344,26018,1,0,0:0:0:0:
432,288,26184,6,0,P|440:232|428:196,1,83.3333333333333
256,28,26518,1,0,0:0:0:0:
256,280,26685,1,0,0:0:0:0:
132,64,26851,1,0,0:0:0:0:
382,64,27018,1,0,0:0:0:0:
256,280,27185,6,0,P|212:288|160:264,1,83.3333333333333
256,24,27518,1,0,0:0:0:0:
335,276,27685,2,0,P|296:288|256:280,1,83.3333333333333
84,192,28018,1,0,0:0:0:0:
434,192,28185,5,0,0:0:0:0:
256,368,28351,1,0,0:0:0:0:
256,16,28518,1,0,0:0:0:0:
436,192,28685,2,0,P|444:240|436:288,1,83.3333333333333
256,236,29018,1,0,0:0:0:0:
76,191,29185,6,0,P|68:232|71:274,1,83.3333333333333
268,348,29518,1,0,0:0:0:0:
136,116,29685,2,0,P|88:96|8:120,1,125
256,48,30685,6,0,L|256:116,1,62.5
256,172,30935,1,0,0:0:0:0:
256,236,31060,1,0,0:0:0:0:
256,300,31185,2,0,P|200:312|128:300,1,125
256,84,31685,1,0,0:0:0:0:
379,302,31935,1,0,0:0:0:0:
256,344,32185,5,0,0:0:0:0:
256,344,32310,1,0,0:0:0:0:
124,128,32560,1,0,0:0:0:0:
124,128,32685,1,0,0:0:0:0:
392,128,32935,1,0,0:0:0:0:
424,184,33060,1,0,0:0:0:0:
408,244,33185,5,0,0:0:0:0:
356,280,33310,1,0,0:0:0:0:
292,272,33435,1,0,0:0:0:0:
248,228,33560,1,0,0:0:0:0:
244,164,33685,2,0,P|268:104|340:56,1,125
224,300,34185,5,0,0:0:0:0:
172,336,34310,1,0,0:0:0:0:
108,340,34435,1,0,0:0:0:0:
56,308,34560,1,0,0:0:0:0:
40,248,34685,1,0,0:0:0:0:
48,184,34810,1,0,0:0:0:0:
92,140,34935,1,0,0:0:0:0:
152,128,35060,1,0,0:0:0:0:
212,148,35185,5,0,0:0:0:0:
256,192,35310,1,0,0:0:0:0:
316,208,35435,1,0,0:0:0:0:
376,184,35560,1,0,0:0:0:0:
404,128,35685,2,0,P|404:72|356:16,1,125
256,192,36185,6,0,L|256:292,1,83.3333333333333
52,232,36518,1,0,0:0:0:0:
256,192,36685,2,0,L|344:192,1,83.3333333333333
304,384,37018,1,0,0:0:0:0:
256,192,37185,6,0,L|256:104,1,83.3333333333333
460,152,37518,1,0,0:0:0:0:
256,192,37685,2,0,L|164:192,1,83.3333333333333
368,112,38060,1,0,0:0:0:0:
408,160,38185,5,0,0:0:0:0:
416,220,38310,1,0,0:0:0:0:
388,276,38435,1,0,0:0:0:0:
336,308,38560,1,0,0:0:0:0:
272,308,38685,2,0,L|168:308,1,83.3333333333333
24,372,39018,1,0,0:0:0:0:
304,372,39185,6,0,P|336:340|336:264,1,83.3333333333333
256,88,39518,1,0,0:0:0:0:
166,304,39685,2,0,P|178:343|208:372,1,83.3333333333333
384,192,40060,2,0,L|308:192,1,62.5
128,192,40435,5,0,0:0:0:0:
128,192,40560,2,0,L|232:192,1,104.166666666667
412,24,40935,2,0,L|412:96,1,62.5
448,152,41185,6,0,P|460:196|424:256,1,83.3333333333333
256,312,41518,1,0,0:0:0:0:
256,104,41685,1,0,0:0:0:0:
256,104,41851,1,0,0:0:0:0:
364,280,42018,1,0,0:0:0:0:
364,280,42185,6,0,L|448:316,1,83.3333333333333
256,104,42518,1,0,0:0:0:0:
148,280,42685,2,0,L|64:316,1,83.3333333333333
256,188,43018,1,0,0:0:0:0:
438,97,43185,6,0,P|444:56|436:16,1,83.3333333333333
256,188,43518,1,0,0:0:0:0:
73,97,43685,2,0,P|67:56|76:16,1,83.3333333333333
256,164,44185,6,0,L|256:268,1,93.75
160,76,44560,1,0,0:0:0:0:
368,76,44747,1,0,0:0:0:0:
256,257,44935,1,0,0:0:0:0:
196,280,45060,1,0,0:0:0:0:
136,260,45185,5,0,0:0:0:0:
328,144,45435,1,0,0:0:0:0:
377,184,45560,1,0,0:0:0:0:
390,246,45685,1,0,0:0:0:0:
188,132,45935,1,0,0:0:0:0:
198,68,46060,1,0,0:0:0:0:
245,26,46185,6,0,P|296:8|372:36,2,125
198,68,46810,1,0,0:0:0:0:
184,148,46935,1,0,0:0:0:0:
172,228,47060,1,0,0:0:0:0:
160,308,47185,6,0,L|260:280,1,93.75
328,256,47497,1,0,0:0:0:0:
198,68,47747,2,0,L|107:93,1,93.75
107,93,48185,6,0,L|100:200,1,93.75
93,280,48497,2,0,L|101:172,1,93.75
172,144,48810,1,0,0:0:0:0:
196,256,48935,1,0,0:0:0:0:
292,200,49060,6,0,L|360:192,1,62.5
272,116,49310,1,0,0:0:0:0:
172,144,49435,1,0,0:0:0:0:
360,328,49685,2,0,P|388:352|472:340,1,125
405,93,50185,6,0,L|412:200,1,93.75
419,280,50497,2,0,L|411:172,1,93.75
340,144,50810,1,0,0:0:0:0:
316,256,50935,1,0,0:0:0:0:
220,200,51060,6,0,L|152:192,1,62.5
240,116,51310,1,0,0:0:0:0:
340,144,51435,1,0,0:0:0:0:
152,328,51685,2,0,P|124:352|40:340,1,125
76,80,52185,6,0,L|84:216,1,125
92,280,52560,1,0,0:0:0:0:
156,240,52685,2,0,P|224:220|328:252,1,166.666666666667
143,345,53185,6,0,L|71:253,1,83.3333333333333
256,92,53518,1,0,0:0:0:0:
420,279,53685,2,0,L|369:345,1,83.3333333333333
104,240,54185,6,0,P|87:193|114:131,1,83.3333333333333
256,32,54518,1,0,0:0:0:0:
419,161,54685,2,0,P|424:202|408:240,1,83.3333333333333
256,32,55018,1,0,0:0:0:0:
432,88,55185,6,0,P|492:148|488:184,1,83.3333333333333
256,32,55518,1,0,0:0:0:0:
80,88,55685,2,0,P|20:148|24:184,1,83.3333333333333
112,340,56018,1,0,0:0:0:0:
260,192,56185,6,0,B|320:180|320:180|400:200,1,125
176,288,56685,2,0,L|136:220,1,41.6666666666667
72,100,56935,1,0,0:0:0:0:
256,192,57185,5,0,0:0:0:0:
376,32,57310,1,0,0:0:0:0:
376,292,57518,1,0,0:0:0:0:
256,192,57685,2,0,L|256:16,1,166.666666666667
72,228,58185,6,0,L|72:320,1,83.3333333333333
152,372,58518,1,0,0:0:0:0:
440,228,58685,2,0,L|440:320,1,83.3333333333333
360,372,59018,1,0,0:0:0:0:
72,156,59185,6,0,L|72:64,1,83.3333333333333
152,12,59518,1,0,0:0:0:0:
440,156,59685,2,0,L|440:64,1,83.3333333333333
360,12,60018,1,0,0:0:0:0:
256,80,60185,6,0,L|256:172,1,83.3333333333333
256,288,60518,1,0,0:0:0:0:
164,204,60685,2,0,P|140:164|144:116,1,83.3333333333333
256,80,61018,1,0,0:0:0:0:
372,128,61185,6,0,P|370:169|348:204,1,83.3333333333333
256,288,61518,1,0,0:0:0:0:
144,340,61685,2,0,L|48:348,1,83.3333333333333
256,208,62018,1,0,0:0:0:0:
451,346,62185,6,0,L|368:340,1,83.3333333333333
256,32,62518,1,0,0:0:0:0:
56,265,62685,2,0,P|52:317|72:369,1,83.3333333333333
256,32,63018,1,0,0:0:0:0:
452,346,63185,6,0,P|461:306|456:265,1,83.3333333333333
48,192,63518,1,0,0:0:0:0:
388,192,63685,2,0,L|488:192,1,83.3333333333333
228,232,64184,6,0,P|186:236|145:230,1,83.3333333333333
168,32,64517,1,0,0:0:0:0:
300,224,64684,2,0,P|308:276|292:316,1,83.3333333333333
80,268,65018,1,0,0:0:0:0:
288,144,65184,6,0,P|328:136|388:152,1,83.3333333333333
328,372,65518,1,0,0:0:0:0:
220,156,65685,2,0,P|216:108|232:64,1,83.3333333333333
226,74,66018,1,0,0:0:0:0:
226,74,66185,6,0,B|271:65|271:65|327:65,1,83.3333333333333
468,116,66518,1,0,0:0:0:0:
344,224,66685,2,0,L|344:324,1,83.3333333333333
72,224,67122,2,0,L|60:148,1,62.5
440,160,67622,2,0,L|452:236,1,62.5
292,44,68185,5,0,0:0:0:0:
232,32,68310,1,0,0:0:0:0:
172,44,68435,1,0,0:0:0:0:
136,96,68560,1,0,0:0:0:0:
132,160,68685,1,0,0:0:0:0:
168,212,68810,1,0,0:0:0:0:
224,244,68935,1,0,0:0:0:0:
252,300,69060,1,0,0:0:0:0:
216,352,69185,6,0,L|153:359,1,62.5
280,356,69435,2,0,L|342:348,1,62.5
404,332,69685,2,0,P|452:296|456:224,1,125
388,72,70185,5,0,0:0:0:0:
332,100,70310,1,0,0:0:0:0:
268,96,70435,1,0,0:0:0:0:
212,68,70560,2,0,P|152:56|84:76,1,125
48,120,70935,1,0,0:0:0:0:
40,180,71060,1,0,0:0:0:0:
80,228,71185,6,0,L|360:248,1,250
360,256,71810,1,0,0:0:0:0:
392,264,71935,1,0,0:0:0:0:
420,272,72060,1,0,0:0:0:0:
448,280,72185,5,0,0:0:0:0:
504,240,72310,1,0,0:0:0:0:
512,176,72435,1,0,0:0:0:0:
472,120,72560,1,0,0:0:0:0:
404,116,72685,2,0,B|364:120|364:120|300:112,1,83.3333333333333
148,16,73017,1,0,0:0:0:0:
160,216,73185,6,0,P|148:264|112:304,1,83.3333333333333
52,108,73517,1,0,0:0:0:0:
236,192,73685,2,0,L|336:192,1,83.3333333333333
480,24,74018,1,0,0:0:0:0:
319,192,74185,5,0,0:0:0:0:
232,64,74351,1,0,0:0:0:0:
320,192,74518,1,0,0:0:0:0:
232,64,74685,2,0,P|192:52|144:72,1,83.3333333333333
196,276,75018,1,0,0:0:0:0:
316,96,75185,6,0,L|316:8,1,83.3333333333333
196,196,75518,1,0,0:0:0:0:
412,220,75685,2,0,P|440:188|456:132,1,83.3333333333333
454,150,76185,5,0,0:0:0:0:
388,124,76310,1,0,0:0:0:0:
324,100,76435,1,0,0:0:0:0:
260,76,76560,1,0,0:0:0:0:
196,52,76685,2,0,L|112:48,1,83.3333333333333
256,252,77018,1,0,0:0:0:0:
400,48,77185,6,0,L|316:52,1,83.3333333333333
256,336,77518,1,0,0:0:0:0:
400,131,77685,2,0,L|400:47,1,83.3333333333333
256,252,78018,1,0,0:0:0:0:
112,47,78185,6,0,L|112:131,1,83.3333333333333
32,368,78518,1,0,0:0:0:0:
216,248,78685,2,0,P|256:236|308:260,1,83.3333333333333
480,368,79018,1,0,0:0:0:0:
400,131,79185,6,0,L|400:47,1,83.3333333333333
364,32,79435,1,0,0:0:0:0:
328,20,79518,1,0,0:0:0:0:
256,308,79685,2,0,P|168:300|148:264,1,125
148,208,80060,1,0,0:0:0:0:
184,148,80185,6,0,B|216:92|216:92|184:28,1,125
128,8,80560,1,0,0:0:0:0:
72,44,80685,2,0,P|60:72|72:128,1,83.3333333333333
68,122,80935,1,0,0:0:0:0:
68,122,81018,1,0,0:0:0:0:
184,256,81185,6,0,L|272:256,1,83.3333333333333
228,80,81518,1,0,0:0:0:0:
220,336,81685,2,0,L|128:336,1,83.3333333333333
68,122,82018,1,0,0:0:0:0:
224,176,82185,6,0,L|320:176,1,83.3333333333333
504,24,82518,1,0,0:0:0:0:
440,268,82685,2,0,P|443:308|464:352,1,83.3333333333333
512,124,83018,1,0,0:0:0:0:
300,56,83185,6,0,L|208:56,1,83.3333333333333
160,284,83518,1,0,0:0:0:0:
24,112,83685,2,0,P|18:60|32:12,1,83.3333333333333
224,152,84018,1,0,0:0:0:0:
112,332,84185,6,0,L|28:332,1,83.3333333333333
256,228,84518,1,0,0:0:0:0:
483,332,84685,2,0,L|400:332,1,83.3333333333333
256,56,85018,1,0,0:0:0:0:
256,296,85185,6,0,L|256:380,1,83.3333333333333
144,152,85518,1,0,0:0:0:0:
368,152,85685,2,0,P|407:163|439:190,1,83.3333333333333
256,348,86018,1,0,0:0:0:0:
144,152,86185,6,0,B|132:112|132:112|148:56,1,83.3333333333333
392,176,86518,1,0,0:0:0:0:
152,256,86685,2,0,L|40:248,1,83.3333333333333
232,72,87018,1,0,0:0:0:0:
344,296,87185,6,0,B|384:312|384:312|448:304,1,83.3333333333333
256,144,87518,1,0,0:0:0:0:
88,307,87685,2,0,B|128:312|128:312|168:296,1,83.3333333333333
260,64,88185,5,0,0:0:0:0:
308,68,88310,1,0,0:0:0:0:
357,72,88435,1,0,0:0:0:0:
406,78,88560,1,0,0:0:0:0:
455,84,88685,2,0,B|467:148|467:148|455:212,1,125
252,320,89185,5,0,0:0:0:0:
204,316,89310,1,0,0:0:0:0:
155,312,89435,1,0,0:0:0:0:
106,306,89560,1,0,0:0:0:0:
57,300,89685,2,0,B|45:236|45:236|57:172,1,125
256,196,90185,5,0,0:0:0:0:
256,260,90310,1,0,0:0:0:0:
256,324,90435,2,0,P|340:340|380:320,1,125
480,116,90935,1,0,0:0:0:0:
444,64,91060,1,0,0:0:0:0:
384,52,91185,1,0,0:0:0:0:
336,92,91310,5,0,0:0:0:0:
324,152,91435,1,0,0:0:0:0:
280,196,91560,1,0,0:0:0:0:
216,196,91685,2,0,B|164:160|164:160|148:84,1,125
368,296,92185,6,0,L|480:296,1,83.3333333333333
256,96,92518,1,0,0:0:0:0:
60,296,92685,2,0,L|144:296,1,83.3333333333333
368,132,93018,1,0,0:0:0:0:
144,132,93185,6,0,P|100:92|80:40,1,83.3333333333333
256,260,93518,1,0,0:0:0:0:
368,132,93685,2,0,P|412:92|432:40,1,83.3333333333333
256,184,94185,5,0,0:0:0:0:
256,248,94310,1,0,0:0:0:0:
256,312,94435,1,0,0:0:0:0:
256,376,94560,2,0,B|192:380|192:380|120:368,1,125
112,308,94935,2,0,L|80:196,1,62.5
80,188,95185,6,0,L|80:64,1,125
132,32,95560,1,0,0:0:0:0:
184,64,95685,2,0,P|240:72|328:56,1,125
