osu file format v14

[General]
AudioFilename: audio.mp3
AudioLeadIn: 0
PreviewTime: -1
Countdown: 1
SampleSet: None
StackLeniency: 0.7
Mode: 1
LetterboxInBreaks: 0
WidescreenStoryboard: 1

[Editor]
DistanceSpacing: 0.3
BeatDivisor: 6
GridSize: 4
TimelineZoom: 1

[Metadata]
Title:Example Beatmap
TitleUnicode:Example Beatmap
Artist:Lorem Ipsum
ArtistUnicode:Lorem Ipsum
Creator:OwOwWhatsThis
Version:Example Taiko Diff
Source:
Tags:lorem ipsum
BeatmapID:1726347
BeatmapSetID:823854

[Difficulty]
HPDrainRate:10
CircleSize:5
OverallDifficulty:10
ApproachRate:10
SliderMultiplier:1.4
SliderTickRate:1

[Events]
//Background and Video events
0,0,"Bubbles.jpg",0,0
//Break Periods
//Storyboard Layer 0 (Background)
//Storyboard Layer 1 (Fail)
//Storyboard Layer 2 (Pass)
//Storyboard Layer 3 (Foreground)
//Storyboard Sound Samples

[TimingPoints]
3.3098782887581,222.882615156018,4,1,0,100,1,0

[HitObjects]
90,187,3,5,0,0:0:0:0:
450,199,40,1,8,0:0:0:0:
90,187,77,1,0,0:0:0:0:
90,187,114,1,0,0:0:0:0:
90,187,151,1,0,0:0:0:0:
405,189,189,1,8,0:0:0:0:
80,184,226,1,0,0:0:0:0:
408,178,263,1,0,0:0:0:0:
247,83,300,1,14,0:0:0:0:
124,263,337,1,0,0:0:0:0:
124,263,374,1,0,0:0:0:0:
417,260,411,1,8,0:0:0:0:
124,263,449,1,0,0:0:0:0:
124,263,486,1,0,0:0:0:0:
417,260,523,1,8,0:0:0:0:
124,263,560,1,0,0:0:0:0:
124,263,597,1,0,0:0:0:0:
124,263,634,1,0,0:0:0:0:
124,263,671,1,0,0:0:0:0:
124,263,746,1,0,0:0:0:0:
124,263,783,1,0,0:0:0:0:
124,263,820,1,0,0:0:0:0:
350,189,857,1,14,0:0:0:0:
206,51,894,1,4,0:0:0:0:
105,123,931,1,0,0:0:0:0:
105,123,1006,1,0,0:0:0:0:
410,173,1117,1,8,0:0:0:0:
96,264,1154,1,0,0:0:0:0:
447,319,1192,1,8,0:0:0:0:
10,215,1229,1,0,0:0:0:0:
185,234,1266,1,8,0:0:0:0:
106,132,1303,1,0,0:0:0:0:
114,113,1340,1,0,0:0:0:0:
126,100,1377,1,0,0:0:0:0:
144,98,1414,1,0,0:0:0:0:
164,107,1452,1,0,0:0:0:0:
184,119,1489,1,0,0:0:0:0:
217,127,1526,1,0,0:0:0:0:
241,117,1563,1,0,0:0:0:0:
373,213,1600,1,4,0:0:0:0:
203,291,1674,1,4,0:0:0:0:
184,300,1712,1,4,0:0:0:0:
152,305,1749,1,4,0:0:0:0:
125,287,1786,1,4,0:0:0:0:
96,280,1823,1,4,0:0:0:0:
76,296,1860,1,4,0:0:0:0:
343,149,1897,1,14,0:0:0:0:
413,236,1934,1,14,0:0:0:0:
474,145,1972,1,14,0:0:0:0:
416,96,2009,1,14,0:0:0:0:
116,135,2046,1,0,0:0:0:0:
161,187,2083,1,0,0:0:0:0:
186,210,2120,1,0,0:0:0:0:
225,235,2157,1,0,0:0:0:0:
406,183,2232,1,2,0:0:0:0:
325,137,2269,1,6,0:0:0:0:
384,112,2306,1,6,0:0:0:0:
408,74,2343,1,6,0:0:0:0:
394,45,2380,1,6,0:0:0:0:
358,51,2417,1,6,0:0:0:0:
337,65,2455,1,6,0:0:0:0:
322,86,2492,1,6,0:0:0:0:
313,107,2529,1,6,0:0:0:0:
271,136,2566,5,6,0:0:0:0:
256,158,2603,1,6,0:0:0:0:
243,167,2640,1,6,0:0:0:0:
229,170,2677,1,6,0:0:0:0:
210,165,2715,1,6,0:0:0:0:
185,177,2752,1,6,0:0:0:0:
172,202,2789,1,6,0:0:0:0:
167,221,2826,1,6,0:0:0:0:
161,237,2863,1,6,0:0:0:0:
158,257,2900,1,6,0:0:0:0:
171,269,2937,1,6,0:0:0:0:
315,96,2975,1,4,0:0:0:0:
330,99,3012,1,12,0:0:0:0:
353,105,3049,1,12,0:0:0:0:
370,124,3086,1,12,0:0:0:0:
386,136,3123,1,4,0:0:0:0:
410,148,3160,1,4,0:0:0:0:
441,161,3197,1,4,0:0:0:0:
451,176,3235,1,4,0:0:0:0:
441,192,3272,1,12,0:0:0:0:
430,201,3309,1,12,0:0:0:0:
417,210,3346,1,12,0:0:0:0:
398,219,3383,1,12,0:0:0:0:
382,246,3420,1,4,0:0:0:0:
392,264,3457,1,4,0:0:0:0:
404,274,3495,1,4,0:0:0:0:
434,293,3532,1,4,0:0:0:0:
72,142,3569,1,0,0:0:0:0:
83,158,3606,1,0,0:0:0:0:
106,169,3643,1,0,0:0:0:0:
144,183,3680,1,0,0:0:0:0:
176,181,3718,1,0,0:0:0:0:
205,177,3755,1,0,0:0:0:0:
219,187,3792,1,0,0:0:0:0:
232,196,3829,1,0,0:0:0:0:
254,208,3866,1,0,0:0:0:0:
289,232,3903,1,0,0:0:0:0:
323,232,3940,1,0,0:0:0:0:
344,228,3978,1,0,0:0:0:0:
366,210,4015,1,0,0:0:0:0:
363,200,4052,1,0,0:0:0:0:
356,188,4089,1,0,0:0:0:0:
347,167,4126,1,0,0:0:0:0:
177,130,4163,1,4,0:0:0:0:
216,199,4200,1,4,0:0:0:0:
261,188,4238,1,4,0:0:0:0:
242,124,4275,1,4,0:0:0:0:
255,130,4312,1,4,0:0:0:0:
268,138,4349,1,4,0:0:0:0:
281,147,4386,1,4,0:0:0:0:
293,153,4423,1,4,0:0:0:0:
316,157,4460,1,4,0:0:0:0:
333,152,4498,1,4,0:0:0:0:
344,142,4535,1,4,0:0:0:0:
356,119,4572,1,4,0:0:0:0:
345,89,4609,1,4,0:0:0:0:
149,197,4646,5,4,0:0:0:0:
140,189,4683,1,4,0:0:0:0:
123,183,4720,1,4,0:0:0:0:
198,243,4758,1,4,0:0:0:0:
226,240,4795,1,4,0:0:0:0:
261,234,4832,1,4,0:0:0:0:
318,143,4869,1,2,0:0:0:0:
426,242,4906,1,2,0:0:0:0:
130,70,4943,1,0,0:0:0:0:
348,91,4981,1,8,0:0:0:0:
130,70,5018,1,0,0:0:0:0:
130,70,5055,1,0,0:0:0:0:
348,91,5056,1,8,0:0:0:0:
130,70,5092,1,0,0:0:0:0:
348,91,5093,1,8,0:0:0:0:
130,70,5129,1,0,0:0:0:0:
348,91,5130,1,8,0:0:0:0:
130,70,5166,1,0,0:0:0:0:
348,91,5167,1,8,0:0:0:0:
348,91,5204,1,8,0:0:0:0:
149,162,5241,1,0,0:0:0:0:
353,226,5278,1,4,0:0:0:0:
321,176,5315,1,8,0:0:0:0:
511,141,5352,1,12,0:0:0:0:
256,192,5389,12,0,5612,0:0:0:0:
243,156,5798,6,0,L|140:166,1,93.3333333333333
94,198,6021,1,0,0:0:0:0:
173,283,6058,1,4,0:0:0:0:
273,121,6095,1,8,0:0:0:0:
343,185,6132,1,4,0:0:0:0:
414,145,6169,1,12,0:0:0:0:
94,198,6206,1,0,0:0:0:0:
173,283,6243,1,4,0:0:0:0:
273,121,6280,1,8,0:0:0:0:
343,185,6317,1,4,0:0:0:0:
414,145,6354,1,12,0:0:0:0:
94,198,6355,1,0,0:0:0:0:
173,283,6392,1,4,0:0:0:0:
273,121,6429,1,8,0:0:0:0:
343,185,6466,1,4,0:0:0:0:
414,145,6503,1,12,0:0:0:0:
94,198,6504,1,0,0:0:0:0:
173,283,6541,1,4,0:0:0:0:
273,121,6578,1,8,0:0:0:0:
343,185,6615,1,4,0:0:0:0:
94,198,6652,1,0,0:0:0:0:
173,283,6689,1,4,0:0:0:0:
273,121,6726,1,8,0:0:0:0:
343,185,6763,1,4,0:0:0:0:
414,145,6800,1,12,0:0:0:0:
94,198,6801,1,0,0:0:0:0:
173,283,6838,1,4,0:0:0:0:
273,121,6875,1,8,0:0:0:0:
343,185,6912,1,4,0:0:0:0:
94,198,6949,1,0,0:0:0:0:
173,283,6986,1,4,0:0:0:0:
273,121,7023,1,8,0:0:0:0:
343,185,7060,1,4,0:0:0:0:
414,145,7097,1,12,0:0:0:0:
94,198,7098,1,0,0:0:0:0:
173,283,7135,1,4,0:0:0:0:
273,121,7172,1,8,0:0:0:0:
343,185,7209,1,4,0:0:0:0:
414,145,7246,1,12,0:0:0:0:
93,178,7358,2,0,P|164:139|403:253,1,350
256,192,8138,12,0,8509,0:0:0:0:
94,198,8695,5,0,0:0:0:0:
94,198,8732,1,0,0:0:0:0:
173,283,8769,1,4,0:0:0:0:
273,121,8806,1,8,0:0:0:0:
343,185,8843,1,4,0:0:0:0:
414,145,8880,1,12,0:0:0:0:
94,198,8917,1,0,0:0:0:0:
173,283,8954,1,4,0:0:0:0:
273,121,8991,1,8,0:0:0:0:
343,185,9028,1,4,0:0:0:0:
94,198,9029,1,0,0:0:0:0:
414,145,9065,1,12,0:0:0:0:
94,198,9066,1,0,0:0:0:0:
173,283,9103,1,4,0:0:0:0:
273,121,9140,1,8,0:0:0:0:
343,185,9177,1,4,0:0:0:0:
94,198,9178,1,0,0:0:0:0:
414,145,9214,1,12,0:0:0:0:
94,198,9215,1,0,0:0:0:0:
173,283,9252,1,4,0:0:0:0:
273,121,9289,1,8,0:0:0:0:
343,185,9326,1,4,0:0:0:0:
94,198,9363,1,0,0:0:0:0:
173,283,9400,1,4,0:0:0:0:
273,121,9437,1,8,0:0:0:0:
343,185,9474,1,4,0:0:0:0:
94,198,9475,1,0,0:0:0:0:
414,145,9511,1,12,0:0:0:0:
94,198,9512,1,0,0:0:0:0:
173,283,9549,1,4,0:0:0:0:
273,121,9586,1,8,0:0:0:0:
343,185,9623,1,4,0:0:0:0:
94,198,9660,1,0,0:0:0:0:
173,283,9697,1,4,0:0:0:0:
273,121,9734,1,8,0:0:0:0:
343,185,9771,1,4,0:0:0:0:
94,198,9772,1,0,0:0:0:0:
414,145,9808,1,12,0:0:0:0:
94,198,9809,1,0,0:0:0:0:
173,283,9846,1,4,0:0:0:0:
273,121,9883,1,8,0:0:0:0:
343,185,9920,1,4,0:0:0:0:
94,198,9921,1,0,0:0:0:0:
173,283,9958,1,4,0:0:0:0:
273,121,9995,1,8,0:0:0:0:
343,185,10032,1,4,0:0:0:0:
414,145,10069,1,12,0:0:0:0:
94,198,10106,1,0,0:0:0:0:
173,283,10143,1,4,0:0:0:0:
273,121,10180,1,8,0:0:0:0:
343,185,10217,1,4,0:0:0:0:
414,145,10254,1,12,0:0:0:0:
94,198,10255,1,0,0:0:0:0:
173,283,10292,1,4,0:0:0:0:
273,121,10329,1,8,0:0:0:0:
343,185,10366,1,4,0:0:0:0:
414,145,10403,1,12,0:0:0:0:
94,198,10404,1,0,0:0:0:0:
173,283,10441,1,4,0:0:0:0:
273,121,10478,1,8,0:0:0:0:
343,185,10515,1,4,0:0:0:0:
94,198,10552,1,0,0:0:0:0:
173,283,10589,1,4,0:0:0:0:
273,121,10626,1,8,0:0:0:0:
343,185,10663,1,4,0:0:0:0:
414,145,10700,1,12,0:0:0:0:
94,198,10701,1,0,0:0:0:0:
173,283,10738,1,4,0:0:0:0:
273,121,10775,1,8,0:0:0:0:
343,185,10812,1,4,0:0:0:0:
94,198,10849,1,0,0:0:0:0:
173,283,10886,1,4,0:0:0:0:
273,121,10923,1,8,0:0:0:0:
343,185,10960,1,4,0:0:0:0:
414,145,10997,1,12,0:0:0:0:
94,198,10998,1,0,0:0:0:0:
173,283,11035,1,4,0:0:0:0:
273,121,11072,1,8,0:0:0:0:
343,185,11109,1,4,0:0:0:0:
256,192,11221,12,0,11890,0:0:0:0:
208,207,11927,5,0,0:0:0:0:
445,188,11964,1,0,0:0:0:0:
447,88,12001,1,0,0:0:0:0:
255,40,12038,1,0,0:0:0:0:
324,211,12076,1,0,0:0:0:0:
350,13,12113,1,0,0:0:0:0:
