osu file format v14

[General]
AudioFilename: audio.mp3
AudioLeadIn: 0
PreviewTime: -1
Countdown: 1
SampleSet: None
StackLeniency: 0.7
Mode: 0
LetterboxInBreaks: 0
WidescreenStoryboard: 1

[Editor]
DistanceSpacing: 0.3
BeatDivisor: 6
GridSize: 4
TimelineZoom: 1

[Metadata]
Title:Example Beatmap
TitleUnicode:Example Beatmap
Artist:Lorem Ipsum
ArtistUnicode:Lorem Ipsum
Creator:OwOwWhatsThis
Version:Example AR0 Map
Source:
Tags:lorem ipsum
BeatmapID:1726342
BeatmapSetID:823854

[Difficulty]
HPDrainRate:7
CircleSize:3
OverallDifficulty:6
ApproachRate:1
SliderMultiplier:1.4
SliderTickRate:1

[Events]
//Background and Video events
0,0,"Chania.jpg",0,0
//Break Periods
//Storyboard Layer 0 (Background)
//Storyboard Layer 1 (Fail)
//Storyboard Layer 2 (Pass)
//Storyboard Layer 3 (Foreground)
//Storyboard Sound Samples

[TimingPoints]
3.3098782887581,222.882615156018,4,1,0,100,1,0

[HitObjects]
24,62,671,5,0,0:0:0:0:
250,219,709,1,0,0:0:0:0:
291,226,746,1,0,0:0:0:0:
336,236,783,1,0,0:0:0:0:
470,47,820,1,0,0:0:0:0:
326,61,857,1,0,0:0:0:0:
297,61,894,1,0,0:0:0:0:
262,60,931,1,0,0:0:0:0:
101,58,969,1,0,0:0:0:0:
86,250,1006,1,0,0:0:0:0:
250,262,1043,1,0,0:0:0:0:
248,219,1080,1,0,0:0:0:0:
243,178,1117,1,0,0:0:0:0:
94,114,1154,1,0,0:0:0:0:
268,112,1377,1,0,0:0:0:0:
379,274,1414,1,0,0:0:0:0:
144,272,1452,1,0,0:0:0:0:
115,114,1489,1,0,0:0:0:0:
83,149,1526,1,0,0:0:0:0:
53,172,1563,1,0,0:0:0:0:
352,229,1600,1,0,0:0:0:0:
337,130,1637,5,0,0:0:0:0:
309,81,1674,1,0,0:0:0:0:
272,53,1712,1,0,0:0:0:0:
243,195,1749,1,0,0:0:0:0:
228,340,1786,1,0,0:0:0:0:
119,169,1823,5,0,0:0:0:0:
81,120,1860,1,0,0:0:0:0:
74,82,1897,1,0,0:0:0:0:
92,32,1934,1,0,0:0:0:0:
468,31,1972,1,0,0:0:0:0:
475,208,2009,5,0,0:0:0:0:
471,296,2046,1,0,0:0:0:0:
426,373,2083,1,0,0:0:0:0:
108,210,2120,5,0,0:0:0:0:
384,220,2157,1,0,0:0:0:0:
400,28,2194,1,0,0:0:0:0:
128,16,2232,5,0,0:0:0:0:
118,86,2269,1,0,0:0:0:0:
112,123,2306,1,0,0:0:0:0:
213,218,2343,1,0,0:0:0:0:
349,367,2380,1,0,0:0:0:0:
347,331,2417,1,0,0:0:0:0:
317,322,2455,1,0,0:0:0:0:
205,124,2492,5,2,0:0:0:0:
198,189,2529,1,2,0:0:0:0:
253,195,2566,1,2,0:0:0:0:
384,125,2603,5,2,0:0:0:0:
420,125,2640,1,2,0:0:0:0:
459,129,2677,1,2,0:0:0:0:
177,299,2715,5,0,0:0:0:0:
136,298,2752,1,0,0:0:0:0:
87,297,2789,1,0,0:0:0:0:
200,63,2826,5,2,0:0:0:0:
245,53,2863,1,2,0:0:0:0:
294,43,2900,1,2,0:0:0:0:
287,220,2937,5,2,0:0:0:0:
251,214,2975,1,2,0:0:0:0:
195,212,3012,1,2,0:0:0:0:
363,136,3049,5,2,0:0:0:0:
405,150,3086,1,2,0:0:0:0:
434,167,3123,1,2,0:0:0:0:
226,164,3160,5,2,0:0:0:0:
226,164,3197,1,2,0:0:0:0:
138,142,3272,2,14,L|229:297,1,163.333333333333
233,97,3643,5,2,0:0:0:0:
272,161,3680,1,2,0:0:0:0:
299,207,3755,1,2,0:0:0:0:
386,199,3792,1,2,0:0:0:0:
434,106,3829,1,2,0:0:0:0:
378,109,3866,1,2,0:0:0:0:
380,157,3903,1,2,0:0:0:0:
399,344,3940,1,2,0:0:0:0:
96,296,3978,1,2,0:0:0:0:
181,56,4015,1,0,0:0:0:0:
360,247,4052,1,0,0:0:0:0:
277,332,4089,1,0,0:0:0:0:
460,53,4126,1,0,0:0:0:0:
79,349,4163,1,0,0:0:0:0:
239,40,4200,1,0,0:0:0:0:
402,290,4238,1,0,0:0:0:0:
99,211,4275,1,0,0:0:0:0:
361,181,4312,1,0,0:0:0:0:
234,151,4535,1,0,0:0:0:0:
425,251,4609,1,0,0:0:0:0:
389,0,4646,5,0,0:0:0:0:
232,57,4683,1,0,0:0:0:0:
262,57,4720,1,0,0:0:0:0:
324,269,4795,1,0,0:0:0:0:
295,270,4832,1,0,0:0:0:0:
213,149,4869,1,0,0:0:0:0:
250,157,4906,1,0,0:0:0:0:
360,162,4943,1,0,0:0:0:0:
320,184,4981,1,0,0:0:0:0:
222,198,5018,1,0,0:0:0:0:
71,189,5055,1,0,0:0:0:0:
81,313,5092,1,0,0:0:0:0:
277,332,5129,1,0,0:0:0:0:
319,146,6421,1,0,0:0:0:0:
