osu file format v14

[General]
AudioFilename: audio.mp3
AudioLeadIn: 0
PreviewTime: -1
Countdown: 0
SampleSet: None
StackLeniency: 0.7
Mode: 3
LetterboxInBreaks: 0
SpecialStyle: 0
WidescreenStoryboard: 0

[Editor]
DistanceSpacing: 1.5
BeatDivisor: 8
GridSize: 4
TimelineZoom: 1

[Metadata]
Title:Final Destination GOD MODE
TitleUnicode:Final Destination GOD MODE
Artist:LordVoiid
ArtistUnicode:LordVoiid虚空
Creator:AndreeGamerXD
Version:God Mode (BF sides)
Source:Voiid Chronicles
Tags:MattxShaggy
BeatmapID:4556003
BeatmapSetID:2160537

[Difficulty]
HPDrainRate:8
CircleSize:9
OverallDifficulty:5
ApproachRate:5
SliderMultiplier:1.4
SliderTickRate:1

[Events]
//Background and Video events
0,0,"FINAL DESTINATION GOD MODE.jpg",0,0
//Break Periods
2,7295,8420
2,32245,33245
2,57820,69245
2,84645,86845
2,118645,119620
2,125295,126420
2,144195,155670
2,173020,174820
2,179395,181270
2,185820,187670
2,192070,194045
2,196670,198870
2,256220,266870
//Storyboard Layer 0 (Background)
//Storyboard Layer 1 (Fail)
//Storyboard Layer 2 (Pass)
//Storyboard Layer 3 (Foreground)
//Storyboard Layer 4 (Overlay)
//Storyboard Sound Samples

[TimingPoints]
320,200,4,1,0,100,1,0

[HitObjects]
142,192,3245,128,0,3420:0:0:0:0:
312,192,3445,128,0,3520:0:0:0:0:
199,192,3570,128,0,3595:0:0:0:0:
483,192,3620,1,0,0:0:0:0:
426,192,3686,1,0,0:0:0:0:
369,192,3753,1,0,0:0:0:0:
312,192,3820,1,0,0:0:0:0:
256,192,3870,1,0,0:0:0:0:
28,192,3895,1,0,0:0:0:0:
85,192,3945,1,0,0:0:0:0:
142,192,3995,1,0,0:0:0:0:
369,192,4045,1,0,0:0:0:0:
369,192,4120,1,0,0:0:0:0:
142,192,4245,1,0,0:0:0:0:
85,192,4270,1,0,0:0:0:0:
28,192,4320,1,0,0:0:0:0:
199,192,4395,1,0,0:0:0:0:
256,192,4470,1,0,0:0:0:0:
256,192,4545,1,0,0:0:0:0:
483,192,4620,1,0,0:0:0:0:
426,192,4695,1,0,0:0:0:0:
369,192,4720,1,0,0:0:0:0:
312,192,4770,1,0,0:0:0:0:
85,192,4870,128,0,5020:0:0:0:0:
256,192,5045,128,0,5195:0:0:0:0:
426,192,5245,1,0,0:0:0:0:
199,192,5345,1,0,0:0:0:0:
142,192,5395,1,0,0:0:0:0:
199,192,5445,1,0,0:0:0:0:
483,192,5520,1,0,0:0:0:0:
426,192,5595,1,0,0:0:0:0:
369,192,5645,128,0,5695:0:0:0:0:
312,192,5745,1,0,0:0:0:0:
142,192,5845,1,0,0:0:0:0:
28,192,5945,1,0,0:0:0:0:
199,192,6045,128,0,6120:0:0:0:0:
369,192,6245,128,0,6320:0:0:0:0:
256,192,6495,128,0,7095:0:0:0:0:
483,192,9620,5,0,0:0:0:0:
426,192,9670,1,0,0:0:0:0:
369,192,9720,1,0,0:0:0:0:
142,192,9795,1,0,0:0:0:0:
199,192,9845,1,0,0:0:0:0:
312,192,9920,1,0,0:0:0:0:
85,192,10045,1,0,0:0:0:0:
142,192,10095,1,0,0:0:0:0:
199,192,10145,1,0,0:0:0:0:
256,192,10195,1,0,0:0:0:0:
369,192,10245,1,0,0:0:0:0:
312,192,10320,1,0,0:0:0:0:
483,192,10495,1,0,0:0:0:0:
426,192,10545,1,0,0:0:0:0:
369,192,10595,1,0,0:0:0:0:
312,192,10645,1,0,0:0:0:0:
256,192,10695,1,0,0:0:0:0:
28,192,10745,1,0,0:0:0:0:
85,192,10795,1,0,0:0:0:0:
142,192,10845,1,0,0:0:0:0:
199,192,10895,1,0,0:0:0:0:
369,192,10970,1,0,0:0:0:0:
483,192,11045,1,0,0:0:0:0:
426,192,11120,1,0,0:0:0:0:
369,192,11145,1,0,0:0:0:0:
312,192,11195,1,0,0:0:0:0:
85,192,11245,1,0,0:0:0:0:
199,192,11345,1,0,0:0:0:0:
312,192,11470,1,0,0:0:0:0:
426,192,11495,1,0,0:0:0:0:
312,192,11545,1,0,0:0:0:0:
142,192,11620,1,0,0:0:0:0:
28,192,11720,1,0,0:0:0:0:
199,192,11845,1,0,0:0:0:0:
312,192,11920,1,0,0:0:0:0:
28,192,12045,1,0,0:0:0:0:
85,192,12095,1,0,0:0:0:0:
142,192,12145,1,0,0:0:0:0:
199,192,12195,1,0,0:0:0:0:
256,192,12245,1,0,0:0:0:0:
256,192,12345,1,0,0:0:0:0:
483,192,12445,1,0,0:0:0:0:
426,192,12495,1,0,0:0:0:0:
369,192,12545,1,0,0:0:0:0:
312,192,12595,1,0,0:0:0:0:
85,192,12670,1,0,0:0:0:0:
426,192,12845,128,0,13370:0:0:0:0:
199,192,13445,1,0,0:0:0:0:
199,192,13570,1,0,0:0:0:0:
142,192,13645,128,0,13695:0:0:0:0:
199,192,13770,1,0,0:0:0:0:
369,192,13845,1,0,0:0:0:0:
369,192,13920,1,0,0:0:0:0:
312,192,14045,1,0,0:0:0:0:
199,192,14220,1,0,0:0:0:0:
142,192,14445,1,0,0:0:0:0:
28,192,14645,1,0,0:0:0:0:
369,192,14845,1,0,0:0:0:0:
256,192,15020,128,0,15095:0:0:0:0:
199,192,15070,1,0,0:0:0:0:
312,192,15120,1,0,0:0:0:0:
142,192,15220,1,0,0:0:0:0:
142,192,15345,1,0,0:0:0:0:
312,192,15445,1,0,0:0:0:0:
85,192,15595,1,0,0:0:0:0:
85,192,15720,1,0,0:0:0:0:
256,192,15845,1,0,0:0:0:0:
28,192,16045,1,0,0:0:0:0:
85,192,16095,1,0,0:0:0:0:
142,192,16145,1,0,0:0:0:0:
199,192,16195,1,0,0:0:0:0:
369,192,16245,128,0,16320:0:0:0:0:
483,192,16445,1,0,0:0:0:0:
426,192,16495,1,0,0:0:0:0:
369,192,16545,1,0,0:0:0:0:
256,192,16595,1,0,0:0:0:0:
28,192,16645,1,0,0:0:0:0:
85,192,16695,1,0,0:0:0:0:
142,192,16745,1,0,0:0:0:0:
256,192,16795,1,0,0:0:0:0:
483,192,16870,1,0,0:0:0:0:
426,192,16920,1,0,0:0:0:0:
369,192,16970,1,0,0:0:0:0:
85,192,16995,1,0,0:0:0:0:
142,192,17045,1,0,0:0:0:0:
199,192,17095,1,0,0:0:0:0:
256,192,17145,1,0,0:0:0:0:
369,192,17195,1,0,0:0:0:0:
312,192,17245,1,0,0:0:0:0:
28,192,17295,1,0,0:0:0:0:
85,192,17345,1,0,0:0:0:0:
142,192,17395,1,0,0:0:0:0:
483,192,17445,1,0,0:0:0:0:
426,192,17495,1,0,0:0:0:0:
369,192,17545,1,0,0:0:0:0:
312,192,17595,1,0,0:0:0:0:
28,192,17645,1,0,0:0:0:0:
28,192,17720,1,0,0:0:0:0:
85,192,17845,1,0,0:0:0:0:
199,192,17945,1,0,0:0:0:0:
369,192,18145,1,0,0:0:0:0:
483,192,18245,1,0,0:0:0:0:
426,192,18345,1,0,0:0:0:0:
28,192,18520,1,0,0:0:0:0:
85,192,18570,1,0,0:0:0:0:
142,192,18620,1,0,0:0:0:0:
483,192,18770,1,0,0:0:0:0:
426,192,18820,1,0,0:0:0:0:
369,192,18870,1,0,0:0:0:0:
85,192,18920,1,0,0:0:0:0:
142,192,18970,1,0,0:0:0:0:
483,192,19020,1,0,0:0:0:0:
426,192,19070,1,0,0:0:0:0:
369,192,19120,1,0,0:0:0:0:
256,192,19170,1,0,0:0:0:0:
85,192,19195,1,0,0:0:0:0:
199,192,19245,128,0,19470:0:0:0:0:
312,192,19395,128,0,19595:0:0:0:0:
142,192,20845,1,0,0:0:0:0:
142,192,20945,1,0,0:0:0:0:
312,192,21045,1,0,0:0:0:0:
85,192,21120,1,0,0:0:0:0:
199,192,21245,1,0,0:0:0:0:
256,192,21445,1,0,0:0:0:0:
28,192,22420,1,0,0:0:0:0:
142,192,22545,1,0,0:0:0:0:
85,192,22620,1,0,0:0:0:0:
199,192,22720,1,0,0:0:0:0:
256,192,22845,1,0,0:0:0:0:
312,192,22895,1,0,0:0:0:0:
256,192,22945,1,0,0:0:0:0:
312,192,22995,1,0,0:0:0:0:
199,192,23045,1,0,0:0:0:0:
142,192,23095,1,0,0:0:0:0:
199,192,23145,1,0,0:0:0:0:
142,192,23195,1,0,0:0:0:0:
483,192,23245,1,0,0:0:0:0:
426,192,23295,1,0,0:0:0:0:
369,192,23345,1,0,0:0:0:0:
312,192,23395,1,0,0:0:0:0:
28,192,23445,1,0,0:0:0:0:
85,192,23495,1,0,0:0:0:0:
142,192,23545,1,0,0:0:0:0:
199,192,23595,1,0,0:0:0:0:
369,192,23645,1,0,0:0:0:0:
312,192,23695,1,0,0:0:0:0:
142,192,23745,1,0,0:0:0:0:
199,192,23795,1,0,0:0:0:0:
369,192,23845,128,0,23945:0:0:0:0:
426,192,23870,128,0,23895:0:0:0:0:
312,192,23920,128,0,23945:0:0:0:0:
142,192,24020,1,0,0:0:0:0:
312,192,24120,1,0,0:0:0:0:
28,192,24245,1,0,0:0:0:0:
85,192,24295,1,0,0:0:0:0:
142,192,24345,1,0,0:0:0:0:
199,192,24420,1,0,0:0:0:0:
369,192,24645,1,0,0:0:0:0:
28,192,24845,1,0,0:0:0:0:
85,192,24895,1,0,0:0:0:0:
142,192,24970,1,0,0:0:0:0:
199,192,25020,1,0,0:0:0:0:
369,192,25045,1,0,0:0:0:0:
312,192,25095,1,0,0:0:0:0:
28,192,25170,1,0,0:0:0:0:
85,192,25220,1,0,0:0:0:0:
142,192,25270,1,0,0:0:0:0:
426,192,25320,1,0,0:0:0:0:
369,192,25370,1,0,0:0:0:0:
312,192,25420,1,0,0:0:0:0:
256,192,25470,1,0,0:0:0:0:
142,192,25520,1,0,0:0:0:0:
199,192,25570,1,0,0:0:0:0:
369,192,25645,128,0,25895:0:0:0:0:
199,192,27045,1,0,0:0:0:0:
312,192,27120,1,0,0:0:0:0:
256,192,27220,1,0,0:0:0:0:
85,192,27345,1,0,0:0:0:0:
199,192,27445,1,0,0:0:0:0:
369,192,27545,128,0,27645:0:0:0:0:
483,192,27720,1,0,0:0:0:0:
426,192,27820,1,0,0:0:0:0:
312,192,27945,1,0,0:0:0:0:
199,192,28045,128,0,28120:0:0:0:0:
312,192,28245,128,0,28320:0:0:0:0:
256,192,28445,128,0,28520:0:0:0:0:
199,192,28645,128,0,28720:0:0:0:0:
28,192,28845,1,0,0:0:0:0:
85,192,28920,1,0,0:0:0:0:
483,192,29045,1,0,0:0:0:0:
426,192,29095,1,0,0:0:0:0:
369,192,29145,1,0,0:0:0:0:
142,192,29195,1,0,0:0:0:0:
199,192,29245,1,0,0:0:0:0:
85,192,29420,1,0,0:0:0:0:
142,192,29470,1,0,0:0:0:0:
199,192,29520,1,0,0:0:0:0:
312,192,29595,1,0,0:0:0:0:
85,192,29645,1,0,0:0:0:0:
142,192,29695,1,0,0:0:0:0:
199,192,29745,1,0,0:0:0:0:
256,192,29795,1,0,0:0:0:0:
28,192,29845,1,0,0:0:0:0:
142,192,29920,1,0,0:0:0:0:
483,192,30045,1,0,0:0:0:0:
426,192,30095,1,0,0:0:0:0:
369,192,30145,1,0,0:0:0:0:
312,192,30195,1,0,0:0:0:0:
142,192,30245,1,0,0:0:0:0:
85,192,30345,1,0,0:0:0:0:
199,192,30445,1,0,0:0:0:0:
369,192,30545,1,0,0:0:0:0:
142,192,30645,1,0,0:0:0:0:
85,192,30695,1,0,0:0:0:0:
28,192,30745,128,0,30795:0:0:0:0:
85,192,30845,1,0,0:0:0:0:
483,192,30945,1,0,0:0:0:0:
426,192,30995,1,0,0:0:0:0:
369,192,31045,1,0,0:0:0:0:
312,192,31095,1,0,0:0:0:0:
142,192,31145,1,0,0:0:0:0:
199,192,31195,1,0,0:0:0:0:
28,192,31245,1,0,0:0:0:0:
85,192,31295,1,0,0:0:0:0:
142,192,31320,128,0,31370:0:0:0:0:
312,192,31420,1,0,0:0:0:0:
483,192,31495,1,0,0:0:0:0:
426,192,31545,1,0,0:0:0:0:
369,192,31595,1,0,0:0:0:0:
312,192,31645,1,0,0:0:0:0:
142,192,31720,1,0,0:0:0:0:
199,192,31770,1,0,0:0:0:0:
256,192,31820,1,0,0:0:0:0:
312,192,31870,1,0,0:0:0:0:
142,192,31920,1,0,0:0:0:0:
85,192,31970,1,0,0:0:0:0:
28,192,32020,1,0,0:0:0:0:
256,192,32045,1,0,0:0:0:0:
142,192,34445,132,0,34545:0:0:0:0:
312,192,34645,1,0,0:0:0:0:
369,192,34845,1,0,0:0:0:0:
369,192,35045,1,0,0:0:0:0:
28,192,35245,1,0,0:0:0:0:
85,192,35295,1,0,0:0:0:0:
142,192,35345,1,0,0:0:0:0:
199,192,35395,1,0,0:0:0:0:
256,192,35445,1,0,0:0:0:0:
256,192,35545,1,0,0:0:0:0:
483,192,35645,1,0,0:0:0:0:
426,192,35695,1,0,0:0:0:0:
369,192,35745,1,0,0:0:0:0:
312,192,35795,1,0,0:0:0:0:
28,192,35845,1,0,0:0:0:0:
85,192,35895,1,0,0:0:0:0:
142,192,35945,1,0,0:0:0:0:
199,192,35995,1,0,0:0:0:0:
369,192,36070,1,0,0:0:0:0:
312,192,36120,1,0,0:0:0:0:
199,192,36220,128,0,36295:0:0:0:0:
426,192,36445,1,0,0:0:0:0:
483,192,36495,1,0,0:0:0:0:
426,192,36545,1,0,0:0:0:0:
483,192,36595,1,0,0:0:0:0:
28,192,36645,1,0,0:0:0:0:
85,192,36695,1,0,0:0:0:0:
142,192,36745,1,0,0:0:0:0:
256,192,36820,1,0,0:0:0:0:
369,192,36870,1,0,0:0:0:0:
312,192,36920,1,0,0:0:0:0:
256,192,36970,1,0,0:0:0:0:
199,192,37020,1,0,0:0:0:0:
426,192,37070,1,0,0:0:0:0:
426,192,37145,1,0,0:0:0:0:
199,192,37270,1,0,0:0:0:0:
142,192,37320,1,0,0:0:0:0:
199,192,37370,1,0,0:0:0:0:
142,192,37420,1,0,0:0:0:0:
312,192,37470,1,0,0:0:0:0:
369,192,37520,1,0,0:0:0:0:
426,192,37570,1,0,0:0:0:0:
483,192,37620,1,0,0:0:0:0:
28,192,37645,1,0,0:0:0:0:
85,192,37695,1,0,0:0:0:0:
142,192,37745,1,0,0:0:0:0:
256,192,37795,1,0,0:0:0:0:
483,192,37845,1,0,0:0:0:0:
483,192,37945,1,0,0:0:0:0:
256,192,38070,1,0,0:0:0:0:
85,192,38270,1,0,0:0:0:0:
312,192,38445,128,0,38570:0:0:0:0:
369,192,38520,128,0,38620:0:0:0:0:
256,192,38645,128,0,38720:0:0:0:0:
199,192,41245,1,0,0:0:0:0:
369,192,41445,1,0,0:0:0:0:
256,192,41620,128,0,41695:0:0:0:0:
369,192,41720,128,0,41795:0:0:0:0:
142,192,41820,1,0,0:0:0:0:
85,192,41870,1,0,0:0:0:0:
28,192,41920,1,0,0:0:0:0:
312,192,41995,1,0,0:0:0:0:
369,192,42045,1,0,0:0:0:0:
426,192,42095,1,0,0:0:0:0:
199,192,42145,1,0,0:0:0:0:
142,192,42195,1,0,0:0:0:0:
85,192,42245,1,0,0:0:0:0:
312,192,42370,1,0,0:0:0:0:
426,192,42445,1,0,0:0:0:0:
28,192,42545,1,0,0:0:0:0:
85,192,42595,1,0,0:0:0:0:
142,192,42645,1,0,0:0:0:0:
199,192,42695,1,0,0:0:0:0:
256,192,42745,1,0,0:0:0:0:
369,192,42795,1,0,0:0:0:0:
312,192,42845,128,0,42995:0:0:0:0:
142,192,43045,1,0,0:0:0:0:
369,192,43245,128,0,43370:0:0:0:0:
199,192,43445,1,0,0:0:0:0:
142,192,43495,1,0,0:0:0:0:
199,192,43545,1,0,0:0:0:0:
142,192,43595,1,0,0:0:0:0:
483,192,43645,1,0,0:0:0:0:
426,192,43695,1,0,0:0:0:0:
369,192,43745,1,0,0:0:0:0:
312,192,43795,1,0,0:0:0:0:
28,192,43870,1,0,0:0:0:0:
85,192,43920,1,0,0:0:0:0:
142,192,43970,1,0,0:0:0:0:
199,192,44020,1,0,0:0:0:0:
369,192,44070,1,0,0:0:0:0:
312,192,44120,1,0,0:0:0:0:
85,192,44220,1,0,0:0:0:0:
142,192,44270,1,0,0:0:0:0:
426,192,44445,1,0,0:0:0:0:
199,192,44645,1,0,0:0:0:0:
256,192,44845,128,0,45570:0:0:0:0:
85,192,45620,128,0,46395:0:0:0:0:
312,192,46445,128,0,47170:0:0:0:0:
142,192,47245,128,0,47570:0:0:0:0:
483,192,47620,128,0,47970:0:0:0:0:
142,192,48045,1,0,0:0:0:0:
28,192,48245,1,0,0:0:0:0:
85,192,48295,1,0,0:0:0:0:
142,192,48345,1,0,0:0:0:0:
199,192,48395,1,0,0:0:0:0:
426,192,48445,1,0,0:0:0:0:
312,192,48645,1,0,0:0:0:0:
312,192,48745,1,0,0:0:0:0:
28,192,48845,1,0,0:0:0:0:
85,192,48895,1,0,0:0:0:0:
142,192,48945,1,0,0:0:0:0:
199,192,48995,1,0,0:0:0:0:
256,192,49045,1,0,0:0:0:0:
256,192,49120,1,0,0:0:0:0:
483,192,49245,1,0,0:0:0:0:
426,192,49295,1,0,0:0:0:0:
369,192,49345,1,0,0:0:0:0:
312,192,49395,1,0,0:0:0:0:
142,192,49445,1,0,0:0:0:0:
199,192,49495,1,0,0:0:0:0:
256,192,49545,1,0,0:0:0:0:
199,192,49670,1,0,0:0:0:0:
142,192,49720,1,0,0:0:0:0:
85,192,49770,1,0,0:0:0:0:
28,192,49820,1,0,0:0:0:0:
369,192,49845,1,0,0:0:0:0:
312,192,49895,1,0,0:0:0:0:
256,192,49945,1,0,0:0:0:0:
256,192,50045,1,0,0:0:0:0:
369,192,50120,1,0,0:0:0:0:
426,192,50170,1,0,0:0:0:0:
483,192,50220,1,0,0:0:0:0:
199,192,50295,1,0,0:0:0:0:
142,192,50345,1,0,0:0:0:0:
85,192,50395,1,0,0:0:0:0:
483,192,50445,1,0,0:0:0:0:
426,192,50495,1,0,0:0:0:0:
369,192,50545,1,0,0:0:0:0:
312,192,50595,1,0,0:0:0:0:
256,192,50645,1,0,0:0:0:0:
142,192,50695,1,0,0:0:0:0:
199,192,50745,1,0,0:0:0:0:
256,192,50795,1,0,0:0:0:0:
28,192,50845,1,0,0:0:0:0:
85,192,50895,1,0,0:0:0:0:
142,192,50945,1,0,0:0:0:0:
199,192,50995,1,0,0:0:0:0:
256,192,51045,1,0,0:0:0:0:
426,192,51095,1,0,0:0:0:0:
369,192,51145,1,0,0:0:0:0:
312,192,51195,1,0,0:0:0:0:
199,192,51445,1,0,0:0:0:0:
369,192,51845,1,0,0:0:0:0:
256,192,52045,1,0,0:0:0:0:
199,192,52245,1,0,0:0:0:0:
199,192,52370,1,0,0:0:0:0:
369,192,52445,1,0,0:0:0:0:
426,192,52645,1,0,0:0:0:0:
85,192,53045,1,0,0:0:0:0:
256,192,53445,1,0,0:0:0:0:
256,192,53545,1,0,0:0:0:0:
199,192,53645,1,0,0:0:0:0:
312,192,54045,1,0,0:0:0:0:
28,192,54445,1,0,0:0:0:0:
85,192,54495,1,0,0:0:0:0:
142,192,54545,1,0,0:0:0:0:
199,192,54595,1,0,0:0:0:0:
369,192,54645,128,0,54720:0:0:0:0:
483,192,54845,1,0,0:0:0:0:
426,192,54895,1,0,0:0:0:0:
369,192,54945,1,0,0:0:0:0:
256,192,54995,1,0,0:0:0:0:
28,192,55045,1,0,0:0:0:0:
85,192,55095,1,0,0:0:0:0:
142,192,55145,1,0,0:0:0:0:
256,192,55195,1,0,0:0:0:0:
369,192,55245,1,0,0:0:0:0:
312,192,55320,1,0,0:0:0:0:
199,192,55445,128,0,55620:0:0:0:0:
483,192,55645,1,0,0:0:0:0:
426,192,55695,1,0,0:0:0:0:
369,192,55745,1,0,0:0:0:0:
28,192,55845,1,0,0:0:0:0:
85,192,55895,1,0,0:0:0:0:
142,192,55945,1,0,0:0:0:0:
28,192,56045,1,0,0:0:0:0:
28,192,56170,1,0,0:0:0:0:
85,192,56245,1,0,0:0:0:0:
199,192,56320,1,0,0:0:0:0:
369,192,56545,1,0,0:0:0:0:
483,192,56645,1,0,0:0:0:0:
426,192,56770,1,0,0:0:0:0:
28,192,56920,1,0,0:0:0:0:
85,192,56970,1,0,0:0:0:0:
142,192,57020,1,0,0:0:0:0:
483,192,57120,1,0,0:0:0:0:
426,192,57170,1,0,0:0:0:0:
369,192,57220,1,0,0:0:0:0:
312,192,57270,1,0,0:0:0:0:
369,192,57320,1,0,0:0:0:0:
28,192,57395,1,0,0:0:0:0:
85,192,57445,1,0,0:0:0:0:
142,192,57495,1,0,0:0:0:0:
256,192,57570,1,0,0:0:0:0:
369,192,57620,1,0,0:0:0:0:
483,192,70445,5,0,0:0:0:0:
28,192,70445,128,0,71020:0:0:0:0:
426,192,70495,1,0,0:0:0:0:
369,192,70545,1,0,0:0:0:0:
312,192,70595,1,0,0:0:0:0:
483,192,70645,1,0,0:0:0:0:
426,192,70845,1,0,0:0:0:0:
85,192,70970,128,0,71145:0:0:0:0:
312,192,71020,1,0,0:0:0:0:
369,192,71070,1,0,0:0:0:0:
426,192,71120,1,0,0:0:0:0:
483,192,71170,1,0,0:0:0:0:
369,192,71220,1,0,0:0:0:0:
199,192,71245,1,0,0:0:0:0:
312,192,71295,1,0,0:0:0:0:
142,192,71295,1,0,0:0:0:0:
426,192,71345,1,0,0:0:0:0:
85,192,71345,1,0,0:0:0:0:
483,192,71395,1,0,0:0:0:0:
28,192,71395,1,0,0:0:0:0:
312,192,71445,1,0,0:0:0:0:
199,192,71445,1,0,0:0:0:0:
369,192,71495,1,0,0:0:0:0:
85,192,71495,1,0,0:0:0:0:
426,192,71545,1,0,0:0:0:0:
142,192,71545,1,0,0:0:0:0:
483,192,71595,1,0,0:0:0:0:
312,192,71645,1,0,0:0:0:0:
28,192,71645,1,0,0:0:0:0:
369,192,71695,1,0,0:0:0:0:
85,192,71695,1,0,0:0:0:0:
142,192,71745,1,0,0:0:0:0:
483,192,71820,1,0,0:0:0:0:
199,192,71845,1,0,0:0:0:0:
426,192,71895,1,0,0:0:0:0:
142,192,71895,1,0,0:0:0:0:
85,192,71945,1,0,0:0:0:0:
312,192,71970,1,0,0:0:0:0:
28,192,72020,1,0,0:0:0:0:
483,192,72070,1,0,0:0:0:0:
426,192,72145,1,0,0:0:0:0:
199,192,72245,1,0,0:0:0:0:
426,192,72320,1,0,0:0:0:0:
199,192,72345,1,0,0:0:0:0:
312,192,72445,1,0,0:0:0:0:
142,192,72470,128,0,72545:0:0:0:0:
369,192,72495,1,0,0:0:0:0:
85,192,72520,128,0,72570:0:0:0:0:
483,192,72545,1,0,0:0:0:0:
426,192,72595,1,0,0:0:0:0:
369,192,72645,1,0,0:0:0:0:
199,192,72645,1,0,0:0:0:0:
312,192,72695,1,0,0:0:0:0:
142,192,72695,1,0,0:0:0:0:
426,192,72745,1,0,0:0:0:0:
85,192,72745,1,0,0:0:0:0:
483,192,72795,1,0,0:0:0:0:
28,192,72795,1,0,0:0:0:0:
312,192,72845,1,0,0:0:0:0:
199,192,72845,1,0,0:0:0:0:
369,192,72895,1,0,0:0:0:0:
142,192,72895,1,0,0:0:0:0:
426,192,72945,1,0,0:0:0:0:
28,192,72945,1,0,0:0:0:0:
85,192,72995,1,0,0:0:0:0:
483,192,73045,1,0,0:0:0:0:
142,192,73045,1,0,0:0:0:0:
426,192,73095,1,0,0:0:0:0:
199,192,73095,1,0,0:0:0:0:
369,192,73145,1,0,0:0:0:0:
85,192,73145,1,0,0:0:0:0:
28,192,73195,1,0,0:0:0:0:
426,192,73245,1,0,0:0:0:0:
199,192,73245,1,0,0:0:0:0:
483,192,73295,1,0,0:0:0:0:
142,192,73295,1,0,0:0:0:0:
369,192,73345,1,0,0:0:0:0:
199,192,73345,1,0,0:0:0:0:
142,192,73395,1,0,0:0:0:0:
312,192,73420,1,0,0:0:0:0:
28,192,73445,1,0,0:0:0:0:
369,192,73470,1,0,0:0:0:0:
85,192,73495,1,0,0:0:0:0:
426,192,73520,1,0,0:0:0:0:
28,192,73545,1,0,0:0:0:0:
483,192,73570,1,0,0:0:0:0:
85,192,73595,1,0,0:0:0:0:
312,192,73620,1,0,0:0:0:0:
369,192,73670,1,0,0:0:0:0:
199,192,73670,128,0,73995:0:0:0:0:
312,192,73720,1,0,0:0:0:0:
369,192,73770,1,0,0:0:0:0:
483,192,73845,1,0,0:0:0:0:
483,192,73945,1,0,0:0:0:0:
426,192,73995,1,0,0:0:0:0:
85,192,74045,128,0,74370:0:0:0:0:
483,192,74220,1,0,0:0:0:0:
426,192,74270,1,0,0:0:0:0:
369,192,74320,1,0,0:0:0:0:
312,192,74345,1,0,0:0:0:0:
483,192,74395,1,0,0:0:0:0:
426,192,74445,1,0,0:0:0:0:
199,192,74445,1,0,0:0:0:0:
483,192,74495,1,0,0:0:0:0:
142,192,74495,1,0,0:0:0:0:
426,192,74545,1,0,0:0:0:0:
85,192,74545,1,0,0:0:0:0:
312,192,74595,1,0,0:0:0:0:
28,192,74595,1,0,0:0:0:0:
369,192,74645,1,0,0:0:0:0:
199,192,74645,1,0,0:0:0:0:
312,192,74695,1,0,0:0:0:0:
85,192,74695,1,0,0:0:0:0:
369,192,74745,1,0,0:0:0:0:
142,192,74745,1,0,0:0:0:0:
483,192,74770,128,0,74970:0:0:0:0:
199,192,74795,1,0,0:0:0:0:
28,192,74845,128,0,74920:0:0:0:0:
85,192,74895,128,0,74920:0:0:0:0:
142,192,74945,1,0,0:0:0:0:
199,192,74995,128,0,75070:0:0:0:0:
426,192,75020,128,0,75170:0:0:0:0:
142,192,75045,128,0,75070:0:0:0:0:
85,192,75095,1,0,0:0:0:0:
312,192,75220,128,0,75970:0:0:0:0:
28,192,75220,1,0,0:0:0:0:
85,192,75295,1,0,0:0:0:0:
199,192,75445,128,0,75495:0:0:0:0:
142,192,75645,128,0,75770:0:0:0:0:
85,192,75770,1,0,0:0:0:0:
28,192,75820,1,0,0:0:0:0:
85,192,75870,1,0,0:0:0:0:
142,192,75920,1,0,0:0:0:0:
199,192,75970,1,0,0:0:0:0:
369,192,76020,128,0,76745:0:0:0:0:
28,192,76020,1,0,0:0:0:0:
85,192,76070,1,0,0:0:0:0:
142,192,76120,1,0,0:0:0:0:
199,192,76170,1,0,0:0:0:0:
28,192,76220,1,0,0:0:0:0:
85,192,76270,1,0,0:0:0:0:
199,192,76320,1,0,0:0:0:0:
142,192,76370,1,0,0:0:0:0:
85,192,76420,1,0,0:0:0:0:
28,192,76495,1,0,0:0:0:0:
142,192,76545,1,0,0:0:0:0:
199,192,76595,1,0,0:0:0:0:
28,192,76645,1,0,0:0:0:0:
85,192,76695,1,0,0:0:0:0:
142,192,76745,1,0,0:0:0:0:
199,192,76795,1,0,0:0:0:0:
28,192,76845,128,0,77970:0:0:0:0:
483,192,76845,1,0,0:0:0:0:
426,192,76895,1,0,0:0:0:0:
369,192,76945,1,0,0:0:0:0:
312,192,76995,1,0,0:0:0:0:
483,192,77070,1,0,0:0:0:0:
426,192,77095,1,0,0:0:0:0:
369,192,77145,1,0,0:0:0:0:
312,192,77195,1,0,0:0:0:0:
426,192,77270,1,0,0:0:0:0:
483,192,77320,1,0,0:0:0:0:
312,192,77370,1,0,0:0:0:0:
483,192,77420,1,0,0:0:0:0:
483,192,77520,1,0,0:0:0:0:
312,192,77645,1,0,0:0:0:0:
369,192,77695,1,0,0:0:0:0:
312,192,77745,1,0,0:0:0:0:
369,192,77795,1,0,0:0:0:0:
483,192,77845,1,0,0:0:0:0:
426,192,77895,1,0,0:0:0:0:
199,192,77945,128,0,78170:0:0:0:0:
483,192,77945,1,0,0:0:0:0:
426,192,77995,1,0,0:0:0:0:
312,192,78045,1,0,0:0:0:0:
369,192,78095,1,0,0:0:0:0:
426,192,78145,1,0,0:0:0:0:
483,192,78195,1,0,0:0:0:0:
142,192,78220,128,0,78345:0:0:0:0:
369,192,78245,1,0,0:0:0:0:
312,192,78295,1,0,0:0:0:0:
426,192,78345,1,0,0:0:0:0:
483,192,78395,1,0,0:0:0:0:
85,192,78420,128,0,79170:0:0:0:0:
312,192,78445,128,0,78645:0:0:0:0:
369,192,78595,128,0,78770:0:0:0:0:
483,192,78820,1,0,0:0:0:0:
483,192,78945,1,0,0:0:0:0:
312,192,79045,1,0,0:0:0:0:
369,192,79095,1,0,0:0:0:0:
426,192,79145,1,0,0:0:0:0:
483,192,79195,1,0,0:0:0:0:
199,192,79220,128,0,79995:0:0:0:0:
369,192,79245,1,0,0:0:0:0:
312,192,79295,1,0,0:0:0:0:
369,192,79345,1,0,0:0:0:0:
312,192,79395,1,0,0:0:0:0:
483,192,79445,128,0,79520:0:0:0:0:
426,192,79545,1,0,0:0:0:0:
426,192,79745,1,0,0:0:0:0:
312,192,79845,1,0,0:0:0:0:
369,192,79945,1,0,0:0:0:0:
199,192,80045,128,0,80170:0:0:0:0:
483,192,80045,1,0,0:0:0:0:
426,192,80095,1,0,0:0:0:0:
85,192,80120,128,0,80170:0:0:0:0:
369,192,80145,1,0,0:0:0:0:
312,192,80195,1,0,0:0:0:0:
28,192,80245,1,0,0:0:0:0:
483,192,80245,1,0,0:0:0:0:
28,192,80345,1,0,0:0:0:0:
369,192,80395,1,0,0:0:0:0:
142,192,80420,128,0,80545:0:0:0:0:
426,192,80620,1,0,0:0:0:0:
199,192,80645,1,0,0:0:0:0:
199,192,80720,1,0,0:0:0:0:
85,192,80845,1,0,0:0:0:0:
369,192,80845,1,0,0:0:0:0:
312,192,80895,1,0,0:0:0:0:
28,192,80920,1,0,0:0:0:0:
369,192,80945,1,0,0:0:0:0:
85,192,80995,1,0,0:0:0:0:
312,192,80995,1,0,0:0:0:0:
483,192,81045,1,0,0:0:0:0:
28,192,81070,1,0,0:0:0:0:
426,192,81095,1,0,0:0:0:0:
369,192,81145,1,0,0:0:0:0:
199,192,81245,1,0,0:0:0:0:
312,192,81245,1,0,0:0:0:0:
483,192,81445,1,0,0:0:0:0:
142,192,81470,1,0,0:0:0:0:
142,192,81570,1,0,0:0:0:0:
426,192,81595,128,0,81845:0:0:0:0:
28,192,81670,128,0,81745:0:0:0:0:
142,192,81795,128,0,81970:0:0:0:0:
369,192,81795,128,0,81945:0:0:0:0:
85,192,82045,128,0,82095:0:0:0:0:
312,192,82220,1,0,0:0:0:0:
199,192,82270,1,0,0:0:0:0:
369,192,82270,1,0,0:0:0:0:
142,192,82320,1,0,0:0:0:0:
312,192,82320,1,0,0:0:0:0:
199,192,82370,1,0,0:0:0:0:
369,192,82370,1,0,0:0:0:0:
142,192,82420,1,0,0:0:0:0:
483,192,82445,1,0,0:0:0:0:
28,192,82470,1,0,0:0:0:0:
426,192,82495,1,0,0:0:0:0:
369,192,82545,1,0,0:0:0:0:
312,192,82595,1,0,0:0:0:0:
28,192,82620,1,0,0:0:0:0:
483,192,82645,1,0,0:0:0:0:
85,192,82670,1,0,0:0:0:0:
142,192,82720,1,0,0:0:0:0:
483,192,82745,1,0,0:0:0:0:
199,192,82770,1,0,0:0:0:0:
85,192,82820,1,0,0:0:0:0:
199,192,83045,1,0,0:0:0:0:
369,192,83045,1,0,0:0:0:0:
28,192,83120,1,0,0:0:0:0:
199,192,83270,1,0,0:0:0:0:
312,192,83270,1,0,0:0:0:0:
199,192,83645,1,0,0:0:0:0:
312,192,83645,1,0,0:0:0:0:
199,192,84045,1,0,0:0:0:0:
312,192,84045,1,0,0:0:0:0:
199,192,84445,1,0,0:0:0:0:
312,192,84445,1,0,0:0:0:0:
28,192,88045,132,0,88170:0:0:0:0:
199,192,88245,1,0,0:0:0:0:
142,192,88295,1,0,0:0:0:0:
312,192,88320,128,0,88395:0:0:0:0:
369,192,88395,128,0,88470:0:0:0:0:
483,192,88520,1,0,0:0:0:0:
483,192,88645,1,0,0:0:0:0:
426,192,88720,1,0,0:0:0:0:
312,192,88770,1,0,0:0:0:0:
199,192,88845,1,0,0:0:0:0:
142,192,88920,1,0,0:0:0:0:
28,192,89045,1,0,0:0:0:0:
85,192,89095,1,0,0:0:0:0:
142,192,89145,1,0,0:0:0:0:
312,192,89270,1,0,0:0:0:0:
369,192,89445,1,0,0:0:0:0:
256,192,89620,1,0,0:0:0:0:
28,192,91220,1,0,0:0:0:0:
85,192,91270,1,0,0:0:0:0:
142,192,91320,1,0,0:0:0:0:
199,192,91370,1,0,0:0:0:0:
369,192,91420,1,0,0:0:0:0:
312,192,91470,1,0,0:0:0:0:
369,192,91545,1,0,0:0:0:0:
312,192,91595,1,0,0:0:0:0:
256,192,91645,128,0,91695:0:0:0:0:
199,192,91745,1,0,0:0:0:0:
426,192,91820,1,0,0:0:0:0:
312,192,91920,1,0,0:0:0:0:
28,192,92020,1,0,0:0:0:0:
85,192,92070,1,0,0:0:0:0:
142,192,92120,1,0,0:0:0:0:
199,192,92170,1,0,0:0:0:0:
426,192,92220,1,0,0:0:0:0:
312,192,92320,1,0,0:0:0:0:
483,192,92420,1,0,0:0:0:0:
369,192,92620,1,0,0:0:0:0:
312,192,92670,1,0,0:0:0:0:
256,192,92720,1,0,0:0:0:0:
199,192,92770,1,0,0:0:0:0:
28,192,94420,1,0,0:0:0:0:
85,192,94470,1,0,0:0:0:0:
142,192,94520,1,0,0:0:0:0:
199,192,94570,1,0,0:0:0:0:
426,192,94620,1,0,0:0:0:0:
312,192,94720,1,0,0:0:0:0:
28,192,94820,1,0,0:0:0:0:
85,192,94870,1,0,0:0:0:0:
142,192,94920,1,0,0:0:0:0:
483,192,95020,1,0,0:0:0:0:
426,192,95070,1,0,0:0:0:0:
369,192,95120,1,0,0:0:0:0:
312,192,95170,1,0,0:0:0:0:
199,192,95220,128,0,95320:0:0:0:0:
369,192,95420,1,0,0:0:0:0:
312,192,95470,1,0,0:0:0:0:
426,192,95520,1,0,0:0:0:0:
483,192,95570,1,0,0:0:0:0:
85,192,95620,128,0,95745:0:0:0:0:
256,192,95845,128,0,95970:0:0:0:0:
312,192,96020,1,0,0:0:0:0:
28,192,97620,1,0,0:0:0:0:
85,192,97670,1,0,0:0:0:0:
142,192,97720,1,0,0:0:0:0:
199,192,97770,1,0,0:0:0:0:
369,192,97845,1,0,0:0:0:0:
369,192,97945,1,0,0:0:0:0:
483,192,98020,1,0,0:0:0:0:
426,192,98070,1,0,0:0:0:0:
369,192,98120,1,0,0:0:0:0:
312,192,98170,1,0,0:0:0:0:
142,192,98245,1,0,0:0:0:0:
142,192,98345,1,0,0:0:0:0:
312,192,98445,1,0,0:0:0:0:
199,192,98520,1,0,0:0:0:0:
369,192,98620,1,0,0:0:0:0:
426,192,98670,1,0,0:0:0:0:
369,192,98720,1,0,0:0:0:0:
426,192,98770,1,0,0:0:0:0:
28,192,98795,128,0,98920:0:0:0:0:
483,192,99020,1,0,0:0:0:0:
28,192,100820,1,0,0:0:0:0:
85,192,100870,1,0,0:0:0:0:
28,192,100920,1,0,0:0:0:0:
85,192,100970,1,0,0:0:0:0:
483,192,101020,1,0,0:0:0:0:
426,192,101070,1,0,0:0:0:0:
369,192,101120,1,0,0:0:0:0:
142,192,101195,1,0,0:0:0:0:
199,192,101245,1,0,0:0:0:0:
256,192,101420,1,0,0:0:0:0:
312,192,101470,1,0,0:0:0:0:
369,192,101520,1,0,0:0:0:0:
426,192,101570,1,0,0:0:0:0:
142,192,101620,1,0,0:0:0:0:
28,192,101720,1,0,0:0:0:0:
85,192,101795,1,0,0:0:0:0:
85,192,101920,1,0,0:0:0:0:
199,192,102045,1,0,0:0:0:0:
312,192,102145,1,0,0:0:0:0:
256,192,102220,1,0,0:0:0:0:
369,192,102320,1,0,0:0:0:0:
28,192,104020,1,0,0:0:0:0:
85,192,104070,1,0,0:0:0:0:
142,192,104120,1,0,0:0:0:0:
256,192,104170,1,0,0:0:0:0:
483,192,104245,1,0,0:0:0:0:
426,192,104295,1,0,0:0:0:0:
369,192,104345,1,0,0:0:0:0:
256,192,104395,1,0,0:0:0:0:
142,192,104470,1,0,0:0:0:0:
85,192,104520,1,0,0:0:0:0:
28,192,104570,1,0,0:0:0:0:
312,192,104645,1,0,0:0:0:0:
369,192,104695,1,0,0:0:0:0:
426,192,104745,1,0,0:0:0:0:
483,192,104795,1,0,0:0:0:0:
28,192,104870,1,0,0:0:0:0:
85,192,104920,1,0,0:0:0:0:
142,192,104970,1,0,0:0:0:0:
199,192,105020,1,0,0:0:0:0:
369,192,105070,1,0,0:0:0:0:
312,192,105120,1,0,0:0:0:0:
369,192,105170,1,0,0:0:0:0:
312,192,105220,1,0,0:0:0:0:
199,192,105270,1,0,0:0:0:0:
28,192,105320,1,0,0:0:0:0:
199,192,105370,1,0,0:0:0:0:
312,192,105420,1,0,0:0:0:0:
369,192,105470,1,0,0:0:0:0:
426,192,105520,1,0,0:0:0:0:
483,192,105570,1,0,0:0:0:0:
256,192,105620,1,0,0:0:0:0:
199,192,105645,128,0,105870:0:0:0:0:
369,192,105795,128,0,105970:0:0:0:0:
142,192,107270,1,0,0:0:0:0:
142,192,107370,1,0,0:0:0:0:
312,192,107470,1,0,0:0:0:0:
85,192,107545,1,0,0:0:0:0:
199,192,107670,1,0,0:0:0:0:
256,192,107870,1,0,0:0:0:0:
28,192,108845,1,0,0:0:0:0:
142,192,108970,1,0,0:0:0:0:
85,192,109045,1,0,0:0:0:0:
199,192,109145,1,0,0:0:0:0:
256,192,109270,1,0,0:0:0:0:
312,192,109320,1,0,0:0:0:0:
256,192,109370,1,0,0:0:0:0:
312,192,109420,1,0,0:0:0:0:
199,192,109470,1,0,0:0:0:0:
142,192,109520,1,0,0:0:0:0:
199,192,109570,1,0,0:0:0:0:
142,192,109620,1,0,0:0:0:0:
483,192,109670,1,0,0:0:0:0:
426,192,109720,1,0,0:0:0:0:
369,192,109770,1,0,0:0:0:0:
312,192,109820,1,0,0:0:0:0:
28,192,109870,1,0,0:0:0:0:
85,192,109920,1,0,0:0:0:0:
142,192,109970,1,0,0:0:0:0:
199,192,110020,1,0,0:0:0:0:
369,192,110070,1,0,0:0:0:0:
312,192,110120,1,0,0:0:0:0:
142,192,110170,1,0,0:0:0:0:
199,192,110220,1,0,0:0:0:0:
369,192,110270,128,0,110370:0:0:0:0:
426,192,110295,128,0,110320:0:0:0:0:
312,192,110345,128,0,110370:0:0:0:0:
142,192,110445,1,0,0:0:0:0:
312,192,110545,1,0,0:0:0:0:
28,192,110670,1,0,0:0:0:0:
85,192,110720,1,0,0:0:0:0:
142,192,110770,1,0,0:0:0:0:
199,192,110845,1,0,0:0:0:0:
369,192,111070,1,0,0:0:0:0:
28,192,111270,1,0,0:0:0:0:
85,192,111320,1,0,0:0:0:0:
142,192,111395,1,0,0:0:0:0:
199,192,111445,1,0,0:0:0:0:
369,192,111470,1,0,0:0:0:0:
312,192,111520,1,0,0:0:0:0:
28,192,111595,1,0,0:0:0:0:
85,192,111645,1,0,0:0:0:0:
142,192,111695,1,0,0:0:0:0:
426,192,111745,1,0,0:0:0:0:
369,192,111795,1,0,0:0:0:0:
312,192,111845,1,0,0:0:0:0:
256,192,111895,1,0,0:0:0:0:
142,192,111945,1,0,0:0:0:0:
199,192,111995,1,0,0:0:0:0:
369,192,112070,128,0,112320:0:0:0:0:
199,192,113445,1,0,0:0:0:0:
312,192,113520,1,0,0:0:0:0:
256,192,113620,1,0,0:0:0:0:
85,192,113745,1,0,0:0:0:0:
199,192,113845,1,0,0:0:0:0:
369,192,113945,128,0,114045:0:0:0:0:
483,192,114120,1,0,0:0:0:0:
426,192,114220,1,0,0:0:0:0:
312,192,114345,1,0,0:0:0:0:
199,192,114445,128,0,114520:0:0:0:0:
312,192,114645,128,0,114720:0:0:0:0:
256,192,114845,128,0,114920:0:0:0:0:
199,192,115045,128,0,115120:0:0:0:0:
28,192,115245,1,0,0:0:0:0:
85,192,115320,1,0,0:0:0:0:
483,192,115445,1,0,0:0:0:0:
426,192,115495,1,0,0:0:0:0:
369,192,115545,1,0,0:0:0:0:
142,192,115595,1,0,0:0:0:0:
199,192,115645,1,0,0:0:0:0:
85,192,115820,1,0,0:0:0:0:
142,192,115870,1,0,0:0:0:0:
199,192,115920,1,0,0:0:0:0:
312,192,115995,1,0,0:0:0:0:
85,192,116045,1,0,0:0:0:0:
142,192,116095,1,0,0:0:0:0:
199,192,116145,1,0,0:0:0:0:
256,192,116195,1,0,0:0:0:0:
28,192,116245,1,0,0:0:0:0:
142,192,116320,1,0,0:0:0:0:
483,192,116445,1,0,0:0:0:0:
426,192,116495,1,0,0:0:0:0:
369,192,116545,1,0,0:0:0:0:
312,192,116595,1,0,0:0:0:0:
142,192,116645,1,0,0:0:0:0:
85,192,116745,1,0,0:0:0:0:
199,192,116845,1,0,0:0:0:0:
369,192,116945,1,0,0:0:0:0:
142,192,117045,1,0,0:0:0:0:
85,192,117095,1,0,0:0:0:0:
28,192,117145,128,0,117195:0:0:0:0:
85,192,117245,1,0,0:0:0:0:
483,192,117345,1,0,0:0:0:0:
426,192,117395,1,0,0:0:0:0:
369,192,117445,1,0,0:0:0:0:
312,192,117495,1,0,0:0:0:0:
142,192,117545,1,0,0:0:0:0:
199,192,117595,1,0,0:0:0:0:
28,192,117645,1,0,0:0:0:0:
85,192,117695,1,0,0:0:0:0:
142,192,117720,128,0,117770:0:0:0:0:
312,192,117820,1,0,0:0:0:0:
483,192,117895,1,0,0:0:0:0:
426,192,117945,1,0,0:0:0:0:
369,192,117995,1,0,0:0:0:0:
312,192,118045,1,0,0:0:0:0:
142,192,118120,1,0,0:0:0:0:
199,192,118170,1,0,0:0:0:0:
256,192,118220,1,0,0:0:0:0:
312,192,118270,1,0,0:0:0:0:
142,192,118320,1,0,0:0:0:0:
85,192,118370,1,0,0:0:0:0:
28,192,118420,1,0,0:0:0:0:
256,192,118445,1,0,0:0:0:0:
142,192,120820,132,0,120920:0:0:0:0:
312,192,121020,1,0,0:0:0:0:
369,192,121220,1,0,0:0:0:0:
369,192,121420,1,0,0:0:0:0:
28,192,121620,1,0,0:0:0:0:
85,192,121670,1,0,0:0:0:0:
142,192,121720,1,0,0:0:0:0:
199,192,121770,1,0,0:0:0:0:
256,192,121820,1,0,0:0:0:0:
256,192,121920,1,0,0:0:0:0:
483,192,122020,1,0,0:0:0:0:
426,192,122070,1,0,0:0:0:0:
369,192,122120,1,0,0:0:0:0:
312,192,122170,1,0,0:0:0:0:
28,192,122220,1,0,0:0:0:0:
85,192,122270,1,0,0:0:0:0:
142,192,122320,1,0,0:0:0:0:
199,192,122370,1,0,0:0:0:0:
369,192,122445,1,0,0:0:0:0:
312,192,122495,1,0,0:0:0:0:
199,192,122595,128,0,122670:0:0:0:0:
426,192,122820,1,0,0:0:0:0:
483,192,122870,1,0,0:0:0:0:
426,192,122920,1,0,0:0:0:0:
483,192,122970,1,0,0:0:0:0:
28,192,123020,1,0,0:0:0:0:
85,192,123070,1,0,0:0:0:0:
142,192,123120,1,0,0:0:0:0:
256,192,123195,1,0,0:0:0:0:
369,192,123245,1,0,0:0:0:0:
312,192,123295,1,0,0:0:0:0:
256,192,123345,1,0,0:0:0:0:
199,192,123395,1,0,0:0:0:0:
426,192,123445,1,0,0:0:0:0:
426,192,123520,1,0,0:0:0:0:
199,192,123645,1,0,0:0:0:0:
142,192,123695,1,0,0:0:0:0:
199,192,123745,1,0,0:0:0:0:
142,192,123795,1,0,0:0:0:0:
312,192,123845,1,0,0:0:0:0:
369,192,123895,1,0,0:0:0:0:
426,192,123945,1,0,0:0:0:0:
483,192,123995,1,0,0:0:0:0:
28,192,124020,1,0,0:0:0:0:
85,192,124070,1,0,0:0:0:0:
142,192,124120,1,0,0:0:0:0:
256,192,124170,1,0,0:0:0:0:
483,192,124220,1,0,0:0:0:0:
483,192,124320,1,0,0:0:0:0:
256,192,124445,1,0,0:0:0:0:
85,192,124645,1,0,0:0:0:0:
312,192,124820,128,0,124945:0:0:0:0:
369,192,124895,128,0,124995:0:0:0:0:
256,192,125020,128,0,125095:0:0:0:0:
199,192,127620,5,0,0:0:0:0:
369,192,127820,1,0,0:0:0:0:
256,192,127995,128,0,128070:0:0:0:0:
369,192,128095,128,0,128170:0:0:0:0:
142,192,128195,1,0,0:0:0:0:
85,192,128245,1,0,0:0:0:0:
28,192,128295,1,0,0:0:0:0:
312,192,128370,1,0,0:0:0:0:
369,192,128420,1,0,0:0:0:0:
426,192,128470,1,0,0:0:0:0:
199,192,128520,1,0,0:0:0:0:
142,192,128570,1,0,0:0:0:0:
85,192,128620,1,0,0:0:0:0:
312,192,128745,1,0,0:0:0:0:
426,192,128820,1,0,0:0:0:0:
28,192,128920,1,0,0:0:0:0:
85,192,128970,1,0,0:0:0:0:
142,192,129020,1,0,0:0:0:0:
199,192,129070,1,0,0:0:0:0:
256,192,129120,1,0,0:0:0:0:
369,192,129170,1,0,0:0:0:0:
312,192,129220,128,0,129370:0:0:0:0:
142,192,129420,1,0,0:0:0:0:
369,192,129620,128,0,129745:0:0:0:0:
199,192,129820,1,0,0:0:0:0:
142,192,129870,1,0,0:0:0:0:
199,192,129920,1,0,0:0:0:0:
142,192,129970,1,0,0:0:0:0:
483,192,130020,1,0,0:0:0:0:
426,192,130070,1,0,0:0:0:0:
369,192,130120,1,0,0:0:0:0:
312,192,130170,1,0,0:0:0:0:
28,192,130245,1,0,0:0:0:0:
85,192,130295,1,0,0:0:0:0:
142,192,130345,1,0,0:0:0:0:
199,192,130395,1,0,0:0:0:0:
369,192,130445,1,0,0:0:0:0:
312,192,130495,1,0,0:0:0:0:
85,192,130595,1,0,0:0:0:0:
142,192,130645,1,0,0:0:0:0:
426,192,130820,1,0,0:0:0:0:
199,192,131020,1,0,0:0:0:0:
256,192,131220,128,0,131945:0:0:0:0:
85,192,131995,128,0,132770:0:0:0:0:
312,192,132820,128,0,133545:0:0:0:0:
142,192,133620,128,0,133945:0:0:0:0:
483,192,133995,128,0,134345:0:0:0:0:
142,192,134420,1,0,0:0:0:0:
28,192,134620,1,0,0:0:0:0:
85,192,134670,1,0,0:0:0:0:
142,192,134720,1,0,0:0:0:0:
199,192,134770,1,0,0:0:0:0:
426,192,134820,1,0,0:0:0:0:
312,192,135020,1,0,0:0:0:0:
312,192,135120,1,0,0:0:0:0:
28,192,135220,1,0,0:0:0:0:
85,192,135270,1,0,0:0:0:0:
142,192,135320,1,0,0:0:0:0:
199,192,135370,1,0,0:0:0:0:
256,192,135420,1,0,0:0:0:0:
256,192,135495,1,0,0:0:0:0:
483,192,135620,1,0,0:0:0:0:
426,192,135670,1,0,0:0:0:0:
369,192,135720,1,0,0:0:0:0:
312,192,135770,1,0,0:0:0:0:
142,192,135820,1,0,0:0:0:0:
199,192,135870,1,0,0:0:0:0:
256,192,135920,1,0,0:0:0:0:
199,192,136045,1,0,0:0:0:0:
142,192,136095,1,0,0:0:0:0:
85,192,136145,1,0,0:0:0:0:
28,192,136195,1,0,0:0:0:0:
369,192,136220,1,0,0:0:0:0:
312,192,136270,1,0,0:0:0:0:
256,192,136320,1,0,0:0:0:0:
256,192,136420,1,0,0:0:0:0:
369,192,136495,1,0,0:0:0:0:
426,192,136545,1,0,0:0:0:0:
483,192,136595,1,0,0:0:0:0:
199,192,136670,1,0,0:0:0:0:
142,192,136720,1,0,0:0:0:0:
85,192,136770,1,0,0:0:0:0:
483,192,136820,1,0,0:0:0:0:
426,192,136870,1,0,0:0:0:0:
369,192,136920,1,0,0:0:0:0:
312,192,136970,1,0,0:0:0:0:
256,192,137020,1,0,0:0:0:0:
142,192,137070,1,0,0:0:0:0:
199,192,137120,1,0,0:0:0:0:
256,192,137170,1,0,0:0:0:0:
28,192,137220,1,0,0:0:0:0:
85,192,137270,1,0,0:0:0:0:
142,192,137320,1,0,0:0:0:0:
199,192,137370,1,0,0:0:0:0:
256,192,137420,1,0,0:0:0:0:
426,192,137470,1,0,0:0:0:0:
369,192,137520,1,0,0:0:0:0:
312,192,137570,1,0,0:0:0:0:
199,192,137820,1,0,0:0:0:0:
369,192,138220,1,0,0:0:0:0:
256,192,138420,1,0,0:0:0:0:
199,192,138620,1,0,0:0:0:0:
199,192,138745,1,0,0:0:0:0:
369,192,138820,1,0,0:0:0:0:
426,192,139020,1,0,0:0:0:0:
85,192,139420,1,0,0:0:0:0:
256,192,139820,1,0,0:0:0:0:
256,192,139920,1,0,0:0:0:0:
199,192,140020,1,0,0:0:0:0:
312,192,140420,1,0,0:0:0:0:
28,192,140820,1,0,0:0:0:0:
85,192,140870,1,0,0:0:0:0:
142,192,140920,1,0,0:0:0:0:
199,192,140970,1,0,0:0:0:0:
369,192,141020,128,0,141095:0:0:0:0:
483,192,141220,1,0,0:0:0:0:
426,192,141270,1,0,0:0:0:0:
369,192,141320,1,0,0:0:0:0:
256,192,141370,1,0,0:0:0:0:
28,192,141420,1,0,0:0:0:0:
85,192,141470,1,0,0:0:0:0:
142,192,141520,1,0,0:0:0:0:
256,192,141570,1,0,0:0:0:0:
369,192,141620,1,0,0:0:0:0:
312,192,141695,1,0,0:0:0:0:
199,192,141820,128,0,141995:0:0:0:0:
483,192,142020,1,0,0:0:0:0:
426,192,142070,1,0,0:0:0:0:
369,192,142120,1,0,0:0:0:0:
28,192,142220,1,0,0:0:0:0:
85,192,142270,1,0,0:0:0:0:
142,192,142320,1,0,0:0:0:0:
28,192,142420,1,0,0:0:0:0:
28,192,142545,1,0,0:0:0:0:
85,192,142620,1,0,0:0:0:0:
199,192,142695,1,0,0:0:0:0:
369,192,142920,1,0,0:0:0:0:
483,192,143020,1,0,0:0:0:0:
426,192,143145,1,0,0:0:0:0:
28,192,143295,1,0,0:0:0:0:
85,192,143345,1,0,0:0:0:0:
142,192,143395,1,0,0:0:0:0:
483,192,143495,1,0,0:0:0:0:
426,192,143545,1,0,0:0:0:0:
369,192,143595,1,0,0:0:0:0:
312,192,143645,1,0,0:0:0:0:
369,192,143695,1,0,0:0:0:0:
28,192,143770,1,0,0:0:0:0:
85,192,143820,1,0,0:0:0:0:
142,192,143870,1,0,0:0:0:0:
256,192,143945,1,0,0:0:0:0:
369,192,143995,1,0,0:0:0:0:
483,192,156870,5,0,0:0:0:0:
28,192,156870,128,0,157445:0:0:0:0:
426,192,156920,1,0,0:0:0:0:
369,192,156970,1,0,0:0:0:0:
312,192,157020,1,0,0:0:0:0:
483,192,157070,1,0,0:0:0:0:
426,192,157270,1,0,0:0:0:0:
85,192,157395,128,0,157570:0:0:0:0:
312,192,157445,1,0,0:0:0:0:
369,192,157495,1,0,0:0:0:0:
426,192,157545,1,0,0:0:0:0:
483,192,157595,1,0,0:0:0:0:
369,192,157645,1,0,0:0:0:0:
199,192,157670,1,0,0:0:0:0:
312,192,157720,1,0,0:0:0:0:
142,192,157720,1,0,0:0:0:0:
426,192,157770,1,0,0:0:0:0:
85,192,157770,1,0,0:0:0:0:
483,192,157820,1,0,0:0:0:0:
28,192,157820,1,0,0:0:0:0:
312,192,157870,1,0,0:0:0:0:
199,192,157870,1,0,0:0:0:0:
369,192,157920,1,0,0:0:0:0:
85,192,157920,1,0,0:0:0:0:
426,192,157970,1,0,0:0:0:0:
142,192,157970,1,0,0:0:0:0:
483,192,158020,1,0,0:0:0:0:
312,192,158070,1,0,0:0:0:0:
28,192,158070,1,0,0:0:0:0:
369,192,158120,1,0,0:0:0:0:
85,192,158120,1,0,0:0:0:0:
142,192,158170,1,0,0:0:0:0:
483,192,158245,1,0,0:0:0:0:
199,192,158270,1,0,0:0:0:0:
426,192,158320,1,0,0:0:0:0:
142,192,158320,1,0,0:0:0:0:
85,192,158370,1,0,0:0:0:0:
312,192,158395,1,0,0:0:0:0:
28,192,158445,1,0,0:0:0:0:
483,192,158495,1,0,0:0:0:0:
426,192,158570,1,0,0:0:0:0:
199,192,158670,1,0,0:0:0:0:
426,192,158745,1,0,0:0:0:0:
199,192,158770,1,0,0:0:0:0:
312,192,158870,1,0,0:0:0:0:
142,192,158895,128,0,158970:0:0:0:0:
369,192,158920,1,0,0:0:0:0:
85,192,158945,128,0,158995:0:0:0:0:
483,192,158970,1,0,0:0:0:0:
426,192,159020,1,0,0:0:0:0:
369,192,159070,1,0,0:0:0:0:
199,192,159070,1,0,0:0:0:0:
312,192,159120,1,0,0:0:0:0:
142,192,159120,1,0,0:0:0:0:
426,192,159170,1,0,0:0:0:0:
85,192,159170,1,0,0:0:0:0:
483,192,159220,1,0,0:0:0:0:
28,192,159220,1,0,0:0:0:0:
312,192,159270,1,0,0:0:0:0:
199,192,159270,1,0,0:0:0:0:
369,192,159320,1,0,0:0:0:0:
142,192,159320,1,0,0:0:0:0:
426,192,159370,1,0,0:0:0:0:
28,192,159370,1,0,0:0:0:0:
85,192,159420,1,0,0:0:0:0:
483,192,159470,1,0,0:0:0:0:
142,192,159470,1,0,0:0:0:0:
426,192,159520,1,0,0:0:0:0:
199,192,159520,1,0,0:0:0:0:
369,192,159570,1,0,0:0:0:0:
85,192,159570,1,0,0:0:0:0:
28,192,159620,1,0,0:0:0:0:
426,192,159670,1,0,0:0:0:0:
199,192,159670,1,0,0:0:0:0:
483,192,159720,1,0,0:0:0:0:
142,192,159720,1,0,0:0:0:0:
369,192,159770,1,0,0:0:0:0:
199,192,159770,1,0,0:0:0:0:
142,192,159820,1,0,0:0:0:0:
312,192,159845,1,0,0:0:0:0:
28,192,159870,1,0,0:0:0:0:
369,192,159895,1,0,0:0:0:0:
85,192,159920,1,0,0:0:0:0:
426,192,159945,1,0,0:0:0:0:
28,192,159970,1,0,0:0:0:0:
483,192,159995,1,0,0:0:0:0:
85,192,160020,1,0,0:0:0:0:
312,192,160045,1,0,0:0:0:0:
369,192,160095,1,0,0:0:0:0:
199,192,160095,128,0,160420:0:0:0:0:
312,192,160145,1,0,0:0:0:0:
369,192,160195,1,0,0:0:0:0:
483,192,160270,1,0,0:0:0:0:
483,192,160370,1,0,0:0:0:0:
426,192,160420,1,0,0:0:0:0:
85,192,160470,128,0,160795:0:0:0:0:
483,192,160645,1,0,0:0:0:0:
426,192,160695,1,0,0:0:0:0:
369,192,160745,1,0,0:0:0:0:
312,192,160770,1,0,0:0:0:0:
483,192,160820,1,0,0:0:0:0:
426,192,160870,1,0,0:0:0:0:
199,192,160870,1,0,0:0:0:0:
483,192,160920,1,0,0:0:0:0:
142,192,160920,1,0,0:0:0:0:
426,192,160970,1,0,0:0:0:0:
85,192,160970,1,0,0:0:0:0:
312,192,161020,1,0,0:0:0:0:
28,192,161020,1,0,0:0:0:0:
369,192,161070,1,0,0:0:0:0:
199,192,161070,1,0,0:0:0:0:
312,192,161120,1,0,0:0:0:0:
85,192,161120,1,0,0:0:0:0:
369,192,161170,1,0,0:0:0:0:
142,192,161170,1,0,0:0:0:0:
483,192,161195,128,0,161395:0:0:0:0:
199,192,161220,1,0,0:0:0:0:
28,192,161270,128,0,161345:0:0:0:0:
85,192,161320,128,0,161345:0:0:0:0:
142,192,161370,1,0,0:0:0:0:
199,192,161420,128,0,161495:0:0:0:0:
426,192,161445,128,0,161595:0:0:0:0:
142,192,161470,128,0,161495:0:0:0:0:
85,192,161520,1,0,0:0:0:0:
312,192,161645,128,0,162395:0:0:0:0:
28,192,161645,1,0,0:0:0:0:
85,192,161720,1,0,0:0:0:0:
199,192,161870,128,0,161920:0:0:0:0:
142,192,162070,128,0,162195:0:0:0:0:
85,192,162195,1,0,0:0:0:0:
28,192,162245,1,0,0:0:0:0:
85,192,162295,1,0,0:0:0:0:
142,192,162345,1,0,0:0:0:0:
199,192,162395,1,0,0:0:0:0:
369,192,162445,128,0,163170:0:0:0:0:
28,192,162445,1,0,0:0:0:0:
85,192,162495,1,0,0:0:0:0:
142,192,162545,1,0,0:0:0:0:
199,192,162595,1,0,0:0:0:0:
28,192,162645,1,0,0:0:0:0:
85,192,162695,1,0,0:0:0:0:
199,192,162745,1,0,0:0:0:0:
142,192,162795,1,0,0:0:0:0:
85,192,162845,1,0,0:0:0:0:
28,192,162920,1,0,0:0:0:0:
142,192,162970,1,0,0:0:0:0:
199,192,163020,1,0,0:0:0:0:
28,192,163070,1,0,0:0:0:0:
85,192,163120,1,0,0:0:0:0:
142,192,163170,1,0,0:0:0:0:
199,192,163220,1,0,0:0:0:0:
28,192,163270,128,0,164395:0:0:0:0:
483,192,163270,1,0,0:0:0:0:
426,192,163320,1,0,0:0:0:0:
369,192,163370,1,0,0:0:0:0:
312,192,163420,1,0,0:0:0:0:
483,192,163495,1,0,0:0:0:0:
426,192,163520,1,0,0:0:0:0:
369,192,163570,1,0,0:0:0:0:
312,192,163620,1,0,0:0:0:0:
426,192,163695,1,0,0:0:0:0:
483,192,163745,1,0,0:0:0:0:
312,192,163795,1,0,0:0:0:0:
483,192,163845,1,0,0:0:0:0:
483,192,163945,1,0,0:0:0:0:
312,192,164070,1,0,0:0:0:0:
369,192,164120,1,0,0:0:0:0:
312,192,164170,1,0,0:0:0:0:
369,192,164220,1,0,0:0:0:0:
483,192,164270,1,0,0:0:0:0:
426,192,164320,1,0,0:0:0:0:
199,192,164370,128,0,164595:0:0:0:0:
483,192,164370,1,0,0:0:0:0:
426,192,164420,1,0,0:0:0:0:
312,192,164470,1,0,0:0:0:0:
369,192,164520,1,0,0:0:0:0:
426,192,164570,1,0,0:0:0:0:
483,192,164620,1,0,0:0:0:0:
142,192,164645,128,0,164770:0:0:0:0:
369,192,164670,1,0,0:0:0:0:
312,192,164720,1,0,0:0:0:0:
426,192,164770,1,0,0:0:0:0:
483,192,164820,1,0,0:0:0:0:
85,192,164845,128,0,165595:0:0:0:0:
312,192,164870,128,0,165070:0:0:0:0:
369,192,165020,128,0,165195:0:0:0:0:
483,192,165245,1,0,0:0:0:0:
483,192,165370,1,0,0:0:0:0:
312,192,165470,1,0,0:0:0:0:
369,192,165520,1,0,0:0:0:0:
426,192,165570,1,0,0:0:0:0:
483,192,165620,1,0,0:0:0:0:
199,192,165645,128,0,166420:0:0:0:0:
369,192,165670,1,0,0:0:0:0:
312,192,165720,1,0,0:0:0:0:
369,192,165770,1,0,0:0:0:0:
312,192,165820,1,0,0:0:0:0:
483,192,165870,128,0,165945:0:0:0:0:
426,192,165970,1,0,0:0:0:0:
426,192,166170,1,0,0:0:0:0:
312,192,166270,1,0,0:0:0:0:
369,192,166370,1,0,0:0:0:0:
199,192,166470,128,0,166595:0:0:0:0:
483,192,166470,1,0,0:0:0:0:
426,192,166520,1,0,0:0:0:0:
85,192,166545,128,0,166595:0:0:0:0:
369,192,166570,1,0,0:0:0:0:
312,192,166620,1,0,0:0:0:0:
28,192,166670,1,0,0:0:0:0:
483,192,166670,1,0,0:0:0:0:
28,192,166770,1,0,0:0:0:0:
369,192,166820,1,0,0:0:0:0:
142,192,166845,128,0,166970:0:0:0:0:
426,192,167045,1,0,0:0:0:0:
199,192,167070,1,0,0:0:0:0:
199,192,167145,1,0,0:0:0:0:
85,192,167270,1,0,0:0:0:0:
369,192,167270,1,0,0:0:0:0:
312,192,167320,1,0,0:0:0:0:
28,192,167345,1,0,0:0:0:0:
369,192,167370,1,0,0:0:0:0:
85,192,167420,1,0,0:0:0:0:
312,192,167420,1,0,0:0:0:0:
483,192,167470,1,0,0:0:0:0:
28,192,167495,1,0,0:0:0:0:
426,192,167520,1,0,0:0:0:0:
369,192,167570,1,0,0:0:0:0:
199,192,167670,1,0,0:0:0:0:
312,192,167670,1,0,0:0:0:0:
483,192,167870,1,0,0:0:0:0:
142,192,167895,1,0,0:0:0:0:
142,192,167995,1,0,0:0:0:0:
426,192,168020,128,0,168270:0:0:0:0:
28,192,168095,128,0,168170:0:0:0:0:
142,192,168220,128,0,168395:0:0:0:0:
369,192,168220,128,0,168370:0:0:0:0:
85,192,168470,128,0,168520:0:0:0:0:
312,192,168645,1,0,0:0:0:0:
199,192,168695,1,0,0:0:0:0:
369,192,168695,1,0,0:0:0:0:
142,192,168745,1,0,0:0:0:0:
312,192,168745,1,0,0:0:0:0:
199,192,168795,1,0,0:0:0:0:
369,192,168795,1,0,0:0:0:0:
142,192,168845,1,0,0:0:0:0:
483,192,168870,1,0,0:0:0:0:
28,192,168895,1,0,0:0:0:0:
426,192,168920,1,0,0:0:0:0:
369,192,168970,1,0,0:0:0:0:
312,192,169020,1,0,0:0:0:0:
28,192,169045,1,0,0:0:0:0:
483,192,169070,1,0,0:0:0:0:
85,192,169095,1,0,0:0:0:0:
142,192,169145,1,0,0:0:0:0:
483,192,169170,1,0,0:0:0:0:
199,192,169195,1,0,0:0:0:0:
85,192,169245,1,0,0:0:0:0:
199,192,169470,1,0,0:0:0:0:
369,192,169470,1,0,0:0:0:0:
28,192,169545,1,0,0:0:0:0:
28,192,169645,128,0,170220:0:0:0:0:
483,192,169645,1,0,0:0:0:0:
426,192,169695,1,0,0:0:0:0:
369,192,169745,1,0,0:0:0:0:
312,192,169795,1,0,0:0:0:0:
483,192,169870,1,0,0:0:0:0:
426,192,169995,1,0,0:0:0:0:
85,192,170195,128,0,170370:0:0:0:0:
312,192,170270,1,0,0:0:0:0:
369,192,170320,1,0,0:0:0:0:
426,192,170370,1,0,0:0:0:0:
483,192,170420,1,0,0:0:0:0:
199,192,170445,1,0,0:0:0:0:
369,192,170470,1,0,0:0:0:0:
142,192,170495,1,0,0:0:0:0:
312,192,170520,1,0,0:0:0:0:
85,192,170545,1,0,0:0:0:0:
426,192,170570,1,0,0:0:0:0:
28,192,170595,1,0,0:0:0:0:
483,192,170620,1,0,0:0:0:0:
199,192,170645,1,0,0:0:0:0:
312,192,170670,1,0,0:0:0:0:
85,192,170695,1,0,0:0:0:0:
369,192,170720,1,0,0:0:0:0:
142,192,170745,1,0,0:0:0:0:
426,192,170770,1,0,0:0:0:0:
483,192,170820,1,0,0:0:0:0:
28,192,170820,1,0,0:0:0:0:
312,192,170870,1,0,0:0:0:0:
85,192,170870,1,0,0:0:0:0:
142,192,170920,1,0,0:0:0:0:
369,192,170970,1,0,0:0:0:0:
483,192,171045,1,0,0:0:0:0:
199,192,171045,1,0,0:0:0:0:
142,192,171095,1,0,0:0:0:0:
85,192,171145,1,0,0:0:0:0:
426,192,171170,1,0,0:0:0:0:
312,192,171245,1,0,0:0:0:0:
28,192,171245,1,0,0:0:0:0:
483,192,171345,1,0,0:0:0:0:
426,192,171395,1,0,0:0:0:0:
199,192,171445,1,0,0:0:0:0:
426,192,171520,1,0,0:0:0:0:
199,192,171545,1,0,0:0:0:0:
312,192,171645,1,0,0:0:0:0:
142,192,171645,128,0,171720:0:0:0:0:
369,192,171695,1,0,0:0:0:0:
85,192,171695,128,0,171770:0:0:0:0:
483,192,171770,1,0,0:0:0:0:
426,192,171820,1,0,0:0:0:0:
199,192,171845,1,0,0:0:0:0:
369,192,171870,1,0,0:0:0:0:
142,192,171895,1,0,0:0:0:0:
312,192,171920,1,0,0:0:0:0:
85,192,171945,1,0,0:0:0:0:
483,192,171970,1,0,0:0:0:0:
28,192,171995,1,0,0:0:0:0:
199,192,172020,1,0,0:0:0:0:
312,192,172045,1,0,0:0:0:0:
142,192,172070,1,0,0:0:0:0:
369,192,172095,1,0,0:0:0:0:
28,192,172120,1,0,0:0:0:0:
426,192,172145,1,0,0:0:0:0:
85,192,172170,1,0,0:0:0:0:
142,192,172220,1,0,0:0:0:0:
483,192,172245,1,0,0:0:0:0:
199,192,172270,1,0,0:0:0:0:
426,192,172295,1,0,0:0:0:0:
85,192,172320,1,0,0:0:0:0:
369,192,172345,1,0,0:0:0:0:
28,192,172370,1,0,0:0:0:0:
312,192,172395,1,0,0:0:0:0:
199,192,172420,1,0,0:0:0:0:
426,192,172445,1,0,0:0:0:0:
142,192,172470,1,0,0:0:0:0:
483,192,172495,1,0,0:0:0:0:
199,192,172520,1,0,0:0:0:0:
369,192,172545,1,0,0:0:0:0:
142,192,172570,1,0,0:0:0:0:
28,192,172620,1,0,0:0:0:0:
312,192,172670,1,0,0:0:0:0:
85,192,172670,1,0,0:0:0:0:
369,192,172720,1,0,0:0:0:0:
28,192,172720,1,0,0:0:0:0:
426,192,172770,1,0,0:0:0:0:
85,192,172770,1,0,0:0:0:0:
483,192,172820,1,0,0:0:0:0:
312,192,176020,5,0,0:0:0:0:
199,192,176070,128,0,176395:0:0:0:0:
369,192,176070,1,0,0:0:0:0:
312,192,176120,1,0,0:0:0:0:
369,192,176170,1,0,0:0:0:0:
483,192,176245,1,0,0:0:0:0:
483,192,176345,1,0,0:0:0:0:
426,192,176395,1,0,0:0:0:0:
85,192,176445,128,0,176770:0:0:0:0:
483,192,176620,1,0,0:0:0:0:
426,192,176670,1,0,0:0:0:0:
369,192,176720,1,0,0:0:0:0:
312,192,176745,1,0,0:0:0:0:
483,192,176795,1,0,0:0:0:0:
426,192,176845,1,0,0:0:0:0:
199,192,176845,1,0,0:0:0:0:
483,192,176895,1,0,0:0:0:0:
142,192,176895,1,0,0:0:0:0:
426,192,176945,1,0,0:0:0:0:
85,192,176945,1,0,0:0:0:0:
312,192,176995,1,0,0:0:0:0:
28,192,176995,1,0,0:0:0:0:
369,192,177045,1,0,0:0:0:0:
199,192,177045,1,0,0:0:0:0:
312,192,177095,1,0,0:0:0:0:
85,192,177095,1,0,0:0:0:0:
369,192,177145,1,0,0:0:0:0:
142,192,177145,1,0,0:0:0:0:
483,192,177170,128,0,177370:0:0:0:0:
199,192,177195,1,0,0:0:0:0:
28,192,177245,128,0,177320:0:0:0:0:
85,192,177295,128,0,177320:0:0:0:0:
142,192,177345,1,0,0:0:0:0:
199,192,177395,128,0,177470:0:0:0:0:
426,192,177420,128,0,177570:0:0:0:0:
142,192,177445,128,0,177470:0:0:0:0:
85,192,177495,1,0,0:0:0:0:
312,192,177620,128,0,178370:0:0:0:0:
28,192,177620,1,0,0:0:0:0:
85,192,177695,1,0,0:0:0:0:
199,192,177845,128,0,177895:0:0:0:0:
142,192,178045,128,0,178170:0:0:0:0:
85,192,178170,1,0,0:0:0:0:
28,192,178220,1,0,0:0:0:0:
85,192,178270,1,0,0:0:0:0:
142,192,178320,1,0,0:0:0:0:
199,192,178370,1,0,0:0:0:0:
369,192,178420,128,0,179145:0:0:0:0:
28,192,178420,1,0,0:0:0:0:
85,192,178470,1,0,0:0:0:0:
142,192,178520,1,0,0:0:0:0:
199,192,178570,1,0,0:0:0:0:
28,192,178620,1,0,0:0:0:0:
85,192,178670,1,0,0:0:0:0:
199,192,178720,1,0,0:0:0:0:
142,192,178770,1,0,0:0:0:0:
85,192,178820,1,0,0:0:0:0:
28,192,178895,1,0,0:0:0:0:
142,192,178945,1,0,0:0:0:0:
199,192,178995,1,0,0:0:0:0:
28,192,179045,1,0,0:0:0:0:
85,192,179095,1,0,0:0:0:0:
142,192,179145,1,0,0:0:0:0:
199,192,179195,1,0,0:0:0:0:
28,192,182470,132,0,183595:0:0:0:0:
483,192,182470,1,0,0:0:0:0:
426,192,182520,1,0,0:0:0:0:
369,192,182570,1,0,0:0:0:0:
312,192,182620,1,0,0:0:0:0:
483,192,182695,1,0,0:0:0:0:
426,192,182720,1,0,0:0:0:0:
369,192,182770,1,0,0:0:0:0:
312,192,182820,1,0,0:0:0:0:
426,192,182895,1,0,0:0:0:0:
483,192,182945,1,0,0:0:0:0:
312,192,182995,1,0,0:0:0:0:
483,192,183045,1,0,0:0:0:0:
483,192,183145,1,0,0:0:0:0:
312,192,183270,1,0,0:0:0:0:
369,192,183320,1,0,0:0:0:0:
312,192,183370,1,0,0:0:0:0:
369,192,183420,1,0,0:0:0:0:
483,192,183470,1,0,0:0:0:0:
426,192,183520,1,0,0:0:0:0:
199,192,183570,128,0,183795:0:0:0:0:
483,192,183570,1,0,0:0:0:0:
426,192,183620,1,0,0:0:0:0:
312,192,183670,1,0,0:0:0:0:
369,192,183720,1,0,0:0:0:0:
426,192,183770,1,0,0:0:0:0:
483,192,183820,1,0,0:0:0:0:
142,192,183845,128,0,183970:0:0:0:0:
369,192,183870,1,0,0:0:0:0:
312,192,183920,1,0,0:0:0:0:
426,192,183970,1,0,0:0:0:0:
483,192,184020,1,0,0:0:0:0:
85,192,184045,128,0,184795:0:0:0:0:
312,192,184070,128,0,184270:0:0:0:0:
369,192,184220,128,0,184395:0:0:0:0:
483,192,184445,1,0,0:0:0:0:
483,192,184570,1,0,0:0:0:0:
312,192,184670,1,0,0:0:0:0:
369,192,184720,1,0,0:0:0:0:
426,192,184770,1,0,0:0:0:0:
483,192,184820,1,0,0:0:0:0:
199,192,184845,128,0,185620:0:0:0:0:
369,192,184870,1,0,0:0:0:0:
312,192,184920,1,0,0:0:0:0:
369,192,184970,1,0,0:0:0:0:
312,192,185020,1,0,0:0:0:0:
483,192,185070,128,0,185145:0:0:0:0:
426,192,185170,1,0,0:0:0:0:
426,192,185370,1,0,0:0:0:0:
312,192,185470,1,0,0:0:0:0:
369,192,185570,1,0,0:0:0:0:
199,192,188870,132,0,188995:0:0:0:0:
483,192,188870,1,0,0:0:0:0:
426,192,188920,1,0,0:0:0:0:
85,192,188945,128,0,188995:0:0:0:0:
369,192,188970,1,0,0:0:0:0:
312,192,189020,1,0,0:0:0:0:
28,192,189070,1,0,0:0:0:0:
483,192,189070,1,0,0:0:0:0:
28,192,189170,1,0,0:0:0:0:
369,192,189220,1,0,0:0:0:0:
142,192,189245,128,0,189370:0:0:0:0:
426,192,189445,1,0,0:0:0:0:
199,192,189470,1,0,0:0:0:0:
199,192,189545,1,0,0:0:0:0:
85,192,189670,1,0,0:0:0:0:
369,192,189670,1,0,0:0:0:0:
312,192,189720,1,0,0:0:0:0:
28,192,189745,1,0,0:0:0:0:
369,192,189770,1,0,0:0:0:0:
85,192,189820,1,0,0:0:0:0:
312,192,189820,1,0,0:0:0:0:
483,192,189870,1,0,0:0:0:0:
28,192,189895,1,0,0:0:0:0:
426,192,189920,1,0,0:0:0:0:
369,192,189970,1,0,0:0:0:0:
199,192,190070,1,0,0:0:0:0:
312,192,190070,1,0,0:0:0:0:
483,192,190270,1,0,0:0:0:0:
142,192,190295,1,0,0:0:0:0:
142,192,190395,1,0,0:0:0:0:
426,192,190420,128,0,190670:0:0:0:0:
28,192,190495,128,0,190570:0:0:0:0:
142,192,190620,128,0,190795:0:0:0:0:
369,192,190620,128,0,190770:0:0:0:0:
85,192,190870,128,0,190920:0:0:0:0:
312,192,191045,1,0,0:0:0:0:
199,192,191095,1,0,0:0:0:0:
369,192,191095,1,0,0:0:0:0:
142,192,191145,1,0,0:0:0:0:
312,192,191145,1,0,0:0:0:0:
199,192,191195,1,0,0:0:0:0:
369,192,191195,1,0,0:0:0:0:
142,192,191245,1,0,0:0:0:0:
483,192,191270,1,0,0:0:0:0:
28,192,191295,1,0,0:0:0:0:
426,192,191320,1,0,0:0:0:0:
369,192,191370,1,0,0:0:0:0:
312,192,191420,1,0,0:0:0:0:
28,192,191445,1,0,0:0:0:0:
483,192,191470,1,0,0:0:0:0:
85,192,191495,1,0,0:0:0:0:
142,192,191545,1,0,0:0:0:0:
483,192,191570,1,0,0:0:0:0:
199,192,191595,1,0,0:0:0:0:
85,192,191645,1,0,0:0:0:0:
199,192,191870,1,0,0:0:0:0:
369,192,191870,1,0,0:0:0:0:
199,192,195245,5,0,0:0:0:0:
312,192,195245,1,0,0:0:0:0:
483,192,195670,1,0,0:0:0:0:
28,192,195670,1,0,0:0:0:0:
199,192,196070,1,0,0:0:0:0:
312,192,196070,1,0,0:0:0:0:
28,192,196470,1,0,0:0:0:0:
483,192,196470,1,0,0:0:0:0:
28,192,200070,132,0,200195:0:0:0:0:
199,192,200270,1,0,0:0:0:0:
142,192,200320,1,0,0:0:0:0:
312,192,200345,128,0,200420:0:0:0:0:
369,192,200420,128,0,200495:0:0:0:0:
483,192,200545,1,0,0:0:0:0:
483,192,200670,1,0,0:0:0:0:
426,192,200745,1,0,0:0:0:0:
312,192,200795,1,0,0:0:0:0:
199,192,200870,1,0,0:0:0:0:
142,192,200945,1,0,0:0:0:0:
28,192,201070,1,0,0:0:0:0:
85,192,201120,1,0,0:0:0:0:
142,192,201170,1,0,0:0:0:0:
312,192,201295,1,0,0:0:0:0:
369,192,201470,1,0,0:0:0:0:
256,192,201645,1,0,0:0:0:0:
28,192,203245,1,0,0:0:0:0:
85,192,203295,1,0,0:0:0:0:
142,192,203345,1,0,0:0:0:0:
199,192,203395,1,0,0:0:0:0:
369,192,203445,1,0,0:0:0:0:
312,192,203495,1,0,0:0:0:0:
369,192,203570,1,0,0:0:0:0:
312,192,203620,1,0,0:0:0:0:
256,192,203670,128,0,203720:0:0:0:0:
199,192,203770,1,0,0:0:0:0:
426,192,203845,1,0,0:0:0:0:
312,192,203945,1,0,0:0:0:0:
28,192,204045,1,0,0:0:0:0:
85,192,204095,1,0,0:0:0:0:
142,192,204145,1,0,0:0:0:0:
199,192,204195,1,0,0:0:0:0:
426,192,204245,1,0,0:0:0:0:
312,192,204345,1,0,0:0:0:0:
483,192,204445,1,0,0:0:0:0:
369,192,204645,1,0,0:0:0:0:
312,192,204695,1,0,0:0:0:0:
256,192,204745,1,0,0:0:0:0:
199,192,204795,1,0,0:0:0:0:
28,192,206445,1,0,0:0:0:0:
85,192,206495,1,0,0:0:0:0:
142,192,206545,1,0,0:0:0:0:
199,192,206595,1,0,0:0:0:0:
426,192,206645,1,0,0:0:0:0:
312,192,206745,1,0,0:0:0:0:
28,192,206845,1,0,0:0:0:0:
85,192,206895,1,0,0:0:0:0:
142,192,206945,1,0,0:0:0:0:
483,192,207045,1,0,0:0:0:0:
426,192,207095,1,0,0:0:0:0:
369,192,207145,1,0,0:0:0:0:
312,192,207195,1,0,0:0:0:0:
199,192,207245,128,0,207345:0:0:0:0:
369,192,207445,1,0,0:0:0:0:
312,192,207495,1,0,0:0:0:0:
426,192,207545,1,0,0:0:0:0:
483,192,207595,1,0,0:0:0:0:
85,192,207645,128,0,207770:0:0:0:0:
256,192,207870,128,0,207995:0:0:0:0:
312,192,208045,1,0,0:0:0:0:
28,192,209645,1,0,0:0:0:0:
85,192,209695,1,0,0:0:0:0:
142,192,209745,1,0,0:0:0:0:
199,192,209795,1,0,0:0:0:0:
369,192,209870,1,0,0:0:0:0:
369,192,209970,1,0,0:0:0:0:
483,192,210045,1,0,0:0:0:0:
426,192,210095,1,0,0:0:0:0:
369,192,210145,1,0,0:0:0:0:
312,192,210195,1,0,0:0:0:0:
142,192,210270,1,0,0:0:0:0:
142,192,210370,1,0,0:0:0:0:
312,192,210470,1,0,0:0:0:0:
199,192,210545,1,0,0:0:0:0:
369,192,210645,1,0,0:0:0:0:
426,192,210695,1,0,0:0:0:0:
369,192,210745,1,0,0:0:0:0:
426,192,210795,1,0,0:0:0:0:
28,192,210820,128,0,210945:0:0:0:0:
483,192,211045,1,0,0:0:0:0:
28,192,212845,1,0,0:0:0:0:
85,192,212895,1,0,0:0:0:0:
28,192,212945,1,0,0:0:0:0:
85,192,212995,1,0,0:0:0:0:
483,192,213045,1,0,0:0:0:0:
426,192,213095,1,0,0:0:0:0:
369,192,213145,1,0,0:0:0:0:
142,192,213220,1,0,0:0:0:0:
199,192,213270,1,0,0:0:0:0:
256,192,213445,1,0,0:0:0:0:
312,192,213495,1,0,0:0:0:0:
369,192,213545,1,0,0:0:0:0:
426,192,213595,1,0,0:0:0:0:
142,192,213645,1,0,0:0:0:0:
28,192,213745,1,0,0:0:0:0:
85,192,213820,1,0,0:0:0:0:
85,192,213945,1,0,0:0:0:0:
199,192,214070,1,0,0:0:0:0:
312,192,214170,1,0,0:0:0:0:
256,192,214245,1,0,0:0:0:0:
369,192,214345,1,0,0:0:0:0:
28,192,216045,1,0,0:0:0:0:
85,192,216095,1,0,0:0:0:0:
142,192,216145,1,0,0:0:0:0:
256,192,216195,1,0,0:0:0:0:
483,192,216270,1,0,0:0:0:0:
426,192,216320,1,0,0:0:0:0:
369,192,216370,1,0,0:0:0:0:
256,192,216420,1,0,0:0:0:0:
142,192,216495,1,0,0:0:0:0:
85,192,216545,1,0,0:0:0:0:
28,192,216595,1,0,0:0:0:0:
312,192,216670,1,0,0:0:0:0:
369,192,216720,1,0,0:0:0:0:
426,192,216770,1,0,0:0:0:0:
483,192,216820,1,0,0:0:0:0:
28,192,216895,1,0,0:0:0:0:
85,192,216945,1,0,0:0:0:0:
142,192,216995,1,0,0:0:0:0:
199,192,217045,1,0,0:0:0:0:
369,192,217095,1,0,0:0:0:0:
312,192,217145,1,0,0:0:0:0:
369,192,217195,1,0,0:0:0:0:
312,192,217245,1,0,0:0:0:0:
199,192,217295,1,0,0:0:0:0:
28,192,217345,1,0,0:0:0:0:
199,192,217395,1,0,0:0:0:0:
312,192,217445,1,0,0:0:0:0:
369,192,217495,1,0,0:0:0:0:
426,192,217545,1,0,0:0:0:0:
483,192,217595,1,0,0:0:0:0:
256,192,217645,1,0,0:0:0:0:
199,192,217670,128,0,217895:0:0:0:0:
369,192,217820,128,0,217995:0:0:0:0:
142,192,219295,1,0,0:0:0:0:
142,192,219395,1,0,0:0:0:0:
312,192,219495,1,0,0:0:0:0:
85,192,219570,1,0,0:0:0:0:
199,192,219695,1,0,0:0:0:0:
256,192,219895,1,0,0:0:0:0:
28,192,220870,1,0,0:0:0:0:
142,192,220995,1,0,0:0:0:0:
85,192,221070,1,0,0:0:0:0:
199,192,221170,1,0,0:0:0:0:
256,192,221295,1,0,0:0:0:0:
312,192,221345,1,0,0:0:0:0:
256,192,221395,1,0,0:0:0:0:
312,192,221445,1,0,0:0:0:0:
199,192,221495,1,0,0:0:0:0:
142,192,221545,1,0,0:0:0:0:
199,192,221595,1,0,0:0:0:0:
142,192,221645,1,0,0:0:0:0:
483,192,221695,1,0,0:0:0:0:
426,192,221745,1,0,0:0:0:0:
369,192,221795,1,0,0:0:0:0:
312,192,221845,1,0,0:0:0:0:
28,192,221895,1,0,0:0:0:0:
85,192,221945,1,0,0:0:0:0:
142,192,221995,1,0,0:0:0:0:
199,192,222045,1,0,0:0:0:0:
369,192,222095,1,0,0:0:0:0:
312,192,222145,1,0,0:0:0:0:
142,192,222195,1,0,0:0:0:0:
199,192,222245,1,0,0:0:0:0:
369,192,222295,128,0,222395:0:0:0:0:
426,192,222320,128,0,222345:0:0:0:0:
312,192,222370,128,0,222395:0:0:0:0:
142,192,222470,1,0,0:0:0:0:
312,192,222570,1,0,0:0:0:0:
28,192,222695,1,0,0:0:0:0:
85,192,222745,1,0,0:0:0:0:
142,192,222795,1,0,0:0:0:0:
199,192,222870,1,0,0:0:0:0:
369,192,223095,1,0,0:0:0:0:
28,192,223295,1,0,0:0:0:0:
85,192,223345,1,0,0:0:0:0:
142,192,223420,1,0,0:0:0:0:
199,192,223470,1,0,0:0:0:0:
369,192,223495,1,0,0:0:0:0:
312,192,223545,1,0,0:0:0:0:
28,192,223620,1,0,0:0:0:0:
85,192,223670,1,0,0:0:0:0:
142,192,223720,1,0,0:0:0:0:
426,192,223770,1,0,0:0:0:0:
369,192,223820,1,0,0:0:0:0:
312,192,223870,1,0,0:0:0:0:
256,192,223920,1,0,0:0:0:0:
142,192,223970,1,0,0:0:0:0:
199,192,224020,1,0,0:0:0:0:
369,192,224095,128,0,224345:0:0:0:0:
199,192,225470,1,0,0:0:0:0:
312,192,225545,1,0,0:0:0:0:
256,192,225645,1,0,0:0:0:0:
85,192,225770,1,0,0:0:0:0:
199,192,225870,1,0,0:0:0:0:
369,192,225970,128,0,226070:0:0:0:0:
483,192,226145,1,0,0:0:0:0:
426,192,226245,1,0,0:0:0:0:
312,192,226370,1,0,0:0:0:0:
199,192,226470,128,0,226545:0:0:0:0:
312,192,226670,128,0,226745:0:0:0:0:
256,192,226870,128,0,226945:0:0:0:0:
199,192,227070,128,0,227145:0:0:0:0:
28,192,227270,1,0,0:0:0:0:
85,192,227345,1,0,0:0:0:0:
483,192,227470,1,0,0:0:0:0:
426,192,227520,1,0,0:0:0:0:
369,192,227570,1,0,0:0:0:0:
142,192,227620,1,0,0:0:0:0:
199,192,227670,1,0,0:0:0:0:
85,192,227845,1,0,0:0:0:0:
142,192,227895,1,0,0:0:0:0:
199,192,227945,1,0,0:0:0:0:
312,192,228020,1,0,0:0:0:0:
85,192,228070,1,0,0:0:0:0:
142,192,228120,1,0,0:0:0:0:
199,192,228170,1,0,0:0:0:0:
256,192,228220,1,0,0:0:0:0:
28,192,228270,1,0,0:0:0:0:
142,192,228345,1,0,0:0:0:0:
483,192,228470,1,0,0:0:0:0:
426,192,228520,1,0,0:0:0:0:
369,192,228570,1,0,0:0:0:0:
312,192,228620,1,0,0:0:0:0:
142,192,228670,1,0,0:0:0:0:
85,192,228770,1,0,0:0:0:0:
199,192,228870,1,0,0:0:0:0:
369,192,228970,1,0,0:0:0:0:
142,192,229070,1,0,0:0:0:0:
85,192,229120,1,0,0:0:0:0:
28,192,229170,128,0,229220:0:0:0:0:
85,192,229270,1,0,0:0:0:0:
483,192,229370,1,0,0:0:0:0:
426,192,229420,1,0,0:0:0:0:
369,192,229470,1,0,0:0:0:0:
312,192,229520,1,0,0:0:0:0:
142,192,229570,1,0,0:0:0:0:
199,192,229620,1,0,0:0:0:0:
28,192,229670,1,0,0:0:0:0:
85,192,229720,1,0,0:0:0:0:
142,192,229745,128,0,229795:0:0:0:0:
312,192,229845,1,0,0:0:0:0:
483,192,229920,1,0,0:0:0:0:
426,192,229970,1,0,0:0:0:0:
369,192,230020,1,0,0:0:0:0:
312,192,230070,1,0,0:0:0:0:
142,192,230145,1,0,0:0:0:0:
199,192,230195,1,0,0:0:0:0:
256,192,230245,1,0,0:0:0:0:
312,192,230295,1,0,0:0:0:0:
142,192,230345,1,0,0:0:0:0:
85,192,230395,1,0,0:0:0:0:
28,192,230445,1,0,0:0:0:0:
256,192,230470,1,0,0:0:0:0:
142,192,232845,128,0,232945:0:0:0:0:
312,192,233045,1,0,0:0:0:0:
369,192,233245,1,0,0:0:0:0:
369,192,233445,1,0,0:0:0:0:
28,192,233645,1,0,0:0:0:0:
85,192,233695,1,0,0:0:0:0:
142,192,233745,1,0,0:0:0:0:
199,192,233795,1,0,0:0:0:0:
256,192,233845,1,0,0:0:0:0:
256,192,233945,1,0,0:0:0:0:
483,192,234045,1,0,0:0:0:0:
426,192,234095,1,0,0:0:0:0:
369,192,234145,1,0,0:0:0:0:
312,192,234195,1,0,0:0:0:0:
28,192,234245,1,0,0:0:0:0:
85,192,234295,1,0,0:0:0:0:
142,192,234345,1,0,0:0:0:0:
199,192,234395,1,0,0:0:0:0:
369,192,234470,1,0,0:0:0:0:
312,192,234520,1,0,0:0:0:0:
199,192,234620,128,0,234695:0:0:0:0:
426,192,234845,1,0,0:0:0:0:
483,192,234895,1,0,0:0:0:0:
426,192,234945,1,0,0:0:0:0:
483,192,234995,1,0,0:0:0:0:
28,192,235045,1,0,0:0:0:0:
85,192,235095,1,0,0:0:0:0:
142,192,235145,1,0,0:0:0:0:
256,192,235220,1,0,0:0:0:0:
369,192,235270,1,0,0:0:0:0:
312,192,235320,1,0,0:0:0:0:
256,192,235370,1,0,0:0:0:0:
199,192,235420,1,0,0:0:0:0:
426,192,235470,1,0,0:0:0:0:
426,192,235545,1,0,0:0:0:0:
199,192,235670,1,0,0:0:0:0:
142,192,235720,1,0,0:0:0:0:
199,192,235770,1,0,0:0:0:0:
142,192,235820,1,0,0:0:0:0:
312,192,235870,1,0,0:0:0:0:
369,192,235920,1,0,0:0:0:0:
426,192,235970,1,0,0:0:0:0:
483,192,236020,1,0,0:0:0:0:
28,192,236045,1,0,0:0:0:0:
85,192,236095,1,0,0:0:0:0:
142,192,236145,1,0,0:0:0:0:
256,192,236195,1,0,0:0:0:0:
483,192,236245,1,0,0:0:0:0:
483,192,236345,1,0,0:0:0:0:
256,192,236470,1,0,0:0:0:0:
85,192,236670,1,0,0:0:0:0:
312,192,236845,128,0,236970:0:0:0:0:
369,192,236920,128,0,237020:0:0:0:0:
256,192,237045,128,0,237120:0:0:0:0:
199,192,239645,5,0,0:0:0:0:
369,192,239845,1,0,0:0:0:0:
256,192,240020,128,0,240095:0:0:0:0:
369,192,240120,128,0,240195:0:0:0:0:
142,192,240220,1,0,0:0:0:0:
85,192,240270,1,0,0:0:0:0:
28,192,240320,1,0,0:0:0:0:
312,192,240395,1,0,0:0:0:0:
369,192,240445,1,0,0:0:0:0:
426,192,240495,1,0,0:0:0:0:
199,192,240545,1,0,0:0:0:0:
142,192,240595,1,0,0:0:0:0:
85,192,240645,1,0,0:0:0:0:
312,192,240770,1,0,0:0:0:0:
426,192,240845,1,0,0:0:0:0:
28,192,240945,1,0,0:0:0:0:
85,192,240995,1,0,0:0:0:0:
142,192,241045,1,0,0:0:0:0:
199,192,241095,1,0,0:0:0:0:
256,192,241145,1,0,0:0:0:0:
369,192,241195,1,0,0:0:0:0:
312,192,241245,128,0,241395:0:0:0:0:
142,192,241445,1,0,0:0:0:0:
369,192,241645,128,0,241770:0:0:0:0:
199,192,241845,1,0,0:0:0:0:
142,192,241895,1,0,0:0:0:0:
199,192,241945,1,0,0:0:0:0:
142,192,241995,1,0,0:0:0:0:
483,192,242045,1,0,0:0:0:0:
426,192,242095,1,0,0:0:0:0:
369,192,242145,1,0,0:0:0:0:
312,192,242195,1,0,0:0:0:0:
28,192,242270,1,0,0:0:0:0:
85,192,242320,1,0,0:0:0:0:
142,192,242370,1,0,0:0:0:0:
199,192,242420,1,0,0:0:0:0:
369,192,242470,1,0,0:0:0:0:
312,192,242520,1,0,0:0:0:0:
85,192,242620,1,0,0:0:0:0:
142,192,242670,1,0,0:0:0:0:
426,192,242845,1,0,0:0:0:0:
199,192,243045,1,0,0:0:0:0:
256,192,243245,128,0,243970:0:0:0:0:
85,192,244020,128,0,244795:0:0:0:0:
312,192,244845,128,0,245570:0:0:0:0:
142,192,245645,128,0,245970:0:0:0:0:
483,192,246020,128,0,246370:0:0:0:0:
142,192,246445,1,0,0:0:0:0:
28,192,246645,1,0,0:0:0:0:
85,192,246695,1,0,0:0:0:0:
142,192,246745,1,0,0:0:0:0:
199,192,246795,1,0,0:0:0:0:
426,192,246845,1,0,0:0:0:0:
312,192,247045,1,0,0:0:0:0:
312,192,247145,1,0,0:0:0:0:
28,192,247245,1,0,0:0:0:0:
85,192,247295,1,0,0:0:0:0:
142,192,247345,1,0,0:0:0:0:
199,192,247395,1,0,0:0:0:0:
256,192,247445,1,0,0:0:0:0:
256,192,247520,1,0,0:0:0:0:
483,192,247645,1,0,0:0:0:0:
426,192,247695,1,0,0:0:0:0:
369,192,247745,1,0,0:0:0:0:
312,192,247795,1,0,0:0:0:0:
142,192,247845,1,0,0:0:0:0:
199,192,247895,1,0,0:0:0:0:
256,192,247945,1,0,0:0:0:0:
199,192,248070,1,0,0:0:0:0:
142,192,248120,1,0,0:0:0:0:
85,192,248170,1,0,0:0:0:0:
28,192,248220,1,0,0:0:0:0:
369,192,248245,1,0,0:0:0:0:
312,192,248295,1,0,0:0:0:0:
256,192,248345,1,0,0:0:0:0:
256,192,248445,1,0,0:0:0:0:
369,192,248520,1,0,0:0:0:0:
426,192,248570,1,0,0:0:0:0:
483,192,248620,1,0,0:0:0:0:
199,192,248695,1,0,0:0:0:0:
142,192,248745,1,0,0:0:0:0:
85,192,248795,1,0,0:0:0:0:
483,192,248845,1,0,0:0:0:0:
426,192,248895,1,0,0:0:0:0:
369,192,248945,1,0,0:0:0:0:
312,192,248995,1,0,0:0:0:0:
256,192,249045,1,0,0:0:0:0:
142,192,249095,1,0,0:0:0:0:
199,192,249145,1,0,0:0:0:0:
256,192,249195,1,0,0:0:0:0:
28,192,249245,1,0,0:0:0:0:
85,192,249295,1,0,0:0:0:0:
142,192,249345,1,0,0:0:0:0:
199,192,249395,1,0,0:0:0:0:
256,192,249445,1,0,0:0:0:0:
426,192,249495,1,0,0:0:0:0:
369,192,249545,1,0,0:0:0:0:
312,192,249595,1,0,0:0:0:0:
199,192,249845,1,0,0:0:0:0:
369,192,250245,1,0,0:0:0:0:
256,192,250445,1,0,0:0:0:0:
199,192,250645,1,0,0:0:0:0:
199,192,250770,1,0,0:0:0:0:
369,192,250845,1,0,0:0:0:0:
426,192,251045,1,0,0:0:0:0:
85,192,251445,1,0,0:0:0:0:
256,192,251845,1,0,0:0:0:0:
256,192,251945,1,0,0:0:0:0:
199,192,252045,1,0,0:0:0:0:
312,192,252445,1,0,0:0:0:0:
28,192,252845,1,0,0:0:0:0:
85,192,252895,1,0,0:0:0:0:
142,192,252945,1,0,0:0:0:0:
199,192,252995,1,0,0:0:0:0:
369,192,253045,128,0,253120:0:0:0:0:
483,192,253245,1,0,0:0:0:0:
426,192,253295,1,0,0:0:0:0:
369,192,253345,1,0,0:0:0:0:
256,192,253395,1,0,0:0:0:0:
28,192,253445,1,0,0:0:0:0:
85,192,253495,1,0,0:0:0:0:
142,192,253545,1,0,0:0:0:0:
256,192,253595,1,0,0:0:0:0:
369,192,253645,1,0,0:0:0:0:
312,192,253720,1,0,0:0:0:0:
199,192,253845,128,0,254020:0:0:0:0:
483,192,254045,1,0,0:0:0:0:
426,192,254095,1,0,0:0:0:0:
369,192,254145,1,0,0:0:0:0:
28,192,254245,1,0,0:0:0:0:
85,192,254295,1,0,0:0:0:0:
142,192,254345,1,0,0:0:0:0:
28,192,254445,1,0,0:0:0:0:
28,192,254570,1,0,0:0:0:0:
85,192,254645,1,0,0:0:0:0:
199,192,254720,1,0,0:0:0:0:
369,192,254945,1,0,0:0:0:0:
483,192,255045,1,0,0:0:0:0:
426,192,255170,1,0,0:0:0:0:
28,192,255320,1,0,0:0:0:0:
85,192,255370,1,0,0:0:0:0:
142,192,255420,1,0,0:0:0:0:
483,192,255520,1,0,0:0:0:0:
426,192,255570,1,0,0:0:0:0:
369,192,255620,1,0,0:0:0:0:
312,192,255670,1,0,0:0:0:0:
369,192,255720,1,0,0:0:0:0:
28,192,255795,1,0,0:0:0:0:
85,192,255845,1,0,0:0:0:0:
142,192,255895,1,0,0:0:0:0:
256,192,255970,1,0,0:0:0:0:
369,192,256020,1,0,0:0:0:0:
256,192,268070,132,0,269470:0:0:0:0:
85,192,269570,128,0,270270:0:0:0:0:
312,192,270320,128,0,270570:0:0:0:0:
199,192,270670,128,0,270970:0:0:0:0:
369,192,271070,128,0,271770:0:0:0:0:
142,192,271820,128,0,272070:0:0:0:0:
312,192,272170,128,0,272270:0:0:0:0:
426,192,272345,128,0,272420:0:0:0:0:
85,192,272545,128,0,272620:0:0:0:0:
199,192,272745,1,0,0:0:0:0:
312,192,272920,1,0,0:0:0:0:
483,192,273120,1,0,0:0:0:0:
256,192,273320,128,0,273570:0:0:0:0:
85,192,273695,128,0,273970:0:0:0:0:
256,192,274245,1,0,0:0:0:0:
256,192,274620,1,0,0:0:0:0:
28,192,275020,1,0,0:0:0:0:
483,192,275395,1,0,0:0:0:0:
199,192,275795,1,0,0:0:0:0:
369,192,275995,1,0,0:0:0:0:
256,192,276170,1,0,0:0:0:0:
85,192,276320,128,0,276595:0:0:0:0:
312,192,276670,128,0,276970:0:0:0:0:
256,192,277045,128,0,278070:0:0:0:0:
199,192,278170,128,0,278270:0:0:0:0:
369,192,278370,128,0,278470:0:0:0:0:
483,192,278670,128,0,279220:0:0:0:0:
256,192,279295,128,0,280020:0:0:0:0:
483,192,280045,5,0,0:0:0:0:
28,192,280045,128,0,280620:0:0:0:0:
426,192,280095,1,0,0:0:0:0:
369,192,280145,1,0,0:0:0:0:
312,192,280195,1,0,0:0:0:0:
483,192,280245,1,0,0:0:0:0:
426,192,280445,1,0,0:0:0:0:
85,192,280570,128,0,280745:0:0:0:0:
312,192,280620,1,0,0:0:0:0:
369,192,280670,1,0,0:0:0:0:
426,192,280720,1,0,0:0:0:0:
483,192,280770,1,0,0:0:0:0:
369,192,280820,1,0,0:0:0:0:
199,192,280845,1,0,0:0:0:0:
312,192,280895,1,0,0:0:0:0:
142,192,280895,1,0,0:0:0:0:
426,192,280945,1,0,0:0:0:0:
85,192,280945,1,0,0:0:0:0:
483,192,280995,1,0,0:0:0:0:
28,192,280995,1,0,0:0:0:0:
312,192,281045,1,0,0:0:0:0:
199,192,281045,1,0,0:0:0:0:
369,192,281095,1,0,0:0:0:0:
85,192,281095,1,0,0:0:0:0:
426,192,281145,1,0,0:0:0:0:
142,192,281145,1,0,0:0:0:0:
483,192,281195,1,0,0:0:0:0:
312,192,281245,1,0,0:0:0:0:
28,192,281245,1,0,0:0:0:0:
369,192,281295,1,0,0:0:0:0:
85,192,281295,1,0,0:0:0:0:
142,192,281345,1,0,0:0:0:0:
483,192,281420,1,0,0:0:0:0:
199,192,281445,1,0,0:0:0:0:
426,192,281495,1,0,0:0:0:0:
142,192,281495,1,0,0:0:0:0:
85,192,281545,1,0,0:0:0:0:
312,192,281570,1,0,0:0:0:0:
28,192,281620,1,0,0:0:0:0:
483,192,281670,1,0,0:0:0:0:
426,192,281745,1,0,0:0:0:0:
199,192,281845,1,0,0:0:0:0:
426,192,281920,1,0,0:0:0:0:
199,192,281945,1,0,0:0:0:0:
312,192,282045,1,0,0:0:0:0:
142,192,282070,128,0,282145:0:0:0:0:
369,192,282095,1,0,0:0:0:0:
85,192,282120,128,0,282170:0:0:0:0:
483,192,282145,1,0,0:0:0:0:
426,192,282195,1,0,0:0:0:0:
369,192,282245,1,0,0:0:0:0:
199,192,282245,1,0,0:0:0:0:
312,192,282295,1,0,0:0:0:0:
142,192,282295,1,0,0:0:0:0:
426,192,282345,1,0,0:0:0:0:
85,192,282345,1,0,0:0:0:0:
483,192,282395,1,0,0:0:0:0:
28,192,282395,1,0,0:0:0:0:
312,192,282445,1,0,0:0:0:0:
199,192,282445,1,0,0:0:0:0:
369,192,282495,1,0,0:0:0:0:
142,192,282495,1,0,0:0:0:0:
426,192,282545,1,0,0:0:0:0:
28,192,282545,1,0,0:0:0:0:
85,192,282595,1,0,0:0:0:0:
483,192,282645,1,0,0:0:0:0:
142,192,282645,1,0,0:0:0:0:
426,192,282695,1,0,0:0:0:0:
199,192,282695,1,0,0:0:0:0:
369,192,282745,1,0,0:0:0:0:
85,192,282745,1,0,0:0:0:0:
28,192,282795,1,0,0:0:0:0:
426,192,282845,1,0,0:0:0:0:
199,192,282845,1,0,0:0:0:0:
483,192,282895,1,0,0:0:0:0:
142,192,282895,1,0,0:0:0:0:
369,192,282945,1,0,0:0:0:0:
199,192,282945,1,0,0:0:0:0:
142,192,282995,1,0,0:0:0:0:
312,192,283020,1,0,0:0:0:0:
28,192,283045,1,0,0:0:0:0:
369,192,283070,1,0,0:0:0:0:
85,192,283095,1,0,0:0:0:0:
426,192,283120,1,0,0:0:0:0:
28,192,283145,1,0,0:0:0:0:
483,192,283170,1,0,0:0:0:0:
85,192,283195,1,0,0:0:0:0:
312,192,283220,1,0,0:0:0:0:
369,192,283270,1,0,0:0:0:0:
199,192,283270,128,0,283595:0:0:0:0:
312,192,283320,1,0,0:0:0:0:
369,192,283370,1,0,0:0:0:0:
483,192,283445,1,0,0:0:0:0:
483,192,283545,1,0,0:0:0:0:
426,192,283595,1,0,0:0:0:0:
85,192,283645,128,0,283970:0:0:0:0:
483,192,283820,1,0,0:0:0:0:
426,192,283870,1,0,0:0:0:0:
369,192,283920,1,0,0:0:0:0:
312,192,283945,1,0,0:0:0:0:
483,192,283995,1,0,0:0:0:0:
426,192,284045,1,0,0:0:0:0:
199,192,284045,1,0,0:0:0:0:
483,192,284095,1,0,0:0:0:0:
142,192,284095,1,0,0:0:0:0:
426,192,284145,1,0,0:0:0:0:
85,192,284145,1,0,0:0:0:0:
312,192,284195,1,0,0:0:0:0:
28,192,284195,1,0,0:0:0:0:
369,192,284245,1,0,0:0:0:0:
199,192,284245,1,0,0:0:0:0:
312,192,284295,1,0,0:0:0:0:
85,192,284295,1,0,0:0:0:0:
369,192,284345,1,0,0:0:0:0:
142,192,284345,1,0,0:0:0:0:
483,192,284370,128,0,284570:0:0:0:0:
199,192,284395,1,0,0:0:0:0:
28,192,284445,128,0,284520:0:0:0:0:
85,192,284495,128,0,284520:0:0:0:0:
142,192,284545,1,0,0:0:0:0:
199,192,284595,128,0,284670:0:0:0:0:
426,192,284620,128,0,284770:0:0:0:0:
142,192,284645,128,0,284670:0:0:0:0:
85,192,284695,1,0,0:0:0:0:
312,192,284820,128,0,285570:0:0:0:0:
28,192,284820,1,0,0:0:0:0:
85,192,284895,1,0,0:0:0:0:
199,192,285045,128,0,285095:0:0:0:0:
142,192,285245,128,0,285370:0:0:0:0:
85,192,285370,1,0,0:0:0:0:
28,192,285420,1,0,0:0:0:0:
85,192,285470,1,0,0:0:0:0:
142,192,285520,1,0,0:0:0:0:
199,192,285570,1,0,0:0:0:0:
369,192,285620,128,0,286345:0:0:0:0:
28,192,285620,1,0,0:0:0:0:
85,192,285670,1,0,0:0:0:0:
142,192,285720,1,0,0:0:0:0:
199,192,285770,1,0,0:0:0:0:
28,192,285820,1,0,0:0:0:0:
85,192,285870,1,0,0:0:0:0:
199,192,285920,1,0,0:0:0:0:
142,192,285970,1,0,0:0:0:0:
85,192,286020,1,0,0:0:0:0:
28,192,286095,1,0,0:0:0:0:
142,192,286145,1,0,0:0:0:0:
199,192,286195,1,0,0:0:0:0:
28,192,286245,1,0,0:0:0:0:
85,192,286295,1,0,0:0:0:0:
142,192,286345,1,0,0:0:0:0:
199,192,286395,1,0,0:0:0:0:
28,192,286445,128,0,287570:0:0:0:0:
483,192,286445,1,0,0:0:0:0:
426,192,286495,1,0,0:0:0:0:
369,192,286545,1,0,0:0:0:0:
312,192,286595,1,0,0:0:0:0:
483,192,286670,1,0,0:0:0:0:
426,192,286695,1,0,0:0:0:0:
369,192,286745,1,0,0:0:0:0:
312,192,286795,1,0,0:0:0:0:
426,192,286870,1,0,0:0:0:0:
483,192,286920,1,0,0:0:0:0:
312,192,286970,1,0,0:0:0:0:
483,192,287020,1,0,0:0:0:0:
483,192,287120,1,0,0:0:0:0:
312,192,287245,1,0,0:0:0:0:
369,192,287295,1,0,0:0:0:0:
312,192,287345,1,0,0:0:0:0:
369,192,287395,1,0,0:0:0:0:
483,192,287445,1,0,0:0:0:0:
426,192,287495,1,0,0:0:0:0:
199,192,287545,128,0,287770:0:0:0:0:
483,192,287545,1,0,0:0:0:0:
426,192,287595,1,0,0:0:0:0:
312,192,287645,1,0,0:0:0:0:
369,192,287695,1,0,0:0:0:0:
426,192,287745,1,0,0:0:0:0:
483,192,287795,1,0,0:0:0:0:
142,192,287820,128,0,287945:0:0:0:0:
369,192,287845,1,0,0:0:0:0:
312,192,287895,1,0,0:0:0:0:
426,192,287945,1,0,0:0:0:0:
483,192,287995,1,0,0:0:0:0:
85,192,288020,128,0,288770:0:0:0:0:
312,192,288045,128,0,288245:0:0:0:0:
369,192,288195,128,0,288370:0:0:0:0:
483,192,288420,1,0,0:0:0:0:
483,192,288545,1,0,0:0:0:0:
312,192,288645,1,0,0:0:0:0:
369,192,288695,1,0,0:0:0:0:
426,192,288745,1,0,0:0:0:0:
483,192,288795,1,0,0:0:0:0:
199,192,288820,128,0,289595:0:0:0:0:
369,192,288845,1,0,0:0:0:0:
312,192,288895,1,0,0:0:0:0:
369,192,288945,1,0,0:0:0:0:
312,192,288995,1,0,0:0:0:0:
483,192,289045,128,0,289120:0:0:0:0:
426,192,289145,1,0,0:0:0:0:
426,192,289345,1,0,0:0:0:0:
312,192,289445,1,0,0:0:0:0:
369,192,289545,1,0,0:0:0:0:
199,192,289645,128,0,289770:0:0:0:0:
483,192,289645,1,0,0:0:0:0:
426,192,289695,1,0,0:0:0:0:
85,192,289720,128,0,289770:0:0:0:0:
369,192,289745,1,0,0:0:0:0:
312,192,289795,1,0,0:0:0:0:
28,192,289845,1,0,0:0:0:0:
483,192,289845,1,0,0:0:0:0:
28,192,289945,1,0,0:0:0:0:
369,192,289995,1,0,0:0:0:0:
142,192,290020,128,0,290145:0:0:0:0:
426,192,290220,1,0,0:0:0:0:
199,192,290245,1,0,0:0:0:0:
199,192,290320,1,0,0:0:0:0:
85,192,290445,1,0,0:0:0:0:
369,192,290445,1,0,0:0:0:0:
312,192,290495,1,0,0:0:0:0:
28,192,290520,1,0,0:0:0:0:
369,192,290545,1,0,0:0:0:0:
85,192,290595,1,0,0:0:0:0:
312,192,290595,1,0,0:0:0:0:
483,192,290645,1,0,0:0:0:0:
28,192,290670,1,0,0:0:0:0:
426,192,290695,1,0,0:0:0:0:
369,192,290745,1,0,0:0:0:0:
199,192,290845,1,0,0:0:0:0:
312,192,290845,1,0,0:0:0:0:
483,192,291045,1,0,0:0:0:0:
142,192,291070,1,0,0:0:0:0:
142,192,291170,1,0,0:0:0:0:
426,192,291195,128,0,291445:0:0:0:0:
28,192,291270,128,0,291345:0:0:0:0:
142,192,291395,128,0,291570:0:0:0:0:
369,192,291395,128,0,291545:0:0:0:0:
85,192,291645,128,0,291695:0:0:0:0:
199,192,291845,1,0,0:0:0:0:
369,192,291845,1,0,0:0:0:0:
28,192,291945,1,0,0:0:0:0:
483,192,291945,1,0,0:0:0:0:
312,192,291995,1,0,0:0:0:0:
369,192,292045,1,0,0:0:0:0:
199,192,292045,128,0,292370:0:0:0:0:
312,192,292095,1,0,0:0:0:0:
369,192,292145,1,0,0:0:0:0:
483,192,292220,1,0,0:0:0:0:
483,192,292320,1,0,0:0:0:0:
426,192,292370,1,0,0:0:0:0:
85,192,292420,128,0,292745:0:0:0:0:
483,192,292595,1,0,0:0:0:0:
426,192,292645,1,0,0:0:0:0:
369,192,292695,1,0,0:0:0:0:
312,192,292720,1,0,0:0:0:0:
483,192,292770,1,0,0:0:0:0:
199,192,292820,1,0,0:0:0:0:
426,192,292820,1,0,0:0:0:0:
142,192,292870,1,0,0:0:0:0:
483,192,292870,1,0,0:0:0:0:
85,192,292920,1,0,0:0:0:0:
426,192,292920,1,0,0:0:0:0:
28,192,292970,1,0,0:0:0:0:
312,192,292970,1,0,0:0:0:0:
199,192,293020,1,0,0:0:0:0:
369,192,293020,1,0,0:0:0:0:
85,192,293070,1,0,0:0:0:0:
312,192,293070,1,0,0:0:0:0:
142,192,293120,1,0,0:0:0:0:
369,192,293120,1,0,0:0:0:0:
483,192,293145,128,0,293345:0:0:0:0:
199,192,293170,1,0,0:0:0:0:
28,192,293220,128,0,293295:0:0:0:0:
85,192,293270,128,0,293295:0:0:0:0:
142,192,293320,1,0,0:0:0:0:
199,192,293370,128,0,293445:0:0:0:0:
426,192,293395,128,0,293545:0:0:0:0:
142,192,293420,128,0,293445:0:0:0:0:
85,192,293470,1,0,0:0:0:0:
28,192,293595,1,0,0:0:0:0:
312,192,293595,128,0,294345:0:0:0:0:
85,192,293670,1,0,0:0:0:0:
199,192,293820,128,0,293870:0:0:0:0:
142,192,294020,128,0,294145:0:0:0:0:
85,192,294145,1,0,0:0:0:0:
28,192,294195,1,0,0:0:0:0:
85,192,294245,1,0,0:0:0:0:
142,192,294295,1,0,0:0:0:0:
199,192,294345,1,0,0:0:0:0:
28,192,294395,1,0,0:0:0:0:
369,192,294395,128,0,295120:0:0:0:0:
85,192,294445,1,0,0:0:0:0:
142,192,294495,1,0,0:0:0:0:
199,192,294545,1,0,0:0:0:0:
28,192,294595,1,0,0:0:0:0:
85,192,294645,1,0,0:0:0:0:
199,192,294695,1,0,0:0:0:0:
142,192,294745,1,0,0:0:0:0:
85,192,294795,1,0,0:0:0:0:
28,192,294870,1,0,0:0:0:0:
142,192,294920,1,0,0:0:0:0:
199,192,294970,1,0,0:0:0:0:
28,192,295020,1,0,0:0:0:0:
85,192,295070,1,0,0:0:0:0:
142,192,295120,1,0,0:0:0:0:
199,192,295170,1,0,0:0:0:0:
199,192,295195,128,0,295320:0:0:0:0:
483,192,295195,1,0,0:0:0:0:
426,192,295245,1,0,0:0:0:0:
85,192,295270,128,0,295320:0:0:0:0:
369,192,295295,1,0,0:0:0:0:
312,192,295345,1,0,0:0:0:0:
28,192,295395,1,0,0:0:0:0:
483,192,295395,1,0,0:0:0:0:
28,192,295495,1,0,0:0:0:0:
369,192,295545,1,0,0:0:0:0:
142,192,295570,128,0,295695:0:0:0:0:
426,192,295770,1,0,0:0:0:0:
199,192,295795,1,0,0:0:0:0:
199,192,295870,1,0,0:0:0:0:
85,192,295995,1,0,0:0:0:0:
369,192,295995,1,0,0:0:0:0:
312,192,296045,1,0,0:0:0:0:
28,192,296070,1,0,0:0:0:0:
369,192,296095,1,0,0:0:0:0:
85,192,296145,1,0,0:0:0:0:
312,192,296145,1,0,0:0:0:0:
483,192,296195,1,0,0:0:0:0:
28,192,296220,1,0,0:0:0:0:
426,192,296245,1,0,0:0:0:0:
369,192,296295,1,0,0:0:0:0:
199,192,296395,1,0,0:0:0:0:
312,192,296395,1,0,0:0:0:0:
483,192,296595,1,0,0:0:0:0:
142,192,296620,1,0,0:0:0:0:
142,192,296720,1,0,0:0:0:0:
426,192,296745,128,0,296995:0:0:0:0:
28,192,296820,128,0,296895:0:0:0:0:
142,192,296945,128,0,297120:0:0:0:0:
369,192,296945,128,0,297095:0:0:0:0:
85,192,297195,128,0,297245:0:0:0:0:
312,192,297370,1,0,0:0:0:0:
199,192,297420,1,0,0:0:0:0:
369,192,297420,1,0,0:0:0:0:
142,192,297470,1,0,0:0:0:0:
312,192,297470,1,0,0:0:0:0:
199,192,297520,1,0,0:0:0:0:
369,192,297520,1,0,0:0:0:0:
142,192,297570,1,0,0:0:0:0:
483,192,297595,1,0,0:0:0:0:
28,192,297620,1,0,0:0:0:0:
426,192,297645,1,0,0:0:0:0:
369,192,297695,1,0,0:0:0:0:
312,192,297745,1,0,0:0:0:0:
28,192,297770,1,0,0:0:0:0:
483,192,297795,1,0,0:0:0:0:
85,192,297820,1,0,0:0:0:0:
142,192,297870,1,0,0:0:0:0:
483,192,297895,1,0,0:0:0:0:
199,192,297920,1,0,0:0:0:0:
369,192,297920,128,0,297970:0:0:0:0:
28,192,297970,1,0,0:0:0:0:
483,192,298070,5,0,0:0:0:0:
28,192,298070,128,0,298645:0:0:0:0:
426,192,298120,1,0,0:0:0:0:
369,192,298170,1,0,0:0:0:0:
312,192,298220,1,0,0:0:0:0:
483,192,298270,1,0,0:0:0:0:
426,192,298470,1,0,0:0:0:0:
85,192,298595,128,0,298770:0:0:0:0:
312,192,298645,1,0,0:0:0:0:
369,192,298695,1,0,0:0:0:0:
426,192,298745,1,0,0:0:0:0:
483,192,298795,1,0,0:0:0:0:
369,192,298845,1,0,0:0:0:0:
199,192,298870,1,0,0:0:0:0:
312,192,298920,1,0,0:0:0:0:
142,192,298920,1,0,0:0:0:0:
426,192,298970,1,0,0:0:0:0:
85,192,298970,1,0,0:0:0:0:
483,192,299020,1,0,0:0:0:0:
28,192,299020,1,0,0:0:0:0:
312,192,299070,1,0,0:0:0:0:
199,192,299070,1,0,0:0:0:0:
369,192,299120,1,0,0:0:0:0:
85,192,299120,1,0,0:0:0:0:
426,192,299170,1,0,0:0:0:0:
142,192,299170,1,0,0:0:0:0:
483,192,299220,1,0,0:0:0:0:
312,192,299270,1,0,0:0:0:0:
28,192,299270,1,0,0:0:0:0:
369,192,299320,1,0,0:0:0:0:
85,192,299320,1,0,0:0:0:0:
142,192,299370,1,0,0:0:0:0:
483,192,299445,1,0,0:0:0:0:
199,192,299470,1,0,0:0:0:0:
426,192,299520,1,0,0:0:0:0:
142,192,299520,1,0,0:0:0:0:
85,192,299570,1,0,0:0:0:0:
312,192,299595,1,0,0:0:0:0:
28,192,299645,1,0,0:0:0:0:
483,192,299695,1,0,0:0:0:0:
426,192,299770,1,0,0:0:0:0:
199,192,299870,1,0,0:0:0:0:
426,192,299945,1,0,0:0:0:0:
199,192,299970,1,0,0:0:0:0:
312,192,300070,1,0,0:0:0:0:
142,192,300095,128,0,300170:0:0:0:0:
369,192,300120,1,0,0:0:0:0:
85,192,300145,128,0,300195:0:0:0:0:
483,192,300170,1,0,0:0:0:0:
426,192,300220,1,0,0:0:0:0:
369,192,300270,1,0,0:0:0:0:
199,192,300270,1,0,0:0:0:0:
312,192,300320,1,0,0:0:0:0:
142,192,300320,1,0,0:0:0:0:
426,192,300370,1,0,0:0:0:0:
85,192,300370,1,0,0:0:0:0:
483,192,300420,1,0,0:0:0:0:
28,192,300420,1,0,0:0:0:0:
312,192,300470,1,0,0:0:0:0:
199,192,300470,1,0,0:0:0:0:
369,192,300520,1,0,0:0:0:0:
142,192,300520,1,0,0:0:0:0:
426,192,300570,1,0,0:0:0:0:
28,192,300570,1,0,0:0:0:0:
85,192,300620,1,0,0:0:0:0:
483,192,300670,1,0,0:0:0:0:
142,192,300670,1,0,0:0:0:0:
426,192,300720,1,0,0:0:0:0:
199,192,300720,1,0,0:0:0:0:
369,192,300770,1,0,0:0:0:0:
85,192,300770,1,0,0:0:0:0:
28,192,300820,1,0,0:0:0:0:
426,192,300870,1,0,0:0:0:0:
199,192,300870,1,0,0:0:0:0:
483,192,300920,1,0,0:0:0:0:
142,192,300920,1,0,0:0:0:0:
369,192,300970,1,0,0:0:0:0:
199,192,300970,1,0,0:0:0:0:
142,192,301020,1,0,0:0:0:0:
483,192,301020,1,0,0:0:0:0:
28,192,301070,1,0,0:0:0:0:
426,192,301070,1,0,0:0:0:0:
85,192,301120,1,0,0:0:0:0:
369,192,301120,1,0,0:0:0:0:
28,192,301170,1,0,0:0:0:0:
312,192,301170,1,0,0:0:0:0:
85,192,301220,1,0,0:0:0:0:
483,192,301220,1,0,0:0:0:0:
28,192,301270,128,0,302095:0:0:0:0:
426,192,301270,1,0,0:0:0:0:
369,192,301320,1,0,0:0:0:0:
312,192,301370,1,0,0:0:0:0:
426,192,301420,1,0,0:0:0:0:
483,192,301470,1,0,0:0:0:0:
369,192,301520,1,0,0:0:0:0:
312,192,301570,1,0,0:0:0:0:
483,192,301695,1,0,0:0:0:0:
312,192,301795,1,0,0:0:0:0:
369,192,301845,1,0,0:0:0:0:
312,192,301895,1,0,0:0:0:0:
369,192,301945,1,0,0:0:0:0:
483,192,301995,1,0,0:0:0:0:
426,192,302045,1,0,0:0:0:0:
483,192,302120,1,0,0:0:0:0:
199,192,302170,128,0,302270:0:0:0:0:
426,192,302170,1,0,0:0:0:0:
312,192,302220,1,0,0:0:0:0:
369,192,302270,1,0,0:0:0:0:
142,192,302345,128,0,302420:0:0:0:0:
426,192,302345,1,0,0:0:0:0:
483,192,302395,1,0,0:0:0:0:
369,192,302445,1,0,0:0:0:0:
312,192,302495,1,0,0:0:0:0:
85,192,302545,128,0,303220:0:0:0:0:
426,192,302545,1,0,0:0:0:0:
483,192,302595,1,0,0:0:0:0:
312,192,302620,128,0,302720:0:0:0:0:
369,192,302695,128,0,302820:0:0:0:0:
483,192,302920,1,0,0:0:0:0:
483,192,303045,1,0,0:0:0:0:
312,192,303120,1,0,0:0:0:0:
369,192,303270,1,0,0:0:0:0:
199,192,303295,128,0,303970:0:0:0:0:
312,192,303320,1,0,0:0:0:0:
369,192,303370,1,0,0:0:0:0:
312,192,303420,1,0,0:0:0:0:
483,192,303495,1,0,0:0:0:0:
312,192,303845,1,0,0:0:0:0:
369,192,303970,1,0,0:0:0:0:
142,192,305545,1,0,0:0:0:0:
199,192,305645,1,0,0:0:0:0:
426,192,305745,1,0,0:0:0:0:
369,192,305795,1,0,0:0:0:0:
312,192,305845,1,0,0:0:0:0:
28,192,305995,1,0,0:0:0:0:
85,192,306045,1,0,0:0:0:0:
142,192,306095,1,0,0:0:0:0:
199,192,306145,1,0,0:0:0:0:
369,192,306195,1,0,0:0:0:0:
312,192,306245,1,0,0:0:0:0:
199,192,306445,1,0,0:0:0:0:
28,192,306470,1,0,0:0:0:0:
142,192,306495,1,0,0:0:0:0:
199,192,306545,1,0,0:0:0:0:
483,192,306570,1,0,0:0:0:0:
142,192,306595,1,0,0:0:0:0:
426,192,306620,1,0,0:0:0:0:
369,192,306670,1,0,0:0:0:0:
312,192,306720,1,0,0:0:0:0:
142,192,306820,1,0,0:0:0:0:
199,192,306870,1,0,0:0:0:0:
256,192,306920,1,0,0:0:0:0:
312,192,306970,1,0,0:0:0:0:
369,192,307020,1,0,0:0:0:0:
28,192,308570,1,0,0:0:0:0:
85,192,308620,1,0,0:0:0:0:
142,192,308670,1,0,0:0:0:0:
312,192,308720,1,0,0:0:0:0:
369,192,308820,1,0,0:0:0:0:
256,192,309020,1,0,0:0:0:0:
142,192,309120,1,0,0:0:0:0:
199,192,309170,1,0,0:0:0:0:
369,192,309195,1,0,0:0:0:0:
312,192,309245,1,0,0:0:0:0:
483,192,309320,1,0,0:0:0:0:
426,192,309395,1,0,0:0:0:0:
312,192,309495,1,0,0:0:0:0:
199,192,309645,1,0,0:0:0:0:
256,192,309795,1,0,0:0:0:0:
28,192,309845,1,0,0:0:0:0:
28,192,311570,1,0,0:0:0:0:
199,192,311620,1,0,0:0:0:0:
369,192,311745,128,0,311770:0:0:0:0:
426,192,311820,1,0,0:0:0:0:
199,192,311920,1,0,0:0:0:0:
369,192,312120,1,0,0:0:0:0:
426,192,312170,1,0,0:0:0:0:
28,192,312320,1,0,0:0:0:0:
85,192,312370,1,0,0:0:0:0:
142,192,312420,1,0,0:0:0:0:
199,192,312470,1,0,0:0:0:0:
369,192,312495,1,0,0:0:0:0:
312,192,312545,1,0,0:0:0:0:
426,192,312595,1,0,0:0:0:0:
483,192,312645,1,0,0:0:0:0:
369,192,312695,1,0,0:0:0:0:
312,192,312745,1,0,0:0:0:0:
256,192,312795,1,0,0:0:0:0:
199,192,312845,1,0,0:0:0:0:
142,192,312895,1,0,0:0:0:0:
28,192,314545,1,0,0:0:0:0:
85,192,314595,1,0,0:0:0:0:
142,192,314645,1,0,0:0:0:0:
199,192,314695,1,0,0:0:0:0:
256,192,314745,1,0,0:0:0:0:
256,192,314845,1,0,0:0:0:0:
483,192,314920,1,0,0:0:0:0:
426,192,314970,1,0,0:0:0:0:
369,192,315020,1,0,0:0:0:0:
312,192,315070,1,0,0:0:0:0:
256,192,315120,1,0,0:0:0:0:
256,192,315245,1,0,0:0:0:0:
28,192,315295,1,0,0:0:0:0:
85,192,315345,1,0,0:0:0:0:
142,192,315395,1,0,0:0:0:0:
199,192,315445,1,0,0:0:0:0:
369,192,315495,1,0,0:0:0:0:
312,192,315545,1,0,0:0:0:0:
199,192,315620,1,0,0:0:0:0:
369,192,315695,1,0,0:0:0:0:
256,192,315845,1,0,0:0:0:0:
199,192,316095,128,0,316320:0:0:0:0:
312,192,316095,128,0,316320:0:0:0:0:
