osu file format v14

[General]
AudioFilename: DATA - LR.mp3
AudioLeadIn: 0
PreviewTime: 191146
Countdown: 1
SampleSet: None
StackLeniency: 0.7
Mode: 3
LetterboxInBreaks: 0
SpecialStyle: 0
WidescreenStoryboard: 1

[Editor]
Bookmarks: 13724,41152,68581,96010,123438,150867,164581,192010,219438,246867,274295,301724,329152,356581
DistanceSpacing: 1.3
BeatDivisor: 4
GridSize: 32
TimelineZoom: 1.1

[Metadata]
Title:D.A.T.A.
TitleUnicode:D.A.T.A.
Artist:LordRaika
ArtistUnicode:LordRaika
Creator:LordRaika
Version:Drum and Beat
Source:
Tags:AuraQualic Vocaloid Hatsune Miku Digital Affection To Another
BeatmapID:1165885
BeatmapSetID:550309

[Difficulty]
HPDrainRate:8
CircleSize:7
OverallDifficulty:8
ApproachRate:5
SliderMultiplier:1.4
SliderTickRate:1

[Events]
//Background and Video events
0,0,"DATA_Project_BG.jpg",0,0
//Break Periods
2,96210,122232
2,123638,149661
2,151067,162625
2,220704,231946
2,233346,245661
2,248132,259375
2,329352,341232
//Storyboard Layer 0 (Background)
//Storyboard Layer 1 (Fail)
//Storyboard Layer 2 (Pass)
//Storyboard Layer 3 (Foreground)
//Storyboard Sound Samples

[TimingPoints]
4,428.571428571429,4,2,0,33,1,0

[HitObjects]
36,192,4,5,0,0:0:0:96:Kick1Low.wav
36,192,432,1,0,0:0:0:96:Kick1Low.wav
36,192,861,1,0,0:0:0:96:Kick1Low.wav
36,192,1289,1,0,0:0:0:96:Kick1Low.wav
109,192,1718,1,0,0:0:0:96:Kick1Low.wav
109,192,2146,1,0,0:0:0:96:Kick1Low.wav
109,192,2575,1,0,0:0:0:96:Kick1Low.wav
109,192,3004,1,0,0:0:0:96:Kick1Low.wav
182,192,3432,1,0,0:0:0:96:Kick1Low.wav
182,192,3861,1,0,0:0:0:96:Kick1Low.wav
182,192,4289,1,0,0:0:0:96:Kick1Low.wav
182,192,4718,1,0,0:0:0:96:Kick1Low.wav
109,192,5146,1,0,0:0:0:96:Kick1Low.wav
109,192,5575,1,0,0:0:0:96:Kick1Low.wav
109,192,6004,1,0,0:0:0:96:Kick1Low.wav
109,192,6432,1,0,0:0:0:96:Kick1Low.wav
36,192,6861,1,0,0:0:0:96:Kick1Low.wav
36,192,7289,1,0,0:0:0:96:Kick1Low.wav
36,192,7718,1,0,0:0:0:96:Kick1Low.wav
36,192,8146,1,0,0:0:0:96:Kick1Low.wav
109,192,8575,1,0,0:0:0:96:Kick1Low.wav
109,192,9004,1,0,0:0:0:96:Kick1Low.wav
109,192,9432,1,0,0:0:0:96:Kick1Low.wav
109,192,9861,1,0,0:0:0:96:Kick1Low.wav
182,192,10289,1,0,0:0:0:96:Kick1Low.wav
182,192,10718,1,0,0:0:0:96:Kick1Low.wav
182,192,11146,1,0,0:0:0:96:Kick1Low.wav
182,192,11575,1,0,0:0:0:96:Kick1Low.wav
256,192,12004,1,0,0:0:0:96:Kick1Low.wav
36,192,13718,5,0,0:0:0:94:Kick2Bass.wav
36,192,14146,5,0,0:0:0:94:Kick2Bass.wav
109,192,14575,5,0,0:0:0:94:Kick2Bass.wav
109,192,15004,5,0,0:0:0:94:Kick2Bass.wav
36,192,15432,5,0,0:0:0:94:Kick2Bass.wav
36,192,15861,5,0,0:0:0:94:Kick2Bass.wav
109,192,16289,5,0,0:0:0:94:Kick2Bass.wav
109,192,16718,5,0,0:0:0:94:Kick2Bass.wav
182,192,16932,5,0,0:0:0:94:Kick2Bass.wav
475,192,17146,5,0,0:0:0:94:Kick2Bass.wav
475,192,17575,5,0,0:0:0:94:Kick2Bass.wav
402,192,18004,5,0,0:0:0:94:Kick2Bass.wav
402,192,18432,5,0,0:0:0:94:Kick2Bass.wav
475,192,18861,5,0,0:0:0:94:Kick2Bass.wav
475,192,19289,5,0,0:0:0:94:Kick2Bass.wav
402,192,19718,5,0,0:0:0:94:Kick2Bass.wav
402,192,20039,5,0,0:0:0:94:Kick2Bass.wav
402,192,20361,5,0,0:0:0:94:Kick2Bass.wav
109,192,20575,5,0,0:0:0:94:Kick2Bass.wav
109,192,21004,5,0,0:0:0:94:Kick2Bass.wav
182,192,21432,5,0,0:0:0:94:Kick2Bass.wav
182,192,21861,5,0,0:0:0:94:Kick2Bass.wav
109,192,22289,5,0,0:0:0:94:Kick2Bass.wav
109,192,22718,5,0,0:0:0:94:Kick2Bass.wav
182,192,23146,5,0,0:0:0:94:Kick2Bass.wav
182,192,23575,5,0,0:0:0:94:Kick2Bass.wav
109,192,23789,5,0,0:0:0:94:Kick2Bass.wav
402,192,24004,5,0,0:0:0:94:Kick2Bass.wav
402,192,24432,5,0,0:0:0:94:Kick2Bass.wav
329,192,24861,5,0,0:0:0:94:Kick2Bass.wav
329,192,25289,5,0,0:0:0:94:Kick2Bass.wav
402,192,25718,5,0,0:0:0:94:Kick2Bass.wav
402,192,26146,5,0,0:0:0:94:Kick2Bass.wav
329,192,26575,5,0,0:0:0:94:Kick2Bass.wav
329,192,26896,5,0,0:0:0:94:Kick2Bass.wav
329,192,27218,5,0,0:0:0:94:Kick2Bass.wav
109,192,27432,5,0,0:0:0:94:Kick2Bass.wav
109,192,27861,5,0,0:0:0:94:Kick2Bass.wav
36,192,28289,5,0,0:0:0:94:Kick2Bass.wav
36,192,28718,5,0,0:0:0:94:Kick2Bass.wav
109,192,29146,5,0,0:0:0:94:Kick2Bass.wav
109,192,29575,5,0,0:0:0:94:Kick2Bass.wav
36,192,30004,5,0,0:0:0:94:Kick2Bass.wav
36,192,30432,5,0,0:0:0:94:Kick2Bass.wav
109,192,30646,5,0,0:0:0:94:Kick2Bass.wav
402,192,30861,5,0,0:0:0:94:Kick2Bass.wav
402,192,31289,5,0,0:0:0:94:Kick2Bass.wav
475,192,31718,5,0,0:0:0:94:Kick2Bass.wav
475,192,32146,5,0,0:0:0:94:Kick2Bass.wav
402,192,32575,5,0,0:0:0:94:Kick2Bass.wav
402,192,33004,5,0,0:0:0:94:Kick2Bass.wav
475,192,33432,5,0,0:0:0:94:Kick2Bass.wav
475,192,33754,5,0,0:0:0:94:Kick2Bass.wav
475,192,34075,5,0,0:0:0:94:Kick2Bass.wav
36,192,34289,5,0,0:0:0:94:Kick2Bass.wav
36,192,34718,5,0,0:0:0:94:Kick2Bass.wav
109,192,35146,5,0,0:0:0:94:Kick2Bass.wav
109,192,35575,5,0,0:0:0:94:Kick2Bass.wav
36,192,36004,5,0,0:0:0:94:Kick2Bass.wav
36,192,36432,5,0,0:0:0:94:Kick2Bass.wav
109,192,36861,5,0,0:0:0:94:Kick2Bass.wav
109,192,37289,5,0,0:0:0:94:Kick2Bass.wav
256,192,40396,5,0,0:0:0:94:Kick2Bass.wav
256,192,40718,5,0,0:0:0:94:Kick2Bass.wav
256,192,40932,5,0,0:0:0:94:Kick2Bass.wav
36,192,41146,5,0,0:0:0:94:Kick2Bass.wav
109,192,41146,1,0,0:0:0:100:HiHat1.wav
182,192,41254,1,0,0:0:0:100:HiHat2.wav
256,192,41361,1,0,0:0:0:100:HiHat3.wav
329,192,41468,1,0,0:0:0:100:HiHat4.wav
36,192,41575,5,0,0:0:0:94:Kick2Bass.wav
475,192,41575,1,0,0:0:0:74:Snare1.wav
402,192,41575,1,0,0:0:0:100:HiHat5.wav
182,192,41682,1,0,0:0:0:100:HiHat6.wav
256,192,41789,1,0,0:0:0:100:HiHat7.wav
329,192,41896,1,0,0:0:0:100:HiHat8.wav
36,192,42004,5,0,0:0:0:94:Kick2Bass.wav
109,192,42004,1,0,0:0:0:100:HiHat9.wav
182,192,42111,1,0,0:0:0:100:HiHat10.wav
256,192,42218,1,0,0:0:0:100:HiHat11.wav
329,192,42325,1,0,0:0:0:100:HiHat12.wav
36,192,42432,5,0,0:0:0:94:Kick2Bass.wav
475,192,42432,1,0,0:0:0:74:Snare1.wav
402,192,42432,1,0,0:0:0:100:HiHat13.wav
182,192,42539,1,0,0:0:0:100:HiHat14.wav
256,192,42646,1,0,0:0:0:100:HiHat15.wav
329,192,42754,1,0,0:0:0:100:HiHat16.wav
475,192,42861,5,0,0:0:0:94:Kick2Bass.wav
402,192,42861,1,0,0:0:0:100:HiHat1.wav
329,192,42968,1,0,0:0:0:100:HiHat2.wav
256,192,43075,1,0,0:0:0:100:HiHat3.wav
182,192,43182,1,0,0:0:0:100:HiHat4.wav
475,192,43289,5,0,0:0:0:94:Kick2Bass.wav
36,192,43289,1,0,0:0:0:74:Snare1.wav
109,192,43289,1,0,0:0:0:100:HiHat5.wav
329,192,43396,1,0,0:0:0:100:HiHat6.wav
256,192,43504,1,0,0:0:0:100:HiHat7.wav
182,192,43611,1,0,0:0:0:100:HiHat8.wav
475,192,43718,5,0,0:0:0:94:Kick2Bass.wav
402,192,43718,1,0,0:0:0:100:HiHat9.wav
329,192,43825,1,0,0:0:0:100:HiHat10.wav
256,192,43932,1,0,0:0:0:100:HiHat11.wav
182,192,44039,1,0,0:0:0:100:HiHat12.wav
475,192,44146,5,0,0:0:0:94:Kick2Bass.wav
36,192,44146,1,0,0:0:0:74:Snare1.wav
109,192,44146,1,0,0:0:0:100:HiHat13.wav
329,192,44254,1,0,0:0:0:100:HiHat14.wav
256,192,44361,1,0,0:0:0:100:HiHat15.wav
182,192,44468,1,0,0:0:0:100:HiHat16.wav
36,192,44575,5,0,0:0:0:94:Kick2Bass.wav
109,192,44575,1,0,0:0:0:100:HiHat1.wav
182,192,44682,1,0,0:0:0:100:HiHat2.wav
256,192,44789,1,0,0:0:0:100:HiHat3.wav
329,192,44896,1,0,0:0:0:100:HiHat4.wav
36,192,45004,5,0,0:0:0:94:Kick2Bass.wav
475,192,45004,1,0,0:0:0:74:Snare1.wav
402,192,45004,1,0,0:0:0:100:HiHat5.wav
182,192,45111,1,0,0:0:0:100:HiHat6.wav
256,192,45218,1,0,0:0:0:100:HiHat7.wav
329,192,45325,1,0,0:0:0:100:HiHat8.wav
36,192,45432,5,0,0:0:0:94:Kick2Bass.wav
109,192,45432,1,0,0:0:0:100:HiHat9.wav
182,192,45539,1,0,0:0:0:100:HiHat10.wav
256,192,45646,1,0,0:0:0:100:HiHat11.wav
329,192,45754,1,0,0:0:0:100:HiHat12.wav
36,192,45861,5,0,0:0:0:94:Kick2Bass.wav
475,192,45861,1,0,0:0:0:74:Snare1.wav
402,192,45861,1,0,0:0:0:100:HiHat13.wav
182,192,45968,1,0,0:0:0:100:HiHat14.wav
256,192,46075,1,0,0:0:0:100:HiHat15.wav
329,192,46182,1,0,0:0:0:100:HiHat16.wav
475,192,46289,5,0,0:0:0:94:Kick2Bass.wav
402,192,46289,1,0,0:0:0:100:HiHat1.wav
329,192,46396,1,0,0:0:0:100:HiHat2.wav
256,192,46504,1,0,0:0:0:100:HiHat3.wav
182,192,46611,1,0,0:0:0:100:HiHat4.wav
475,192,46718,5,0,0:0:0:94:Kick2Bass.wav
36,192,46718,1,0,0:0:0:74:Snare1.wav
109,192,46718,1,0,0:0:0:100:HiHat5.wav
329,192,46825,1,0,0:0:0:100:HiHat6.wav
256,192,46932,1,0,0:0:0:100:HiHat7.wav
182,192,47039,1,0,0:0:0:100:HiHat8.wav
475,192,47146,5,0,0:0:0:94:Kick2Bass.wav
402,192,47146,1,0,0:0:0:100:HiHat9.wav
329,192,47254,1,0,0:0:0:100:HiHat10.wav
256,192,47361,1,0,0:0:0:100:HiHat11.wav
182,192,47468,1,0,0:0:0:100:HiHat12.wav
475,192,47575,5,0,0:0:0:94:Kick2Bass.wav
36,192,47575,1,0,0:0:0:74:Snare1.wav
109,192,47575,1,0,0:0:0:100:HiHat13.wav
329,192,47682,1,0,0:0:0:100:HiHat14.wav
256,192,47789,1,0,0:0:0:100:HiHat15.wav
182,192,47896,1,0,0:0:0:100:HiHat16.wav
36,192,48004,5,0,0:0:0:94:Kick2Bass.wav
109,192,48004,1,0,0:0:0:100:HiHat1.wav
182,192,48111,1,0,0:0:0:100:HiHat2.wav
256,192,48218,1,0,0:0:0:100:HiHat3.wav
329,192,48325,1,0,0:0:0:100:HiHat4.wav
36,192,48432,5,0,0:0:0:94:Kick2Bass.wav
402,192,48432,1,0,0:0:0:100:HiHat5.wav
475,192,48432,1,0,0:0:0:74:Snare1.wav
182,192,48539,1,0,0:0:0:100:HiHat6.wav
256,192,48646,1,0,0:0:0:100:HiHat7.wav
329,192,48754,1,0,0:0:0:100:HiHat8.wav
36,192,48861,5,0,0:0:0:94:Kick2Bass.wav
109,192,48861,1,0,0:0:0:100:HiHat9.wav
182,192,48968,1,0,0:0:0:100:HiHat10.wav
256,192,49075,1,0,0:0:0:100:HiHat11.wav
329,192,49182,1,0,0:0:0:100:HiHat12.wav
36,192,49289,5,0,0:0:0:94:Kick2Bass.wav
402,192,49289,1,0,0:0:0:100:HiHat13.wav
475,192,49289,1,0,0:0:0:74:Snare1.wav
182,192,49396,1,0,0:0:0:100:HiHat14.wav
256,192,49504,1,0,0:0:0:100:HiHat15.wav
329,192,49611,1,0,0:0:0:100:HiHat16.wav
475,192,49718,5,0,0:0:0:94:Kick2Bass.wav
402,192,49718,1,0,0:0:0:100:HiHat1.wav
329,192,49825,1,0,0:0:0:100:HiHat2.wav
256,192,49932,1,0,0:0:0:100:HiHat3.wav
182,192,50039,1,0,0:0:0:100:HiHat4.wav
475,192,50146,5,0,0:0:0:94:Kick2Bass.wav
109,192,50146,1,0,0:0:0:100:HiHat5.wav
36,192,50146,1,0,0:0:0:74:Snare1.wav
329,192,50254,1,0,0:0:0:100:HiHat6.wav
256,192,50361,1,0,0:0:0:100:HiHat7.wav
182,192,50468,1,0,0:0:0:100:HiHat8.wav
475,192,50575,5,0,0:0:0:94:Kick2Bass.wav
402,192,50575,1,0,0:0:0:100:HiHat9.wav
329,192,50682,1,0,0:0:0:100:HiHat10.wav
256,192,50789,1,0,0:0:0:100:HiHat11.wav
182,192,50896,1,0,0:0:0:100:HiHat12.wav
475,192,51004,5,0,0:0:0:94:Kick2Bass.wav
109,192,51004,1,0,0:0:0:100:HiHat13.wav
36,192,51004,1,0,0:0:0:74:Snare1.wav
329,192,51111,1,0,0:0:0:100:HiHat14.wav
256,192,51218,1,0,0:0:0:100:HiHat15.wav
182,192,51325,1,0,0:0:0:100:HiHat16.wav
36,192,51432,5,0,0:0:0:94:Kick2Bass.wav
109,192,51432,1,0,0:0:0:100:HiHat1.wav
182,192,51539,1,0,0:0:0:100:HiHat2.wav
256,192,51646,1,0,0:0:0:100:HiHat3.wav
329,192,51754,1,0,0:0:0:100:HiHat4.wav
36,192,51861,5,0,0:0:0:94:Kick2Bass.wav
475,192,51861,1,0,0:0:0:74:Snare1.wav
402,192,51861,1,0,0:0:0:100:HiHat5.wav
182,192,51968,1,0,0:0:0:100:HiHat6.wav
256,192,52075,1,0,0:0:0:100:HiHat7.wav
329,192,52182,1,0,0:0:0:100:HiHat8.wav
36,192,52289,5,0,0:0:0:94:Kick2Bass.wav
109,192,52289,1,0,0:0:0:100:HiHat9.wav
182,192,52396,1,0,0:0:0:100:HiHat10.wav
256,192,52504,1,0,0:0:0:100:HiHat11.wav
329,192,52611,1,0,0:0:0:100:HiHat12.wav
36,192,52718,5,0,0:0:0:94:Kick2Bass.wav
475,192,52718,1,0,0:0:0:74:Snare1.wav
402,192,52718,1,0,0:0:0:100:HiHat13.wav
182,192,52825,1,0,0:0:0:100:HiHat14.wav
256,192,52932,1,0,0:0:0:100:HiHat15.wav
329,192,53039,1,0,0:0:0:100:HiHat16.wav
475,192,53146,5,0,0:0:0:94:Kick2Bass.wav
402,192,53146,1,0,0:0:0:100:HiHat1.wav
329,192,53254,1,0,0:0:0:100:HiHat2.wav
256,192,53361,1,0,0:0:0:100:HiHat3.wav
182,192,53468,1,0,0:0:0:100:HiHat4.wav
475,192,53575,5,0,0:0:0:94:Kick2Bass.wav
36,192,53575,1,0,0:0:0:74:Snare1.wav
109,192,53575,1,0,0:0:0:100:HiHat5.wav
329,192,53682,1,0,0:0:0:100:HiHat6.wav
256,192,53789,1,0,0:0:0:100:HiHat7.wav
182,192,53896,1,0,0:0:0:100:HiHat8.wav
475,192,54004,5,0,0:0:0:94:Kick2Bass.wav
402,192,54004,1,0,0:0:0:100:HiHat9.wav
329,192,54111,1,0,0:0:0:100:HiHat10.wav
256,192,54218,1,0,0:0:0:100:HiHat11.wav
182,192,54325,1,0,0:0:0:100:HiHat12.wav
475,192,54432,5,0,0:0:0:94:Kick2Bass.wav
36,192,54432,1,0,0:0:0:74:Snare1.wav
109,192,54432,1,0,0:0:0:100:HiHat13.wav
329,192,54539,1,0,0:0:0:100:HiHat14.wav
256,192,54646,1,0,0:0:0:100:HiHat15.wav
182,192,54754,1,0,0:0:0:100:HiHat16.wav
36,192,54861,5,0,0:0:0:94:Kick2Bass.wav
109,192,54861,1,0,0:0:0:100:HiHat1.wav
182,192,54968,1,0,0:0:0:100:HiHat2.wav
256,192,55075,1,0,0:0:0:100:HiHat3.wav
329,192,55182,1,0,0:0:0:100:HiHat4.wav
36,192,55289,5,0,0:0:0:94:Kick2Bass.wav
402,192,55289,1,0,0:0:0:100:HiHat5.wav
475,192,55289,1,0,0:0:0:74:Snare1.wav
182,192,55396,1,0,0:0:0:100:HiHat6.wav
256,192,55504,1,0,0:0:0:100:HiHat7.wav
329,192,55611,1,0,0:0:0:100:HiHat8.wav
36,192,55718,5,0,0:0:0:94:Kick2Bass.wav
109,192,55718,1,0,0:0:0:100:HiHat9.wav
182,192,55825,1,0,0:0:0:100:HiHat10.wav
256,192,55932,1,0,0:0:0:100:HiHat11.wav
329,192,56039,1,0,0:0:0:100:HiHat12.wav
36,192,56146,5,0,0:0:0:94:Kick2Bass.wav
402,192,56146,1,0,0:0:0:100:HiHat13.wav
475,192,56146,1,0,0:0:0:74:Snare1.wav
182,192,56254,1,0,0:0:0:100:HiHat14.wav
256,192,56361,1,0,0:0:0:100:HiHat15.wav
329,192,56468,1,0,0:0:0:100:HiHat16.wav
475,192,56575,5,0,0:0:0:94:Kick2Bass.wav
402,192,56575,1,0,0:0:0:100:HiHat1.wav
329,192,56682,1,0,0:0:0:100:HiHat2.wav
256,192,56789,1,0,0:0:0:100:HiHat3.wav
182,192,56896,1,0,0:0:0:100:HiHat4.wav
475,192,57004,5,0,0:0:0:94:Kick2Bass.wav
109,192,57004,1,0,0:0:0:100:HiHat5.wav
36,192,57004,1,0,0:0:0:74:Snare1.wav
329,192,57111,1,0,0:0:0:100:HiHat6.wav
256,192,57218,1,0,0:0:0:100:HiHat7.wav
182,192,57325,1,0,0:0:0:100:HiHat8.wav
475,192,57432,5,0,0:0:0:94:Kick2Bass.wav
402,192,57432,1,0,0:0:0:100:HiHat9.wav
329,192,57539,1,0,0:0:0:100:HiHat10.wav
256,192,57646,1,0,0:0:0:100:HiHat11.wav
182,192,57754,1,0,0:0:0:100:HiHat12.wav
475,192,57861,5,0,0:0:0:94:Kick2Bass.wav
109,192,57861,1,0,0:0:0:100:HiHat13.wav
36,192,57861,1,0,0:0:0:74:Snare1.wav
329,192,57968,1,0,0:0:0:100:HiHat14.wav
256,192,58075,1,0,0:0:0:100:HiHat15.wav
182,192,58182,1,0,0:0:0:100:HiHat16.wav
36,192,58289,5,0,0:0:0:94:Kick2Bass.wav
109,192,58289,1,0,0:0:0:100:HiHat1.wav
182,192,58396,1,0,0:0:0:100:HiHat2.wav
256,192,58504,1,0,0:0:0:100:HiHat3.wav
329,192,58611,1,0,0:0:0:100:HiHat4.wav
36,192,58718,5,0,0:0:0:94:Kick2Bass.wav
475,192,58718,1,0,0:0:0:74:Snare1.wav
402,192,58718,1,0,0:0:0:100:HiHat5.wav
182,192,58825,1,0,0:0:0:100:HiHat6.wav
256,192,58932,1,0,0:0:0:100:HiHat7.wav
329,192,59039,1,0,0:0:0:100:HiHat8.wav
36,192,59146,5,0,0:0:0:94:Kick2Bass.wav
109,192,59146,1,0,0:0:0:100:HiHat9.wav
182,192,59254,1,0,0:0:0:100:HiHat10.wav
256,192,59361,1,0,0:0:0:100:HiHat11.wav
329,192,59468,1,0,0:0:0:100:HiHat12.wav
36,192,59575,5,0,0:0:0:94:Kick2Bass.wav
475,192,59575,1,0,0:0:0:74:Snare1.wav
402,192,59575,1,0,0:0:0:100:HiHat13.wav
182,192,59682,1,0,0:0:0:100:HiHat14.wav
256,192,59789,1,0,0:0:0:100:HiHat15.wav
329,192,59896,1,0,0:0:0:100:HiHat16.wav
475,192,60004,5,0,0:0:0:94:Kick2Bass.wav
402,192,60004,1,0,0:0:0:100:HiHat1.wav
329,192,60111,1,0,0:0:0:100:HiHat2.wav
256,192,60218,1,0,0:0:0:100:HiHat3.wav
182,192,60325,1,0,0:0:0:100:HiHat4.wav
475,192,60432,5,0,0:0:0:94:Kick2Bass.wav
36,192,60432,1,0,0:0:0:74:Snare1.wav
109,192,60432,1,0,0:0:0:100:HiHat5.wav
329,192,60539,1,0,0:0:0:100:HiHat6.wav
256,192,60646,1,0,0:0:0:100:HiHat7.wav
182,192,60754,1,0,0:0:0:100:HiHat8.wav
475,192,60861,5,0,0:0:0:94:Kick2Bass.wav
402,192,60861,1,0,0:0:0:100:HiHat9.wav
329,192,60968,1,0,0:0:0:100:HiHat10.wav
256,192,61075,1,0,0:0:0:100:HiHat11.wav
182,192,61182,1,0,0:0:0:100:HiHat12.wav
475,192,61289,5,0,0:0:0:94:Kick2Bass.wav
36,192,61289,1,0,0:0:0:74:Snare1.wav
109,192,61289,1,0,0:0:0:100:HiHat13.wav
329,192,61396,1,0,0:0:0:100:HiHat14.wav
256,192,61504,1,0,0:0:0:100:HiHat15.wav
182,192,61611,1,0,0:0:0:100:HiHat16.wav
36,192,61718,5,0,0:0:0:94:Kick2Bass.wav
109,192,61718,1,0,0:0:0:100:HiHat1.wav
182,192,61825,1,0,0:0:0:100:HiHat2.wav
256,192,61932,1,0,0:0:0:100:HiHat3.wav
329,192,62039,1,0,0:0:0:100:HiHat4.wav
36,192,62146,5,0,0:0:0:94:Kick2Bass.wav
402,192,62146,1,0,0:0:0:100:HiHat5.wav
475,192,62146,1,0,0:0:0:74:Snare1.wav
182,192,62254,1,0,0:0:0:100:HiHat6.wav
256,192,62361,1,0,0:0:0:100:HiHat7.wav
329,192,62468,1,0,0:0:0:100:HiHat8.wav
36,192,62575,5,0,0:0:0:94:Kick2Bass.wav
109,192,62575,1,0,0:0:0:100:HiHat9.wav
182,192,62682,1,0,0:0:0:100:HiHat10.wav
256,192,62789,1,0,0:0:0:100:HiHat11.wav
329,192,62896,1,0,0:0:0:100:HiHat12.wav
36,192,63004,5,0,0:0:0:94:Kick2Bass.wav
402,192,63004,1,0,0:0:0:100:HiHat13.wav
475,192,63004,1,0,0:0:0:74:Snare1.wav
182,192,63111,1,0,0:0:0:100:HiHat14.wav
256,192,63218,1,0,0:0:0:100:HiHat15.wav
329,192,63325,1,0,0:0:0:100:HiHat16.wav
475,192,63432,5,0,0:0:0:94:Kick2Bass.wav
402,192,63432,1,0,0:0:0:100:HiHat1.wav
329,192,63539,1,0,0:0:0:100:HiHat2.wav
256,192,63646,1,0,0:0:0:100:HiHat3.wav
182,192,63754,1,0,0:0:0:100:HiHat4.wav
475,192,63861,5,0,0:0:0:94:Kick2Bass.wav
109,192,63861,1,0,0:0:0:100:HiHat5.wav
36,192,63861,1,0,0:0:0:74:Snare1.wav
329,192,63968,1,0,0:0:0:100:HiHat6.wav
256,192,64075,1,0,0:0:0:100:HiHat7.wav
182,192,64182,1,0,0:0:0:100:HiHat8.wav
475,192,64289,5,0,0:0:0:94:Kick2Bass.wav
402,192,64289,1,0,0:0:0:100:HiHat9.wav
329,192,64396,1,0,0:0:0:100:HiHat10.wav
256,192,64504,1,0,0:0:0:100:HiHat11.wav
182,192,64611,1,0,0:0:0:100:HiHat12.wav
475,192,64718,5,0,0:0:0:94:Kick2Bass.wav
109,192,64718,1,0,0:0:0:100:HiHat13.wav
36,192,64718,1,0,0:0:0:74:Snare1.wav
329,192,64825,1,0,0:0:0:100:HiHat14.wav
256,192,64932,1,0,0:0:0:100:HiHat15.wav
182,192,65039,1,0,0:0:0:100:HiHat16.wav
36,192,65146,5,0,0:0:0:94:Kick2Bass.wav
109,192,65146,1,0,0:0:0:100:HiHat1.wav
182,192,65254,1,0,0:0:0:100:HiHat2.wav
256,192,65361,1,0,0:0:0:100:HiHat3.wav
329,192,65468,1,0,0:0:0:100:HiHat4.wav
36,192,65575,5,0,0:0:0:94:Kick2Bass.wav
475,192,65575,1,0,0:0:0:74:Snare1.wav
402,192,65575,1,0,0:0:0:100:HiHat5.wav
182,192,65682,1,0,0:0:0:100:HiHat6.wav
256,192,65789,1,0,0:0:0:100:HiHat7.wav
329,192,65896,1,0,0:0:0:100:HiHat8.wav
36,192,66004,5,0,0:0:0:94:Kick2Bass.wav
109,192,66004,1,0,0:0:0:100:HiHat9.wav
182,192,66111,1,0,0:0:0:100:HiHat10.wav
256,192,66218,1,0,0:0:0:100:HiHat11.wav
329,192,66325,1,0,0:0:0:100:HiHat12.wav
36,192,66432,5,0,0:0:0:94:Kick2Bass.wav
475,192,66432,1,0,0:0:0:74:Snare1.wav
402,192,66432,1,0,0:0:0:100:HiHat13.wav
182,192,66539,1,0,0:0:0:100:HiHat14.wav
256,192,66646,1,0,0:0:0:100:HiHat15.wav
329,192,66754,1,0,0:0:0:100:HiHat16.wav
109,192,66861,1,0,0:0:0:100:HiHat1.wav
182,192,66968,1,0,0:0:0:100:HiHat2.wav
256,192,67075,1,0,0:0:0:100:HiHat3.wav
329,192,67182,1,0,0:0:0:100:HiHat4.wav
36,192,67289,1,0,0:0:0:74:Snare1.wav
402,192,67289,1,0,0:0:0:100:HiHat5.wav
109,192,67396,1,0,0:0:0:100:HiHat6.wav
182,192,67504,1,0,0:0:0:100:HiHat7.wav
256,192,67611,1,0,0:0:0:100:HiHat8.wav
402,192,67718,1,0,0:0:0:100:HiHat9.wav
329,192,67825,1,0,0:0:0:100:HiHat10.wav
256,192,67932,1,0,0:0:0:100:HiHat11.wav
182,192,68039,1,0,0:0:0:100:HiHat12.wav
36,192,68146,1,0,0:0:0:74:Snare1.wav
109,192,68146,1,0,0:0:0:100:HiHat13.wav
402,192,68254,1,0,0:0:0:100:HiHat14.wav
329,192,68361,1,0,0:0:0:100:HiHat15.wav
256,192,68468,1,0,0:0:0:100:HiHat16.wav
475,192,68575,5,0,0:0:0:94:Kick2Bass.wav
109,192,68575,1,0,0:0:0:100:HiHat1.wav
329,192,68682,1,0,0:0:0:100:HiHat2.wav
182,192,68789,1,0,0:0:0:100:HiHat3.wav
402,192,68896,1,0,0:0:0:100:HiHat4.wav
475,192,69004,5,0,0:0:0:94:Kick2Bass.wav
109,192,69004,1,0,0:0:0:100:HiHat5.wav
36,192,69004,1,0,0:0:0:74:Snare1.wav
329,192,69111,1,0,0:0:0:100:HiHat6.wav
182,192,69218,1,0,0:0:0:100:HiHat7.wav
402,192,69325,1,0,0:0:0:100:HiHat8.wav
475,192,69432,5,0,0:0:0:94:Kick2Bass.wav
109,192,69432,1,0,0:0:0:100:HiHat9.wav
329,192,69539,1,0,0:0:0:100:HiHat10.wav
182,192,69646,1,0,0:0:0:100:HiHat11.wav
402,192,69754,1,0,0:0:0:100:HiHat12.wav
475,192,69861,5,0,0:0:0:94:Kick2Bass.wav
109,192,69861,1,0,0:0:0:100:HiHat13.wav
36,192,69861,1,0,0:0:0:74:Snare1.wav
329,192,69968,1,0,0:0:0:100:HiHat14.wav
182,192,70075,1,0,0:0:0:100:HiHat15.wav
402,192,70182,1,0,0:0:0:100:HiHat16.wav
475,192,70289,5,0,0:0:0:94:Kick2Bass.wav
256,192,70289,1,0,0:0:0:100:HiHat1.wav
109,192,70396,1,0,0:0:0:100:HiHat2.wav
329,192,70504,1,0,0:0:0:100:HiHat3.wav
182,192,70611,1,0,0:0:0:100:HiHat4.wav
475,192,70718,5,0,0:0:0:94:Kick2Bass.wav
402,192,70718,1,0,0:0:0:100:HiHat5.wav
36,192,70718,1,0,0:0:0:74:Snare1.wav
256,192,70825,1,0,0:0:0:100:HiHat6.wav
109,192,70932,1,0,0:0:0:100:HiHat7.wav
329,192,71039,1,0,0:0:0:100:HiHat8.wav
475,192,71146,5,0,0:0:0:94:Kick2Bass.wav
182,192,71146,1,0,0:0:0:100:HiHat9.wav
402,192,71254,1,0,0:0:0:100:HiHat10.wav
256,192,71361,1,0,0:0:0:100:HiHat11.wav
109,192,71468,1,0,0:0:0:100:HiHat12.wav
36,192,71468,1,0,0:0:0:74:Snare1.wav
475,192,71575,5,0,0:0:0:94:Kick2Bass.wav
329,192,71575,1,0,0:0:0:100:HiHat13.wav
182,192,71682,1,0,0:0:0:100:HiHat14.wav
475,192,71789,5,0,0:0:0:94:Kick2Bass.wav
36,192,71789,1,0,0:0:0:74:Snare1.wav
256,192,71789,1,0,0:0:0:100:HiHat15.wav
109,192,71896,1,0,0:0:0:100:HiHat16.wav
475,192,72004,5,0,0:0:0:94:Kick2Bass.wav
402,192,72004,1,0,0:0:0:100:HiHat1.wav
182,192,72111,1,0,0:0:0:100:HiHat2.wav
329,192,72218,1,0,0:0:0:100:HiHat3.wav
109,192,72325,1,0,0:0:0:100:HiHat4.wav
475,192,72432,5,0,0:0:0:94:Kick2Bass.wav
402,192,72432,1,0,0:0:0:100:HiHat5.wav
36,192,72432,1,0,0:0:0:74:Snare1.wav
182,192,72539,1,0,0:0:0:100:HiHat6.wav
329,192,72646,1,0,0:0:0:100:HiHat7.wav
109,192,72754,1,0,0:0:0:100:HiHat8.wav
475,192,72861,5,0,0:0:0:94:Kick2Bass.wav
402,192,72861,1,0,0:0:0:100:HiHat9.wav
182,192,72968,1,0,0:0:0:100:HiHat10.wav
329,192,73075,1,0,0:0:0:100:HiHat11.wav
109,192,73182,1,0,0:0:0:100:HiHat12.wav
475,192,73289,5,0,0:0:0:94:Kick2Bass.wav
402,192,73289,1,0,0:0:0:100:HiHat13.wav
36,192,73289,1,0,0:0:0:74:Snare1.wav
182,192,73396,1,0,0:0:0:100:HiHat14.wav
329,192,73504,1,0,0:0:0:100:HiHat15.wav
109,192,73611,1,0,0:0:0:100:HiHat16.wav
475,192,73718,5,0,0:0:0:94:Kick2Bass.wav
256,192,73718,1,0,0:0:0:100:HiHat1.wav
402,192,73825,1,0,0:0:0:100:HiHat2.wav
182,192,73932,1,0,0:0:0:100:HiHat3.wav
329,192,74039,1,0,0:0:0:100:HiHat4.wav
475,192,74146,5,0,0:0:0:94:Kick2Bass.wav
109,192,74146,1,0,0:0:0:100:HiHat5.wav
36,192,74146,1,0,0:0:0:74:Snare1.wav
256,192,74254,1,0,0:0:0:100:HiHat6.wav
402,192,74361,1,0,0:0:0:100:HiHat7.wav
182,192,74468,1,0,0:0:0:100:HiHat8.wav
475,192,74575,5,0,0:0:0:94:Kick2Bass.wav
329,192,74575,1,0,0:0:0:100:HiHat9.wav
109,192,74682,1,0,0:0:0:100:HiHat10.wav
256,192,74789,1,0,0:0:0:100:HiHat11.wav
402,192,74896,1,0,0:0:0:100:HiHat12.wav
36,192,74896,1,0,0:0:0:74:Snare1.wav
475,192,75004,5,0,0:0:0:94:Kick2Bass.wav
182,192,75004,1,0,0:0:0:100:HiHat13.wav
329,192,75111,1,0,0:0:0:100:HiHat14.wav
475,192,75218,5,0,0:0:0:94:Kick2Bass.wav
36,192,75218,1,0,0:0:0:74:Snare1.wav
256,192,75218,1,0,0:0:0:100:HiHat15.wav
402,192,75325,1,0,0:0:0:100:HiHat16.wav
475,192,75432,5,0,0:0:0:94:Kick2Bass.wav
109,192,75432,1,0,0:0:0:100:HiHat1.wav
329,192,75539,1,0,0:0:0:100:HiHat2.wav
182,192,75646,1,0,0:0:0:100:HiHat3.wav
402,192,75754,1,0,0:0:0:100:HiHat4.wav
475,192,75861,5,0,0:0:0:94:Kick2Bass.wav
109,192,75861,1,0,0:0:0:100:HiHat5.wav
36,192,75861,1,0,0:0:0:74:Snare1.wav
329,192,75968,1,0,0:0:0:100:HiHat6.wav
182,192,76075,1,0,0:0:0:100:HiHat7.wav
402,192,76182,1,0,0:0:0:100:HiHat8.wav
475,192,76289,5,0,0:0:0:94:Kick2Bass.wav
109,192,76289,1,0,0:0:0:100:HiHat9.wav
329,192,76396,1,0,0:0:0:100:HiHat10.wav
182,192,76504,1,0,0:0:0:100:HiHat11.wav
402,192,76611,1,0,0:0:0:100:HiHat12.wav
475,192,76718,5,0,0:0:0:94:Kick2Bass.wav
109,192,76718,1,0,0:0:0:100:HiHat13.wav
36,192,76718,1,0,0:0:0:74:Snare1.wav
329,192,76825,1,0,0:0:0:100:HiHat14.wav
182,192,76932,1,0,0:0:0:100:HiHat15.wav
402,192,77039,1,0,0:0:0:100:HiHat16.wav
475,192,77146,5,0,0:0:0:94:Kick2Bass.wav
256,192,77146,1,0,0:0:0:100:HiHat1.wav
109,192,77254,1,0,0:0:0:100:HiHat2.wav
329,192,77361,1,0,0:0:0:100:HiHat3.wav
182,192,77468,1,0,0:0:0:100:HiHat4.wav
475,192,77575,5,0,0:0:0:94:Kick2Bass.wav
402,192,77575,1,0,0:0:0:100:HiHat5.wav
36,192,77575,1,0,0:0:0:74:Snare1.wav
256,192,77682,1,0,0:0:0:100:HiHat6.wav
109,192,77789,1,0,0:0:0:100:HiHat7.wav
329,192,77896,1,0,0:0:0:100:HiHat8.wav
475,192,78004,5,0,0:0:0:94:Kick2Bass.wav
182,192,78004,1,0,0:0:0:100:HiHat9.wav
402,192,78111,1,0,0:0:0:100:HiHat10.wav
256,192,78218,1,0,0:0:0:100:HiHat11.wav
109,192,78325,1,0,0:0:0:100:HiHat12.wav
36,192,78325,1,0,0:0:0:74:Snare1.wav
475,192,78432,5,0,0:0:0:94:Kick2Bass.wav
329,192,78432,1,0,0:0:0:100:HiHat13.wav
182,192,78539,1,0,0:0:0:100:HiHat14.wav
475,192,78646,5,0,0:0:0:94:Kick2Bass.wav
256,192,78646,1,0,0:0:0:100:HiHat15.wav
36,192,78646,1,0,0:0:0:74:Snare1.wav
109,192,78754,1,0,0:0:0:100:HiHat16.wav
475,192,78861,5,0,0:0:0:94:Kick2Bass.wav
402,192,78861,1,0,0:0:0:100:HiHat1.wav
182,192,78968,1,0,0:0:0:100:HiHat2.wav
329,192,79075,1,0,0:0:0:100:HiHat3.wav
109,192,79182,1,0,0:0:0:100:HiHat4.wav
475,192,79289,5,0,0:0:0:94:Kick2Bass.wav
402,192,79289,1,0,0:0:0:100:HiHat5.wav
36,192,79289,1,0,0:0:0:74:Snare1.wav
182,192,79396,1,0,0:0:0:100:HiHat6.wav
329,192,79504,1,0,0:0:0:100:HiHat7.wav
109,192,79611,1,0,0:0:0:100:HiHat8.wav
475,192,79718,5,0,0:0:0:94:Kick2Bass.wav
402,192,79718,1,0,0:0:0:100:HiHat9.wav
182,192,79825,1,0,0:0:0:100:HiHat10.wav
329,192,79932,1,0,0:0:0:100:HiHat11.wav
109,192,80039,1,0,0:0:0:100:HiHat12.wav
475,192,80146,5,0,0:0:0:94:Kick2Bass.wav
402,192,80146,1,0,0:0:0:100:HiHat13.wav
36,192,80146,1,0,0:0:0:74:Snare1.wav
182,192,80254,1,0,0:0:0:100:HiHat14.wav
329,192,80361,1,0,0:0:0:100:HiHat15.wav
109,192,80468,1,0,0:0:0:100:HiHat16.wav
475,192,80575,5,0,0:0:0:94:Kick2Bass.wav
256,192,80575,1,0,0:0:0:100:HiHat1.wav
402,192,80682,1,0,0:0:0:100:HiHat2.wav
182,192,80789,1,0,0:0:0:100:HiHat3.wav
329,192,80896,1,0,0:0:0:100:HiHat4.wav
475,192,81004,5,0,0:0:0:94:Kick2Bass.wav
109,192,81004,1,0,0:0:0:100:HiHat5.wav
36,192,81004,1,0,0:0:0:74:Snare1.wav
256,192,81111,1,0,0:0:0:100:HiHat6.wav
402,192,81218,1,0,0:0:0:100:HiHat7.wav
182,192,81325,1,0,0:0:0:100:HiHat8.wav
475,192,81432,5,0,0:0:0:94:Kick2Bass.wav
329,192,81432,1,0,0:0:0:100:HiHat9.wav
109,192,81539,1,0,0:0:0:100:HiHat10.wav
256,192,81646,1,0,0:0:0:100:HiHat11.wav
402,192,81754,1,0,0:0:0:100:HiHat12.wav
36,192,81754,1,0,0:0:0:74:Snare1.wav
475,192,81861,5,0,0:0:0:94:Kick2Bass.wav
182,192,81861,1,0,0:0:0:100:HiHat13.wav
329,192,81968,1,0,0:0:0:100:HiHat14.wav
475,192,82075,5,0,0:0:0:94:Kick2Bass.wav
256,192,82075,1,0,0:0:0:100:HiHat15.wav
36,192,82075,1,0,0:0:0:74:Snare1.wav
402,192,82182,1,0,0:0:0:100:HiHat16.wav
475,192,82289,5,0,0:0:0:94:Kick2Bass.wav
109,192,82289,1,0,0:0:0:100:HiHat1.wav
329,192,82396,1,0,0:0:0:100:HiHat2.wav
182,192,82504,1,0,0:0:0:100:HiHat3.wav
402,192,82611,1,0,0:0:0:100:HiHat4.wav
475,192,82718,5,0,0:0:0:94:Kick2Bass.wav
109,192,82718,1,0,0:0:0:100:HiHat5.wav
36,192,82718,1,0,0:0:0:74:Snare1.wav
329,192,82825,1,0,0:0:0:100:HiHat6.wav
182,192,82932,1,0,0:0:0:100:HiHat7.wav
402,192,83039,1,0,0:0:0:100:HiHat8.wav
475,192,83146,5,0,0:0:0:94:Kick2Bass.wav
109,192,83146,1,0,0:0:0:100:HiHat9.wav
329,192,83254,1,0,0:0:0:100:HiHat10.wav
182,192,83361,1,0,0:0:0:100:HiHat11.wav
402,192,83468,1,0,0:0:0:100:HiHat12.wav
475,192,83575,5,0,0:0:0:94:Kick2Bass.wav
109,192,83575,1,0,0:0:0:100:HiHat13.wav
36,192,83575,1,0,0:0:0:74:Snare1.wav
329,192,83682,1,0,0:0:0:100:HiHat14.wav
182,192,83789,1,0,0:0:0:100:HiHat15.wav
402,192,83896,1,0,0:0:0:100:HiHat16.wav
475,192,84004,5,0,0:0:0:94:Kick2Bass.wav
256,192,84004,1,0,0:0:0:100:HiHat1.wav
109,192,84111,1,0,0:0:0:100:HiHat2.wav
329,192,84218,1,0,0:0:0:100:HiHat3.wav
182,192,84325,1,0,0:0:0:100:HiHat4.wav
475,192,84432,5,0,0:0:0:94:Kick2Bass.wav
402,192,84432,1,0,0:0:0:100:HiHat5.wav
36,192,84432,1,0,0:0:0:74:Snare1.wav
256,192,84539,1,0,0:0:0:100:HiHat6.wav
109,192,84646,1,0,0:0:0:100:HiHat7.wav
329,192,84754,1,0,0:0:0:100:HiHat8.wav
475,192,84861,5,0,0:0:0:94:Kick2Bass.wav
182,192,84861,1,0,0:0:0:100:HiHat9.wav
402,192,84968,1,0,0:0:0:100:HiHat10.wav
256,192,85075,1,0,0:0:0:100:HiHat11.wav
109,192,85182,1,0,0:0:0:100:HiHat12.wav
36,192,85182,1,0,0:0:0:74:Snare1.wav
475,192,85289,5,0,0:0:0:94:Kick2Bass.wav
329,192,85289,1,0,0:0:0:100:HiHat13.wav
182,192,85396,1,0,0:0:0:100:HiHat14.wav
475,192,85504,5,0,0:0:0:94:Kick2Bass.wav
256,192,85504,1,0,0:0:0:100:HiHat15.wav
36,192,85504,1,0,0:0:0:74:Snare1.wav
109,192,85611,1,0,0:0:0:100:HiHat16.wav
475,192,85718,5,0,0:0:0:94:Kick2Bass.wav
402,192,85718,1,0,0:0:0:100:HiHat1.wav
182,192,85825,1,0,0:0:0:100:HiHat2.wav
329,192,85932,1,0,0:0:0:100:HiHat3.wav
109,192,86039,1,0,0:0:0:100:HiHat4.wav
475,192,86146,5,0,0:0:0:94:Kick2Bass.wav
402,192,86146,1,0,0:0:0:100:HiHat5.wav
36,192,86146,1,0,0:0:0:74:Snare1.wav
182,192,86254,1,0,0:0:0:100:HiHat6.wav
329,192,86361,1,0,0:0:0:100:HiHat7.wav
109,192,86468,1,0,0:0:0:100:HiHat8.wav
475,192,86575,5,0,0:0:0:94:Kick2Bass.wav
402,192,86575,1,0,0:0:0:100:HiHat9.wav
182,192,86682,1,0,0:0:0:100:HiHat10.wav
329,192,86789,1,0,0:0:0:100:HiHat11.wav
109,192,86896,1,0,0:0:0:100:HiHat12.wav
475,192,87004,5,0,0:0:0:94:Kick2Bass.wav
402,192,87004,1,0,0:0:0:100:HiHat13.wav
36,192,87004,1,0,0:0:0:74:Snare1.wav
182,192,87111,1,0,0:0:0:100:HiHat14.wav
329,192,87218,1,0,0:0:0:100:HiHat15.wav
109,192,87325,1,0,0:0:0:100:HiHat16.wav
475,192,87432,5,0,0:0:0:94:Kick2Bass.wav
256,192,87432,1,0,0:0:0:100:HiHat1.wav
402,192,87539,1,0,0:0:0:100:HiHat2.wav
182,192,87646,1,0,0:0:0:100:HiHat3.wav
329,192,87754,1,0,0:0:0:100:HiHat4.wav
475,192,87861,5,0,0:0:0:94:Kick2Bass.wav
109,192,87861,1,0,0:0:0:100:HiHat5.wav
36,192,87861,1,0,0:0:0:74:Snare1.wav
256,192,87968,1,0,0:0:0:100:HiHat6.wav
402,192,88075,1,0,0:0:0:100:HiHat7.wav
182,192,88182,1,0,0:0:0:100:HiHat8.wav
475,192,88289,5,0,0:0:0:94:Kick2Bass.wav
329,192,88289,1,0,0:0:0:100:HiHat9.wav
109,192,88396,1,0,0:0:0:100:HiHat10.wav
256,192,88504,1,0,0:0:0:100:HiHat11.wav
402,192,88611,1,0,0:0:0:100:HiHat12.wav
36,192,88611,1,0,0:0:0:74:Snare1.wav
475,192,88718,5,0,0:0:0:94:Kick2Bass.wav
182,192,88718,1,0,0:0:0:100:HiHat13.wav
329,192,88825,1,0,0:0:0:100:HiHat14.wav
475,192,88932,5,0,0:0:0:94:Kick2Bass.wav
256,192,88932,1,0,0:0:0:100:HiHat15.wav
36,192,88932,1,0,0:0:0:74:Snare1.wav
402,192,89039,1,0,0:0:0:100:HiHat16.wav
475,192,89146,5,0,0:0:0:94:Kick2Bass.wav
109,192,89146,1,0,0:0:0:100:HiHat1.wav
329,192,89254,1,0,0:0:0:100:HiHat2.wav
182,192,89361,1,0,0:0:0:100:HiHat3.wav
402,192,89468,1,0,0:0:0:100:HiHat4.wav
475,192,89575,5,0,0:0:0:94:Kick2Bass.wav
109,192,89575,1,0,0:0:0:100:HiHat5.wav
36,192,89575,1,0,0:0:0:74:Snare1.wav
329,192,89682,1,0,0:0:0:100:HiHat6.wav
182,192,89789,1,0,0:0:0:100:HiHat7.wav
402,192,89896,1,0,0:0:0:100:HiHat8.wav
475,192,90004,5,0,0:0:0:94:Kick2Bass.wav
109,192,90004,1,0,0:0:0:100:HiHat9.wav
329,192,90111,1,0,0:0:0:100:HiHat10.wav
182,192,90218,1,0,0:0:0:100:HiHat11.wav
402,192,90325,1,0,0:0:0:100:HiHat12.wav
475,192,90432,5,0,0:0:0:94:Kick2Bass.wav
109,192,90432,1,0,0:0:0:100:HiHat13.wav
36,192,90432,1,0,0:0:0:74:Snare1.wav
329,192,90539,1,0,0:0:0:100:HiHat14.wav
182,192,90646,1,0,0:0:0:100:HiHat15.wav
402,192,90754,1,0,0:0:0:100:HiHat16.wav
475,192,90861,5,0,0:0:0:94:Kick2Bass.wav
256,192,90861,1,0,0:0:0:100:HiHat1.wav
109,192,90968,1,0,0:0:0:100:HiHat2.wav
329,192,91075,1,0,0:0:0:100:HiHat3.wav
182,192,91182,1,0,0:0:0:100:HiHat4.wav
475,192,91289,5,0,0:0:0:94:Kick2Bass.wav
402,192,91289,1,0,0:0:0:100:HiHat5.wav
36,192,91289,1,0,0:0:0:74:Snare1.wav
256,192,91396,1,0,0:0:0:100:HiHat6.wav
109,192,91504,1,0,0:0:0:100:HiHat7.wav
329,192,91611,1,0,0:0:0:100:HiHat8.wav
475,192,91718,5,0,0:0:0:94:Kick2Bass.wav
182,192,91718,1,0,0:0:0:100:HiHat9.wav
402,192,91825,1,0,0:0:0:100:HiHat10.wav
256,192,91932,1,0,0:0:0:100:HiHat11.wav
109,192,92039,1,0,0:0:0:100:HiHat12.wav
36,192,92039,1,0,0:0:0:74:Snare1.wav
475,192,92146,5,0,0:0:0:94:Kick2Bass.wav
329,192,92146,1,0,0:0:0:100:HiHat13.wav
182,192,92254,1,0,0:0:0:100:HiHat14.wav
475,192,92361,5,0,0:0:0:94:Kick2Bass.wav
256,192,92361,1,0,0:0:0:100:HiHat15.wav
36,192,92361,1,0,0:0:0:74:Snare1.wav
109,192,92468,1,0,0:0:0:100:HiHat16.wav
475,192,92575,5,0,0:0:0:94:Kick2Bass.wav
402,192,92575,1,0,0:0:0:100:HiHat1.wav
182,192,92682,1,0,0:0:0:100:HiHat2.wav
329,192,92789,1,0,0:0:0:100:HiHat3.wav
109,192,92896,1,0,0:0:0:100:HiHat4.wav
402,192,93004,1,0,0:0:0:100:HiHat5.wav
36,192,93004,1,0,0:0:0:74:Snare1.wav
182,192,93111,1,0,0:0:0:100:HiHat6.wav
329,192,93218,1,0,0:0:0:100:HiHat7.wav
109,192,93325,1,0,0:0:0:100:HiHat8.wav
402,192,93432,1,0,0:0:0:100:HiHat9.wav
182,192,93539,1,0,0:0:0:100:HiHat10.wav
329,192,93646,1,0,0:0:0:100:HiHat11.wav
109,192,93754,1,0,0:0:0:100:HiHat12.wav
402,192,93861,1,0,0:0:0:100:HiHat13.wav
36,192,93861,1,0,0:0:0:74:Snare1.wav
182,192,93968,1,0,0:0:0:100:HiHat14.wav
329,192,94075,1,0,0:0:0:100:HiHat15.wav
109,192,94182,1,0,0:0:0:100:HiHat16.wav
256,192,96004,5,0,0:0:0:92:Kick3Drop.wav
256,192,123432,5,0,0:0:0:92:Kick3Drop.wav
256,192,150861,5,0,0:0:0:92:Kick3Drop.wav
256,192,163825,5,0,0:0:0:94:Kick2Bass.wav
256,192,164146,5,0,0:0:0:94:Kick2Bass.wav
256,192,164361,5,0,0:0:0:94:Kick2Bass.wav
36,192,164575,5,0,0:0:0:94:Kick2Bass.wav
36,192,165004,5,0,0:0:0:94:Kick2Bass.wav
402,192,165004,1,0,0:0:0:74:Snare1.wav
36,192,165432,5,0,0:0:0:94:Kick2Bass.wav
36,192,165861,5,0,0:0:0:94:Kick2Bass.wav
402,192,165861,1,0,0:0:0:74:Snare1.wav
109,192,166289,5,0,0:0:0:94:Kick2Bass.wav
109,192,166718,5,0,0:0:0:94:Kick2Bass.wav
475,192,166718,1,0,0:0:0:74:Snare1.wav
109,192,167146,5,0,0:0:0:94:Kick2Bass.wav
109,192,167575,5,0,0:0:0:94:Kick2Bass.wav
475,192,167575,1,0,0:0:0:74:Snare1.wav
36,192,168004,5,0,0:0:0:94:Kick2Bass.wav
36,192,168432,5,0,0:0:0:94:Kick2Bass.wav
402,192,168432,1,0,0:0:0:74:Snare1.wav
36,192,168861,5,0,0:0:0:94:Kick2Bass.wav
36,192,169289,5,0,0:0:0:94:Kick2Bass.wav
402,192,169289,1,0,0:0:0:74:Snare1.wav
109,192,169718,5,0,0:0:0:94:Kick2Bass.wav
109,192,170146,5,0,0:0:0:94:Kick2Bass.wav
402,192,170146,1,0,0:0:0:74:Snare1.wav
109,192,170575,5,0,0:0:0:94:Kick2Bass.wav
475,192,170682,1,0,0:0:0:74:Snare1.wav
109,192,171004,5,0,0:0:0:94:Kick2Bass.wav
475,192,171004,1,0,0:0:0:74:Snare1.wav
36,192,171432,5,0,0:0:0:94:Kick2Bass.wav
36,192,171861,5,0,0:0:0:94:Kick2Bass.wav
402,192,171861,1,0,0:0:0:74:Snare1.wav
36,192,172289,5,0,0:0:0:94:Kick2Bass.wav
36,192,172718,5,0,0:0:0:94:Kick2Bass.wav
402,192,172718,1,0,0:0:0:74:Snare1.wav
109,192,173146,5,0,0:0:0:94:Kick2Bass.wav
109,192,173575,5,0,0:0:0:94:Kick2Bass.wav
475,192,173575,1,0,0:0:0:74:Snare1.wav
109,192,174004,5,0,0:0:0:94:Kick2Bass.wav
109,192,174432,5,0,0:0:0:94:Kick2Bass.wav
475,192,174432,1,0,0:0:0:74:Snare1.wav
36,192,174861,5,0,0:0:0:94:Kick2Bass.wav
36,192,175289,5,0,0:0:0:94:Kick2Bass.wav
402,192,175289,1,0,0:0:0:74:Snare1.wav
36,192,175718,5,0,0:0:0:94:Kick2Bass.wav
36,192,176146,5,0,0:0:0:94:Kick2Bass.wav
402,192,176146,1,0,0:0:0:74:Snare1.wav
109,192,176575,5,0,0:0:0:94:Kick2Bass.wav
109,192,177004,5,0,0:0:0:94:Kick2Bass.wav
402,192,177004,1,0,0:0:0:74:Snare1.wav
475,192,177539,1,0,0:0:0:74:Snare1.wav
475,192,177861,1,0,0:0:0:74:Snare1.wav
36,192,178289,5,0,0:0:0:94:Kick2Bass.wav
329,192,178289,1,0,0:0:0:100:HiHat1.wav
109,192,178396,1,0,0:0:0:100:HiHat2.wav
182,192,178504,1,0,0:0:0:100:HiHat3.wav
256,192,178611,1,0,0:0:0:100:HiHat4.wav
36,192,178718,5,0,0:0:0:94:Kick2Bass.wav
329,192,178718,1,0,0:0:0:100:HiHat5.wav
402,192,178718,1,0,0:0:0:74:Snare1.wav
182,192,178825,1,0,0:0:0:100:HiHat6.wav
475,192,178932,1,0,0:0:0:100:HiHat7.wav
109,192,179039,1,0,0:0:0:100:HiHat8.wav
402,192,179146,1,0,0:0:0:100:HiHat9.wav
36,192,179254,1,0,0:0:0:100:HiHat10.wav
182,192,179361,5,0,0:0:0:94:Kick2Bass.wav
329,192,179361,1,0,0:0:0:100:HiHat11.wav
109,192,179468,1,0,0:0:0:100:HiHat12.wav
36,192,179575,5,0,0:0:0:94:Kick2Bass.wav
402,192,179575,1,0,0:0:0:74:Snare1.wav
475,192,179575,1,0,0:0:0:100:HiHat13.wav
182,192,179682,1,0,0:0:0:100:HiHat14.wav
109,192,179789,5,0,0:0:0:94:Kick2Bass.wav
329,192,179789,1,0,0:0:0:100:HiHat15.wav
36,192,179896,1,0,0:0:0:100:HiHat16.wav
182,192,180004,5,0,0:0:0:94:Kick2Bass.wav
329,192,180004,1,0,0:0:0:100:HiHat1.wav
475,192,180111,1,0,0:0:0:100:HiHat2.wav
402,192,180218,1,0,0:0:0:100:HiHat3.wav
329,192,180325,1,0,0:0:0:100:HiHat4.wav
36,192,180432,5,0,0:0:0:94:Kick2Bass.wav
109,192,180432,1,0,0:0:0:100:HiHat5.wav
475,192,180432,1,0,0:0:0:74:Snare1.wav
182,192,180539,1,0,0:0:0:100:HiHat6.wav
256,192,180646,1,0,0:0:0:100:HiHat7.wav
329,192,180754,1,0,0:0:0:100:HiHat8.wav
36,192,180861,5,0,0:0:0:94:Kick2Bass.wav
402,192,180861,1,0,0:0:0:100:HiHat9.wav
182,192,180968,1,0,0:0:0:100:HiHat10.wav
329,192,181075,1,0,0:0:0:100:HiHat11.wav
109,192,181182,1,0,0:0:0:100:HiHat12.wav
475,192,181182,1,0,0:0:0:74:Snare1.wav
36,192,181289,5,0,0:0:0:94:Kick2Bass.wav
402,192,181289,1,0,0:0:0:100:HiHat13.wav
329,192,181396,1,0,0:0:0:100:HiHat14.wav
182,192,181504,5,0,0:0:0:94:Kick2Bass.wav
256,192,181504,1,0,0:0:0:74:Snare1.wav
109,192,181504,1,0,0:0:0:100:HiHat15.wav
36,192,181611,1,0,0:0:0:100:HiHat16.wav
475,192,181718,5,0,0:0:0:94:Kick2Bass.wav
182,192,181718,1,0,0:0:0:100:HiHat1.wav
402,192,181825,1,0,0:0:0:100:HiHat2.wav
329,192,181932,1,0,0:0:0:100:HiHat3.wav
256,192,182039,1,0,0:0:0:100:HiHat4.wav
475,192,182146,5,0,0:0:0:94:Kick2Bass.wav
182,192,182146,1,0,0:0:0:100:HiHat5.wav
109,192,182146,1,0,0:0:0:74:Snare1.wav
329,192,182254,1,0,0:0:0:100:HiHat6.wav
36,192,182361,1,0,0:0:0:100:HiHat7.wav
402,192,182468,1,0,0:0:0:100:HiHat8.wav
109,192,182575,1,0,0:0:0:100:HiHat9.wav
475,192,182682,1,0,0:0:0:100:HiHat10.wav
329,192,182789,5,0,0:0:0:94:Kick2Bass.wav
182,192,182789,1,0,0:0:0:100:HiHat11.wav
402,192,182896,1,0,0:0:0:100:HiHat12.wav
475,192,183004,5,0,0:0:0:94:Kick2Bass.wav
109,192,183004,1,0,0:0:0:74:Snare1.wav
36,192,183004,1,0,0:0:0:100:HiHat13.wav
329,192,183111,1,0,0:0:0:100:HiHat14.wav
402,192,183218,5,0,0:0:0:94:Kick2Bass.wav
182,192,183218,1,0,0:0:0:100:HiHat15.wav
475,192,183325,1,0,0:0:0:100:HiHat16.wav
329,192,183432,5,0,0:0:0:94:Kick2Bass.wav
182,192,183432,1,0,0:0:0:100:HiHat1.wav
36,192,183539,1,0,0:0:0:100:HiHat2.wav
109,192,183646,1,0,0:0:0:100:HiHat3.wav
182,192,183754,1,0,0:0:0:100:HiHat4.wav
475,192,183861,5,0,0:0:0:94:Kick2Bass.wav
402,192,183861,1,0,0:0:0:100:HiHat5.wav
36,192,183861,1,0,0:0:0:74:Snare1.wav
329,192,183968,1,0,0:0:0:100:HiHat6.wav
256,192,184075,1,0,0:0:0:100:HiHat7.wav
182,192,184182,1,0,0:0:0:100:HiHat8.wav
475,192,184289,5,0,0:0:0:94:Kick2Bass.wav
109,192,184289,1,0,0:0:0:100:HiHat9.wav
329,192,184396,1,0,0:0:0:100:HiHat10.wav
182,192,184504,1,0,0:0:0:100:HiHat11.wav
402,192,184611,1,0,0:0:0:100:HiHat12.wav
36,192,184611,1,0,0:0:0:74:Snare1.wav
475,192,184718,5,0,0:0:0:94:Kick2Bass.wav
109,192,184718,1,0,0:0:0:100:HiHat13.wav
182,192,184825,1,0,0:0:0:100:HiHat14.wav
329,192,184932,5,0,0:0:0:94:Kick2Bass.wav
256,192,184932,1,0,0:0:0:74:Snare1.wav
402,192,184932,1,0,0:0:0:100:HiHat15.wav
475,192,185039,1,0,0:0:0:100:HiHat16.wav
36,192,185146,5,0,0:0:0:94:Kick2Bass.wav
329,192,185146,1,0,0:0:0:100:HiHat1.wav
109,192,185254,1,0,0:0:0:100:HiHat2.wav
182,192,185361,1,0,0:0:0:100:HiHat3.wav
256,192,185468,1,0,0:0:0:100:HiHat4.wav
36,192,185575,5,0,0:0:0:94:Kick2Bass.wav
402,192,185575,1,0,0:0:0:74:Snare1.wav
329,192,185575,1,0,0:0:0:100:HiHat5.wav
182,192,185682,1,0,0:0:0:100:HiHat6.wav
475,192,185789,1,0,0:0:0:100:HiHat7.wav
109,192,185896,1,0,0:0:0:100:HiHat8.wav
402,192,186004,1,0,0:0:0:100:HiHat9.wav
36,192,186111,1,0,0:0:0:100:HiHat10.wav
182,192,186218,5,0,0:0:0:94:Kick2Bass.wav
329,192,186218,1,0,0:0:0:100:HiHat11.wav
109,192,186325,1,0,0:0:0:100:HiHat12.wav
36,192,186432,5,0,0:0:0:94:Kick2Bass.wav
475,192,186432,1,0,0:0:0:100:HiHat13.wav
402,192,186432,1,0,0:0:0:74:Snare1.wav
182,192,186539,1,0,0:0:0:100:HiHat14.wav
109,192,186646,5,0,0:0:0:94:Kick2Bass.wav
329,192,186646,1,0,0:0:0:100:HiHat15.wav
36,192,186754,1,0,0:0:0:100:HiHat16.wav
182,192,186861,5,0,0:0:0:94:Kick2Bass.wav
329,192,186861,1,0,0:0:0:100:HiHat1.wav
475,192,186968,1,0,0:0:0:100:HiHat2.wav
402,192,187075,1,0,0:0:0:100:HiHat3.wav
329,192,187182,1,0,0:0:0:100:HiHat4.wav
36,192,187289,5,0,0:0:0:94:Kick2Bass.wav
475,192,187289,1,0,0:0:0:74:Snare1.wav
109,192,187289,1,0,0:0:0:100:HiHat5.wav
182,192,187396,1,0,0:0:0:100:HiHat6.wav
256,192,187504,1,0,0:0:0:100:HiHat7.wav
329,192,187611,1,0,0:0:0:100:HiHat8.wav
36,192,187718,5,0,0:0:0:94:Kick2Bass.wav
402,192,187718,1,0,0:0:0:100:HiHat9.wav
182,192,187825,1,0,0:0:0:100:HiHat10.wav
329,192,187932,1,0,0:0:0:100:HiHat11.wav
475,192,188039,1,0,0:0:0:74:Snare1.wav
109,192,188039,1,0,0:0:0:100:HiHat12.wav
36,192,188146,5,0,0:0:0:94:Kick2Bass.wav
402,192,188146,1,0,0:0:0:100:HiHat13.wav
329,192,188254,1,0,0:0:0:100:HiHat14.wav
182,192,188361,5,0,0:0:0:94:Kick2Bass.wav
109,192,188361,1,0,0:0:0:100:HiHat15.wav
256,192,188361,1,0,0:0:0:74:Snare1.wav
36,192,188468,1,0,0:0:0:100:HiHat16.wav
475,192,188575,5,0,0:0:0:94:Kick2Bass.wav
182,192,188575,1,0,0:0:0:100:HiHat1.wav
402,192,188682,1,0,0:0:0:100:HiHat2.wav
329,192,188789,1,0,0:0:0:100:HiHat3.wav
256,192,188896,1,0,0:0:0:100:HiHat4.wav
475,192,189004,5,0,0:0:0:94:Kick2Bass.wav
109,192,189004,1,0,0:0:0:74:Snare1.wav
182,192,189004,1,0,0:0:0:100:HiHat5.wav
329,192,189111,1,0,0:0:0:100:HiHat6.wav
36,192,189218,1,0,0:0:0:100:HiHat7.wav
402,192,189325,1,0,0:0:0:100:HiHat8.wav
109,192,189432,1,0,0:0:0:100:HiHat9.wav
475,192,189539,1,0,0:0:0:100:HiHat10.wav
329,192,189646,5,0,0:0:0:94:Kick2Bass.wav
182,192,189646,1,0,0:0:0:100:HiHat11.wav
402,192,189754,1,0,0:0:0:100:HiHat12.wav
475,192,189861,5,0,0:0:0:94:Kick2Bass.wav
36,192,189861,1,0,0:0:0:100:HiHat13.wav
109,192,189861,1,0,0:0:0:74:Snare1.wav
329,192,189968,1,0,0:0:0:100:HiHat14.wav
402,192,190075,5,0,0:0:0:94:Kick2Bass.wav
182,192,190075,1,0,0:0:0:100:HiHat15.wav
475,192,190182,1,0,0:0:0:100:HiHat16.wav
182,192,190289,5,0,0:0:0:94:Kick2Bass.wav
109,192,192004,5,0,0:0:0:94:Kick2Bass.wav
329,192,192004,1,0,0:0:0:100:HiHat1.wav
182,192,192111,1,0,0:0:0:100:HiHat2.wav
329,192,192218,1,0,0:0:0:100:HiHat3.wav
182,192,192325,1,0,0:0:0:100:HiHat4.wav
109,192,192432,5,0,0:0:0:94:Kick2Bass.wav
475,192,192432,1,0,0:0:0:74:Snare1.wav
402,192,192432,1,0,0:0:0:100:HiHat5.wav
256,192,192539,1,0,0:0:0:100:HiHat6.wav
402,192,192646,1,0,0:0:0:100:HiHat7.wav
256,192,192754,1,0,0:0:0:100:HiHat8.wav
109,192,192861,5,0,0:0:0:94:Kick2Bass.wav
329,192,192861,1,0,0:0:0:100:HiHat9.wav
182,192,192968,1,0,0:0:0:100:HiHat10.wav
329,192,193075,1,0,0:0:0:100:HiHat11.wav
182,192,193182,1,0,0:0:0:100:HiHat12.wav
109,192,193289,5,0,0:0:0:94:Kick2Bass.wav
475,192,193289,1,0,0:0:0:74:Snare1.wav
402,192,193289,1,0,0:0:0:100:HiHat13.wav
256,192,193396,1,0,0:0:0:100:HiHat14.wav
402,192,193504,1,0,0:0:0:100:HiHat15.wav
256,192,193611,1,0,0:0:0:100:HiHat16.wav
36,192,193718,5,0,0:0:0:94:Kick2Bass.wav
182,192,193718,1,0,0:0:0:100:HiHat1.wav
329,192,193825,1,0,0:0:0:100:HiHat2.wav
182,192,193932,1,0,0:0:0:100:HiHat3.wav
329,192,194039,1,0,0:0:0:100:HiHat4.wav
36,192,194146,5,0,0:0:0:94:Kick2Bass.wav
475,192,194146,1,0,0:0:0:74:Snare1.wav
109,192,194146,1,0,0:0:0:100:HiHat5.wav
256,192,194254,1,0,0:0:0:100:HiHat6.wav
109,192,194361,1,0,0:0:0:100:HiHat7.wav
256,192,194468,1,0,0:0:0:100:HiHat8.wav
36,192,194575,5,0,0:0:0:94:Kick2Bass.wav
182,192,194575,1,0,0:0:0:100:HiHat9.wav
329,192,194682,1,0,0:0:0:100:HiHat10.wav
182,192,194789,1,0,0:0:0:100:HiHat11.wav
475,192,194789,1,0,0:0:0:74:Snare1.wav
109,192,194896,1,0,0:0:0:100:HiHat12.wav
329,192,194896,1,0,0:0:0:74:Snare1.wav
402,192,195004,5,0,0:0:0:94:Kick2Bass.wav
36,192,195004,1,0,0:0:0:100:HiHat13.wav
475,192,195111,1,0,0:0:0:100:HiHat14.wav
329,192,195218,1,0,0:0:0:100:HiHat15.wav
109,192,195218,1,0,0:0:0:74:Snare1.wav
256,192,195325,1,0,0:0:0:100:HiHat16.wav
402,192,195432,5,0,0:0:0:94:Kick2Bass.wav
182,192,195432,1,0,0:0:0:100:HiHat1.wav
329,192,195539,1,0,0:0:0:100:HiHat2.wav
182,192,195646,1,0,0:0:0:100:HiHat3.wav
329,192,195754,1,0,0:0:0:100:HiHat4.wav
402,192,195861,5,0,0:0:0:94:Kick2Bass.wav
36,192,195861,1,0,0:0:0:74:Snare1.wav
109,192,195861,1,0,0:0:0:100:HiHat5.wav
256,192,195968,1,0,0:0:0:100:HiHat6.wav
109,192,196075,1,0,0:0:0:100:HiHat7.wav
256,192,196182,1,0,0:0:0:100:HiHat8.wav
402,192,196289,5,0,0:0:0:94:Kick2Bass.wav
182,192,196289,1,0,0:0:0:100:HiHat9.wav
329,192,196396,1,0,0:0:0:100:HiHat10.wav
182,192,196504,1,0,0:0:0:100:HiHat11.wav
329,192,196611,1,0,0:0:0:100:HiHat12.wav
402,192,196718,5,0,0:0:0:94:Kick2Bass.wav
36,192,196718,1,0,0:0:0:74:Snare1.wav
109,192,196718,1,0,0:0:0:100:HiHat13.wav
256,192,196825,1,0,0:0:0:100:HiHat14.wav
109,192,196932,1,0,0:0:0:100:HiHat15.wav
256,192,197039,1,0,0:0:0:100:HiHat16.wav
475,192,197146,5,0,0:0:0:94:Kick2Bass.wav
329,192,197146,1,0,0:0:0:100:HiHat1.wav
182,192,197254,1,0,0:0:0:100:HiHat2.wav
329,192,197361,1,0,0:0:0:100:HiHat3.wav
182,192,197468,1,0,0:0:0:100:HiHat4.wav
475,192,197575,5,0,0:0:0:94:Kick2Bass.wav
36,192,197575,1,0,0:0:0:74:Snare1.wav
402,192,197575,1,0,0:0:0:100:HiHat5.wav
256,192,197682,1,0,0:0:0:100:HiHat6.wav
402,192,197789,1,0,0:0:0:100:HiHat7.wav
256,192,197896,1,0,0:0:0:100:HiHat8.wav
475,192,198004,5,0,0:0:0:94:Kick2Bass.wav
329,192,198004,1,0,0:0:0:100:HiHat9.wav
182,192,198111,1,0,0:0:0:100:HiHat10.wav
329,192,198218,1,0,0:0:0:100:HiHat11.wav
36,192,198218,1,0,0:0:0:74:Snare1.wav
402,192,198325,1,0,0:0:0:100:HiHat12.wav
182,192,198325,1,0,0:0:0:74:Snare1.wav
109,192,198432,5,0,0:0:0:94:Kick2Bass.wav
475,192,198432,1,0,0:0:0:100:HiHat13.wav
36,192,198539,1,0,0:0:0:100:HiHat14.wav
182,192,198646,1,0,0:0:0:100:HiHat15.wav
402,192,198646,1,0,0:0:0:74:Snare1.wav
256,192,198754,1,0,0:0:0:100:HiHat16.wav
109,192,198861,5,0,0:0:0:94:Kick2Bass.wav
329,192,198861,1,0,0:0:0:100:HiHat1.wav
182,192,198968,1,0,0:0:0:100:HiHat2.wav
329,192,199075,1,0,0:0:0:100:HiHat3.wav
182,192,199182,1,0,0:0:0:100:HiHat4.wav
109,192,199289,5,0,0:0:0:94:Kick2Bass.wav
402,192,199289,1,0,0:0:0:100:HiHat5.wav
475,192,199289,1,0,0:0:0:74:Snare1.wav
256,192,199396,1,0,0:0:0:100:HiHat6.wav
402,192,199504,1,0,0:0:0:100:HiHat7.wav
256,192,199611,1,0,0:0:0:100:HiHat8.wav
109,192,199718,5,0,0:0:0:94:Kick2Bass.wav
329,192,199718,1,0,0:0:0:100:HiHat9.wav
182,192,199825,1,0,0:0:0:100:HiHat10.wav
329,192,199932,1,0,0:0:0:100:HiHat11.wav
182,192,200039,1,0,0:0:0:100:HiHat12.wav
109,192,200146,5,0,0:0:0:94:Kick2Bass.wav
402,192,200146,1,0,0:0:0:100:HiHat13.wav
475,192,200146,1,0,0:0:0:74:Snare1.wav
256,192,200254,1,0,0:0:0:100:HiHat14.wav
402,192,200361,1,0,0:0:0:100:HiHat15.wav
256,192,200468,1,0,0:0:0:100:HiHat16.wav
36,192,200575,5,0,0:0:0:94:Kick2Bass.wav
182,192,200575,1,0,0:0:0:100:HiHat1.wav
329,192,200682,1,0,0:0:0:100:HiHat2.wav
182,192,200789,1,0,0:0:0:100:HiHat3.wav
329,192,200896,1,0,0:0:0:100:HiHat4.wav
36,192,201004,5,0,0:0:0:94:Kick2Bass.wav
109,192,201004,1,0,0:0:0:100:HiHat5.wav
475,192,201004,1,0,0:0:0:74:Snare1.wav
256,192,201111,1,0,0:0:0:100:HiHat6.wav
109,192,201218,1,0,0:0:0:100:HiHat7.wav
256,192,201325,1,0,0:0:0:100:HiHat8.wav
36,192,201432,5,0,0:0:0:94:Kick2Bass.wav
182,192,201432,1,0,0:0:0:100:HiHat9.wav
329,192,201539,1,0,0:0:0:100:HiHat10.wav
475,192,201646,1,0,0:0:0:74:Snare1.wav
182,192,201646,1,0,0:0:0:100:HiHat11.wav
329,192,201754,1,0,0:0:0:74:Snare1.wav
109,192,201754,1,0,0:0:0:100:HiHat12.wav
402,192,201861,5,0,0:0:0:94:Kick2Bass.wav
36,192,201861,1,0,0:0:0:100:HiHat13.wav
475,192,201968,1,0,0:0:0:100:HiHat14.wav
109,192,202075,1,0,0:0:0:74:Snare1.wav
329,192,202075,1,0,0:0:0:100:HiHat15.wav
256,192,202182,1,0,0:0:0:100:HiHat16.wav
402,192,202289,5,0,0:0:0:94:Kick2Bass.wav
182,192,202289,1,0,0:0:0:100:HiHat1.wav
329,192,202396,1,0,0:0:0:100:HiHat2.wav
182,192,202504,1,0,0:0:0:100:HiHat3.wav
329,192,202611,1,0,0:0:0:100:HiHat4.wav
402,192,202718,5,0,0:0:0:94:Kick2Bass.wav
36,192,202718,1,0,0:0:0:74:Snare1.wav
109,192,202718,1,0,0:0:0:100:HiHat5.wav
256,192,202825,1,0,0:0:0:100:HiHat6.wav
109,192,202932,1,0,0:0:0:100:HiHat7.wav
256,192,203039,1,0,0:0:0:100:HiHat8.wav
402,192,203146,5,0,0:0:0:94:Kick2Bass.wav
182,192,203146,1,0,0:0:0:100:HiHat9.wav
329,192,203254,1,0,0:0:0:100:HiHat10.wav
182,192,203361,1,0,0:0:0:100:HiHat11.wav
329,192,203468,1,0,0:0:0:100:HiHat12.wav
402,192,203575,5,0,0:0:0:94:Kick2Bass.wav
36,192,203575,1,0,0:0:0:74:Snare1.wav
109,192,203575,1,0,0:0:0:100:HiHat13.wav
256,192,203682,1,0,0:0:0:100:HiHat14.wav
109,192,203789,1,0,0:0:0:100:HiHat15.wav
256,192,203896,1,0,0:0:0:100:HiHat16.wav
475,192,204004,5,0,0:0:0:94:Kick2Bass.wav
329,192,204004,1,0,0:0:0:100:HiHat1.wav
182,192,204111,1,0,0:0:0:100:HiHat2.wav
329,192,204218,1,0,0:0:0:100:HiHat3.wav
182,192,204325,1,0,0:0:0:100:HiHat4.wav
475,192,204432,5,0,0:0:0:94:Kick2Bass.wav
36,192,204432,1,0,0:0:0:74:Snare1.wav
402,192,204432,1,0,0:0:0:100:HiHat5.wav
256,192,204539,1,0,0:0:0:100:HiHat6.wav
402,192,204646,1,0,0:0:0:100:HiHat7.wav
256,192,204754,1,0,0:0:0:100:HiHat8.wav
475,192,204861,5,0,0:0:0:94:Kick2Bass.wav
329,192,204861,1,0,0:0:0:100:HiHat9.wav
182,192,204968,1,0,0:0:0:100:HiHat10.wav
329,192,205075,1,0,0:0:0:100:HiHat11.wav
36,192,205075,1,0,0:0:0:74:Snare1.wav
402,192,205182,1,0,0:0:0:100:HiHat12.wav
182,192,205182,1,0,0:0:0:74:Snare1.wav
109,192,205289,5,0,0:0:0:94:Kick2Bass.wav
475,192,205289,1,0,0:0:0:100:HiHat13.wav
36,192,205396,1,0,0:0:0:100:HiHat14.wav
182,192,205504,1,0,0:0:0:100:HiHat15.wav
402,192,205504,1,0,0:0:0:74:Snare1.wav
256,192,205611,1,0,0:0:0:100:HiHat16.wav
109,192,205718,5,0,0:0:0:94:Kick2Bass.wav
329,192,205718,1,0,0:0:0:100:HiHat1.wav
182,192,205825,1,0,0:0:0:100:HiHat2.wav
329,192,205932,1,0,0:0:0:100:HiHat3.wav
182,192,206039,1,0,0:0:0:100:HiHat4.wav
109,192,206146,5,0,0:0:0:94:Kick2Bass.wav
402,192,206146,1,0,0:0:0:100:HiHat5.wav
475,192,206146,1,0,0:0:0:74:Snare1.wav
256,192,206254,1,0,0:0:0:100:HiHat6.wav
402,192,206361,1,0,0:0:0:100:HiHat7.wav
256,192,206468,1,0,0:0:0:100:HiHat8.wav
109,192,206575,5,0,0:0:0:94:Kick2Bass.wav
329,192,206575,1,0,0:0:0:100:HiHat9.wav
182,192,206682,1,0,0:0:0:100:HiHat10.wav
329,192,206789,1,0,0:0:0:100:HiHat11.wav
182,192,206896,1,0,0:0:0:100:HiHat12.wav
109,192,207004,5,0,0:0:0:94:Kick2Bass.wav
402,192,207004,1,0,0:0:0:100:HiHat13.wav
475,192,207004,1,0,0:0:0:74:Snare1.wav
256,192,207111,1,0,0:0:0:100:HiHat14.wav
402,192,207218,1,0,0:0:0:100:HiHat15.wav
256,192,207325,1,0,0:0:0:100:HiHat16.wav
36,192,207432,5,0,0:0:0:94:Kick2Bass.wav
182,192,207432,1,0,0:0:0:100:HiHat1.wav
329,192,207539,1,0,0:0:0:100:HiHat2.wav
182,192,207646,1,0,0:0:0:100:HiHat3.wav
329,192,207754,1,0,0:0:0:100:HiHat4.wav
36,192,207861,5,0,0:0:0:94:Kick2Bass.wav
109,192,207861,1,0,0:0:0:100:HiHat5.wav
475,192,207861,1,0,0:0:0:74:Snare1.wav
256,192,207968,1,0,0:0:0:100:HiHat6.wav
109,192,208075,1,0,0:0:0:100:HiHat7.wav
256,192,208182,1,0,0:0:0:100:HiHat8.wav
36,192,208289,5,0,0:0:0:94:Kick2Bass.wav
182,192,208289,1,0,0:0:0:100:HiHat9.wav
329,192,208396,1,0,0:0:0:100:HiHat10.wav
475,192,208504,1,0,0:0:0:74:Snare1.wav
182,192,208504,1,0,0:0:0:100:HiHat11.wav
329,192,208611,1,0,0:0:0:74:Snare1.wav
109,192,208611,1,0,0:0:0:100:HiHat12.wav
402,192,208718,5,0,0:0:0:94:Kick2Bass.wav
36,192,208718,1,0,0:0:0:100:HiHat13.wav
475,192,208825,1,0,0:0:0:100:HiHat14.wav
109,192,208932,1,0,0:0:0:74:Snare1.wav
329,192,208932,1,0,0:0:0:100:HiHat15.wav
256,192,209039,1,0,0:0:0:100:HiHat16.wav
402,192,209146,5,0,0:0:0:94:Kick2Bass.wav
182,192,209146,1,0,0:0:0:100:HiHat1.wav
329,192,209254,1,0,0:0:0:100:HiHat2.wav
182,192,209361,1,0,0:0:0:100:HiHat3.wav
329,192,209468,1,0,0:0:0:100:HiHat4.wav
402,192,209575,5,0,0:0:0:94:Kick2Bass.wav
109,192,209575,1,0,0:0:0:100:HiHat5.wav
36,192,209575,1,0,0:0:0:74:Snare1.wav
256,192,209682,1,0,0:0:0:100:HiHat6.wav
109,192,209789,1,0,0:0:0:100:HiHat7.wav
256,192,209896,1,0,0:0:0:100:HiHat8.wav
402,192,210004,5,0,0:0:0:94:Kick2Bass.wav
182,192,210004,1,0,0:0:0:100:HiHat9.wav
329,192,210111,1,0,0:0:0:100:HiHat10.wav
182,192,210218,1,0,0:0:0:100:HiHat11.wav
329,192,210325,1,0,0:0:0:100:HiHat12.wav
402,192,210432,5,0,0:0:0:94:Kick2Bass.wav
109,192,210432,1,0,0:0:0:100:HiHat13.wav
36,192,210432,1,0,0:0:0:74:Snare1.wav
256,192,210539,1,0,0:0:0:100:HiHat14.wav
109,192,210646,1,0,0:0:0:100:HiHat15.wav
256,192,210754,1,0,0:0:0:100:HiHat16.wav
475,192,210861,5,0,0:0:0:94:Kick2Bass.wav
329,192,210861,1,0,0:0:0:100:HiHat1.wav
182,192,210968,1,0,0:0:0:100:HiHat2.wav
329,192,211075,1,0,0:0:0:100:HiHat3.wav
182,192,211182,1,0,0:0:0:100:HiHat4.wav
475,192,211289,5,0,0:0:0:94:Kick2Bass.wav
402,192,211289,1,0,0:0:0:100:HiHat5.wav
36,192,211289,1,0,0:0:0:74:Snare1.wav
256,192,211396,1,0,0:0:0:100:HiHat6.wav
402,192,211504,1,0,0:0:0:100:HiHat7.wav
256,192,211611,1,0,0:0:0:100:HiHat8.wav
475,192,211718,5,0,0:0:0:94:Kick2Bass.wav
329,192,211718,1,0,0:0:0:100:HiHat9.wav
182,192,211825,1,0,0:0:0:100:HiHat10.wav
36,192,211932,1,0,0:0:0:74:Snare1.wav
329,192,211932,1,0,0:0:0:100:HiHat11.wav
182,192,212039,1,0,0:0:0:74:Snare1.wav
402,192,212039,1,0,0:0:0:100:HiHat12.wav
109,192,212146,5,0,0:0:0:94:Kick2Bass.wav
475,192,212146,1,0,0:0:0:100:HiHat13.wav
36,192,212254,1,0,0:0:0:100:HiHat14.wav
402,192,212361,1,0,0:0:0:74:Snare1.wav
182,192,212361,1,0,0:0:0:100:HiHat15.wav
256,192,212468,1,0,0:0:0:100:HiHat16.wav
109,192,212575,5,0,0:0:0:94:Kick2Bass.wav
329,192,212575,1,0,0:0:0:100:HiHat1.wav
182,192,212682,1,0,0:0:0:100:HiHat2.wav
329,192,212789,1,0,0:0:0:100:HiHat3.wav
182,192,212896,1,0,0:0:0:100:HiHat4.wav
109,192,213004,5,0,0:0:0:94:Kick2Bass.wav
475,192,213004,1,0,0:0:0:74:Snare1.wav
402,192,213004,1,0,0:0:0:100:HiHat5.wav
256,192,213111,1,0,0:0:0:100:HiHat6.wav
402,192,213218,1,0,0:0:0:100:HiHat7.wav
256,192,213325,1,0,0:0:0:100:HiHat8.wav
109,192,213432,5,0,0:0:0:94:Kick2Bass.wav
329,192,213432,1,0,0:0:0:100:HiHat9.wav
182,192,213539,1,0,0:0:0:100:HiHat10.wav
329,192,213646,1,0,0:0:0:100:HiHat11.wav
182,192,213754,1,0,0:0:0:100:HiHat12.wav
109,192,213861,5,0,0:0:0:94:Kick2Bass.wav
475,192,213861,1,0,0:0:0:74:Snare1.wav
402,192,213861,1,0,0:0:0:100:HiHat13.wav
256,192,213968,1,0,0:0:0:100:HiHat14.wav
109,192,214075,1,0,0:0:0:100:HiHat15.wav
402,192,214182,1,0,0:0:0:100:HiHat16.wav
36,192,214289,5,0,0:0:0:94:Kick2Bass.wav
182,192,214289,1,0,0:0:0:100:HiHat1.wav
329,192,214396,1,0,0:0:0:100:HiHat2.wav
182,192,214504,1,0,0:0:0:100:HiHat3.wav
329,192,214611,1,0,0:0:0:100:HiHat4.wav
36,192,214718,5,0,0:0:0:94:Kick2Bass.wav
475,192,214718,1,0,0:0:0:74:Snare1.wav
109,192,214718,1,0,0:0:0:100:HiHat5.wav
256,192,214825,1,0,0:0:0:100:HiHat6.wav
109,192,214932,1,0,0:0:0:100:HiHat7.wav
256,192,215039,1,0,0:0:0:100:HiHat8.wav
36,192,215146,5,0,0:0:0:94:Kick2Bass.wav
182,192,215146,1,0,0:0:0:100:HiHat9.wav
329,192,215254,1,0,0:0:0:100:HiHat10.wav
182,192,215361,1,0,0:0:0:100:HiHat11.wav
475,192,215361,1,0,0:0:0:74:Snare1.wav
109,192,215468,1,0,0:0:0:100:HiHat12.wav
329,192,215468,1,0,0:0:0:74:Snare1.wav
402,192,215575,5,0,0:0:0:94:Kick2Bass.wav
36,192,215575,1,0,0:0:0:100:HiHat13.wav
475,192,215682,1,0,0:0:0:100:HiHat14.wav
329,192,215789,1,0,0:0:0:100:HiHat15.wav
109,192,215789,1,0,0:0:0:74:Snare1.wav
256,192,215896,1,0,0:0:0:100:HiHat16.wav
182,192,216004,1,0,0:0:0:100:HiHat1.wav
402,192,216111,1,0,0:0:0:100:HiHat2.wav
329,192,216218,1,0,0:0:0:100:HiHat3.wav
256,192,216325,1,0,0:0:0:100:HiHat4.wav
36,192,216432,1,0,0:0:0:100:HiHat5.wav
475,192,216432,1,0,0:0:0:74:Snare1.wav
182,192,216539,1,0,0:0:0:100:HiHat6.wav
402,192,216646,1,0,0:0:0:100:HiHat7.wav
109,192,216754,1,0,0:0:0:100:HiHat8.wav
329,192,216861,1,0,0:0:0:100:HiHat9.wav
36,192,216968,1,0,0:0:0:100:HiHat10.wav
256,192,217075,1,0,0:0:0:100:HiHat11.wav
402,192,217182,1,0,0:0:0:100:HiHat12.wav
182,192,217289,1,0,0:0:0:100:HiHat13.wav
329,192,217289,1,0,0:0:0:74:Snare1.wav
109,192,217396,1,0,0:0:0:100:HiHat14.wav
256,192,217504,1,0,0:0:0:100:HiHat15.wav
36,192,217611,1,0,0:0:0:100:HiHat16.wav
36,192,219432,5,0,0:0:0:100:E6s.wav
109,192,219646,1,0,0:0:0:100:F6s.wav
182,192,220075,1,0,0:0:0:100:C7.wav
182,192,220504,1,0,0:0:0:70:C7.wav
256,192,233146,5,0,0:0:0:92:Kick3Drop.wav
256,192,246861,5,0,0:0:0:92:Kick3Drop.wav
36,192,246861,5,0,0:0:0:100:E6s.wav
109,192,247075,1,0,0:0:0:100:F6s.wav
182,192,247504,1,0,0:0:0:100:C7.wav
182,192,247932,1,0,0:0:0:70:C7.wav
256,192,260575,5,0,0:0:0:92:Kick3Drop.wav
109,192,260575,5,0,0:0:0:24:Kick2Bass.wav
475,192,260575,1,0,0:0:0:100:HiHat1.wav
36,192,260682,5,0,0:0:0:24:Kick2Bass.wav
402,192,260682,1,0,0:0:0:100:HiHat2.wav
109,192,260789,5,0,0:0:0:24:Kick2Bass.wav
329,192,260789,1,0,0:0:0:100:HiHat3.wav
36,192,260896,5,0,0:0:0:24:Kick2Bass.wav
256,192,260896,1,0,0:0:0:100:HiHat4.wav
109,192,261004,5,0,0:0:0:27:Kick2Bass.wav
402,192,261004,1,0,0:0:0:100:HiHat5.wav
329,192,261004,1,0,0:0:0:74:Snare1.wav
36,192,261111,5,0,0:0:0:27:Kick2Bass.wav
475,192,261111,1,0,0:0:0:100:HiHat6.wav
109,192,261218,5,0,0:0:0:27:Kick2Bass.wav
402,192,261218,1,0,0:0:0:100:HiHat7.wav
36,192,261325,5,0,0:0:0:27:Kick2Bass.wav
329,192,261325,1,0,0:0:0:100:HiHat8.wav
109,192,261432,5,0,0:0:0:30:Kick2Bass.wav
256,192,261432,1,0,0:0:0:100:HiHat9.wav
36,192,261539,5,0,0:0:0:30:Kick2Bass.wav
329,192,261539,1,0,0:0:0:100:HiHat10.wav
109,192,261646,5,0,0:0:0:30:Kick2Bass.wav
402,192,261646,1,0,0:0:0:100:HiHat11.wav
36,192,261754,5,0,0:0:0:30:Kick2Bass.wav
475,192,261754,1,0,0:0:0:100:HiHat12.wav
109,192,261861,5,0,0:0:0:33:Kick2Bass.wav
329,192,261861,1,0,0:0:0:100:HiHat13.wav
402,192,261861,1,0,0:0:0:74:Snare1.wav
36,192,261968,5,0,0:0:0:33:Kick2Bass.wav
256,192,261968,1,0,0:0:0:100:HiHat14.wav
109,192,262075,5,0,0:0:0:33:Kick2Bass.wav
329,192,262075,1,0,0:0:0:100:HiHat15.wav
36,192,262182,5,0,0:0:0:33:Kick2Bass.wav
402,192,262182,1,0,0:0:0:100:HiHat16.wav
182,192,262289,5,0,0:0:0:36:Kick2Bass.wav
475,192,262289,1,0,0:0:0:100:HiHat1.wav
109,192,262396,5,0,0:0:0:36:Kick2Bass.wav
402,192,262396,1,0,0:0:0:100:HiHat2.wav
182,192,262504,5,0,0:0:0:36:Kick2Bass.wav
329,192,262504,1,0,0:0:0:100:HiHat3.wav
109,192,262611,5,0,0:0:0:36:Kick2Bass.wav
256,192,262611,1,0,0:0:0:100:HiHat4.wav
182,192,262718,5,0,0:0:0:38:Kick2Bass.wav
402,192,262718,1,0,0:0:0:100:HiHat5.wav
329,192,262718,1,0,0:0:0:74:Snare1.wav
109,192,262825,5,0,0:0:0:38:Kick2Bass.wav
475,192,262825,1,0,0:0:0:100:HiHat6.wav
182,192,262932,5,0,0:0:0:38:Kick2Bass.wav
402,192,262932,1,0,0:0:0:100:HiHat7.wav
109,192,263039,5,0,0:0:0:38:Kick2Bass.wav
329,192,263039,1,0,0:0:0:100:HiHat8.wav
182,192,263146,5,0,0:0:0:40:Kick2Bass.wav
256,192,263146,1,0,0:0:0:100:HiHat9.wav
109,192,263254,5,0,0:0:0:40:Kick2Bass.wav
329,192,263254,1,0,0:0:0:100:HiHat10.wav
182,192,263361,5,0,0:0:0:40:Kick2Bass.wav
402,192,263361,1,0,0:0:0:100:HiHat11.wav
109,192,263468,5,0,0:0:0:40:Kick2Bass.wav
475,192,263468,1,0,0:0:0:100:HiHat12.wav
182,192,263575,5,0,0:0:0:42:Kick2Bass.wav
329,192,263575,1,0,0:0:0:100:HiHat13.wav
402,192,263575,1,0,0:0:0:74:Snare1.wav
109,192,263682,5,0,0:0:0:42:Kick2Bass.wav
256,192,263682,1,0,0:0:0:100:HiHat14.wav
182,192,263789,5,0,0:0:0:42:Kick2Bass.wav
329,192,263789,1,0,0:0:0:100:HiHat15.wav
109,192,263896,5,0,0:0:0:42:Kick2Bass.wav
402,192,263896,1,0,0:0:0:100:HiHat16.wav
36,192,264004,5,0,0:0:0:44:Kick2Bass.wav
475,192,264004,1,0,0:0:0:100:HiHat1.wav
182,192,264111,5,0,0:0:0:44:Kick2Bass.wav
402,192,264111,1,0,0:0:0:100:HiHat2.wav
36,192,264218,5,0,0:0:0:44:Kick2Bass.wav
329,192,264218,1,0,0:0:0:100:HiHat3.wav
182,192,264325,5,0,0:0:0:44:Kick2Bass.wav
256,192,264325,1,0,0:0:0:100:HiHat4.wav
36,192,264432,5,0,0:0:0:46:Kick2Bass.wav
329,192,264432,1,0,0:0:0:74:Snare1.wav
402,192,264432,1,0,0:0:0:100:HiHat5.wav
182,192,264539,5,0,0:0:0:46:Kick2Bass.wav
475,192,264539,1,0,0:0:0:100:HiHat6.wav
36,192,264646,5,0,0:0:0:46:Kick2Bass.wav
402,192,264646,1,0,0:0:0:100:HiHat7.wav
182,192,264754,5,0,0:0:0:46:Kick2Bass.wav
329,192,264754,1,0,0:0:0:100:HiHat8.wav
36,192,264861,5,0,0:0:0:48:Kick2Bass.wav
256,192,264861,1,0,0:0:0:100:HiHat9.wav
182,192,264968,5,0,0:0:0:48:Kick2Bass.wav
329,192,264968,1,0,0:0:0:100:HiHat10.wav
36,192,265075,5,0,0:0:0:48:Kick2Bass.wav
402,192,265075,1,0,0:0:0:100:HiHat11.wav
182,192,265182,5,0,0:0:0:48:Kick2Bass.wav
475,192,265182,1,0,0:0:0:100:HiHat12.wav
36,192,265289,5,0,0:0:0:50:Kick2Bass.wav
402,192,265289,1,0,0:0:0:74:Snare1.wav
329,192,265289,1,0,0:0:0:100:HiHat13.wav
182,192,265396,5,0,0:0:0:50:Kick2Bass.wav
256,192,265396,1,0,0:0:0:100:HiHat14.wav
36,192,265504,5,0,0:0:0:50:Kick2Bass.wav
329,192,265504,1,0,0:0:0:100:HiHat15.wav
182,192,265611,5,0,0:0:0:50:Kick2Bass.wav
402,192,265611,1,0,0:0:0:100:HiHat16.wav
109,192,265718,5,0,0:0:0:52:Kick2Bass.wav
475,192,265718,1,0,0:0:0:100:HiHat1.wav
36,192,265825,5,0,0:0:0:52:Kick2Bass.wav
402,192,265825,1,0,0:0:0:100:HiHat2.wav
109,192,265932,5,0,0:0:0:52:Kick2Bass.wav
329,192,265932,1,0,0:0:0:100:HiHat3.wav
36,192,266039,5,0,0:0:0:52:Kick2Bass.wav
256,192,266039,1,0,0:0:0:100:HiHat4.wav
109,192,266146,5,0,0:0:0:54:Kick2Bass.wav
402,192,266146,1,0,0:0:0:100:HiHat5.wav
329,192,266146,1,0,0:0:0:74:Snare1.wav
36,192,266254,5,0,0:0:0:54:Kick2Bass.wav
475,192,266254,1,0,0:0:0:100:HiHat6.wav
109,192,266361,5,0,0:0:0:54:Kick2Bass.wav
402,192,266361,1,0,0:0:0:100:HiHat7.wav
36,192,266468,5,0,0:0:0:54:Kick2Bass.wav
329,192,266468,1,0,0:0:0:100:HiHat8.wav
109,192,266575,5,0,0:0:0:56:Kick2Bass.wav
256,192,266575,1,0,0:0:0:100:HiHat9.wav
36,192,266682,5,0,0:0:0:56:Kick2Bass.wav
329,192,266682,1,0,0:0:0:100:HiHat10.wav
109,192,266789,5,0,0:0:0:56:Kick2Bass.wav
402,192,266789,1,0,0:0:0:100:HiHat11.wav
36,192,266896,5,0,0:0:0:56:Kick2Bass.wav
475,192,266896,1,0,0:0:0:100:HiHat12.wav
109,192,267004,5,0,0:0:0:58:Kick2Bass.wav
329,192,267004,1,0,0:0:0:100:HiHat13.wav
402,192,267004,1,0,0:0:0:74:Snare1.wav
36,192,267111,5,0,0:0:0:58:Kick2Bass.wav
256,192,267111,1,0,0:0:0:100:HiHat14.wav
109,192,267218,5,0,0:0:0:58:Kick2Bass.wav
329,192,267218,1,0,0:0:0:100:HiHat15.wav
36,192,267325,5,0,0:0:0:58:Kick2Bass.wav
402,192,267325,1,0,0:0:0:100:HiHat16.wav
182,192,267432,5,0,0:0:0:60:Kick2Bass.wav
475,192,267432,1,0,0:0:0:100:HiHat1.wav
109,192,267539,5,0,0:0:0:60:Kick2Bass.wav
402,192,267539,1,0,0:0:0:100:HiHat2.wav
182,192,267646,5,0,0:0:0:60:Kick2Bass.wav
329,192,267646,1,0,0:0:0:100:HiHat3.wav
109,192,267754,5,0,0:0:0:60:Kick2Bass.wav
256,192,267754,1,0,0:0:0:100:HiHat4.wav
182,192,267861,5,0,0:0:0:62:Kick2Bass.wav
329,192,267861,1,0,0:0:0:74:Snare1.wav
402,192,267861,1,0,0:0:0:100:HiHat5.wav
109,192,267968,5,0,0:0:0:62:Kick2Bass.wav
475,192,267968,1,0,0:0:0:100:HiHat6.wav
182,192,268075,5,0,0:0:0:62:Kick2Bass.wav
402,192,268075,1,0,0:0:0:100:HiHat7.wav
109,192,268182,5,0,0:0:0:62:Kick2Bass.wav
329,192,268182,1,0,0:0:0:100:HiHat8.wav
182,192,268289,5,0,0:0:0:64:Kick2Bass.wav
256,192,268289,1,0,0:0:0:100:HiHat9.wav
109,192,268396,5,0,0:0:0:64:Kick2Bass.wav
329,192,268396,1,0,0:0:0:100:HiHat10.wav
182,192,268504,5,0,0:0:0:64:Kick2Bass.wav
402,192,268504,1,0,0:0:0:100:HiHat11.wav
109,192,268611,5,0,0:0:0:64:Kick2Bass.wav
475,192,268611,1,0,0:0:0:100:HiHat12.wav
182,192,268718,5,0,0:0:0:66:Kick2Bass.wav
402,192,268718,1,0,0:0:0:74:Snare1.wav
329,192,268718,1,0,0:0:0:100:HiHat13.wav
109,192,268825,5,0,0:0:0:66:Kick2Bass.wav
256,192,268825,1,0,0:0:0:100:HiHat14.wav
182,192,268932,5,0,0:0:0:66:Kick2Bass.wav
329,192,268932,1,0,0:0:0:100:HiHat15.wav
109,192,269039,5,0,0:0:0:66:Kick2Bass.wav
402,192,269039,1,0,0:0:0:100:HiHat16.wav
36,192,269146,5,0,0:0:0:68:Kick2Bass.wav
475,192,269146,1,0,0:0:0:100:HiHat1.wav
182,192,269254,5,0,0:0:0:68:Kick2Bass.wav
402,192,269254,1,0,0:0:0:100:HiHat2.wav
36,192,269361,5,0,0:0:0:68:Kick2Bass.wav
329,192,269361,1,0,0:0:0:100:HiHat3.wav
182,192,269468,5,0,0:0:0:68:Kick2Bass.wav
256,192,269468,1,0,0:0:0:100:HiHat4.wav
36,192,269575,5,0,0:0:0:70:Kick2Bass.wav
402,192,269575,1,0,0:0:0:100:HiHat5.wav
329,192,269575,1,0,0:0:0:74:Snare1.wav
182,192,269682,5,0,0:0:0:70:Kick2Bass.wav
475,192,269682,1,0,0:0:0:100:HiHat6.wav
36,192,269789,5,0,0:0:0:70:Kick2Bass.wav
402,192,269789,1,0,0:0:0:100:HiHat7.wav
182,192,269896,5,0,0:0:0:70:Kick2Bass.wav
329,192,269896,1,0,0:0:0:100:HiHat8.wav
36,192,270004,5,0,0:0:0:72:Kick2Bass.wav
256,192,270004,1,0,0:0:0:100:HiHat9.wav
182,192,270111,5,0,0:0:0:72:Kick2Bass.wav
329,192,270111,1,0,0:0:0:100:HiHat10.wav
36,192,270218,5,0,0:0:0:72:Kick2Bass.wav
402,192,270218,1,0,0:0:0:100:HiHat11.wav
182,192,270325,5,0,0:0:0:72:Kick2Bass.wav
475,192,270325,1,0,0:0:0:100:HiHat12.wav
36,192,270432,5,0,0:0:0:74:Kick2Bass.wav
329,192,270432,1,0,0:0:0:100:HiHat13.wav
402,192,270432,1,0,0:0:0:74:Snare1.wav
182,192,270539,5,0,0:0:0:74:Kick2Bass.wav
256,192,270539,1,0,0:0:0:100:HiHat14.wav
36,192,270646,5,0,0:0:0:74:Kick2Bass.wav
329,192,270646,1,0,0:0:0:100:HiHat15.wav
182,192,270754,5,0,0:0:0:74:Kick2Bass.wav
402,192,270754,1,0,0:0:0:100:HiHat16.wav
109,192,270861,5,0,0:0:0:76:Kick2Bass.wav
475,192,270861,1,0,0:0:0:100:HiHat1.wav
182,192,270968,5,0,0:0:0:76:Kick2Bass.wav
402,192,270968,1,0,0:0:0:100:HiHat2.wav
109,192,271075,5,0,0:0:0:76:Kick2Bass.wav
329,192,271075,1,0,0:0:0:100:HiHat3.wav
182,192,271182,5,0,0:0:0:76:Kick2Bass.wav
256,192,271182,1,0,0:0:0:100:HiHat4.wav
109,192,271289,5,0,0:0:0:78:Kick2Bass.wav
329,192,271289,1,0,0:0:0:74:Snare1.wav
402,192,271289,1,0,0:0:0:100:HiHat5.wav
182,192,271396,5,0,0:0:0:78:Kick2Bass.wav
475,192,271396,1,0,0:0:0:100:HiHat6.wav
109,192,271504,5,0,0:0:0:78:Kick2Bass.wav
402,192,271504,1,0,0:0:0:100:HiHat7.wav
182,192,271611,5,0,0:0:0:78:Kick2Bass.wav
329,192,271611,1,0,0:0:0:100:HiHat8.wav
36,192,271718,5,0,0:0:0:70:Kick2Bass.wav
256,192,271718,1,0,0:0:0:100:HiHat9.wav
109,192,271771,5,0,0:0:0:70:Kick2Bass.wav
182,192,271825,5,0,0:0:0:70:Kick2Bass.wav
329,192,271825,1,0,0:0:0:100:HiHat10.wav
36,192,271879,5,0,0:0:0:70:Kick2Bass.wav
109,192,271932,1,0,0:0:0:70:Kick2Bass.wav
402,192,271932,1,0,0:0:0:100:HiHat11.wav
182,192,271986,1,0,0:0:0:70:Kick2Bass.wav
36,192,272039,1,0,0:0:0:70:Kick2Bass.wav
475,192,272039,1,0,0:0:0:100:HiHat12.wav
109,192,272093,1,0,0:0:0:70:Kick2Bass.wav
182,192,272146,5,0,0:0:0:60:Kick2Bass.wav
402,192,272146,1,0,0:0:0:74:Snare1.wav
329,192,272146,1,0,0:0:0:100:HiHat13.wav
36,192,272200,1,0,0:0:0:60:Kick2Bass.wav
109,192,272254,1,0,0:0:0:60:Kick2Bass.wav
256,192,272254,1,0,0:0:0:100:HiHat14.wav
182,192,272307,1,0,0:0:0:60:Kick2Bass.wav
36,192,272361,1,0,0:0:0:60:Kick2Bass.wav
329,192,272361,1,0,0:0:0:100:HiHat15.wav
109,192,272414,1,0,0:0:0:60:Kick2Bass.wav
182,192,272468,1,0,0:0:0:60:Kick2Bass.wav
402,192,272468,1,0,0:0:0:100:HiHat16.wav
36,192,272521,1,0,0:0:0:60:Kick2Bass.wav
182,192,272575,5,0,0:0:0:60:SnareBreak.wav
109,192,272575,1,0,0:0:0:60:Snare1.wav
36,192,274289,5,0,0:0:0:94:Kick2Bass.wav
182,192,274289,1,0,0:0:0:100:HiHat1.wav
256,192,274396,1,0,0:0:0:100:HiHat2.wav
329,192,274504,1,0,0:0:0:100:HiHat3.wav
475,192,274504,1,0,0:0:0:77:Snare1.wav
256,192,274611,1,0,0:0:0:100:HiHat4.wav
36,192,274718,5,0,0:0:0:94:Kick2Bass.wav
402,192,274718,1,0,0:0:0:74:Snare1.wav
182,192,274718,1,0,0:0:0:100:HiHat5.wav
329,192,274825,1,0,0:0:0:100:HiHat6.wav
256,192,274932,1,0,0:0:0:100:HiHat7.wav
182,192,275039,1,0,0:0:0:100:HiHat8.wav
109,192,275146,5,0,0:0:0:94:Kick2Bass.wav
402,192,275146,1,0,0:0:0:100:HiHat9.wav
329,192,275254,1,0,0:0:0:100:HiHat10.wav
256,192,275361,1,0,0:0:0:100:HiHat11.wav
475,192,275468,1,0,0:0:0:77:Snare1.wav
182,192,275468,1,0,0:0:0:100:HiHat12.wav
36,192,275575,5,0,0:0:0:94:Kick2Bass.wav
329,192,275575,1,0,0:0:0:74:Snare1.wav
402,192,275575,1,0,0:0:0:100:HiHat13.wav
109,192,275682,1,0,0:0:0:100:HiHat14.wav
182,192,275789,1,0,0:0:0:100:HiHat15.wav
256,192,275896,1,0,0:0:0:100:HiHat16.wav
36,192,276004,5,0,0:0:0:94:Kick2Bass.wav
329,192,276004,1,0,0:0:0:100:HiHat1.wav
182,192,276111,1,0,0:0:0:100:HiHat2.wav
256,192,276218,1,0,0:0:0:100:HiHat3.wav
329,192,276325,1,0,0:0:0:100:HiHat4.wav
36,192,276432,5,0,0:0:0:94:Kick2Bass.wav
475,192,276432,1,0,0:0:0:74:Snare1.wav
402,192,276432,1,0,0:0:0:100:HiHat5.wav
256,192,276539,1,0,0:0:0:100:HiHat6.wav
182,192,276646,1,0,0:0:0:100:HiHat7.wav
109,192,276754,1,0,0:0:0:100:HiHat8.wav
36,192,276861,5,0,0:0:0:94:Kick2Bass.wav
329,192,276861,1,0,0:0:0:100:HiHat9.wav
256,192,276968,1,0,0:0:0:100:HiHat10.wav
182,192,277075,1,0,0:0:0:100:HiHat11.wav
475,192,277075,1,0,0:0:0:74:Snare1.wav
109,192,277182,1,0,0:0:0:100:HiHat12.wav
402,192,277182,1,0,0:0:0:74:Snare1.wav
36,192,277289,5,0,0:0:0:94:Kick2Bass.wav
329,192,277289,1,0,0:0:0:100:HiHat13.wav
256,192,277396,1,0,0:0:0:100:HiHat14.wav
182,192,277504,1,0,0:0:0:100:HiHat15.wav
402,192,277504,1,0,0:0:0:74:Snare1.wav
109,192,277611,1,0,0:0:0:100:HiHat16.wav
475,192,277718,5,0,0:0:0:94:Kick2Bass.wav
329,192,277718,1,0,0:0:0:100:HiHat1.wav
256,192,277825,1,0,0:0:0:100:HiHat2.wav
36,192,277932,1,0,0:0:0:77:Snare1.wav
182,192,277932,1,0,0:0:0:100:HiHat3.wav
256,192,278039,1,0,0:0:0:100:HiHat4.wav
475,192,278146,5,0,0:0:0:94:Kick2Bass.wav
329,192,278146,1,0,0:0:0:100:HiHat5.wav
109,192,278146,1,0,0:0:0:74:Snare1.wav
182,192,278254,1,0,0:0:0:100:HiHat6.wav
256,192,278361,1,0,0:0:0:100:HiHat7.wav
329,192,278468,1,0,0:0:0:100:HiHat8.wav
402,192,278575,5,0,0:0:0:94:Kick2Bass.wav
109,192,278575,1,0,0:0:0:100:HiHat9.wav
182,192,278682,1,0,0:0:0:100:HiHat10.wav
256,192,278789,1,0,0:0:0:100:HiHat11.wav
329,192,278896,1,0,0:0:0:100:HiHat12.wav
36,192,278896,1,0,0:0:0:77:Snare1.wav
475,192,279004,5,0,0:0:0:94:Kick2Bass.wav
109,192,279004,1,0,0:0:0:100:HiHat13.wav
182,192,279004,1,0,0:0:0:74:Snare1.wav
402,192,279111,1,0,0:0:0:100:HiHat14.wav
329,192,279218,1,0,0:0:0:100:HiHat15.wav
256,192,279325,1,0,0:0:0:100:HiHat16.wav
475,192,279432,5,0,0:0:0:94:Kick2Bass.wav
182,192,279432,1,0,0:0:0:100:HiHat1.wav
329,192,279539,1,0,0:0:0:100:HiHat2.wav
256,192,279646,1,0,0:0:0:100:HiHat3.wav
182,192,279754,1,0,0:0:0:100:HiHat4.wav
475,192,279861,5,0,0:0:0:94:Kick2Bass.wav
109,192,279861,1,0,0:0:0:100:HiHat5.wav
36,192,279861,1,0,0:0:0:74:Snare1.wav
256,192,279968,1,0,0:0:0:100:HiHat6.wav
329,192,280075,1,0,0:0:0:100:HiHat7.wav
402,192,280182,1,0,0:0:0:100:HiHat8.wav
475,192,280289,5,0,0:0:0:94:Kick2Bass.wav
182,192,280289,1,0,0:0:0:100:HiHat9.wav
256,192,280396,1,0,0:0:0:100:HiHat10.wav
36,192,280504,1,0,0:0:0:74:Snare1.wav
329,192,280504,1,0,0:0:0:100:HiHat11.wav
109,192,280611,1,0,0:0:0:74:Snare1.wav
402,192,280611,1,0,0:0:0:100:HiHat12.wav
475,192,280718,5,0,0:0:0:94:Kick2Bass.wav
182,192,280718,1,0,0:0:0:100:HiHat13.wav
256,192,280825,1,0,0:0:0:100:HiHat14.wav
109,192,280932,1,0,0:0:0:74:Snare1.wav
329,192,280932,1,0,0:0:0:100:HiHat15.wav
402,192,281039,1,0,0:0:0:100:HiHat16.wav
36,192,281146,5,0,0:0:0:94:Kick2Bass.wav
182,192,281146,1,0,0:0:0:100:HiHat1.wav
256,192,281254,1,0,0:0:0:100:HiHat2.wav
329,192,281361,1,0,0:0:0:100:HiHat3.wav
475,192,281361,1,0,0:0:0:77:Snare1.wav
256,192,281468,1,0,0:0:0:100:HiHat4.wav
36,192,281575,5,0,0:0:0:94:Kick2Bass.wav
402,192,281575,1,0,0:0:0:74:Snare1.wav
182,192,281575,1,0,0:0:0:100:HiHat5.wav
329,192,281682,1,0,0:0:0:100:HiHat6.wav
256,192,281789,1,0,0:0:0:100:HiHat7.wav
182,192,281896,1,0,0:0:0:100:HiHat8.wav
109,192,282004,5,0,0:0:0:94:Kick2Bass.wav
402,192,282004,1,0,0:0:0:100:HiHat9.wav
329,192,282111,1,0,0:0:0:100:HiHat10.wav
256,192,282218,1,0,0:0:0:100:HiHat11.wav
475,192,282325,1,0,0:0:0:77:Snare1.wav
182,192,282325,1,0,0:0:0:100:HiHat12.wav
36,192,282432,5,0,0:0:0:94:Kick2Bass.wav
329,192,282432,1,0,0:0:0:74:Snare1.wav
402,192,282432,1,0,0:0:0:100:HiHat13.wav
109,192,282539,1,0,0:0:0:100:HiHat14.wav
182,192,282646,1,0,0:0:0:100:HiHat15.wav
256,192,282754,1,0,0:0:0:100:HiHat16.wav
36,192,282861,5,0,0:0:0:94:Kick2Bass.wav
329,192,282861,1,0,0:0:0:100:HiHat1.wav
182,192,282968,1,0,0:0:0:100:HiHat2.wav
256,192,283075,1,0,0:0:0:100:HiHat3.wav
329,192,283182,1,0,0:0:0:100:HiHat4.wav
36,192,283289,5,0,0:0:0:94:Kick2Bass.wav
475,192,283289,1,0,0:0:0:74:Snare1.wav
402,192,283289,1,0,0:0:0:100:HiHat5.wav
256,192,283396,1,0,0:0:0:100:HiHat6.wav
182,192,283504,1,0,0:0:0:100:HiHat7.wav
109,192,283611,1,0,0:0:0:100:HiHat8.wav
36,192,283718,5,0,0:0:0:94:Kick2Bass.wav
329,192,283718,1,0,0:0:0:100:HiHat9.wav
256,192,283825,1,0,0:0:0:100:HiHat10.wav
182,192,283932,1,0,0:0:0:100:HiHat11.wav
475,192,283932,1,0,0:0:0:74:Snare1.wav
109,192,284039,1,0,0:0:0:100:HiHat12.wav
402,192,284039,1,0,0:0:0:74:Snare1.wav
36,192,284146,5,0,0:0:0:94:Kick2Bass.wav
329,192,284146,1,0,0:0:0:100:HiHat13.wav
256,192,284254,1,0,0:0:0:100:HiHat14.wav
182,192,284361,1,0,0:0:0:100:HiHat15.wav
402,192,284361,1,0,0:0:0:74:Snare1.wav
109,192,284468,1,0,0:0:0:100:HiHat16.wav
475,192,284575,5,0,0:0:0:94:Kick2Bass.wav
329,192,284575,1,0,0:0:0:100:HiHat1.wav
256,192,284682,1,0,0:0:0:100:HiHat2.wav
36,192,284789,1,0,0:0:0:77:Snare1.wav
182,192,284789,1,0,0:0:0:100:HiHat3.wav
256,192,284896,1,0,0:0:0:100:HiHat4.wav
475,192,285004,5,0,0:0:0:94:Kick2Bass.wav
329,192,285004,1,0,0:0:0:100:HiHat5.wav
109,192,285004,1,0,0:0:0:74:Snare1.wav
182,192,285111,1,0,0:0:0:100:HiHat6.wav
256,192,285218,1,0,0:0:0:100:HiHat7.wav
329,192,285325,1,0,0:0:0:100:HiHat8.wav
402,192,285432,5,0,0:0:0:94:Kick2Bass.wav
109,192,285432,1,0,0:0:0:100:HiHat9.wav
182,192,285539,1,0,0:0:0:100:HiHat10.wav
256,192,285646,1,0,0:0:0:100:HiHat11.wav
329,192,285754,1,0,0:0:0:100:HiHat12.wav
36,192,285754,1,0,0:0:0:77:Snare1.wav
475,192,285861,5,0,0:0:0:94:Kick2Bass.wav
109,192,285861,1,0,0:0:0:100:HiHat13.wav
182,192,285861,1,0,0:0:0:74:Snare1.wav
402,192,285968,1,0,0:0:0:100:HiHat14.wav
329,192,286075,1,0,0:0:0:100:HiHat15.wav
256,192,286182,1,0,0:0:0:100:HiHat16.wav
475,192,286289,5,0,0:0:0:94:Kick2Bass.wav
182,192,286289,1,0,0:0:0:100:HiHat1.wav
329,192,286396,1,0,0:0:0:100:HiHat2.wav
256,192,286504,1,0,0:0:0:100:HiHat3.wav
182,192,286611,1,0,0:0:0:100:HiHat4.wav
475,192,286718,5,0,0:0:0:94:Kick2Bass.wav
109,192,286718,1,0,0:0:0:100:HiHat5.wav
36,192,286718,1,0,0:0:0:74:Snare1.wav
256,192,286825,1,0,0:0:0:100:HiHat6.wav
329,192,286932,1,0,0:0:0:100:HiHat7.wav
402,192,287039,1,0,0:0:0:100:HiHat8.wav
475,192,287146,5,0,0:0:0:94:Kick2Bass.wav
182,192,287146,1,0,0:0:0:100:HiHat9.wav
256,192,287254,1,0,0:0:0:100:HiHat10.wav
36,192,287361,1,0,0:0:0:74:Snare1.wav
329,192,287361,1,0,0:0:0:100:HiHat11.wav
109,192,287468,1,0,0:0:0:74:Snare1.wav
402,192,287468,1,0,0:0:0:100:HiHat12.wav
475,192,287575,5,0,0:0:0:94:Kick2Bass.wav
182,192,287575,1,0,0:0:0:100:HiHat13.wav
256,192,287682,1,0,0:0:0:100:HiHat14.wav
109,192,287789,1,0,0:0:0:74:Snare1.wav
329,192,287789,1,0,0:0:0:100:HiHat15.wav
402,192,287896,1,0,0:0:0:100:HiHat16.wav
36,192,288004,5,0,0:0:0:94:Kick2Bass.wav
182,192,288004,1,0,0:0:0:100:HiHat1.wav
256,192,288111,1,0,0:0:0:100:HiHat2.wav
329,192,288218,1,0,0:0:0:100:HiHat3.wav
475,192,288218,1,0,0:0:0:77:Snare1.wav
256,192,288325,1,0,0:0:0:100:HiHat4.wav
36,192,288432,5,0,0:0:0:94:Kick2Bass.wav
402,192,288432,1,0,0:0:0:74:Snare1.wav
182,192,288432,1,0,0:0:0:100:HiHat5.wav
329,192,288539,1,0,0:0:0:100:HiHat6.wav
256,192,288646,1,0,0:0:0:100:HiHat7.wav
182,192,288754,1,0,0:0:0:100:HiHat8.wav
109,192,288861,5,0,0:0:0:94:Kick2Bass.wav
402,192,288861,1,0,0:0:0:100:HiHat9.wav
329,192,288968,1,0,0:0:0:100:HiHat10.wav
256,192,289075,1,0,0:0:0:100:HiHat11.wav
475,192,289182,1,0,0:0:0:77:Snare1.wav
182,192,289182,1,0,0:0:0:100:HiHat12.wav
36,192,289289,5,0,0:0:0:94:Kick2Bass.wav
329,192,289289,1,0,0:0:0:74:Snare1.wav
402,192,289289,1,0,0:0:0:100:HiHat13.wav
109,192,289396,1,0,0:0:0:100:HiHat14.wav
182,192,289504,1,0,0:0:0:100:HiHat15.wav
256,192,289611,1,0,0:0:0:100:HiHat16.wav
36,192,289718,5,0,0:0:0:94:Kick2Bass.wav
329,192,289718,1,0,0:0:0:100:HiHat1.wav
182,192,289825,1,0,0:0:0:100:HiHat2.wav
256,192,289932,1,0,0:0:0:100:HiHat3.wav
329,192,290039,1,0,0:0:0:100:HiHat4.wav
36,192,290146,5,0,0:0:0:94:Kick2Bass.wav
475,192,290146,1,0,0:0:0:74:Snare1.wav
402,192,290146,1,0,0:0:0:100:HiHat5.wav
256,192,290254,1,0,0:0:0:100:HiHat6.wav
182,192,290361,1,0,0:0:0:100:HiHat7.wav
109,192,290468,1,0,0:0:0:100:HiHat8.wav
36,192,290575,5,0,0:0:0:94:Kick2Bass.wav
329,192,290575,1,0,0:0:0:100:HiHat9.wav
256,192,290682,1,0,0:0:0:100:HiHat10.wav
182,192,290789,1,0,0:0:0:100:HiHat11.wav
475,192,290789,1,0,0:0:0:74:Snare1.wav
109,192,290896,1,0,0:0:0:100:HiHat12.wav
402,192,290896,1,0,0:0:0:74:Snare1.wav
36,192,291004,5,0,0:0:0:94:Kick2Bass.wav
329,192,291004,1,0,0:0:0:100:HiHat13.wav
256,192,291111,1,0,0:0:0:100:HiHat14.wav
182,192,291218,1,0,0:0:0:100:HiHat15.wav
402,192,291218,1,0,0:0:0:74:Snare1.wav
109,192,291325,1,0,0:0:0:100:HiHat16.wav
475,192,291432,5,0,0:0:0:94:Kick2Bass.wav
329,192,291432,1,0,0:0:0:100:HiHat1.wav
256,192,291539,1,0,0:0:0:100:HiHat2.wav
36,192,291646,1,0,0:0:0:77:Snare1.wav
182,192,291646,1,0,0:0:0:100:HiHat3.wav
256,192,291754,1,0,0:0:0:100:HiHat4.wav
475,192,291861,5,0,0:0:0:94:Kick2Bass.wav
329,192,291861,1,0,0:0:0:100:HiHat5.wav
109,192,291861,1,0,0:0:0:74:Snare1.wav
182,192,291968,1,0,0:0:0:100:HiHat6.wav
256,192,292075,1,0,0:0:0:100:HiHat7.wav
329,192,292182,1,0,0:0:0:100:HiHat8.wav
402,192,292289,5,0,0:0:0:94:Kick2Bass.wav
109,192,292289,1,0,0:0:0:100:HiHat9.wav
182,192,292396,1,0,0:0:0:100:HiHat10.wav
256,192,292504,1,0,0:0:0:100:HiHat11.wav
329,192,292611,1,0,0:0:0:100:HiHat12.wav
36,192,292611,1,0,0:0:0:77:Snare1.wav
475,192,292718,5,0,0:0:0:94:Kick2Bass.wav
109,192,292718,1,0,0:0:0:100:HiHat13.wav
182,192,292718,1,0,0:0:0:74:Snare1.wav
402,192,292825,1,0,0:0:0:100:HiHat14.wav
329,192,292932,1,0,0:0:0:100:HiHat15.wav
256,192,293039,1,0,0:0:0:100:HiHat16.wav
475,192,293146,5,0,0:0:0:94:Kick2Bass.wav
182,192,293146,1,0,0:0:0:100:HiHat1.wav
329,192,293254,1,0,0:0:0:100:HiHat2.wav
256,192,293361,1,0,0:0:0:100:HiHat3.wav
182,192,293468,1,0,0:0:0:100:HiHat4.wav
475,192,293575,5,0,0:0:0:94:Kick2Bass.wav
109,192,293575,1,0,0:0:0:100:HiHat5.wav
36,192,293575,1,0,0:0:0:74:Snare1.wav
256,192,293682,1,0,0:0:0:100:HiHat6.wav
329,192,293789,1,0,0:0:0:100:HiHat7.wav
402,192,293896,1,0,0:0:0:100:HiHat8.wav
475,192,294004,5,0,0:0:0:94:Kick2Bass.wav
182,192,294004,1,0,0:0:0:100:HiHat9.wav
256,192,294111,1,0,0:0:0:100:HiHat10.wav
36,192,294218,1,0,0:0:0:74:Snare1.wav
329,192,294218,1,0,0:0:0:100:HiHat11.wav
109,192,294325,1,0,0:0:0:74:Snare1.wav
402,192,294325,1,0,0:0:0:100:HiHat12.wav
475,192,294432,5,0,0:0:0:94:Kick2Bass.wav
182,192,294432,1,0,0:0:0:100:HiHat13.wav
256,192,294539,1,0,0:0:0:100:HiHat14.wav
109,192,294646,1,0,0:0:0:74:Snare1.wav
329,192,294646,1,0,0:0:0:100:HiHat15.wav
402,192,294754,1,0,0:0:0:100:HiHat16.wav
36,192,294861,5,0,0:0:0:94:Kick2Bass.wav
182,192,294861,1,0,0:0:0:100:HiHat1.wav
256,192,294968,1,0,0:0:0:100:HiHat2.wav
329,192,295075,1,0,0:0:0:100:HiHat3.wav
475,192,295075,1,0,0:0:0:77:Snare1.wav
256,192,295182,1,0,0:0:0:100:HiHat4.wav
36,192,295289,5,0,0:0:0:94:Kick2Bass.wav
402,192,295289,1,0,0:0:0:74:Snare1.wav
182,192,295289,1,0,0:0:0:100:HiHat5.wav
329,192,295396,1,0,0:0:0:100:HiHat6.wav
256,192,295504,1,0,0:0:0:100:HiHat7.wav
182,192,295611,1,0,0:0:0:100:HiHat8.wav
109,192,295718,5,0,0:0:0:94:Kick2Bass.wav
402,192,295718,1,0,0:0:0:100:HiHat9.wav
329,192,295825,1,0,0:0:0:100:HiHat10.wav
256,192,295932,1,0,0:0:0:100:HiHat11.wav
475,192,296039,1,0,0:0:0:77:Snare1.wav
182,192,296039,1,0,0:0:0:100:HiHat12.wav
36,192,296146,5,0,0:0:0:94:Kick2Bass.wav
329,192,296146,1,0,0:0:0:74:Snare1.wav
402,192,296146,1,0,0:0:0:100:HiHat13.wav
109,192,296254,1,0,0:0:0:100:HiHat14.wav
182,192,296361,1,0,0:0:0:100:HiHat15.wav
256,192,296468,1,0,0:0:0:100:HiHat16.wav
36,192,296575,5,0,0:0:0:94:Kick2Bass.wav
329,192,296575,1,0,0:0:0:100:HiHat1.wav
182,192,296682,1,0,0:0:0:100:HiHat2.wav
256,192,296789,1,0,0:0:0:100:HiHat3.wav
329,192,296896,1,0,0:0:0:100:HiHat4.wav
36,192,297004,5,0,0:0:0:94:Kick2Bass.wav
475,192,297004,1,0,0:0:0:74:Snare1.wav
402,192,297004,1,0,0:0:0:100:HiHat5.wav
256,192,297111,1,0,0:0:0:100:HiHat6.wav
182,192,297218,1,0,0:0:0:100:HiHat7.wav
109,192,297325,1,0,0:0:0:100:HiHat8.wav
36,192,297432,5,0,0:0:0:94:Kick2Bass.wav
329,192,297432,1,0,0:0:0:100:HiHat9.wav
256,192,297539,1,0,0:0:0:100:HiHat10.wav
182,192,297646,1,0,0:0:0:100:HiHat11.wav
475,192,297646,1,0,0:0:0:74:Snare1.wav
109,192,297754,1,0,0:0:0:100:HiHat12.wav
402,192,297754,1,0,0:0:0:74:Snare1.wav
36,192,297861,5,0,0:0:0:94:Kick2Bass.wav
329,192,297861,1,0,0:0:0:100:HiHat13.wav
256,192,297968,1,0,0:0:0:100:HiHat14.wav
182,192,298075,1,0,0:0:0:100:HiHat15.wav
402,192,298075,1,0,0:0:0:74:Snare1.wav
109,192,298182,1,0,0:0:0:100:HiHat16.wav
475,192,298289,5,0,0:0:0:94:Kick2Bass.wav
329,192,298289,1,0,0:0:0:100:HiHat1.wav
256,192,298396,1,0,0:0:0:100:HiHat2.wav
36,192,298504,1,0,0:0:0:77:Snare1.wav
182,192,298504,1,0,0:0:0:100:HiHat3.wav
256,192,298611,1,0,0:0:0:100:HiHat4.wav
475,192,298718,5,0,0:0:0:94:Kick2Bass.wav
329,192,298718,1,0,0:0:0:100:HiHat5.wav
109,192,298718,1,0,0:0:0:74:Snare1.wav
182,192,298825,1,0,0:0:0:100:HiHat6.wav
256,192,298932,1,0,0:0:0:100:HiHat7.wav
329,192,299039,1,0,0:0:0:100:HiHat8.wav
402,192,299146,5,0,0:0:0:94:Kick2Bass.wav
109,192,299146,1,0,0:0:0:100:HiHat9.wav
182,192,299254,1,0,0:0:0:100:HiHat10.wav
256,192,299361,1,0,0:0:0:100:HiHat11.wav
329,192,299468,1,0,0:0:0:100:HiHat12.wav
36,192,299468,1,0,0:0:0:77:Snare1.wav
475,192,299575,5,0,0:0:0:94:Kick2Bass.wav
109,192,299575,1,0,0:0:0:100:HiHat13.wav
182,192,299575,1,0,0:0:0:74:Snare1.wav
402,192,299682,1,0,0:0:0:100:HiHat14.wav
329,192,299789,1,0,0:0:0:100:HiHat15.wav
256,192,299896,1,0,0:0:0:100:HiHat16.wav
475,192,300004,5,0,0:0:0:94:Kick2Bass.wav
182,192,300004,1,0,0:0:0:100:HiHat1.wav
329,192,300111,1,0,0:0:0:100:HiHat2.wav
256,192,300218,1,0,0:0:0:100:HiHat3.wav
182,192,300325,1,0,0:0:0:100:HiHat4.wav
475,192,300432,5,0,0:0:0:94:Kick2Bass.wav
109,192,300432,1,0,0:0:0:100:HiHat5.wav
36,192,300432,1,0,0:0:0:74:Snare1.wav
256,192,300539,5,0,0:0:0:100:HiHat6.wav
329,192,300646,1,0,0:0:0:100:HiHat7.wav
402,192,300754,1,0,0:0:0:100:HiHat8.wav
475,192,300861,5,0,0:0:0:94:Kick2Bass.wav
182,192,300861,1,0,0:0:0:100:HiHat9.wav
256,192,300968,1,0,0:0:0:100:HiHat10.wav
36,192,301075,1,0,0:0:0:74:Snare1.wav
329,192,301075,1,0,0:0:0:100:HiHat11.wav
109,192,301182,1,0,0:0:0:74:Snare1.wav
402,192,301182,1,0,0:0:0:100:HiHat12.wav
475,192,301289,5,0,0:0:0:94:Kick2Bass.wav
182,192,301289,1,0,0:0:0:100:HiHat13.wav
256,192,301396,1,0,0:0:0:100:HiHat14.wav
109,192,301504,1,0,0:0:0:74:Snare1.wav
329,192,301504,1,0,0:0:0:100:HiHat15.wav
402,192,301611,1,0,0:0:0:100:HiHat16.wav
36,192,301718,5,0,0:0:0:94:Kick2Bass.wav
475,192,301718,1,0,0:0:0:100:HiHat1.wav
182,192,301825,1,0,0:0:0:100:HiHat2.wav
109,192,301932,1,0,0:0:0:100:HiHat3.wav
329,192,301932,1,0,0:0:0:77:Snare1.wav
256,192,302039,1,0,0:0:0:100:HiHat4.wav
36,192,302146,5,0,0:0:0:94:Kick2Bass.wav
402,192,302146,1,0,0:0:0:74:Snare1.wav
182,192,302146,1,0,0:0:0:100:HiHat5.wav
329,192,302254,1,0,0:0:0:100:HiHat6.wav
256,192,302361,1,0,0:0:0:100:HiHat7.wav
475,192,302468,1,0,0:0:0:100:HiHat8.wav
109,192,302575,5,0,0:0:0:94:Kick2Bass.wav
402,192,302575,1,0,0:0:0:100:HiHat9.wav
329,192,302682,1,0,0:0:0:100:HiHat10.wav
182,192,302789,1,0,0:0:0:100:HiHat11.wav
475,192,302896,1,0,0:0:0:77:Snare1.wav
256,192,302896,1,0,0:0:0:100:HiHat12.wav
109,192,303004,5,0,0:0:0:94:Kick2Bass.wav
329,192,303004,1,0,0:0:0:74:Snare1.wav
402,192,303004,1,0,0:0:0:100:HiHat13.wav
182,192,303111,1,0,0:0:0:100:HiHat14.wav
256,192,303218,1,0,0:0:0:100:HiHat15.wav
36,192,303325,1,0,0:0:0:100:HiHat16.wav
109,192,303432,5,0,0:0:0:94:Kick2Bass.wav
402,192,303432,1,0,0:0:0:100:HiHat1.wav
182,192,303539,1,0,0:0:0:100:HiHat2.wav
329,192,303646,1,0,0:0:0:100:HiHat3.wav
256,192,303754,1,0,0:0:0:100:HiHat4.wav
36,192,303861,5,0,0:0:0:94:Kick2Bass.wav
475,192,303861,1,0,0:0:0:74:Snare1.wav
182,192,303861,1,0,0:0:0:100:HiHat5.wav
402,192,303968,1,0,0:0:0:100:HiHat6.wav
329,192,304075,1,0,0:0:0:100:HiHat7.wav
109,192,304182,1,0,0:0:0:100:HiHat8.wav
402,192,304289,5,0,0:0:0:94:Kick2Bass.wav
182,192,304289,1,0,0:0:0:100:HiHat9.wav
256,192,304396,1,0,0:0:0:100:HiHat10.wav
329,192,304504,1,0,0:0:0:100:HiHat11.wav
36,192,304504,1,0,0:0:0:74:Snare1.wav
109,192,304611,1,0,0:0:0:100:HiHat12.wav
475,192,304611,1,0,0:0:0:74:Snare1.wav
182,192,304718,5,0,0:0:0:94:Kick2Bass.wav
402,192,304718,1,0,0:0:0:100:HiHat13.wav
329,192,304825,1,0,0:0:0:100:HiHat14.wav
182,192,304932,1,0,0:0:0:100:HiHat15.wav
402,192,304932,1,0,0:0:0:74:Snare1.wav
109,192,305039,1,0,0:0:0:100:HiHat16.wav
475,192,305146,5,0,0:0:0:94:Kick2Bass.wav
36,192,305146,1,0,0:0:0:100:HiHat1.wav
329,192,305254,1,0,0:0:0:100:HiHat2.wav
402,192,305361,1,0,0:0:0:100:HiHat3.wav
182,192,305361,1,0,0:0:0:77:Snare1.wav
256,192,305468,1,0,0:0:0:100:HiHat4.wav
475,192,305575,5,0,0:0:0:94:Kick2Bass.wav
109,192,305575,1,0,0:0:0:74:Snare1.wav
329,192,305575,1,0,0:0:0:100:HiHat5.wav
182,192,305682,1,0,0:0:0:100:HiHat6.wav
256,192,305789,1,0,0:0:0:100:HiHat7.wav
36,192,305896,1,0,0:0:0:100:HiHat8.wav
402,192,306004,5,0,0:0:0:94:Kick2Bass.wav
109,192,306004,1,0,0:0:0:100:HiHat9.wav
182,192,306111,1,0,0:0:0:100:HiHat10.wav
329,192,306218,1,0,0:0:0:100:HiHat11.wav
36,192,306325,1,0,0:0:0:77:Snare1.wav
256,192,306325,1,0,0:0:0:100:HiHat12.wav
402,192,306432,5,0,0:0:0:94:Kick2Bass.wav
182,192,306432,1,0,0:0:0:74:Snare1.wav
109,192,306432,1,0,0:0:0:100:HiHat13.wav
329,192,306539,1,0,0:0:0:100:HiHat14.wav
256,192,306646,1,0,0:0:0:100:HiHat15.wav
475,192,306754,1,0,0:0:0:100:HiHat16.wav
402,192,306861,5,0,0:0:0:94:Kick2Bass.wav
109,192,306861,1,0,0:0:0:100:HiHat1.wav
329,192,306968,1,0,0:0:0:100:HiHat2.wav
182,192,307075,1,0,0:0:0:100:HiHat3.wav
256,192,307182,1,0,0:0:0:100:HiHat4.wav
475,192,307289,5,0,0:0:0:94:Kick2Bass.wav
36,192,307289,1,0,0:0:0:74:Snare1.wav
329,192,307289,1,0,0:0:0:100:HiHat5.wav
109,192,307396,1,0,0:0:0:100:HiHat6.wav
182,192,307504,1,0,0:0:0:100:HiHat7.wav
402,192,307611,1,0,0:0:0:100:HiHat8.wav
109,192,307718,5,0,0:0:0:94:Kick2Bass.wav
329,192,307718,1,0,0:0:0:100:HiHat9.wav
256,192,307825,1,0,0:0:0:100:HiHat10.wav
182,192,307932,1,0,0:0:0:100:HiHat11.wav
475,192,307932,1,0,0:0:0:74:Snare1.wav
402,192,308039,1,0,0:0:0:100:HiHat12.wav
36,192,308039,1,0,0:0:0:74:Snare1.wav
329,192,308146,5,0,0:0:0:94:Kick2Bass.wav
109,192,308146,1,0,0:0:0:100:HiHat13.wav
182,192,308254,1,0,0:0:0:100:HiHat14.wav
329,192,308361,1,0,0:0:0:100:HiHat15.wav
109,192,308361,1,0,0:0:0:74:Snare1.wav
402,192,308468,1,0,0:0:0:100:HiHat16.wav
36,192,308575,5,0,0:0:0:94:Kick2Bass.wav
475,192,308575,1,0,0:0:0:100:HiHat1.wav
182,192,308682,1,0,0:0:0:100:HiHat2.wav
329,192,308789,1,0,0:0:0:77:Snare1.wav
109,192,308789,1,0,0:0:0:100:HiHat3.wav
256,192,308896,1,0,0:0:0:100:HiHat4.wav
36,192,309004,5,0,0:0:0:94:Kick2Bass.wav
182,192,309004,1,0,0:0:0:100:HiHat5.wav
402,192,309004,1,0,0:0:0:74:Snare1.wav
329,192,309111,1,0,0:0:0:100:HiHat6.wav
256,192,309218,1,0,0:0:0:100:HiHat7.wav
475,192,309325,1,0,0:0:0:100:HiHat8.wav
109,192,309432,5,0,0:0:0:94:Kick2Bass.wav
402,192,309432,1,0,0:0:0:100:HiHat9.wav
329,192,309539,1,0,0:0:0:100:HiHat10.wav
182,192,309646,1,0,0:0:0:100:HiHat11.wav
256,192,309754,1,0,0:0:0:100:HiHat12.wav
475,192,309754,1,0,0:0:0:77:Snare1.wav
109,192,309861,5,0,0:0:0:94:Kick2Bass.wav
402,192,309861,1,0,0:0:0:100:HiHat13.wav
329,192,309861,1,0,0:0:0:74:Snare1.wav
182,192,309968,1,0,0:0:0:100:HiHat14.wav
256,192,310075,1,0,0:0:0:100:HiHat15.wav
36,192,310182,1,0,0:0:0:100:HiHat16.wav
109,192,310289,5,0,0:0:0:94:Kick2Bass.wav
402,192,310289,1,0,0:0:0:100:HiHat1.wav
182,192,310396,1,0,0:0:0:100:HiHat2.wav
329,192,310504,1,0,0:0:0:100:HiHat3.wav
256,192,310611,1,0,0:0:0:100:HiHat4.wav
36,192,310718,5,0,0:0:0:94:Kick2Bass.wav
182,192,310718,1,0,0:0:0:100:HiHat5.wav
475,192,310718,1,0,0:0:0:74:Snare1.wav
402,192,310825,1,0,0:0:0:100:HiHat6.wav
329,192,310932,1,0,0:0:0:100:HiHat7.wav
109,192,311039,1,0,0:0:0:100:HiHat8.wav
402,192,311146,5,0,0:0:0:94:Kick2Bass.wav
182,192,311146,1,0,0:0:0:100:HiHat9.wav
256,192,311254,1,0,0:0:0:100:HiHat10.wav
36,192,311361,1,0,0:0:0:74:Snare1.wav
329,192,311361,1,0,0:0:0:100:HiHat11.wav
475,192,311468,1,0,0:0:0:74:Snare1.wav
109,192,311468,1,0,0:0:0:100:HiHat12.wav
182,192,311575,5,0,0:0:0:94:Kick2Bass.wav
402,192,311575,1,0,0:0:0:100:HiHat13.wav
329,192,311682,1,0,0:0:0:100:HiHat14.wav
402,192,311789,1,0,0:0:0:74:Snare1.wav
182,192,311789,1,0,0:0:0:100:HiHat15.wav
109,192,311896,1,0,0:0:0:100:HiHat16.wav
475,192,312004,5,0,0:0:0:94:Kick2Bass.wav
36,192,312004,1,0,0:0:0:100:HiHat1.wav
329,192,312111,1,0,0:0:0:100:HiHat2.wav
402,192,312218,1,0,0:0:0:100:HiHat3.wav
182,192,312218,1,0,0:0:0:77:Snare1.wav
256,192,312325,1,0,0:0:0:100:HiHat4.wav
475,192,312432,5,0,0:0:0:94:Kick2Bass.wav
109,192,312432,1,0,0:0:0:74:Snare1.wav
329,192,312432,1,0,0:0:0:100:HiHat5.wav
182,192,312539,1,0,0:0:0:100:HiHat6.wav
256,192,312646,1,0,0:0:0:100:HiHat7.wav
36,192,312754,1,0,0:0:0:100:HiHat8.wav
402,192,312861,5,0,0:0:0:94:Kick2Bass.wav
109,192,312861,1,0,0:0:0:100:HiHat9.wav
182,192,312968,1,0,0:0:0:100:HiHat10.wav
329,192,313075,1,0,0:0:0:100:HiHat11.wav
36,192,313182,1,0,0:0:0:77:Snare1.wav
256,192,313182,1,0,0:0:0:100:HiHat12.wav
402,192,313289,5,0,0:0:0:94:Kick2Bass.wav
182,192,313289,1,0,0:0:0:74:Snare1.wav
109,192,313289,1,0,0:0:0:100:HiHat13.wav
329,192,313396,1,0,0:0:0:100:HiHat14.wav
256,192,313504,1,0,0:0:0:100:HiHat15.wav
475,192,313611,1,0,0:0:0:100:HiHat16.wav
402,192,313718,5,0,0:0:0:94:Kick2Bass.wav
109,192,313718,1,0,0:0:0:100:HiHat1.wav
329,192,313825,1,0,0:0:0:100:HiHat2.wav
182,192,313932,1,0,0:0:0:100:HiHat3.wav
256,192,314039,1,0,0:0:0:100:HiHat4.wav
475,192,314146,5,0,0:0:0:94:Kick2Bass.wav
36,192,314146,1,0,0:0:0:74:Snare1.wav
329,192,314146,1,0,0:0:0:100:HiHat5.wav
109,192,314254,1,0,0:0:0:100:HiHat6.wav
182,192,314361,1,0,0:0:0:100:HiHat7.wav
402,192,314468,1,0,0:0:0:100:HiHat8.wav
109,192,314575,5,0,0:0:0:94:Kick2Bass.wav
329,192,314575,1,0,0:0:0:100:HiHat9.wav
256,192,314682,1,0,0:0:0:100:HiHat10.wav
182,192,314789,1,0,0:0:0:100:HiHat11.wav
475,192,314789,1,0,0:0:0:74:Snare1.wav
402,192,314896,1,0,0:0:0:100:HiHat12.wav
36,192,314896,1,0,0:0:0:74:Snare1.wav
329,192,315004,5,0,0:0:0:94:Kick2Bass.wav
109,192,315004,1,0,0:0:0:100:HiHat13.wav
182,192,315111,1,0,0:0:0:100:HiHat14.wav
329,192,315218,1,0,0:0:0:100:HiHat15.wav
109,192,315218,1,0,0:0:0:74:Snare1.wav
402,192,315325,1,0,0:0:0:100:HiHat16.wav
36,192,315432,5,0,0:0:0:94:Kick2Bass.wav
475,192,315432,1,0,0:0:0:100:HiHat1.wav
182,192,315539,1,0,0:0:0:100:HiHat2.wav
329,192,315646,1,0,0:0:0:77:Snare1.wav
109,192,315646,1,0,0:0:0:100:HiHat3.wav
256,192,315754,1,0,0:0:0:100:HiHat4.wav
36,192,315861,5,0,0:0:0:94:Kick2Bass.wav
182,192,315861,1,0,0:0:0:100:HiHat5.wav
402,192,315861,1,0,0:0:0:74:Snare1.wav
329,192,315968,1,0,0:0:0:100:HiHat6.wav
256,192,316075,1,0,0:0:0:100:HiHat7.wav
475,192,316182,1,0,0:0:0:100:HiHat8.wav
109,192,316289,5,0,0:0:0:94:Kick2Bass.wav
402,192,316289,1,0,0:0:0:100:HiHat9.wav
329,192,316396,1,0,0:0:0:100:HiHat10.wav
182,192,316504,1,0,0:0:0:100:HiHat11.wav
256,192,316611,1,0,0:0:0:100:HiHat12.wav
475,192,316611,1,0,0:0:0:77:Snare1.wav
109,192,316718,5,0,0:0:0:94:Kick2Bass.wav
402,192,316718,1,0,0:0:0:100:HiHat13.wav
329,192,316718,1,0,0:0:0:74:Snare1.wav
182,192,316825,1,0,0:0:0:100:HiHat14.wav
256,192,316932,1,0,0:0:0:100:HiHat15.wav
36,192,317039,1,0,0:0:0:100:HiHat16.wav
109,192,317146,5,0,0:0:0:94:Kick2Bass.wav
402,192,317146,1,0,0:0:0:100:HiHat1.wav
182,192,317254,1,0,0:0:0:100:HiHat2.wav
329,192,317361,1,0,0:0:0:100:HiHat3.wav
256,192,317468,1,0,0:0:0:100:HiHat4.wav
36,192,317575,5,0,0:0:0:94:Kick2Bass.wav
182,192,317575,1,0,0:0:0:100:HiHat5.wav
475,192,317575,1,0,0:0:0:74:Snare1.wav
402,192,317682,1,0,0:0:0:100:HiHat6.wav
329,192,317789,1,0,0:0:0:100:HiHat7.wav
109,192,317896,1,0,0:0:0:100:HiHat8.wav
402,192,318004,5,0,0:0:0:94:Kick2Bass.wav
182,192,318004,1,0,0:0:0:100:HiHat9.wav
256,192,318111,1,0,0:0:0:100:HiHat10.wav
36,192,318218,1,0,0:0:0:74:Snare1.wav
329,192,318218,1,0,0:0:0:100:HiHat11.wav
475,192,318325,1,0,0:0:0:74:Snare1.wav
109,192,318325,1,0,0:0:0:100:HiHat12.wav
182,192,318432,5,0,0:0:0:94:Kick2Bass.wav
402,192,318432,1,0,0:0:0:100:HiHat13.wav
329,192,318539,1,0,0:0:0:100:HiHat14.wav
402,192,318646,1,0,0:0:0:74:Snare1.wav
182,192,318646,1,0,0:0:0:100:HiHat15.wav
109,192,318754,1,0,0:0:0:100:HiHat16.wav
475,192,318861,5,0,0:0:0:94:Kick2Bass.wav
36,192,318861,1,0,0:0:0:100:HiHat1.wav
329,192,318968,1,0,0:0:0:100:HiHat2.wav
182,192,319075,1,0,0:0:0:77:Snare1.wav
402,192,319075,1,0,0:0:0:100:HiHat3.wav
256,192,319182,1,0,0:0:0:100:HiHat4.wav
475,192,319289,5,0,0:0:0:94:Kick2Bass.wav
329,192,319289,1,0,0:0:0:100:HiHat5.wav
109,192,319289,1,0,0:0:0:74:Snare1.wav
182,192,319396,1,0,0:0:0:100:HiHat6.wav
256,192,319504,1,0,0:0:0:100:HiHat7.wav
36,192,319611,1,0,0:0:0:100:HiHat8.wav
402,192,319718,5,0,0:0:0:94:Kick2Bass.wav
109,192,319718,1,0,0:0:0:100:HiHat9.wav
182,192,319825,1,0,0:0:0:100:HiHat10.wav
329,192,319932,1,0,0:0:0:100:HiHat11.wav
256,192,320039,1,0,0:0:0:100:HiHat12.wav
36,192,320039,1,0,0:0:0:77:Snare1.wav
402,192,320146,5,0,0:0:0:94:Kick2Bass.wav
109,192,320146,1,0,0:0:0:100:HiHat13.wav
182,192,320146,1,0,0:0:0:74:Snare1.wav
329,192,320254,1,0,0:0:0:100:HiHat14.wav
256,192,320361,1,0,0:0:0:100:HiHat15.wav
475,192,320468,1,0,0:0:0:100:HiHat16.wav
402,192,320575,5,0,0:0:0:94:Kick2Bass.wav
109,192,320575,1,0,0:0:0:100:HiHat1.wav
329,192,320682,1,0,0:0:0:100:HiHat2.wav
182,192,320789,1,0,0:0:0:100:HiHat3.wav
256,192,320896,1,0,0:0:0:100:HiHat4.wav
475,192,321004,5,0,0:0:0:94:Kick2Bass.wav
329,192,321004,1,0,0:0:0:100:HiHat5.wav
36,192,321004,1,0,0:0:0:74:Snare1.wav
109,192,321111,1,0,0:0:0:100:HiHat6.wav
182,192,321218,1,0,0:0:0:100:HiHat7.wav
402,192,321325,1,0,0:0:0:100:HiHat8.wav
109,192,321432,5,0,0:0:0:94:Kick2Bass.wav
329,192,321432,1,0,0:0:0:100:HiHat9.wav
256,192,321539,1,0,0:0:0:100:HiHat10.wav
475,192,321646,1,0,0:0:0:74:Snare1.wav
182,192,321646,1,0,0:0:0:100:HiHat11.wav
36,192,321754,1,0,0:0:0:74:Snare1.wav
402,192,321754,1,0,0:0:0:100:HiHat12.wav
329,192,321861,5,0,0:0:0:94:Kick2Bass.wav
109,192,321861,1,0,0:0:0:100:HiHat13.wav
182,192,321968,1,0,0:0:0:100:HiHat14.wav
109,192,322075,1,0,0:0:0:74:Snare1.wav
329,192,322075,1,0,0:0:0:100:HiHat15.wav
402,192,322182,1,0,0:0:0:100:HiHat16.wav
36,192,322289,5,0,0:0:0:94:Kick2Bass.wav
475,192,322289,1,0,0:0:0:100:HiHat1.wav
182,192,322396,1,0,0:0:0:100:HiHat2.wav
109,192,322504,1,0,0:0:0:100:HiHat3.wav
329,192,322504,1,0,0:0:0:77:Snare1.wav
256,192,322611,1,0,0:0:0:100:HiHat4.wav
36,192,322718,5,0,0:0:0:94:Kick2Bass.wav
402,192,322718,1,0,0:0:0:74:Snare1.wav
182,192,322718,1,0,0:0:0:100:HiHat5.wav
329,192,322825,1,0,0:0:0:100:HiHat6.wav
256,192,322932,1,0,0:0:0:100:HiHat7.wav
475,192,323039,1,0,0:0:0:100:HiHat8.wav
109,192,323146,5,0,0:0:0:94:Kick2Bass.wav
402,192,323146,1,0,0:0:0:100:HiHat9.wav
329,192,323254,1,0,0:0:0:100:HiHat10.wav
182,192,323361,1,0,0:0:0:100:HiHat11.wav
475,192,323468,1,0,0:0:0:77:Snare1.wav
256,192,323468,1,0,0:0:0:100:HiHat12.wav
109,192,323575,5,0,0:0:0:94:Kick2Bass.wav
329,192,323575,1,0,0:0:0:74:Snare1.wav
402,192,323575,1,0,0:0:0:100:HiHat13.wav
182,192,323682,1,0,0:0:0:100:HiHat14.wav
256,192,323789,1,0,0:0:0:100:HiHat15.wav
36,192,323896,1,0,0:0:0:100:HiHat16.wav
109,192,324004,5,0,0:0:0:94:Kick2Bass.wav
402,192,324004,1,0,0:0:0:100:HiHat1.wav
182,192,324111,1,0,0:0:0:100:HiHat2.wav
329,192,324218,1,0,0:0:0:100:HiHat3.wav
256,192,324325,1,0,0:0:0:100:HiHat4.wav
36,192,324432,5,0,0:0:0:94:Kick2Bass.wav
475,192,324432,1,0,0:0:0:74:Snare1.wav
182,192,324432,1,0,0:0:0:100:HiHat5.wav
402,192,324539,1,0,0:0:0:100:HiHat6.wav
329,192,324646,1,0,0:0:0:100:HiHat7.wav
109,192,324754,1,0,0:0:0:100:HiHat8.wav
402,192,324861,5,0,0:0:0:94:Kick2Bass.wav
182,192,324861,1,0,0:0:0:100:HiHat9.wav
256,192,324968,1,0,0:0:0:100:HiHat10.wav
329,192,325075,1,0,0:0:0:100:HiHat11.wav
36,192,325075,1,0,0:0:0:74:Snare1.wav
109,192,325182,1,0,0:0:0:100:HiHat12.wav
475,192,325182,1,0,0:0:0:74:Snare1.wav
182,192,325289,5,0,0:0:0:94:Kick2Bass.wav
402,192,325289,1,0,0:0:0:100:HiHat13.wav
329,192,325396,1,0,0:0:0:100:HiHat14.wav
182,192,325504,1,0,0:0:0:100:HiHat15.wav
402,192,325504,1,0,0:0:0:74:Snare1.wav
109,192,325611,1,0,0:0:0:100:HiHat16.wav
475,192,325718,1,0,0:0:0:100:HiHat1.wav
256,192,325825,1,0,0:0:0:100:HiHat2.wav
36,192,325932,1,0,0:0:0:100:HiHat3.wav
329,192,325932,1,0,0:0:0:77:Snare1.wav
182,192,326039,1,0,0:0:0:100:HiHat4.wav
402,192,326146,1,0,0:0:0:74:Snare1.wav
109,192,326146,1,0,0:0:0:100:HiHat5.wav
256,192,326254,1,0,0:0:0:100:HiHat6.wav
182,192,326361,1,0,0:0:0:100:HiHat7.wav
329,192,326468,1,0,0:0:0:100:HiHat8.wav
475,192,326575,1,0,0:0:0:100:HiHat9.wav
256,192,326682,1,0,0:0:0:100:HiHat10.wav
402,192,326789,1,0,0:0:0:100:HiHat11.wav
329,192,326896,1,0,0:0:0:77:Snare1.wav
182,192,326896,1,0,0:0:0:100:HiHat12.wav
109,192,327004,1,0,0:0:0:74:Snare1.wav
475,192,327004,1,0,0:0:0:100:HiHat13.wav
256,192,327111,1,0,0:0:0:100:HiHat14.wav
402,192,327218,1,0,0:0:0:100:HiHat15.wav
182,192,327325,1,0,0:0:0:100:HiHat16.wav
329,192,327432,1,0,0:0:0:100:HiHat1.wav
109,192,327539,1,0,0:0:0:100:HiHat2.wav
256,192,327646,1,0,0:0:0:100:HiHat3.wav
36,192,327754,1,0,0:0:0:100:HiHat4.wav
329,192,327861,1,0,0:0:0:74:Snare1.wav
182,192,327861,1,0,0:0:0:100:HiHat5.wav
402,192,327968,5,0,0:0:0:100:HiHat6.wav
475,192,328075,1,0,0:0:0:100:HiHat7.wav
256,192,328182,1,0,0:0:0:100:HiHat8.wav
109,192,328289,1,0,0:0:0:100:HiHat9.wav
329,192,328396,1,0,0:0:0:100:HiHat10.wav
402,192,328504,1,0,0:0:0:100:HiHat11.wav
182,192,328504,1,0,0:0:0:74:Snare1.wav
36,192,328611,1,0,0:0:0:100:HiHat12.wav
475,192,328611,1,0,0:0:0:74:Snare1.wav
109,192,328718,1,0,0:0:0:100:HiHat13.wav
256,192,328718,1,0,0:0:0:77:Snare1.wav
329,192,328771,1,0,0:0:0:77:Snare1.wav
182,192,328825,1,0,0:0:0:100:HiHat14.wav
402,192,328825,1,0,0:0:0:77:Snare1.wav
475,192,328879,1,0,0:0:0:77:Snare1.wav
109,192,328932,1,0,0:0:0:100:HiHat15.wav
256,192,328932,1,0,0:0:0:74:Snare1.wav
36,192,328932,1,0,0:0:0:77:Snare1.wav
329,192,328986,1,0,0:0:0:77:Snare1.wav
182,192,329039,1,0,0:0:0:100:HiHat16.wav
402,192,329039,1,0,0:0:0:77:Snare1.wav
475,192,329093,1,0,0:0:0:77:Snare1.wav
256,192,329146,5,0,0:0:0:92:Kick3Drop.wav
36,192,342432,5,0,0:0:0:94:Kick2Bass.wav
36,192,342539,5,0,0:0:0:94:Kick2Bass.wav
36,192,342646,5,0,0:0:0:94:Kick2Bass.wav
36,192,342754,5,0,0:0:0:94:Kick2Bass.wav
36,192,342861,5,0,0:0:0:94:Kick2Bass.wav
329,192,342861,1,0,0:0:0:100:HiHat1.wav
182,192,342968,1,0,0:0:0:100:HiHat2.wav
402,192,343075,1,0,0:0:0:100:HiHat3.wav
256,192,343182,1,0,0:0:0:100:HiHat4.wav
36,192,343289,5,0,0:0:0:94:Kick2Bass.wav
475,192,343289,1,0,0:0:0:74:Snare1.wav
109,192,343289,1,0,0:0:0:100:HiHat5.wav
329,192,343396,1,0,0:0:0:100:HiHat6.wav
402,192,343504,1,0,0:0:0:100:HiHat7.wav
256,192,343611,1,0,0:0:0:100:HiHat8.wav
36,192,343718,5,0,0:0:0:94:Kick2Bass.wav
475,192,343718,1,0,0:0:0:100:HiHat9.wav
182,192,343825,1,0,0:0:0:100:HiHat10.wav
402,192,343932,1,0,0:0:0:100:HiHat11.wav
109,192,344039,1,0,0:0:0:100:HiHat12.wav
36,192,344146,5,0,0:0:0:94:Kick2Bass.wav
475,192,344146,1,0,0:0:0:74:Snare1.wav
329,192,344146,1,0,0:0:0:100:HiHat13.wav
256,192,344254,1,0,0:0:0:100:HiHat14.wav
402,192,344361,1,0,0:0:0:100:HiHat15.wav
109,192,344468,1,0,0:0:0:100:HiHat16.wav
475,192,344575,5,0,0:0:0:94:Kick2Bass.wav
182,192,344575,1,0,0:0:0:100:HiHat1.wav
329,192,344682,1,0,0:0:0:100:HiHat2.wav
109,192,344789,1,0,0:0:0:100:HiHat3.wav
256,192,344896,1,0,0:0:0:100:HiHat4.wav
475,192,345004,5,0,0:0:0:94:Kick2Bass.wav
36,192,345004,1,0,0:0:0:74:Snare1.wav
402,192,345004,1,0,0:0:0:100:HiHat5.wav
182,192,345111,1,0,0:0:0:100:HiHat6.wav
109,192,345218,1,0,0:0:0:100:HiHat7.wav
256,192,345325,1,0,0:0:0:100:HiHat8.wav
475,192,345432,5,0,0:0:0:94:Kick2Bass.wav
36,192,345432,1,0,0:0:0:100:HiHat9.wav
329,192,345539,1,0,0:0:0:100:HiHat10.wav
109,192,345646,1,0,0:0:0:100:HiHat11.wav
402,192,345754,1,0,0:0:0:100:HiHat12.wav
475,192,345861,5,0,0:0:0:94:Kick2Bass.wav
36,192,345861,1,0,0:0:0:74:Snare1.wav
182,192,345861,1,0,0:0:0:100:HiHat13.wav
256,192,345968,1,0,0:0:0:100:HiHat14.wav
109,192,346075,1,0,0:0:0:100:HiHat15.wav
402,192,346182,1,0,0:0:0:100:HiHat16.wav
36,192,346289,5,0,0:0:0:94:Kick2Bass.wav
329,192,346289,1,0,0:0:0:100:HiHat1.wav
182,192,346396,1,0,0:0:0:100:HiHat2.wav
402,192,346504,1,0,0:0:0:100:HiHat3.wav
256,192,346611,1,0,0:0:0:100:HiHat4.wav
36,192,346718,5,0,0:0:0:94:Kick2Bass.wav
475,192,346718,1,0,0:0:0:74:Snare1.wav
109,192,346718,1,0,0:0:0:100:HiHat5.wav
329,192,346825,1,0,0:0:0:100:HiHat6.wav
402,192,346932,1,0,0:0:0:100:HiHat7.wav
256,192,347039,1,0,0:0:0:100:HiHat8.wav
36,192,347146,5,0,0:0:0:94:Kick2Bass.wav
475,192,347146,1,0,0:0:0:100:HiHat9.wav
182,192,347254,1,0,0:0:0:100:HiHat10.wav
402,192,347361,1,0,0:0:0:100:HiHat11.wav
109,192,347468,1,0,0:0:0:100:HiHat12.wav
36,192,347575,5,0,0:0:0:94:Kick2Bass.wav
475,192,347575,1,0,0:0:0:74:Snare1.wav
329,192,347575,1,0,0:0:0:100:HiHat13.wav
256,192,347682,1,0,0:0:0:100:HiHat14.wav
402,192,347789,1,0,0:0:0:100:HiHat15.wav
109,192,347896,1,0,0:0:0:100:HiHat16.wav
475,192,348004,5,0,0:0:0:94:Kick2Bass.wav
182,192,348004,1,0,0:0:0:100:HiHat1.wav
329,192,348111,1,0,0:0:0:100:HiHat2.wav
109,192,348218,1,0,0:0:0:100:HiHat3.wav
256,192,348325,1,0,0:0:0:100:HiHat4.wav
475,192,348432,5,0,0:0:0:94:Kick2Bass.wav
36,192,348432,1,0,0:0:0:74:Snare1.wav
402,192,348432,1,0,0:0:0:100:HiHat5.wav
182,192,348539,1,0,0:0:0:100:HiHat6.wav
109,192,348646,1,0,0:0:0:100:HiHat7.wav
256,192,348754,1,0,0:0:0:100:HiHat8.wav
475,192,348861,5,0,0:0:0:94:Kick2Bass.wav
36,192,348861,1,0,0:0:0:100:HiHat9.wav
329,192,348968,1,0,0:0:0:100:HiHat10.wav
109,192,349075,1,0,0:0:0:100:HiHat11.wav
402,192,349182,1,0,0:0:0:100:HiHat12.wav
475,192,349289,5,0,0:0:0:94:Kick2Bass.wav
36,192,349289,1,0,0:0:0:74:Snare1.wav
182,192,349289,1,0,0:0:0:100:HiHat13.wav
256,192,349396,1,0,0:0:0:100:HiHat14.wav
109,192,349504,1,0,0:0:0:100:HiHat15.wav
402,192,349611,1,0,0:0:0:100:HiHat16.wav
36,192,349718,5,0,0:0:0:94:Kick2Bass.wav
329,192,349718,1,0,0:0:0:100:HiHat1.wav
182,192,349825,1,0,0:0:0:100:HiHat2.wav
402,192,349932,1,0,0:0:0:100:HiHat3.wav
256,192,350039,1,0,0:0:0:100:HiHat4.wav
36,192,350146,5,0,0:0:0:94:Kick2Bass.wav
109,192,350146,1,0,0:0:0:100:HiHat5.wav
475,192,350146,1,0,0:0:0:74:Snare1.wav
329,192,350254,1,0,0:0:0:100:HiHat6.wav
402,192,350361,1,0,0:0:0:100:HiHat7.wav
256,192,350468,1,0,0:0:0:100:HiHat8.wav
36,192,350575,5,0,0:0:0:94:Kick2Bass.wav
475,192,350575,1,0,0:0:0:100:HiHat9.wav
182,192,350682,1,0,0:0:0:100:HiHat10.wav
402,192,350789,1,0,0:0:0:100:HiHat11.wav
109,192,350896,1,0,0:0:0:100:HiHat12.wav
36,192,351004,5,0,0:0:0:94:Kick2Bass.wav
329,192,351004,1,0,0:0:0:100:HiHat13.wav
475,192,351004,1,0,0:0:0:74:Snare1.wav
256,192,351111,1,0,0:0:0:100:HiHat14.wav
402,192,351218,1,0,0:0:0:100:HiHat15.wav
109,192,351325,1,0,0:0:0:100:HiHat16.wav
475,192,351432,5,0,0:0:0:94:Kick2Bass.wav
182,192,351432,1,0,0:0:0:100:HiHat1.wav
329,192,351539,1,0,0:0:0:100:HiHat2.wav
109,192,351646,1,0,0:0:0:100:HiHat3.wav
256,192,351754,1,0,0:0:0:100:HiHat4.wav
475,192,351861,5,0,0:0:0:94:Kick2Bass.wav
402,192,351861,1,0,0:0:0:100:HiHat5.wav
36,192,351861,1,0,0:0:0:74:Snare1.wav
182,192,351968,1,0,0:0:0:100:HiHat6.wav
109,192,352075,1,0,0:0:0:100:HiHat7.wav
256,192,352182,1,0,0:0:0:100:HiHat8.wav
475,192,352289,5,0,0:0:0:94:Kick2Bass.wav
36,192,352289,1,0,0:0:0:100:HiHat9.wav
329,192,352396,1,0,0:0:0:100:HiHat10.wav
109,192,352504,1,0,0:0:0:100:HiHat11.wav
402,192,352611,1,0,0:0:0:100:HiHat12.wav
475,192,352718,5,0,0:0:0:94:Kick2Bass.wav
182,192,352718,1,0,0:0:0:100:HiHat13.wav
36,192,352718,1,0,0:0:0:74:Snare1.wav
256,192,352825,1,0,0:0:0:100:HiHat14.wav
109,192,352932,1,0,0:0:0:100:HiHat15.wav
402,192,353039,1,0,0:0:0:100:HiHat16.wav
36,192,353146,5,0,0:0:0:94:Kick2Bass.wav
329,192,353146,1,0,0:0:0:100:HiHat1.wav
182,192,353254,1,0,0:0:0:100:HiHat2.wav
402,192,353361,1,0,0:0:0:100:HiHat3.wav
256,192,353468,1,0,0:0:0:100:HiHat4.wav
36,192,353575,5,0,0:0:0:94:Kick2Bass.wav
475,192,353575,1,0,0:0:0:74:Snare1.wav
109,192,353575,1,0,0:0:0:100:HiHat5.wav
329,192,353682,1,0,0:0:0:100:HiHat6.wav
402,192,353789,1,0,0:0:0:100:HiHat7.wav
256,192,353896,1,0,0:0:0:100:HiHat8.wav
36,192,354004,5,0,0:0:0:94:Kick2Bass.wav
475,192,354004,1,0,0:0:0:100:HiHat9.wav
182,192,354111,1,0,0:0:0:100:HiHat10.wav
402,192,354218,1,0,0:0:0:100:HiHat11.wav
109,192,354325,1,0,0:0:0:100:HiHat12.wav
36,192,354432,5,0,0:0:0:94:Kick2Bass.wav
475,192,354432,1,0,0:0:0:74:Snare1.wav
329,192,354432,1,0,0:0:0:100:HiHat13.wav
256,192,354539,1,0,0:0:0:100:HiHat14.wav
402,192,354646,1,0,0:0:0:100:HiHat15.wav
109,192,354754,1,0,0:0:0:100:HiHat16.wav
475,192,354861,5,0,0:0:0:94:Kick2Bass.wav
182,192,354861,1,0,0:0:0:100:HiHat1.wav
329,192,354968,1,0,0:0:0:100:HiHat2.wav
109,192,355075,1,0,0:0:0:100:HiHat3.wav
256,192,355182,1,0,0:0:0:100:HiHat4.wav
475,192,355289,5,0,0:0:0:94:Kick2Bass.wav
36,192,355289,1,0,0:0:0:74:Snare1.wav
402,192,355289,1,0,0:0:0:100:HiHat5.wav
182,192,355396,5,0,0:0:0:100:HiHat6.wav
329,192,355504,1,0,0:0:0:100:HiHat7.wav
109,192,355611,1,0,0:0:0:100:HiHat8.wav
475,192,355718,5,0,0:0:0:94:Kick2Bass.wav
256,192,355718,1,0,0:0:0:100:HiHat9.wav
36,192,355825,1,0,0:0:0:100:HiHat10.wav
182,192,355932,1,0,0:0:0:100:HiHat11.wav
329,192,356039,1,0,0:0:0:100:HiHat12.wav
475,192,356146,5,0,0:0:0:94:Kick2Bass.wav
256,192,356146,1,0,0:0:0:74:Snare1.wav
109,192,356146,1,0,0:0:0:100:HiHat13.wav
402,192,356254,1,0,0:0:0:100:HiHat14.wav
182,192,356361,1,0,0:0:0:100:HiHat15.wav
329,192,356468,1,0,0:0:0:100:HiHat16.wav
36,192,356575,5,0,0:0:0:94:Kick2Bass.wav
109,192,356575,1,0,0:0:0:100:HiHat1.wav
182,192,356682,1,0,0:0:0:100:HiHat2.wav
256,192,356789,1,0,0:0:0:100:HiHat3.wav
329,192,356896,1,0,0:0:0:100:HiHat4.wav
36,192,357004,5,0,0:0:0:94:Kick2Bass.wav
402,192,357004,1,0,0:0:0:100:HiHat5.wav
475,192,357004,1,0,0:0:0:74:Snare1.wav
182,192,357111,1,0,0:0:0:100:HiHat6.wav
329,192,357218,1,0,0:0:0:100:HiHat7.wav
475,192,357325,1,0,0:0:0:100:HiHat8.wav
36,192,357432,5,0,0:0:0:94:Kick2Bass.wav
109,192,357432,1,0,0:0:0:100:HiHat9.wav
182,192,357539,1,0,0:0:0:100:HiHat10.wav
256,192,357646,1,0,0:0:0:100:HiHat11.wav
329,192,357754,1,0,0:0:0:100:HiHat12.wav
36,192,357861,5,0,0:0:0:94:Kick2Bass.wav
402,192,357861,1,0,0:0:0:100:HiHat13.wav
475,192,357861,1,0,0:0:0:74:Snare1.wav
182,192,357968,1,0,0:0:0:100:HiHat14.wav
329,192,358075,1,0,0:0:0:100:HiHat15.wav
475,192,358182,1,0,0:0:0:100:HiHat16.wav
36,192,358289,5,0,0:0:0:94:Kick2Bass.wav
109,192,358289,1,0,0:0:0:100:HiHat1.wav
182,192,358396,1,0,0:0:0:100:HiHat2.wav
256,192,358504,1,0,0:0:0:100:HiHat3.wav
329,192,358611,1,0,0:0:0:100:HiHat4.wav
36,192,358718,5,0,0:0:0:94:Kick2Bass.wav
475,192,358718,1,0,0:0:0:74:Snare1.wav
402,192,358718,1,0,0:0:0:100:HiHat5.wav
182,192,358825,1,0,0:0:0:100:HiHat6.wav
329,192,358932,1,0,0:0:0:100:HiHat7.wav
475,192,359039,1,0,0:0:0:100:HiHat8.wav
36,192,359146,5,0,0:0:0:94:Kick2Bass.wav
109,192,359146,1,0,0:0:0:100:HiHat9.wav
182,192,359254,1,0,0:0:0:100:HiHat10.wav
256,192,359361,1,0,0:0:0:100:HiHat11.wav
329,192,359468,1,0,0:0:0:100:HiHat12.wav
36,192,359575,5,0,0:0:0:94:Kick2Bass.wav
475,192,359575,1,0,0:0:0:74:Snare1.wav
402,192,359575,1,0,0:0:0:100:HiHat13.wav
182,192,359682,1,0,0:0:0:100:HiHat14.wav
329,192,359789,1,0,0:0:0:100:HiHat15.wav
475,192,359896,1,0,0:0:0:100:HiHat16.wav
36,192,360004,5,0,0:0:0:94:Kick2Bass.wav
109,192,360004,1,0,0:0:0:100:HiHat1.wav
182,192,360111,1,0,0:0:0:100:HiHat2.wav
256,192,360218,1,0,0:0:0:100:HiHat3.wav
329,192,360325,1,0,0:0:0:100:HiHat4.wav
36,192,360432,5,0,0:0:0:94:Kick2Bass.wav
402,192,360432,1,0,0:0:0:100:HiHat5.wav
475,192,360432,1,0,0:0:0:74:Snare1.wav
182,192,360539,1,0,0:0:0:100:HiHat6.wav
329,192,360646,1,0,0:0:0:100:HiHat7.wav
475,192,360754,1,0,0:0:0:100:HiHat8.wav
36,192,360861,5,0,0:0:0:94:Kick2Bass.wav
109,192,360861,1,0,0:0:0:100:HiHat9.wav
182,192,360968,1,0,0:0:0:100:HiHat10.wav
256,192,361075,1,0,0:0:0:100:HiHat11.wav
329,192,361182,1,0,0:0:0:100:HiHat12.wav
36,192,361289,5,0,0:0:0:94:Kick2Bass.wav
402,192,361289,1,0,0:0:0:100:HiHat13.wav
475,192,361289,1,0,0:0:0:74:Snare1.wav
182,192,361396,1,0,0:0:0:100:HiHat14.wav
329,192,361504,1,0,0:0:0:100:HiHat15.wav
475,192,361611,1,0,0:0:0:100:HiHat16.wav
36,192,361718,5,0,0:0:0:94:Kick2Bass.wav
109,192,361718,1,0,0:0:0:100:HiHat1.wav
182,192,361825,1,0,0:0:0:100:HiHat2.wav
256,192,361932,1,0,0:0:0:100:HiHat3.wav
329,192,362039,1,0,0:0:0:100:HiHat4.wav
36,192,362146,5,0,0:0:0:94:Kick2Bass.wav
475,192,362146,1,0,0:0:0:74:Snare1.wav
402,192,362146,1,0,0:0:0:100:HiHat5.wav
182,192,362254,1,0,0:0:0:100:HiHat6.wav
329,192,362361,1,0,0:0:0:100:HiHat7.wav
475,192,362468,1,0,0:0:0:100:HiHat8.wav
36,192,362575,5,0,0:0:0:94:Kick2Bass.wav
109,192,362575,1,0,0:0:0:100:HiHat9.wav
182,192,362682,1,0,0:0:0:100:HiHat10.wav
256,192,362789,1,0,0:0:0:100:HiHat11.wav
329,192,362896,1,0,0:0:0:100:HiHat12.wav
36,192,363004,5,0,0:0:0:94:Kick2Bass.wav
475,192,363004,1,0,0:0:0:74:Snare1.wav
402,192,363004,1,0,0:0:0:100:HiHat13.wav
109,192,363111,1,0,0:0:0:100:HiHat14.wav
182,192,363218,1,0,0:0:0:100:HiHat15.wav
256,192,363325,1,0,0:0:0:100:HiHat16.wav
475,192,363432,5,0,0:0:0:94:Kick2Bass.wav
402,192,363432,1,0,0:0:0:100:HiHat1.wav
329,192,363539,1,0,0:0:0:100:HiHat2.wav
256,192,363646,1,0,0:0:0:100:HiHat3.wav
182,192,363754,1,0,0:0:0:100:HiHat4.wav
475,192,363861,5,0,0:0:0:94:Kick2Bass.wav
109,192,363861,1,0,0:0:0:100:HiHat5.wav
36,192,363861,1,0,0:0:0:74:Snare1.wav
329,192,363968,1,0,0:0:0:100:HiHat6.wav
182,192,364075,1,0,0:0:0:100:HiHat7.wav
36,192,364182,1,0,0:0:0:100:HiHat8.wav
475,192,364289,5,0,0:0:0:94:Kick2Bass.wav
402,192,364289,1,0,0:0:0:100:HiHat9.wav
329,192,364396,1,0,0:0:0:100:HiHat10.wav
256,192,364504,1,0,0:0:0:100:HiHat11.wav
182,192,364611,1,0,0:0:0:100:HiHat12.wav
475,192,364718,5,0,0:0:0:94:Kick2Bass.wav
109,192,364718,1,0,0:0:0:100:HiHat13.wav
36,192,364718,1,0,0:0:0:74:Snare1.wav
329,192,364825,1,0,0:0:0:100:HiHat14.wav
182,192,364932,1,0,0:0:0:100:HiHat15.wav
36,192,365039,1,0,0:0:0:100:HiHat16.wav
475,192,365146,5,0,0:0:0:94:Kick2Bass.wav
402,192,365146,1,0,0:0:0:100:HiHat1.wav
329,192,365254,1,0,0:0:0:100:HiHat2.wav
256,192,365361,1,0,0:0:0:100:HiHat3.wav
182,192,365468,1,0,0:0:0:100:HiHat4.wav
475,192,365575,5,0,0:0:0:94:Kick2Bass.wav
36,192,365575,1,0,0:0:0:74:Snare1.wav
109,192,365575,1,0,0:0:0:100:HiHat5.wav
329,192,365682,1,0,0:0:0:100:HiHat6.wav
182,192,365789,1,0,0:0:0:100:HiHat7.wav
36,192,365896,1,0,0:0:0:100:HiHat8.wav
475,192,366004,5,0,0:0:0:94:Kick2Bass.wav
402,192,366004,1,0,0:0:0:100:HiHat9.wav
329,192,366111,1,0,0:0:0:100:HiHat10.wav
256,192,366218,1,0,0:0:0:100:HiHat11.wav
182,192,366325,1,0,0:0:0:100:HiHat12.wav
475,192,366432,5,0,0:0:0:94:Kick2Bass.wav
36,192,366432,1,0,0:0:0:74:Snare1.wav
109,192,366432,1,0,0:0:0:100:HiHat13.wav
329,192,366539,1,0,0:0:0:100:HiHat14.wav
182,192,366646,1,0,0:0:0:100:HiHat15.wav
36,192,366754,1,0,0:0:0:100:HiHat16.wav
475,192,366861,5,0,0:0:0:94:Kick2Bass.wav
402,192,366861,1,0,0:0:0:100:HiHat1.wav
329,192,366968,1,0,0:0:0:100:HiHat2.wav
256,192,367075,1,0,0:0:0:100:HiHat3.wav
182,192,367182,1,0,0:0:0:100:HiHat4.wav
475,192,367289,5,0,0:0:0:94:Kick2Bass.wav
109,192,367289,1,0,0:0:0:100:HiHat5.wav
36,192,367289,1,0,0:0:0:74:Snare1.wav
329,192,367396,1,0,0:0:0:100:HiHat6.wav
182,192,367504,1,0,0:0:0:100:HiHat7.wav
36,192,367611,1,0,0:0:0:100:HiHat8.wav
475,192,367718,5,0,0:0:0:94:Kick2Bass.wav
402,192,367718,1,0,0:0:0:100:HiHat9.wav
329,192,367825,1,0,0:0:0:100:HiHat10.wav
256,192,367932,1,0,0:0:0:100:HiHat11.wav
182,192,368039,1,0,0:0:0:100:HiHat12.wav
475,192,368146,5,0,0:0:0:94:Kick2Bass.wav
109,192,368146,1,0,0:0:0:100:HiHat13.wav
36,192,368146,1,0,0:0:0:74:Snare1.wav
329,192,368254,1,0,0:0:0:100:HiHat14.wav
182,192,368361,1,0,0:0:0:100:HiHat15.wav
36,192,368468,1,0,0:0:0:100:HiHat16.wav
402,192,368575,1,0,0:0:0:100:HiHat1.wav
329,192,368682,1,0,0:0:0:100:HiHat2.wav
256,192,368789,1,0,0:0:0:100:HiHat3.wav
182,192,368896,1,0,0:0:0:100:HiHat4.wav
475,192,369004,1,0,0:0:0:74:Snare1.wav
109,192,369004,1,0,0:0:0:100:HiHat5.wav
256,192,369111,5,0,0:0:0:100:HiHat6.wav
402,192,369218,1,0,0:0:0:100:HiHat7.wav
329,192,369325,1,0,0:0:0:100:HiHat8.wav
109,192,369432,1,0,0:0:0:100:HiHat9.wav
182,192,369539,1,0,0:0:0:100:HiHat10.wav
256,192,369646,1,0,0:0:0:100:HiHat11.wav
329,192,369754,1,0,0:0:0:100:HiHat12.wav
36,192,369861,1,0,0:0:0:74:Snare1.wav
402,192,369861,1,0,0:0:0:100:HiHat13.wav
329,192,369968,1,0,0:0:0:100:HiHat14.wav
182,192,370075,1,0,0:0:0:100:HiHat15.wav
109,192,370182,1,0,0:0:0:100:HiHat16.wav
256,192,370289,5,0,0:0:0:92:Kick3Drop.wav
