osu file format v14

[General]
AudioFilename: Lord Symphony - The Question And Help Of The Blind Destrarastra.mp3
AudioLeadIn: 0
PreviewTime: 115148
Countdown: 0
SampleSet: Normal
StackLeniency: 0.7
Mode: 1
LetterboxInBreaks: 0
WidescreenStoryboard: 0

[Editor]
DistanceSpacing: 0.6
BeatDivisor: 4
GridSize: 32
TimelineZoom: 3.299999

[Metadata]
Title:The Question And Help Of The Blind Destrarastra
TitleUnicode:The Question And Help Of The Blind Destrarastra
Artist:Lord Symphony
ArtistUnicode:Lord Symphony
Creator:Surono
Version:Greget Oni
Source:
Tags:javanese power melodic speed metal traditional gamelan indonesia bharatayudha part 1 epic battle war story black dawn
BeatmapID:905773
BeatmapSetID:418426

[Difficulty]
HPDrainRate:5
CircleSize:2
OverallDifficulty:6
ApproachRate:0
SliderMultiplier:1.4
SliderTickRate:1

[Events]
//Background and Video events
0,0,"BG.jpg",0,0
//Break Periods
//Storyboard Layer 0 (Background)
//Storyboard Layer 1 (Fail)
//Storyboard Layer 2 (Pass)
//Storyboard Layer 3 (Foreground)
//Storyboard Sound Samples

[TimingPoints]
11481,333.333333333333,4,1,0,40,1,0
22148,-100,4,1,0,80,0,0
54147,-100,4,1,0,80,0,1
64814,-100,4,1,0,80,0,0
115480,-100,4,1,0,75,0,1
139480,-100,4,1,0,80,0,0
160814,-100,4,1,0,80,0,1
182147,-100,4,1,0,80,0,0
232814,-100,4,1,0,75,0,1
256814,-100,4,1,0,80,0,0
278147,-100,4,1,0,80,0,1
288814,-100,4,1,0,80,0,0
308814,-100,4,1,0,80,0,1
310147,-100,4,1,0,80,0,0
310230,-25,4,1,0,80,0,0

[HitObjects]
256,192,11481,5,8,0:0:0:0:
256,192,12147,1,8,0:0:0:0:
256,192,12814,1,0,0:0:0:0:
256,192,14147,1,8,0:0:0:0:
256,192,14814,1,0,0:0:0:0:
256,192,15481,1,8,0:0:0:0:
256,192,16147,1,0,0:0:0:0:
256,192,16814,1,8,0:0:0:0:
256,192,17481,1,0,0:0:0:0:
256,192,18147,1,12,0:0:0:0:
256,192,19481,1,8,0:0:0:0:
256,192,20147,1,0,0:0:0:0:
256,192,20814,1,8,0:0:0:0:
256,192,21147,1,0,0:0:0:0:
256,192,21480,1,8,0:0:0:0:
256,192,21814,1,0,0:0:0:0:
256,192,22147,1,4,0:0:0:0:
256,192,22480,1,0,0:0:0:0:
248,191,22647,1,0,0:0:0:0:
256,192,22814,1,8,0:0:0:0:
256,192,22980,1,0,0:0:0:0:
256,192,23147,1,0,0:0:0:0:
256,192,23480,1,0,0:0:0:0:
256,192,23814,1,0,0:0:0:0:
256,192,24147,1,0,0:0:0:0:
256,192,24314,1,8,0:0:0:0:
256,192,24397,1,8,0:0:0:0:
256,192,24480,1,8,0:0:0:0:
256,192,24647,1,0,0:0:0:0:
256,192,24814,1,8,0:0:0:0:
256,192,25147,1,0,0:0:0:0:
248,193,25314,1,0,0:0:0:0:
256,192,25480,1,8,0:0:0:0:
256,192,25647,1,0,0:0:0:0:
256,192,25814,1,0,0:0:0:0:
256,192,26147,1,0,0:0:0:0:
256,192,26230,1,0,0:0:0:0:
256,192,26314,1,0,0:0:0:0:
256,192,26397,1,0,0:0:0:0:
256,192,26480,1,8,0:0:0:0:
256,192,26814,1,0,0:0:0:0:
256,192,26897,1,0,0:0:0:0:
256,192,26980,1,0,0:0:0:0:
256,192,27064,1,0,0:0:0:0:
256,192,27147,1,8,0:0:0:0:
256,192,27314,1,8,0:0:0:0:
256,192,27480,1,4,0:0:0:0:
256,192,27814,1,0,0:0:0:0:
256,192,27980,1,0,0:0:0:0:
256,192,28147,1,8,0:0:0:0:
256,192,28314,1,0,0:0:0:0:
256,192,28480,1,0,0:0:0:0:
256,192,28814,1,8,0:0:0:0:
256,192,29147,1,0,0:0:0:0:
256,192,29480,1,0,0:0:0:0:
256,192,29647,1,8,0:0:0:0:
256,192,29730,1,8,0:0:0:0:
256,192,29814,1,8,0:0:0:0:
256,192,29980,1,0,0:0:0:0:
256,192,30147,1,8,0:0:0:0:
256,192,30480,1,0,0:0:0:0:
256,192,30647,1,0,0:0:0:0:
256,192,30814,1,8,0:0:0:0:
256,192,30980,1,0,0:0:0:0:
256,192,31147,1,0,0:0:0:0:
256,192,31480,1,0,0:0:0:0:
256,192,31564,1,0,0:0:0:0:
256,192,31647,1,0,0:0:0:0:
256,192,31730,1,0,0:0:0:0:
256,192,31814,1,8,0:0:0:0:
256,192,32147,1,0,0:0:0:0:
256,192,32230,1,0,0:0:0:0:
256,192,32314,1,0,0:0:0:0:
256,192,32397,1,0,0:0:0:0:
256,192,32480,1,8,0:0:0:0:
256,192,32647,1,8,0:0:0:0:
256,192,32814,1,4,0:0:0:0:
256,192,33147,1,0,0:0:0:0:
256,192,33314,1,8,0:0:0:0:
256,192,33480,1,0,0:0:0:0:
256,192,33814,1,0,0:0:0:0:
256,192,34147,1,0,0:0:0:0:
256,192,34314,1,8,0:0:0:0:
256,192,34480,1,0,0:0:0:0:
256,192,34647,1,12,0:0:0:0:
256,192,34980,1,0,0:0:0:0:
256,192,35064,1,0,0:0:0:0:
256,192,35147,1,0,0:0:0:0:
256,192,35480,1,0,0:0:0:0:
256,192,35647,1,0,0:0:0:0:
256,192,35730,1,0,0:0:0:0:
256,192,35814,1,0,0:0:0:0:
256,192,35980,1,0,0:0:0:0:
256,192,36147,1,0,0:0:0:0:
256,192,36314,1,0,0:0:0:0:
256,192,36480,1,0,0:0:0:0:
256,192,36647,1,0,0:0:0:0:
256,192,36814,1,0,0:0:0:0:
256,192,36897,1,0,0:0:0:0:
256,192,36980,1,0,0:0:0:0:
256,192,37064,1,0,0:0:0:0:
256,192,37147,1,8,0:0:0:0:
256,192,37314,1,0,0:0:0:0:
256,192,37480,1,8,0:0:0:0:
256,192,37564,1,0,0:0:0:0:
256,192,37647,1,0,0:0:0:0:
256,192,37814,1,8,0:0:0:0:
256,192,37980,1,8,0:0:0:0:
256,192,38064,1,8,0:0:0:0:
256,192,38147,1,0,0:0:0:0:
256,192,38480,1,8,0:0:0:0:
256,192,38814,1,0,0:0:0:0:
256,192,38980,1,0,0:0:0:0:
256,192,39147,1,8,0:0:0:0:
256,192,39480,1,0,0:0:0:0:
256,192,39814,1,8,0:0:0:0:
256,192,40147,1,0,0:0:0:0:
256,192,40314,1,0,0:0:0:0:
256,192,40397,1,0,0:0:0:0:
256,192,40480,1,8,0:0:0:0:
256,192,40647,1,0,0:0:0:0:
256,192,40980,1,0,0:0:0:0:
256,192,41147,1,8,0:0:0:0:
256,192,41480,1,0,0:0:0:0:
256,192,41647,1,0,0:0:0:0:
256,192,41730,1,0,0:0:0:0:
256,192,41814,1,8,0:0:0:0:
256,192,41980,1,0,0:0:0:0:
256,192,42147,1,12,0:0:0:0:
256,192,42314,1,0,0:0:0:0:
256,192,42397,1,8,0:0:0:0:
256,192,42480,1,8,0:0:0:0:
256,192,42647,1,12,0:0:0:0:
256,192,42814,1,0,0:0:0:0:
256,192,42897,1,8,0:0:0:0:
256,192,43064,1,0,0:0:0:0:
256,192,43147,1,8,0:0:0:0:
256,192,43230,1,8,0:0:0:0:
256,192,43314,1,0,0:0:0:0:
256,192,43397,1,8,0:0:0:0:
256,192,43480,1,0,0:0:0:0:
256,192,43647,1,8,0:0:0:0:
256,192,43814,1,0,0:0:0:0:
256,192,43897,1,0,0:0:0:0:
256,192,43980,1,8,0:0:0:0:
256,192,44147,1,0,0:0:0:0:
256,192,44314,1,8,0:0:0:0:
256,192,44397,1,8,0:0:0:0:
256,192,44480,1,0,0:0:0:0:
256,192,44564,1,0,0:0:0:0:
256,192,44647,1,8,0:0:0:0:
256,192,44814,1,0,0:0:0:0:
256,192,44980,1,8,0:0:0:0:
256,192,45147,1,0,0:0:0:0:
256,192,45230,1,0,0:0:0:0:
256,192,45314,1,8,0:0:0:0:
256,192,45480,1,0,0:0:0:0:
256,192,45647,1,8,0:0:0:0:
256,192,45730,1,8,0:0:0:0:
256,192,45814,1,0,0:0:0:0:
256,192,45980,1,8,0:0:0:0:
256,192,46147,1,0,0:0:0:0:
256,192,46314,1,8,0:0:0:0:
256,192,46480,1,0,0:0:0:0:
256,192,46564,1,0,0:0:0:0:
256,192,46647,1,8,0:0:0:0:
256,192,46730,1,8,0:0:0:0:
256,192,46814,1,0,0:0:0:0:
256,192,46980,1,8,0:0:0:0:
256,192,47147,1,0,0:0:0:0:
256,192,47230,1,0,0:0:0:0:
256,192,47314,1,8,0:0:0:0:
256,192,47480,1,0,0:0:0:0:
256,192,47564,1,0,0:0:0:0:
256,192,47647,1,0,0:0:0:0:
256,192,47730,1,0,0:0:0:0:
256,192,47814,1,8,0:0:0:0:
256,192,47980,1,0,0:0:0:0:
256,192,48147,1,0,0:0:0:0:
256,192,48230,1,0,0:0:0:0:
256,192,48314,1,0,0:0:0:0:
256,192,48397,1,0,0:0:0:0:
256,192,48480,1,8,0:0:0:0:
256,192,48647,1,8,0:0:0:0:
256,192,48814,1,4,0:0:0:0:
256,192,48980,1,8,0:0:0:0:
256,192,49147,1,0,0:0:0:0:
256,192,49230,1,0,0:0:0:0:
256,192,49314,1,8,0:0:0:0:
256,192,49480,1,0,0:0:0:0:
256,192,49647,1,8,0:0:0:0:
256,192,49730,1,8,0:0:0:0:
256,192,49814,1,0,0:0:0:0:
256,192,49980,1,8,0:0:0:0:
256,192,50147,1,0,0:0:0:0:
256,192,50314,1,8,0:0:0:0:
256,192,50480,1,0,0:0:0:0:
256,192,50564,1,0,0:0:0:0:
256,192,50647,1,8,0:0:0:0:
256,192,50814,1,0,0:0:0:0:
256,192,50980,1,8,0:0:0:0:
256,192,51064,1,8,0:0:0:0:
256,192,51147,1,0,0:0:0:0:
256,192,51230,1,8,0:0:0:0:
256,192,51314,1,8,0:0:0:0:
256,192,51480,1,0,0:0:0:0:
256,192,51647,1,8,0:0:0:0:
256,192,51814,1,0,0:0:0:0:
256,192,51897,1,0,0:0:0:0:
256,192,51980,1,8,0:0:0:0:
256,192,52064,1,0,0:0:0:0:
256,192,52147,1,0,0:0:0:0:
256,192,52314,1,8,0:0:0:0:
256,192,52480,1,0,0:0:0:0:
256,192,52564,1,0,0:0:0:0:
256,192,52647,1,8,0:0:0:0:
256,192,52814,1,8,0:0:0:0:
256,192,53064,1,0,0:0:0:0:
256,192,53147,1,0,0:0:0:0:
256,192,53230,1,0,0:0:0:0:
256,192,53314,1,8,0:0:0:0:
256,192,53480,1,0,0:0:0:0:
256,192,53647,1,0,0:0:0:0:
256,192,53730,1,0,0:0:0:0:
256,192,53814,1,8,0:0:0:0:
256,192,53980,1,0,0:0:0:0:
256,192,54147,1,12,0:0:0:0:
256,192,54480,1,0,0:0:0:0:
256,192,54647,1,0,0:0:0:0:
256,192,54730,1,0,0:0:0:0:
256,192,54814,1,0,0:0:0:0:
256,192,54980,1,0,0:0:0:0:
256,192,55147,1,12,0:0:0:0:
256,192,55480,1,8,0:0:0:0:
256,192,55647,1,8,0:0:0:0:
256,192,55814,1,0,0:0:0:0:
256,192,55980,1,0,0:0:0:0:
256,192,56147,1,12,0:0:0:0:
256,192,56314,1,0,0:0:0:0:
256,192,56480,1,12,0:0:0:0:
256,192,56647,1,0,0:0:0:0:
256,192,56814,1,12,0:0:0:0:
256,192,57147,1,0,0:0:0:0:
256,192,57314,1,0,0:0:0:0:
256,192,57397,1,0,0:0:0:0:
256,192,57480,1,0,0:0:0:0:
256,192,57647,1,0,0:0:0:0:
256,192,57814,1,12,0:0:0:0:
256,192,58147,1,12,0:0:0:0:
256,192,58314,1,0,0:0:0:0:
256,192,58480,1,8,0:0:0:0:
256,192,58647,1,0,0:0:0:0:
256,192,58814,1,8,0:0:0:0:
256,192,58897,1,0,0:0:0:0:
256,192,58980,1,0,0:0:0:0:
256,192,59064,1,0,0:0:0:0:
256,192,59147,1,8,0:0:0:0:
256,192,59314,1,0,0:0:0:0:
256,192,59480,1,12,0:0:0:0:
256,192,59814,1,0,0:0:0:0:
256,192,59980,1,0,0:0:0:0:
256,192,60064,1,0,0:0:0:0:
256,192,60147,1,0,0:0:0:0:
256,192,60314,1,0,0:0:0:0:
256,192,60480,1,12,0:0:0:0:
256,192,60814,1,8,0:0:0:0:
256,192,60980,1,0,0:0:0:0:
256,192,61064,1,0,0:0:0:0:
256,192,61147,1,8,0:0:0:0:
256,192,61230,1,8,0:0:0:0:
256,192,61314,1,0,0:0:0:0:
256,192,61480,1,12,0:0:0:0:
256,192,61647,1,0,0:0:0:0:
256,192,61814,1,12,0:0:0:0:
256,192,61980,1,0,0:0:0:0:
256,192,62147,1,12,0:0:0:0:
256,192,62480,1,0,0:0:0:0:
256,192,62647,1,0,0:0:0:0:
256,192,62730,1,0,0:0:0:0:
256,192,62814,1,0,0:0:0:0:
256,192,62980,1,0,0:0:0:0:
256,192,63147,1,12,0:0:0:0:
256,192,63480,1,12,0:0:0:0:
256,192,63647,1,0,0:0:0:0:
256,192,63814,1,0,0:0:0:0:
256,192,63980,1,8,0:0:0:0:
256,192,64147,1,0,0:0:0:0:
256,192,64314,1,8,0:0:0:0:
256,192,64480,1,8,0:0:0:0:
256,192,64647,1,0,0:0:0:0:
256,192,64814,1,4,0:0:0:0:
256,192,65147,1,8,0:0:0:0:
256,192,65314,1,0,0:0:0:0:
256,192,65480,1,0,0:0:0:0:
256,192,65647,1,0,0:0:0:0:
256,192,65814,1,8,0:0:0:0:
256,192,65980,1,0,0:0:0:0:
256,192,66147,1,8,0:0:0:0:
256,192,66480,1,8,0:0:0:0:
256,192,66647,1,8,0:0:0:0:
256,192,66814,1,0,0:0:0:0:
256,192,66980,1,0,0:0:0:0:
256,192,67147,1,8,0:0:0:0:
256,192,67314,1,8,0:0:0:0:
256,192,67480,1,0,0:0:0:0:
256,192,67814,1,8,0:0:0:0:
256,192,67980,1,0,0:0:0:0:
256,192,68147,1,0,0:0:0:0:
256,192,68314,1,0,0:0:0:0:
256,192,68480,1,8,0:0:0:0:
256,192,68647,1,0,0:0:0:0:
256,192,68814,1,0,0:0:0:0:
256,192,68897,1,0,0:0:0:0:
256,192,68980,1,0,0:0:0:0:
256,192,69064,1,0,0:0:0:0:
256,192,69147,1,8,0:0:0:0:
256,192,69314,1,0,0:0:0:0:
256,192,69480,1,0,0:0:0:0:
256,192,69564,1,0,0:0:0:0:
256,192,69647,1,0,0:0:0:0:
256,192,69730,1,0,0:0:0:0:
256,192,69814,1,8,0:0:0:0:
256,192,69980,1,8,0:0:0:0:
256,192,70147,1,4,0:0:0:0:
256,192,70480,1,8,0:0:0:0:
256,192,70647,1,0,0:0:0:0:
256,192,70814,1,0,0:0:0:0:
256,192,70980,1,0,0:0:0:0:
256,192,71147,1,8,0:0:0:0:
256,192,71314,1,8,0:0:0:0:
256,192,71480,1,0,0:0:0:0:
256,192,71814,1,8,0:0:0:0:
256,192,71980,1,8,0:0:0:0:
256,192,72147,1,0,0:0:0:0:
256,192,72314,1,0,0:0:0:0:
256,192,72480,1,8,0:0:0:0:
256,192,72647,1,0,0:0:0:0:
256,192,72814,1,0,0:0:0:0:
256,192,73147,1,8,0:0:0:0:
256,192,73314,1,8,0:0:0:0:
256,192,73480,1,0,0:0:0:0:
256,192,73647,1,0,0:0:0:0:
256,192,73814,1,8,0:0:0:0:
256,192,73980,1,0,0:0:0:0:
256,192,74147,1,0,0:0:0:0:
256,192,74230,1,0,0:0:0:0:
256,192,74314,1,0,0:0:0:0:
256,192,74397,1,0,0:0:0:0:
256,192,74480,1,8,0:0:0:0:
256,192,74647,1,0,0:0:0:0:
256,192,74814,1,0,0:0:0:0:
256,192,74897,1,0,0:0:0:0:
256,192,74980,1,0,0:0:0:0:
256,192,75064,1,0,0:0:0:0:
256,192,75147,1,8,0:0:0:0:
256,192,75314,1,8,0:0:0:0:
256,192,75480,1,4,0:0:0:0:
256,192,75814,1,8,0:0:0:0:
256,192,75980,1,0,0:0:0:0:
256,192,76147,1,0,0:0:0:0:
256,192,76314,1,0,0:0:0:0:
256,192,76480,1,8,0:0:0:0:
256,192,76647,1,0,0:0:0:0:
256,192,76814,1,0,0:0:0:0:
256,192,77147,1,8,0:0:0:0:
256,192,77314,1,8,0:0:0:0:
256,192,77480,1,0,0:0:0:0:
256,192,77647,1,0,0:0:0:0:
256,192,77814,1,8,0:0:0:0:
256,192,77980,1,0,0:0:0:0:
256,192,78147,1,8,0:0:0:0:
256,192,78480,1,8,0:0:0:0:
256,192,78647,1,0,0:0:0:0:
256,192,78814,1,0,0:0:0:0:
256,192,78980,1,0,0:0:0:0:
256,192,79147,1,8,0:0:0:0:
256,192,79314,1,0,0:0:0:0:
256,192,79480,1,0,0:0:0:0:
256,192,79564,1,0,0:0:0:0:
256,192,79647,1,0,0:0:0:0:
256,192,79730,1,0,0:0:0:0:
256,192,79814,1,8,0:0:0:0:
256,192,79980,1,0,0:0:0:0:
256,192,80147,1,0,0:0:0:0:
256,192,80230,1,0,0:0:0:0:
256,192,80314,1,0,0:0:0:0:
256,192,80397,1,0,0:0:0:0:
256,192,80480,1,8,0:0:0:0:
256,192,80647,1,8,0:0:0:0:
256,192,80814,1,4,0:0:0:0:
256,192,81147,1,8,0:0:0:0:
256,192,81314,1,0,0:0:0:0:
256,192,81480,1,0,0:0:0:0:
256,192,81647,1,0,0:0:0:0:
256,192,81814,1,8,0:0:0:0:
256,192,81980,1,8,0:0:0:0:
256,192,82147,1,0,0:0:0:0:
256,192,82480,1,8,0:0:0:0:
256,192,82647,1,8,0:0:0:0:
256,192,82814,1,0,0:0:0:0:
256,192,82980,1,0,0:0:0:0:
256,192,83147,1,8,0:0:0:0:
256,192,83314,1,0,0:0:0:0:
256,192,83480,1,0,0:0:0:0:
256,192,83814,1,8,0:0:0:0:
256,192,83980,1,8,0:0:0:0:
256,192,84147,1,0,0:0:0:0:
256,192,84314,1,0,0:0:0:0:
256,192,84480,1,8,0:0:0:0:
256,192,84647,1,0,0:0:0:0:
256,192,84814,1,0,0:0:0:0:
256,192,84897,1,0,0:0:0:0:
256,192,84980,1,0,0:0:0:0:
256,192,85064,1,0,0:0:0:0:
256,192,85147,1,8,0:0:0:0:
256,192,85314,1,0,0:0:0:0:
256,192,85480,1,12,0:0:0:0:
256,192,85647,1,0,0:0:0:0:
256,192,85814,1,12,0:0:0:0:
256,192,85980,1,8,0:0:0:0:
256,192,86064,1,8,0:0:0:0:
256,192,86147,1,0,0:0:0:0:
256,192,86480,1,8,0:0:0:0:
256,192,86647,1,0,0:0:0:0:
256,192,86980,1,0,0:0:0:0:
256,192,87147,1,8,0:0:0:0:
256,192,87314,1,0,0:0:0:0:
256,192,87480,1,0,0:0:0:0:
256,192,87814,1,8,0:0:0:0:
256,192,87980,1,0,0:0:0:0:
256,192,88147,1,0,0:0:0:0:
256,192,88314,1,0,0:0:0:0:
256,192,88480,1,8,0:0:0:0:
256,192,88647,1,0,0:0:0:0:
256,192,88814,1,0,0:0:0:0:
256,192,89147,1,8,0:0:0:0:
256,192,89314,1,8,0:0:0:0:
256,192,89647,1,0,0:0:0:0:
256,192,89814,1,8,0:0:0:0:
256,192,89980,1,0,0:0:0:0:
256,192,90147,1,0,0:0:0:0:
256,192,90230,1,8,0:0:0:0:
256,192,90314,1,0,0:0:0:0:
256,192,90397,1,0,0:0:0:0:
256,192,90480,1,8,0:0:0:0:
256,192,90647,1,0,0:0:0:0:
256,192,90814,1,0,0:0:0:0:
256,192,90897,1,8,0:0:0:0:
256,192,90980,1,0,0:0:0:0:
256,192,91064,1,0,0:0:0:0:
256,192,91147,1,8,0:0:0:0:
256,192,91314,1,8,0:0:0:0:
256,192,91480,1,4,0:0:0:0:
256,192,91814,1,8,0:0:0:0:
256,192,91980,1,0,0:0:0:0:
256,192,92314,1,0,0:0:0:0:
256,192,92480,1,8,0:0:0:0:
256,192,92647,1,0,0:0:0:0:
256,192,92814,1,8,0:0:0:0:
256,192,93147,1,8,0:0:0:0:
256,192,93314,1,0,0:0:0:0:
256,192,93480,1,0,0:0:0:0:
256,192,93647,1,8,0:0:0:0:
256,192,93814,1,8,0:0:0:0:
256,192,93980,1,0,0:0:0:0:
256,192,94147,1,0,0:0:0:0:
256,192,94480,1,8,0:0:0:0:
256,192,94647,1,0,0:0:0:0:
256,192,94980,1,0,0:0:0:0:
256,192,95147,1,8,0:0:0:0:
256,192,95314,1,0,0:0:0:0:
256,192,95480,1,8,0:0:0:0:
256,192,95564,1,8,0:0:0:0:
256,192,95647,1,0,0:0:0:0:
256,192,95730,1,0,0:0:0:0:
256,192,95814,1,8,0:0:0:0:
256,192,95980,1,0,0:0:0:0:
256,192,96147,1,8,0:0:0:0:
256,192,96230,1,8,0:0:0:0:
256,192,96314,1,0,0:0:0:0:
256,192,96397,1,0,0:0:0:0:
256,192,96480,1,8,0:0:0:0:
256,192,96647,1,8,0:0:0:0:
256,192,96814,1,4,0:0:0:0:
256,192,96980,1,0,0:0:0:0:
256,192,97147,1,8,0:0:0:0:
256,192,97314,1,0,0:0:0:0:
256,192,97647,1,0,0:0:0:0:
256,192,97814,1,8,0:0:0:0:
256,192,97980,1,0,0:0:0:0:
256,192,98147,1,0,0:0:0:0:
256,192,98314,1,0,0:0:0:0:
256,192,98480,1,8,0:0:0:0:
256,192,98814,1,0,0:0:0:0:
256,192,98980,1,0,0:0:0:0:
256,192,99147,1,8,0:0:0:0:
256,192,99314,1,0,0:0:0:0:
256,192,99480,1,0,0:0:0:0:
256,192,99647,1,8,0:0:0:0:
256,192,99814,1,8,0:0:0:0:
256,192,99980,1,0,0:0:0:0:
256,192,100314,1,0,0:0:0:0:
256,192,100480,1,8,0:0:0:0:
256,192,100647,1,0,0:0:0:0:
256,192,100814,1,8,0:0:0:0:
256,192,100897,1,0,0:0:0:0:
256,192,100980,1,0,0:0:0:0:
256,192,101064,1,0,0:0:0:0:
256,192,101147,1,8,0:0:0:0:
256,192,101314,1,0,0:0:0:0:
256,192,101480,1,8,0:0:0:0:
256,192,101564,1,0,0:0:0:0:
256,192,101647,1,0,0:0:0:0:
256,192,101730,1,0,0:0:0:0:
256,192,101814,1,8,0:0:0:0:
256,192,101980,1,8,0:0:0:0:
256,192,102147,1,4,0:0:0:0:
256,192,102314,1,0,0:0:0:0:
256,192,102480,1,8,0:0:0:0:
256,192,102647,1,0,0:0:0:0:
256,192,102980,1,0,0:0:0:0:
256,192,103147,1,8,0:0:0:0:
256,192,103314,1,0,0:0:0:0:
256,192,103480,1,0,0:0:0:0:
256,192,103647,1,0,0:0:0:0:
256,192,103814,1,8,0:0:0:0:
256,192,104147,1,0,0:0:0:0:
256,192,104314,1,0,0:0:0:0:
256,192,104480,1,8,0:0:0:0:
256,192,104647,1,0,0:0:0:0:
256,192,104814,1,0,0:0:0:0:
256,192,104980,1,8,0:0:0:0:
256,192,105147,1,8,0:0:0:0:
256,192,105314,1,0,0:0:0:0:
256,192,105647,1,0,0:0:0:0:
256,192,105814,1,8,0:0:0:0:
256,192,105980,1,0,0:0:0:0:
256,192,106147,1,8,0:0:0:0:
256,192,106230,1,0,0:0:0:0:
256,192,106314,1,0,0:0:0:0:
256,192,106397,1,0,0:0:0:0:
256,192,106480,1,8,0:0:0:0:
256,192,106647,1,0,0:0:0:0:
256,192,106814,1,12,0:0:0:0:
256,192,106980,1,0,0:0:0:0:
256,192,107147,1,12,0:0:0:0:
256,192,107314,1,8,0:0:0:0:
256,192,107397,1,8,0:0:0:0:
256,192,107480,1,0,0:0:0:0:
256,192,107814,1,8,0:0:0:0:
256,192,107980,1,0,0:0:0:0:
256,192,108147,1,0,0:0:0:0:
256,192,108314,1,0,0:0:0:0:
256,192,108480,1,8,0:0:0:0:
256,192,108647,1,8,0:0:0:0:
256,192,108814,1,0,0:0:0:0:
256,192,109147,1,8,0:0:0:0:
256,192,109314,1,8,0:0:0:0:
256,192,109480,1,0,0:0:0:0:
256,192,109647,1,0,0:0:0:0:
256,192,109814,1,8,0:0:0:0:
256,192,109980,1,0,0:0:0:0:
256,192,110147,1,0,0:0:0:0:
256,192,110480,1,8,0:0:0:0:
256,192,110647,1,0,0:0:0:0:
256,192,110814,1,0,0:0:0:0:
256,192,110980,1,0,0:0:0:0:
256,192,111147,1,8,0:0:0:0:
256,192,111314,1,0,0:0:0:0:
256,192,111480,1,0,0:0:0:0:
256,192,111564,1,0,0:0:0:0:
256,192,111647,1,0,0:0:0:0:
256,192,111730,1,0,0:0:0:0:
256,192,111814,1,8,0:0:0:0:
256,192,111980,1,0,0:0:0:0:
256,192,112147,1,0,0:0:0:0:
256,192,112230,1,0,0:0:0:0:
256,192,112314,1,0,0:0:0:0:
256,192,112397,1,0,0:0:0:0:
256,192,112480,1,8,0:0:0:0:
256,192,112814,1,0,0:0:0:0:
256,192,113147,1,0,0:0:0:0:
256,192,113480,1,0,0:0:0:0:
256,192,113647,1,8,0:0:0:0:
256,192,113814,1,0,0:0:0:0:
256,192,114147,1,0,0:0:0:0:
256,192,114480,1,0,0:0:0:0:
256,192,114647,1,0,0:0:0:0:
256,192,114730,1,0,0:0:0:0:
256,192,114814,1,8,0:0:0:0:
256,192,115480,5,4,0:0:0:0:
256,192,115647,1,8,0:0:0:0:
256,192,115814,1,0,0:0:0:0:
256,192,115897,1,0,0:0:0:0:
256,192,115980,1,8,0:0:0:0:
256,192,116147,1,0,0:0:0:0:
256,192,116314,1,8,0:0:0:0:
256,192,116397,1,8,0:0:0:0:
256,192,116480,1,0,0:0:0:0:
256,192,116647,1,8,0:0:0:0:
256,192,116814,1,4,0:0:0:0:
256,192,116980,1,8,0:0:0:0:
256,192,117147,1,0,0:0:0:0:
256,192,117230,1,0,0:0:0:0:
256,192,117314,1,8,0:0:0:0:
256,192,117480,1,0,0:0:0:0:
256,192,117647,1,8,0:0:0:0:
256,192,117730,1,0,0:0:0:0:
256,192,117814,1,0,0:0:0:0:
256,192,117980,1,8,0:0:0:0:
256,192,118147,1,4,0:0:0:0:
256,192,118314,1,8,0:0:0:0:
256,192,118480,1,0,0:0:0:0:
256,192,118564,1,0,0:0:0:0:
256,192,118647,1,8,0:0:0:0:
256,192,118814,1,0,0:0:0:0:
256,192,118980,1,8,0:0:0:0:
256,192,119064,1,0,0:0:0:0:
256,192,119230,1,0,0:0:0:0:
256,192,119314,1,8,0:0:0:0:
256,192,119480,1,0,0:0:0:0:
256,192,119647,1,12,0:0:0:0:
256,192,119814,1,0,0:0:0:0:
256,192,119897,1,0,0:0:0:0:
256,192,119980,1,8,0:0:0:0:
256,192,120064,1,0,0:0:0:0:
256,192,120147,1,0,0:0:0:0:
256,192,120314,1,12,0:0:0:0:
256,192,120647,1,8,0:0:0:0:
256,192,120814,1,4,0:0:0:0:
256,192,120980,1,8,0:0:0:0:
256,192,121147,1,0,0:0:0:0:
256,192,121230,1,0,0:0:0:0:
256,192,121314,1,8,0:0:0:0:
256,192,121480,1,0,0:0:0:0:
256,192,121647,1,8,0:0:0:0:
256,192,121730,1,8,0:0:0:0:
256,192,121814,1,0,0:0:0:0:
256,192,121980,1,8,0:0:0:0:
256,192,122147,1,4,0:0:0:0:
256,192,122314,1,8,0:0:0:0:
256,192,122480,1,0,0:0:0:0:
256,192,122564,1,0,0:0:0:0:
256,192,122647,1,8,0:0:0:0:
256,192,122814,1,0,0:0:0:0:
256,192,122980,1,8,0:0:0:0:
256,192,123147,1,0,0:0:0:0:
256,192,123230,1,0,0:0:0:0:
256,192,123314,1,8,0:0:0:0:
256,192,123480,1,4,0:0:0:0:
256,192,123647,1,8,0:0:0:0:
256,192,123814,1,0,0:0:0:0:
256,192,123897,1,0,0:0:0:0:
256,192,123980,1,8,0:0:0:0:
256,192,124064,1,0,0:0:0:0:
256,192,124147,1,0,0:0:0:0:
256,192,124314,1,8,0:0:0:0:
256,192,124397,1,0,0:0:0:0:
256,192,124564,1,0,0:0:0:0:
256,192,124647,1,8,0:0:0:0:
256,192,124814,1,0,0:0:0:0:
256,192,124980,1,12,0:0:0:0:
256,192,125147,1,0,0:0:0:0:
256,192,125230,1,0,0:0:0:0:
256,192,125314,1,8,0:0:0:0:
256,192,125480,1,0,0:0:0:0:
256,192,125647,1,12,0:0:0:0:
256,192,125980,1,8,0:0:0:0:
256,192,126147,1,4,0:0:0:0:
256,192,126314,1,8,0:0:0:0:
256,192,126564,1,0,0:0:0:0:
256,192,126647,1,8,0:0:0:0:
256,192,126814,1,0,0:0:0:0:
256,192,126980,1,8,0:0:0:0:
256,192,127147,1,8,0:0:0:0:
256,192,127230,1,0,0:0:0:0:
256,192,127314,1,8,0:0:0:0:
256,192,127480,1,4,0:0:0:0:
256,192,127647,1,8,0:0:0:0:
256,192,127814,1,0,0:0:0:0:
256,192,127897,1,0,0:0:0:0:
256,192,127980,1,8,0:0:0:0:
256,192,128147,1,0,0:0:0:0:
256,192,128314,1,8,0:0:0:0:
256,192,128397,1,8,0:0:0:0:
256,192,128480,1,0,0:0:0:0:
256,192,128647,1,8,0:0:0:0:
256,192,128814,1,4,0:0:0:0:
256,192,128980,1,8,0:0:0:0:
256,192,129147,1,0,0:0:0:0:
256,192,129230,1,0,0:0:0:0:
256,192,129314,1,8,0:0:0:0:
256,192,129397,1,8,0:0:0:0:
256,192,129480,1,0,0:0:0:0:
256,192,129647,1,8,0:0:0:0:
256,192,129730,1,0,0:0:0:0:
256,192,129897,1,0,0:0:0:0:
256,192,129980,1,8,0:0:0:0:
256,192,130147,1,4,0:0:0:0:
256,192,130314,1,8,0:0:0:0:
256,192,130480,1,0,0:0:0:0:
256,192,130647,1,8,0:0:0:0:
256,192,130730,1,8,0:0:0:0:
256,192,130814,1,0,0:0:0:0:
256,192,130980,1,8,0:0:0:0:
256,192,131147,1,0,0:0:0:0:
256,192,131230,1,0,0:0:0:0:
256,192,131314,1,8,0:0:0:0:
256,192,131480,1,4,0:0:0:0:
256,192,131647,1,8,0:0:0:0:
256,192,131897,1,0,0:0:0:0:
256,192,131980,1,8,0:0:0:0:
256,192,132147,1,0,0:0:0:0:
256,192,132314,1,8,0:0:0:0:
256,192,132480,1,0,0:0:0:0:
256,192,132564,1,0,0:0:0:0:
256,192,132647,1,8,0:0:0:0:
256,192,132814,1,4,0:0:0:0:
256,192,132980,1,8,0:0:0:0:
256,192,133147,1,0,0:0:0:0:
256,192,133230,1,0,0:0:0:0:
256,192,133314,1,8,0:0:0:0:
256,192,133480,1,0,0:0:0:0:
256,192,133647,1,8,0:0:0:0:
256,192,133730,1,8,0:0:0:0:
256,192,133814,1,0,0:0:0:0:
256,192,133980,1,8,0:0:0:0:
256,192,134147,1,4,0:0:0:0:
256,192,134314,1,8,0:0:0:0:
256,192,134397,1,8,0:0:0:0:
256,192,134480,1,0,0:0:0:0:
256,192,134647,1,8,0:0:0:0:
256,192,134814,1,0,0:0:0:0:
256,192,134980,1,8,0:0:0:0:
256,192,135064,1,0,0:0:0:0:
256,192,135147,1,0,0:0:0:0:
256,192,135314,1,8,0:0:0:0:
256,192,135480,1,0,0:0:0:0:
256,192,135564,1,0,0:0:0:0:
256,192,135647,1,8,0:0:0:0:
256,192,135730,1,0,0:0:0:0:
256,192,135814,1,0,0:0:0:0:
256,192,135980,1,8,0:0:0:0:
256,192,136147,1,0,0:0:0:0:
256,192,136230,1,0,0:0:0:0:
256,192,136314,1,8,0:0:0:0:
256,192,136397,1,0,0:0:0:0:
256,192,136480,1,0,0:0:0:0:
256,192,136564,1,0,0:0:0:0:
256,192,136647,1,8,0:0:0:0:
256,192,136814,1,8,0:0:0:0:
256,192,136897,1,0,0:0:0:0:
256,192,136980,1,8,0:0:0:0:
256,192,137064,1,8,0:0:0:0:
256,192,137147,1,0,0:0:0:0:
256,192,137314,1,8,0:0:0:0:
256,192,137397,1,0,0:0:0:0:
256,192,137480,1,8,0:0:0:0:
256,192,137564,1,8,0:0:0:0:
256,192,137647,1,0,0:0:0:0:
256,192,137730,1,8,0:0:0:0:
256,192,137814,1,8,0:0:0:0:
256,192,137897,5,0,0:0:0:0:
256,192,137980,1,8,0:0:0:0:
256,192,138064,1,8,0:0:0:0:
256,192,138147,1,0,0:0:0:0:
256,192,138230,1,0,0:0:0:0:
256,192,138314,1,8,0:0:0:0:
256,192,138480,1,0,0:0:0:0:
256,192,138564,1,0,0:0:0:0:
256,192,138647,1,8,0:0:0:0:
256,192,138814,1,0,0:0:0:0:
256,192,138897,1,0,0:0:0:0:
256,192,138980,1,0,0:0:0:0:
256,192,139064,1,0,0:0:0:0:
256,192,139147,1,8,0:0:0:0:
256,192,139230,1,8,0:0:0:0:
256,192,139314,1,8,0:0:0:0:
256,192,139397,1,8,0:0:0:0:
256,192,139480,1,0,0:0:0:0:
256,192,139647,5,0,0:0:0:0:
256,192,139814,1,0,0:0:0:0:
256,192,139980,1,8,0:0:0:0:
256,192,140147,1,0,0:0:0:0:
256,192,140230,1,0,0:0:0:0:
256,192,140314,1,0,0:0:0:0:
256,192,140480,1,12,0:0:0:0:
256,192,140814,1,8,0:0:0:0:
256,192,140980,1,0,0:0:0:0:
256,192,141314,1,0,0:0:0:0:
256,192,141480,1,8,0:0:0:0:
256,192,141647,1,0,0:0:0:0:
256,192,141814,1,12,0:0:0:0:
256,192,142147,1,12,0:0:0:0:
256,192,142314,1,0,0:0:0:0:
256,192,142480,1,0,0:0:0:0:
256,192,142647,1,8,0:0:0:0:
256,192,142814,1,0,0:0:0:0:
256,192,142897,1,0,0:0:0:0:
256,192,142980,1,0,0:0:0:0:
256,192,143147,1,12,0:0:0:0:
256,192,143480,1,8,0:0:0:0:
256,192,143647,1,0,0:0:0:0:
256,192,143814,1,0,0:0:0:0:
256,192,143980,1,0,0:0:0:0:
256,192,144147,1,8,0:0:0:0:
256,192,144314,1,0,0:0:0:0:
256,192,144480,1,12,0:0:0:0:
256,192,144814,1,12,0:0:0:0:
256,192,144980,1,0,0:0:0:0:
256,192,145147,1,0,0:0:0:0:
256,192,145314,1,8,0:0:0:0:
256,192,145480,1,0,0:0:0:0:
256,192,145564,1,0,0:0:0:0:
256,192,145647,1,0,0:0:0:0:
256,192,145814,1,12,0:0:0:0:
256,192,146147,1,8,0:0:0:0:
256,192,146314,1,0,0:0:0:0:
256,192,146647,1,0,0:0:0:0:
256,192,146814,1,8,0:0:0:0:
256,192,146980,1,0,0:0:0:0:
256,192,147147,1,12,0:0:0:0:
256,192,147480,1,12,0:0:0:0:
256,192,147647,1,0,0:0:0:0:
256,192,147814,1,0,0:0:0:0:
256,192,147980,1,8,0:0:0:0:
256,192,148147,1,0,0:0:0:0:
256,192,148230,1,0,0:0:0:0:
256,192,148314,1,0,0:0:0:0:
256,192,148480,1,12,0:0:0:0:
256,192,148814,1,8,0:0:0:0:
256,192,148897,1,8,0:0:0:0:
256,192,148980,1,0,0:0:0:0:
256,192,149064,1,0,0:0:0:0:
256,192,149147,1,0,0:0:0:0:
256,192,149314,1,0,0:0:0:0:
256,192,149397,1,0,0:0:0:0:
256,192,149480,1,8,0:0:0:0:
256,192,149564,1,8,0:0:0:0:
256,192,149647,1,8,0:0:0:0:
256,192,149814,1,12,0:0:0:0:
256,192,150147,1,12,0:0:0:0:
256,192,150314,1,0,0:0:0:0:
256,192,150480,1,0,0:0:0:0:
256,192,150647,1,8,0:0:0:0:
256,192,150814,1,0,0:0:0:0:
256,192,150897,1,0,0:0:0:0:
256,192,150980,1,0,0:0:0:0:
256,192,151147,1,12,0:0:0:0:
256,192,151480,1,8,0:0:0:0:
256,192,151647,1,8,0:0:0:0:
256,192,151980,1,0,0:0:0:0:
256,192,152147,1,8,0:0:0:0:
256,192,152314,1,0,0:0:0:0:
256,192,152480,1,12,0:0:0:0:
256,192,152814,1,12,0:0:0:0:
256,192,152980,1,0,0:0:0:0:
256,192,153147,1,0,0:0:0:0:
256,192,153314,1,8,0:0:0:0:
256,192,153480,1,0,0:0:0:0:
256,192,153564,1,0,0:0:0:0:
256,192,153647,1,0,0:0:0:0:
256,192,153814,1,12,0:0:0:0:
256,192,154147,1,8,0:0:0:0:
256,192,154314,1,8,0:0:0:0:
256,192,154480,1,0,0:0:0:0:
256,192,154647,1,0,0:0:0:0:
256,192,154814,1,8,0:0:0:0:
256,192,154980,1,0,0:0:0:0:
256,192,155147,1,12,0:0:0:0:
256,192,155480,1,12,0:0:0:0:
256,192,155647,1,0,0:0:0:0:
256,192,155814,1,0,0:0:0:0:
256,192,155980,1,8,0:0:0:0:
256,192,156147,1,0,0:0:0:0:
256,192,156230,1,0,0:0:0:0:
256,192,156314,1,0,0:0:0:0:
256,192,156480,1,12,0:0:0:0:
256,192,156814,1,8,0:0:0:0:
256,192,156980,1,8,0:0:0:0:
256,192,157314,1,0,0:0:0:0:
256,192,157480,1,8,0:0:0:0:
256,192,157647,1,0,0:0:0:0:
256,192,157814,1,12,0:0:0:0:
256,192,158147,1,12,0:0:0:0:
256,192,158314,1,0,0:0:0:0:
256,192,158397,1,8,0:0:0:0:
256,192,158480,1,8,0:0:0:0:
256,192,158647,1,8,0:0:0:0:
256,192,158814,1,0,0:0:0:0:
256,192,158897,1,0,0:0:0:0:
256,192,158980,1,8,0:0:0:0:
256,192,159147,1,12,0:0:0:0:
256,192,159397,5,8,0:0:0:0:
256,192,159480,1,8,0:0:0:0:
256,192,159647,1,0,0:0:0:0:
256,192,159814,1,8,0:0:0:0:
256,192,159897,1,8,0:0:0:0:
256,192,159980,1,0,0:0:0:0:
256,192,160064,1,0,0:0:0:0:
256,192,160147,1,8,0:0:0:0:
256,192,160230,1,8,0:0:0:0:
256,192,160314,1,0,0:0:0:0:
256,192,160397,1,0,0:0:0:0:
256,192,160480,1,8,0:0:0:0:
256,192,160564,1,8,0:0:0:0:
256,192,160647,1,0,0:0:0:0:
256,192,160814,1,12,0:0:0:0:
256,192,160980,1,0,0:0:0:0:
256,192,161064,1,0,0:0:0:0:
256,192,161147,1,8,0:0:0:0:
256,192,161230,1,8,0:0:0:0:
256,192,161314,1,0,0:0:0:0:
256,192,161480,1,8,0:0:0:0:
256,192,161647,1,0,0:0:0:0:
256,192,161730,1,0,0:0:0:0:
256,192,161814,1,8,0:0:0:0:
256,192,161897,1,0,0:0:0:0:
256,192,161980,1,0,0:0:0:0:
256,192,162147,1,12,0:0:0:0:
256,192,162314,1,0,0:0:0:0:
256,192,162397,1,0,0:0:0:0:
256,192,162480,1,8,0:0:0:0:
256,192,162647,1,0,0:0:0:0:
256,192,162814,1,8,0:0:0:0:
256,192,162897,1,8,0:0:0:0:
256,192,162980,1,0,0:0:0:0:
256,192,163147,1,8,0:0:0:0:
256,192,163314,1,0,0:0:0:0:
256,192,163480,1,12,0:0:0:0:
256,192,163647,1,0,0:0:0:0:
256,192,163730,1,0,0:0:0:0:
256,192,163814,1,8,0:0:0:0:
256,192,163897,1,8,0:0:0:0:
256,192,163980,1,0,0:0:0:0:
256,192,164147,1,8,0:0:0:0:
256,192,164314,1,0,0:0:0:0:
256,192,164397,1,0,0:0:0:0:
256,192,164480,1,8,0:0:0:0:
256,192,164564,1,0,0:0:0:0:
256,192,164647,1,0,0:0:0:0:
256,192,164814,1,12,0:0:0:0:
256,192,164980,1,0,0:0:0:0:
256,192,165064,1,0,0:0:0:0:
256,192,165147,1,8,0:0:0:0:
256,192,165314,1,0,0:0:0:0:
256,192,165480,1,8,0:0:0:0:
256,192,165564,1,8,0:0:0:0:
256,192,165647,1,0,0:0:0:0:
256,192,165730,1,0,0:0:0:0:
256,192,165814,1,8,0:0:0:0:
256,192,165897,1,8,0:0:0:0:
256,192,165980,1,0,0:0:0:0:
256,192,166147,1,12,0:0:0:0:
256,192,166314,1,0,0:0:0:0:
256,192,166397,1,0,0:0:0:0:
256,192,166480,1,8,0:0:0:0:
256,192,166564,1,8,0:0:0:0:
256,192,166647,1,0,0:0:0:0:
256,192,166814,1,8,0:0:0:0:
256,192,166980,1,0,0:0:0:0:
256,192,167064,1,0,0:0:0:0:
256,192,167147,1,8,0:0:0:0:
256,192,167230,1,0,0:0:0:0:
256,192,167314,1,0,0:0:0:0:
256,192,167480,1,12,0:0:0:0:
256,192,167647,1,0,0:0:0:0:
256,192,167730,1,0,0:0:0:0:
256,192,167814,1,8,0:0:0:0:
256,192,167980,1,0,0:0:0:0:
256,192,168147,1,8,0:0:0:0:
256,192,168230,1,8,0:0:0:0:
256,192,168314,1,0,0:0:0:0:
256,192,168397,1,0,0:0:0:0:
256,192,168480,1,8,0:0:0:0:
256,192,168647,5,0,0:0:0:0:
256,192,168814,1,12,0:0:0:0:
256,192,168980,1,0,0:0:0:0:
256,192,169064,1,0,0:0:0:0:
256,192,169147,1,8,0:0:0:0:
256,192,169230,1,0,0:0:0:0:
256,192,169314,1,8,0:0:0:0:
256,192,169480,1,8,0:0:0:0:
256,192,169647,1,0,0:0:0:0:
256,192,169730,1,0,0:0:0:0:
256,192,169814,1,8,0:0:0:0:
256,192,169980,1,0,0:0:0:0:
256,192,170147,1,12,0:0:0:0:
256,192,170314,1,8,0:0:0:0:
256,192,170397,1,8,0:0:0:0:
256,192,170480,1,8,0:0:0:0:
256,192,170647,1,8,0:0:0:0:
256,192,170814,1,8,0:0:0:0:
256,192,170897,1,8,0:0:0:0:
256,192,170980,1,0,0:0:0:0:
256,192,171064,1,0,0:0:0:0:
256,192,171147,1,8,0:0:0:0:
256,192,171230,1,8,0:0:0:0:
256,192,171314,1,0,0:0:0:0:
256,192,171480,1,4,0:0:0:0:
256,192,171647,1,8,0:0:0:0:
256,192,171814,1,0,0:0:0:0:
256,192,171897,1,0,0:0:0:0:
256,192,171980,1,8,0:0:0:0:
256,192,172147,1,0,0:0:0:0:
256,192,172314,1,8,0:0:0:0:
256,192,172397,1,8,0:0:0:0:
256,192,172480,1,0,0:0:0:0:
256,192,172647,1,8,0:0:0:0:
256,192,172814,1,0,0:0:0:0:
256,192,172980,1,8,0:0:0:0:
256,192,173064,1,8,0:0:0:0:
256,192,173147,1,0,0:0:0:0:
256,192,173230,1,0,0:0:0:0:
256,192,173314,1,8,0:0:0:0:
256,192,173480,1,0,0:0:0:0:
256,192,173647,1,12,0:0:0:0:
256,192,173980,1,12,0:0:0:0:
256,192,174147,1,4,0:0:0:0:
256,192,174314,1,8,0:0:0:0:
256,192,174480,1,0,0:0:0:0:
256,192,174564,1,0,0:0:0:0:
256,192,174647,1,8,0:0:0:0:
256,192,174814,1,8,0:0:0:0:
256,192,174980,1,8,0:0:0:0:
256,192,175064,1,0,0:0:0:0:
256,192,175230,1,0,0:0:0:0:
256,192,175314,1,8,0:0:0:0:
256,192,175480,1,0,0:0:0:0:
256,192,175647,1,8,0:0:0:0:
256,192,175730,1,0,0:0:0:0:
256,192,175814,1,0,0:0:0:0:
256,192,175897,1,0,0:0:0:0:
256,192,175980,1,8,0:0:0:0:
256,192,176147,1,8,0:0:0:0:
256,192,176230,1,8,0:0:0:0:
256,192,176314,1,8,0:0:0:0:
256,192,176397,1,8,0:0:0:0:
256,192,176480,1,0,0:0:0:0:
256,192,176564,1,0,0:0:0:0:
256,192,176647,1,0,0:0:0:0:
256,192,176730,1,0,0:0:0:0:
256,192,176814,1,8,0:0:0:0:
256,192,176980,1,8,0:0:0:0:
256,192,177064,1,8,0:0:0:0:
256,192,177147,1,0,0:0:0:0:
256,192,177230,1,0,0:0:0:0:
256,192,177314,1,8,0:0:0:0:
256,192,177397,1,0,0:0:0:0:
256,192,177480,1,0,0:0:0:0:
256,192,177564,1,0,0:0:0:0:
256,192,177647,1,8,0:0:0:0:
256,192,177730,1,8,0:0:0:0:
256,192,177814,1,0,0:0:0:0:
256,192,177897,1,0,0:0:0:0:
256,192,177980,1,8,0:0:0:0:
256,192,178064,1,0,0:0:0:0:
256,192,178147,1,0,0:0:0:0:
256,192,178230,1,0,0:0:0:0:
256,192,178314,1,8,0:0:0:0:
256,192,178397,1,8,0:0:0:0:
256,192,178480,1,0,0:0:0:0:
256,192,178564,1,0,0:0:0:0:
256,192,178647,1,8,0:0:0:0:
256,192,178730,1,0,0:0:0:0:
256,192,178814,1,0,0:0:0:0:
256,192,178897,1,0,0:0:0:0:
256,192,178980,1,8,0:0:0:0:
256,192,179064,1,0,0:0:0:0:
256,192,179147,1,8,0:0:0:0:
256,192,179230,1,0,0:0:0:0:
256,192,179314,1,8,0:0:0:0:
256,192,179397,1,8,0:0:0:0:
256,192,179480,1,8,0:0:0:0:
256,192,179647,1,8,0:0:0:0:
256,192,179730,1,8,0:0:0:0:
256,192,179814,1,0,0:0:0:0:
256,192,179897,1,0,0:0:0:0:
256,192,179980,1,8,0:0:0:0:
256,192,180064,1,0,0:0:0:0:
256,192,180147,1,0,0:0:0:0:
256,192,180230,1,0,0:0:0:0:
256,192,180314,1,8,0:0:0:0:
256,192,180397,1,8,0:0:0:0:
256,192,180480,1,0,0:0:0:0:
256,192,180564,1,0,0:0:0:0:
256,192,180647,1,8,0:0:0:0:
256,192,180730,1,0,0:0:0:0:
256,192,180814,1,8,0:0:0:0:
256,192,180869,1,8,0:0:0:0:
256,192,180925,1,0,0:0:0:0:
256,192,180980,1,0,0:0:0:0:
256,192,181064,1,0,0:0:0:0:
256,192,181147,1,8,0:0:0:0:
256,192,181314,1,12,0:0:0:0:
256,192,181480,1,4,0:0:0:0:
256,192,181647,1,0,0:0:0:0:
256,192,181814,1,8,0:0:0:0:
256,192,181897,1,8,0:0:0:0:
256,192,181980,1,8,0:0:0:0:
256,192,182147,1,4,0:0:0:0:
256,192,182480,1,8,0:0:0:0:
256,192,182647,1,0,0:0:0:0:
256,192,182980,1,0,0:0:0:0:
256,192,183147,1,8,0:0:0:0:
256,192,183480,1,0,0:0:0:0:
256,192,183647,1,0,0:0:0:0:
256,192,183814,1,8,0:0:0:0:
256,192,183980,1,0,0:0:0:0:
256,192,184314,1,0,0:0:0:0:
256,192,184480,1,8,0:0:0:0:
256,192,184814,1,0,0:0:0:0:
256,192,184980,1,0,0:0:0:0:
256,192,185147,1,8,0:0:0:0:
256,192,185314,1,0,0:0:0:0:
256,192,185647,1,0,0:0:0:0:
256,192,185814,1,8,0:0:0:0:
256,192,186147,1,0,0:0:0:0:
256,192,186230,1,0,0:0:0:0:
256,192,186314,1,0,0:0:0:0:
256,192,186397,1,0,0:0:0:0:
256,192,186480,1,8,0:0:0:0:
256,192,186814,1,0,0:0:0:0:
256,192,186897,1,0,0:0:0:0:
256,192,186980,1,0,0:0:0:0:
256,192,187064,1,0,0:0:0:0:
256,192,187147,1,8,0:0:0:0:
256,192,187230,1,0,0:0:0:0:
256,192,187314,1,0,0:0:0:0:
256,192,187480,1,4,0:0:0:0:
256,192,187814,1,0,0:0:0:0:
256,192,187980,1,8,0:0:0:0:
256,192,188314,1,8,0:0:0:0:
256,192,188480,1,0,0:0:0:0:
256,192,188814,1,8,0:0:0:0:
256,192,188980,1,8,0:0:0:0:
256,192,189147,1,0,0:0:0:0:
256,192,189314,1,8,0:0:0:0:
256,192,189647,1,8,0:0:0:0:
256,192,189814,1,0,0:0:0:0:
256,192,190147,1,8,0:0:0:0:
256,192,190314,1,8,0:0:0:0:
256,192,190480,1,0,0:0:0:0:
256,192,190647,1,8,0:0:0:0:
256,192,190980,1,8,0:0:0:0:
256,192,191147,1,0,0:0:0:0:
256,192,191480,1,0,0:0:0:0:
256,192,191564,1,0,0:0:0:0:
256,192,191647,1,8,0:0:0:0:
256,192,191730,1,0,0:0:0:0:
256,192,191814,1,8,0:0:0:0:
256,192,191897,1,8,0:0:0:0:
256,192,191980,1,0,0:0:0:0:
256,192,192064,1,8,0:0:0:0:
256,192,192147,1,8,0:0:0:0:
256,192,192230,1,0,0:0:0:0:
256,192,192314,1,0,0:0:0:0:
256,192,192397,1,0,0:0:0:0:
256,192,192480,1,8,0:0:0:0:
256,192,192647,1,8,0:0:0:0:
256,192,192814,1,4,0:0:0:0:
256,192,193147,1,8,0:0:0:0:
256,192,193480,1,0,0:0:0:0:
256,192,193647,1,8,0:0:0:0:
256,192,193814,1,0,0:0:0:0:
256,192,193980,1,0,0:0:0:0:
256,192,194314,1,8,0:0:0:0:
256,192,194480,1,0,0:0:0:0:
256,192,194647,1,0,0:0:0:0:
256,192,194980,1,8,0:0:0:0:
256,192,195147,1,8,0:0:0:0:
256,192,195314,1,0,0:0:0:0:
256,192,195480,1,0,0:0:0:0:
256,192,195564,1,0,0:0:0:0:
256,192,195647,1,0,0:0:0:0:
256,192,195730,1,0,0:0:0:0:
256,192,195814,1,8,0:0:0:0:
256,192,196147,1,0,0:0:0:0:
256,192,196314,1,8,0:0:0:0:
256,192,196647,1,0,0:0:0:0:
256,192,196814,1,8,0:0:0:0:
256,192,196897,1,8,0:0:0:0:
256,192,196980,1,0,0:0:0:0:
256,192,197064,1,0,0:0:0:0:
256,192,197147,1,8,0:0:0:0:
256,192,197480,1,8,0:0:0:0:
256,192,197564,1,0,0:0:0:0:
256,192,197647,1,0,0:0:0:0:
256,192,197730,1,0,0:0:0:0:
256,192,197814,1,8,0:0:0:0:
256,192,197980,1,8,0:0:0:0:
256,192,198064,1,8,0:0:0:0:
256,192,198147,1,0,0:0:0:0:
256,192,198480,1,8,0:0:0:0:
256,192,198814,1,0,0:0:0:0:
256,192,198980,1,8,0:0:0:0:
256,192,199147,1,0,0:0:0:0:
256,192,199314,1,0,0:0:0:0:
256,192,199647,1,8,0:0:0:0:
256,192,199814,1,0,0:0:0:0:
256,192,199980,1,0,0:0:0:0:
256,192,200314,1,8,0:0:0:0:
256,192,200480,1,8,0:0:0:0:
256,192,200647,1,0,0:0:0:0:
256,192,200814,1,0,0:0:0:0:
256,192,200897,1,0,0:0:0:0:
256,192,200980,1,0,0:0:0:0:
256,192,201064,1,0,0:0:0:0:
256,192,201147,1,8,0:0:0:0:
256,192,201480,1,0,0:0:0:0:
256,192,201647,1,8,0:0:0:0:
256,192,201980,1,0,0:0:0:0:
256,192,202147,1,8,0:0:0:0:
256,192,202230,1,8,0:0:0:0:
256,192,202314,1,0,0:0:0:0:
256,192,202397,1,0,0:0:0:0:
256,192,202480,1,8,0:0:0:0:
256,192,202814,1,8,0:0:0:0:
256,192,202897,1,0,0:0:0:0:
256,192,202980,1,0,0:0:0:0:
256,192,203064,1,0,0:0:0:0:
256,192,203147,1,8,0:0:0:0:
256,192,203314,1,8,0:0:0:0:
256,192,203397,1,8,0:0:0:0:
256,192,203480,1,0,0:0:0:0:
256,192,203647,1,0,0:0:0:0:
256,192,203814,1,8,0:0:0:0:
256,192,203897,1,8,0:0:0:0:
256,192,203980,1,8,0:0:0:0:
256,192,204147,1,0,0:0:0:0:
256,192,204314,1,0,0:0:0:0:
256,192,204480,1,8,0:0:0:0:
256,192,204647,1,0,0:0:0:0:
256,192,204730,1,0,0:0:0:0:
256,192,204814,1,0,0:0:0:0:
256,192,204980,1,0,0:0:0:0:
256,192,205147,1,8,0:0:0:0:
256,192,205230,1,8,0:0:0:0:
256,192,205314,1,8,0:0:0:0:
256,192,205480,1,0,0:0:0:0:
256,192,205647,1,0,0:0:0:0:
256,192,205814,1,8,0:0:0:0:
256,192,205980,1,0,0:0:0:0:
256,192,206147,1,0,0:0:0:0:
256,192,206230,1,0,0:0:0:0:
256,192,206314,1,0,0:0:0:0:
256,192,206397,1,0,0:0:0:0:
256,192,206480,1,8,0:0:0:0:
256,192,206647,1,0,0:0:0:0:
256,192,206814,1,0,0:0:0:0:
256,192,206980,1,8,0:0:0:0:
256,192,207147,1,8,0:0:0:0:
256,192,207314,1,0,0:0:0:0:
256,192,207480,1,0,0:0:0:0:
256,192,207564,1,0,0:0:0:0:
256,192,207647,1,0,0:0:0:0:
256,192,207730,1,0,0:0:0:0:
256,192,207814,1,8,0:0:0:0:
256,192,207980,1,0,0:0:0:0:
256,192,208147,1,0,0:0:0:0:
256,192,208230,1,0,0:0:0:0:
256,192,208314,1,0,0:0:0:0:
256,192,208397,1,0,0:0:0:0:
256,192,208480,1,8,0:0:0:0:
256,192,208647,1,8,0:0:0:0:
256,192,208730,1,0,0:0:0:0:
256,192,208814,1,0,0:0:0:0:
256,192,208980,1,0,0:0:0:0:
256,192,209147,1,8,0:0:0:0:
256,192,209230,5,8,0:0:0:0:
256,192,209314,1,8,0:0:0:0:
256,192,209480,1,0,0:0:0:0:
256,192,209647,1,0,0:0:0:0:
256,192,209814,1,8,0:0:0:0:
256,192,209980,1,0,0:0:0:0:
256,192,210064,1,0,0:0:0:0:
256,192,210147,1,0,0:0:0:0:
256,192,210314,1,0,0:0:0:0:
256,192,210480,1,8,0:0:0:0:
256,192,210564,1,8,0:0:0:0:
256,192,210647,1,8,0:0:0:0:
256,192,210814,1,0,0:0:0:0:
256,192,210980,1,0,0:0:0:0:
256,192,211147,1,8,0:0:0:0:
256,192,211314,1,0,0:0:0:0:
256,192,211480,1,0,0:0:0:0:
256,192,211564,1,0,0:0:0:0:
256,192,211647,1,0,0:0:0:0:
256,192,211730,1,0,0:0:0:0:
256,192,211814,1,8,0:0:0:0:
256,192,211980,1,0,0:0:0:0:
256,192,212147,1,0,0:0:0:0:
256,192,212314,1,8,0:0:0:0:
256,192,212480,1,8,0:0:0:0:
256,192,212647,1,0,0:0:0:0:
256,192,212814,1,0,0:0:0:0:
256,192,212897,1,0,0:0:0:0:
256,192,212980,1,0,0:0:0:0:
256,192,213064,1,0,0:0:0:0:
256,192,213147,1,8,0:0:0:0:
256,192,213314,1,0,0:0:0:0:
256,192,213480,1,0,0:0:0:0:
256,192,213564,1,0,0:0:0:0:
256,192,213647,1,0,0:0:0:0:
256,192,213730,1,0,0:0:0:0:
256,192,213814,1,8,0:0:0:0:
256,192,213980,1,8,0:0:0:0:
256,192,214064,1,8,0:0:0:0:
256,192,214147,1,0,0:0:0:0:
256,192,214480,1,8,0:0:0:0:
256,192,214647,1,8,0:0:0:0:
256,192,214814,1,0,0:0:0:0:
256,192,214980,1,0,0:0:0:0:
256,192,215147,1,8,0:0:0:0:
256,192,215314,1,0,0:0:0:0:
256,192,215480,1,8,0:0:0:0:
256,192,215647,1,0,0:0:0:0:
256,192,215814,1,8,0:0:0:0:
256,192,215980,1,0,0:0:0:0:
256,192,216147,1,0,0:0:0:0:
256,192,216314,1,0,0:0:0:0:
256,192,216480,1,8,0:0:0:0:
256,192,216647,1,0,0:0:0:0:
256,192,216814,1,8,0:0:0:0:
256,192,216980,1,0,0:0:0:0:
256,192,217147,1,8,0:0:0:0:
256,192,217314,1,8,0:0:0:0:
256,192,217480,1,0,0:0:0:0:
256,192,217647,1,0,0:0:0:0:
256,192,217814,1,8,0:0:0:0:
256,192,217980,1,0,0:0:0:0:
256,192,218147,1,0,0:0:0:0:
256,192,218230,1,0,0:0:0:0:
256,192,218314,1,0,0:0:0:0:
256,192,218397,1,0,0:0:0:0:
256,192,218480,1,8,0:0:0:0:
256,192,218647,1,0,0:0:0:0:
256,192,218814,1,0,0:0:0:0:
256,192,218897,1,0,0:0:0:0:
256,192,218980,1,0,0:0:0:0:
256,192,219064,1,0,0:0:0:0:
256,192,219147,1,8,0:0:0:0:
256,192,219314,1,8,0:0:0:0:
256,192,219480,1,4,0:0:0:0:
256,192,219814,1,8,0:0:0:0:
256,192,219980,1,0,0:0:0:0:
256,192,220147,1,0,0:0:0:0:
256,192,220314,1,0,0:0:0:0:
256,192,220480,1,8,0:0:0:0:
256,192,220647,1,0,0:0:0:0:
256,192,220814,1,8,0:0:0:0:
256,192,220980,1,0,0:0:0:0:
256,192,221147,1,8,0:0:0:0:
256,192,221314,1,8,0:0:0:0:
256,192,221480,1,0,0:0:0:0:
256,192,221647,1,0,0:0:0:0:
256,192,221814,1,8,0:0:0:0:
256,192,221980,1,0,0:0:0:0:
256,192,222147,1,8,0:0:0:0:
256,192,222314,1,0,0:0:0:0:
256,192,222480,1,8,0:0:0:0:
256,192,222647,1,8,0:0:0:0:
256,192,222814,1,0,0:0:0:0:
256,192,222980,1,0,0:0:0:0:
256,192,223147,1,8,0:0:0:0:
256,192,223314,1,0,0:0:0:0:
256,192,223480,1,0,0:0:0:0:
256,192,223564,1,0,0:0:0:0:
256,192,223647,1,0,0:0:0:0:
256,192,223730,1,0,0:0:0:0:
256,192,223814,1,8,0:0:0:0:
256,192,223980,1,0,0:0:0:0:
256,192,224147,1,0,0:0:0:0:
256,192,224230,1,0,0:0:0:0:
256,192,224314,1,0,0:0:0:0:
256,192,224397,1,0,0:0:0:0:
256,192,224480,1,8,0:0:0:0:
256,192,224647,1,8,0:0:0:0:
256,192,224814,1,4,0:0:0:0:
256,192,225147,1,8,0:0:0:0:
256,192,225314,1,0,0:0:0:0:
256,192,225480,1,0,0:0:0:0:
256,192,225647,1,0,0:0:0:0:
256,192,225814,1,8,0:0:0:0:
256,192,225980,1,0,0:0:0:0:
256,192,226147,1,0,0:0:0:0:
256,192,226480,1,8,0:0:0:0:
256,192,226647,1,8,0:0:0:0:
256,192,226814,1,0,0:0:0:0:
256,192,226980,1,0,0:0:0:0:
256,192,227147,1,8,0:0:0:0:
256,192,227314,1,8,0:0:0:0:
256,192,227480,1,0,0:0:0:0:
256,192,227814,1,8,0:0:0:0:
256,192,227980,1,0,0:0:0:0:
256,192,228147,1,8,0:0:0:0:
256,192,228314,1,8,0:0:0:0:
256,192,228480,1,8,0:0:0:0:
256,192,228647,1,0,0:0:0:0:
256,192,228814,1,12,0:0:0:0:
256,192,228980,1,0,0:0:0:0:
256,192,229147,1,0,0:0:0:0:
256,192,229314,1,12,0:0:0:0:
256,192,229480,1,0,0:0:0:0:
256,192,229564,1,0,0:0:0:0:
256,192,229647,1,0,0:0:0:0:
256,192,229814,1,12,0:0:0:0:
256,192,229980,1,0,0:0:0:0:
256,192,230147,1,12,0:0:0:0:
256,192,230480,1,0,0:0:0:0:
256,192,230814,1,0,0:0:0:0:
256,192,230980,1,0,0:0:0:0:
256,192,231147,1,0,0:0:0:0:
256,192,231480,1,0,0:0:0:0:
256,192,231814,1,0,0:0:0:0:
256,192,231980,1,0,0:0:0:0:
256,192,232064,1,0,0:0:0:0:
256,192,232147,1,8,0:0:0:0:
256,192,232814,5,4,0:0:0:0:
256,192,232980,1,8,0:0:0:0:
256,192,233147,1,0,0:0:0:0:
256,192,233230,1,0,0:0:0:0:
256,192,233314,1,8,0:0:0:0:
256,192,233480,1,0,0:0:0:0:
256,192,233647,1,8,0:0:0:0:
256,192,233730,1,8,0:0:0:0:
256,192,233814,1,0,0:0:0:0:
256,192,233897,1,0,0:0:0:0:
256,192,233980,1,8,0:0:0:0:
256,192,234147,1,4,0:0:0:0:
256,192,234314,1,8,0:0:0:0:
256,192,234480,1,0,0:0:0:0:
256,192,234564,1,0,0:0:0:0:
256,192,234647,1,8,0:0:0:0:
256,192,234814,1,0,0:0:0:0:
256,192,234980,1,8,0:0:0:0:
256,192,235064,1,0,0:0:0:0:
256,192,235147,1,0,0:0:0:0:
256,192,235230,1,0,0:0:0:0:
256,192,235314,1,8,0:0:0:0:
256,192,235480,1,4,0:0:0:0:
256,192,235647,1,8,0:0:0:0:
256,192,235814,1,0,0:0:0:0:
256,192,235897,1,0,0:0:0:0:
256,192,235980,1,8,0:0:0:0:
256,192,236064,1,8,0:0:0:0:
256,192,236147,1,0,0:0:0:0:
256,192,236314,1,8,0:0:0:0:
256,192,236397,1,0,0:0:0:0:
256,192,236564,1,0,0:0:0:0:
256,192,236647,1,8,0:0:0:0:
256,192,236814,1,0,0:0:0:0:
256,192,236980,1,12,0:0:0:0:
256,192,237147,1,0,0:0:0:0:
256,192,237230,1,0,0:0:0:0:
256,192,237314,1,8,0:0:0:0:
256,192,237397,1,0,0:0:0:0:
256,192,237480,1,0,0:0:0:0:
256,192,237647,1,12,0:0:0:0:
256,192,237980,1,8,0:0:0:0:
256,192,238147,1,4,0:0:0:0:
256,192,238314,1,8,0:0:0:0:
256,192,238480,1,0,0:0:0:0:
256,192,238564,1,0,0:0:0:0:
256,192,238647,1,8,0:0:0:0:
256,192,238814,1,0,0:0:0:0:
256,192,238980,1,8,0:0:0:0:
256,192,239064,1,8,0:0:0:0:
256,192,239147,1,0,0:0:0:0:
256,192,239230,1,0,0:0:0:0:
256,192,239314,1,8,0:0:0:0:
256,192,239480,1,4,0:0:0:0:
256,192,239647,1,8,0:0:0:0:
256,192,239814,1,0,0:0:0:0:
256,192,239897,1,0,0:0:0:0:
256,192,239980,1,8,0:0:0:0:
256,192,240147,1,0,0:0:0:0:
256,192,240314,1,8,0:0:0:0:
256,192,240397,1,0,0:0:0:0:
256,192,240480,1,0,0:0:0:0:
256,192,240564,1,0,0:0:0:0:
256,192,240647,1,8,0:0:0:0:
256,192,240814,1,4,0:0:0:0:
256,192,240980,1,8,0:0:0:0:
256,192,241064,1,8,0:0:0:0:
256,192,241147,1,0,0:0:0:0:
256,192,241230,1,0,0:0:0:0:
256,192,241314,1,8,0:0:0:0:
256,192,241397,1,0,0:0:0:0:
256,192,241480,1,0,0:0:0:0:
256,192,241647,1,8,0:0:0:0:
256,192,241730,1,0,0:0:0:0:
256,192,241897,1,0,0:0:0:0:
256,192,241980,1,8,0:0:0:0:
256,192,242147,1,0,0:0:0:0:
256,192,242314,1,12,0:0:0:0:
256,192,242480,1,0,0:0:0:0:
256,192,242564,1,0,0:0:0:0:
256,192,242647,1,8,0:0:0:0:
256,192,242814,1,0,0:0:0:0:
256,192,242980,1,12,0:0:0:0:
256,192,243314,1,8,0:0:0:0:
256,192,243480,1,4,0:0:0:0:
256,192,243647,1,8,0:0:0:0:
256,192,243897,1,0,0:0:0:0:
256,192,243980,1,8,0:0:0:0:
256,192,244147,1,0,0:0:0:0:
256,192,244314,1,8,0:0:0:0:
256,192,244480,1,8,0:0:0:0:
256,192,244564,1,0,0:0:0:0:
256,192,244647,1,8,0:0:0:0:
256,192,244814,1,4,0:0:0:0:
256,192,244980,1,8,0:0:0:0:
256,192,245147,1,0,0:0:0:0:
256,192,245230,1,0,0:0:0:0:
256,192,245314,1,8,0:0:0:0:
256,192,245480,1,0,0:0:0:0:
256,192,245647,1,8,0:0:0:0:
256,192,245730,1,8,0:0:0:0:
256,192,245814,1,0,0:0:0:0:
256,192,245980,1,8,0:0:0:0:
256,192,246147,1,4,0:0:0:0:
256,192,246314,1,8,0:0:0:0:
256,192,246397,1,0,0:0:0:0:
256,192,246480,1,0,0:0:0:0:
256,192,246564,1,0,0:0:0:0:
256,192,246647,1,8,0:0:0:0:
256,192,246730,1,8,0:0:0:0:
256,192,246814,1,0,0:0:0:0:
256,192,246980,1,8,0:0:0:0:
256,192,247064,1,0,0:0:0:0:
256,192,247230,1,0,0:0:0:0:
256,192,247314,1,8,0:0:0:0:
256,192,247480,1,4,0:0:0:0:
256,192,247647,1,8,0:0:0:0:
256,192,247814,1,0,0:0:0:0:
256,192,247897,1,0,0:0:0:0:
256,192,247980,1,8,0:0:0:0:
256,192,248064,1,8,0:0:0:0:
256,192,248147,1,0,0:0:0:0:
256,192,248314,1,8,0:0:0:0:
256,192,248397,1,8,0:0:0:0:
256,192,248480,1,0,0:0:0:0:
256,192,248564,1,0,0:0:0:0:
256,192,248647,1,8,0:0:0:0:
256,192,248814,1,4,0:0:0:0:
256,192,248980,1,8,0:0:0:0:
256,192,249230,1,0,0:0:0:0:
256,192,249314,1,8,0:0:0:0:
256,192,249480,1,0,0:0:0:0:
256,192,249647,1,8,0:0:0:0:
256,192,249814,1,0,0:0:0:0:
256,192,249897,1,0,0:0:0:0:
256,192,249980,1,8,0:0:0:0:
256,192,250147,1,4,0:0:0:0:
256,192,250314,1,8,0:0:0:0:
256,192,250480,1,0,0:0:0:0:
256,192,250564,1,0,0:0:0:0:
256,192,250647,1,8,0:0:0:0:
256,192,250814,1,0,0:0:0:0:
256,192,250980,1,8,0:0:0:0:
256,192,251064,1,8,0:0:0:0:
256,192,251147,1,0,0:0:0:0:
256,192,251314,1,8,0:0:0:0:
256,192,251480,1,4,0:0:0:0:
256,192,251647,1,8,0:0:0:0:
256,192,251730,1,8,0:0:0:0:
256,192,251814,1,0,0:0:0:0:
256,192,251897,1,0,0:0:0:0:
256,192,251980,1,8,0:0:0:0:
256,192,252147,1,0,0:0:0:0:
256,192,252314,1,8,0:0:0:0:
256,192,252397,1,0,0:0:0:0:
256,192,252480,1,0,0:0:0:0:
256,192,252564,1,8,0:0:0:0:
256,192,252647,1,8,0:0:0:0:
256,192,252814,1,0,0:0:0:0:
256,192,252897,1,0,0:0:0:0:
256,192,252980,1,8,0:0:0:0:
256,192,253064,1,0,0:0:0:0:
256,192,253147,1,0,0:0:0:0:
256,192,253230,1,0,0:0:0:0:
256,192,253314,1,8,0:0:0:0:
256,192,253397,1,8,0:0:0:0:
256,192,253480,1,0,0:0:0:0:
256,192,253564,1,0,0:0:0:0:
256,192,253647,1,8,0:0:0:0:
256,192,253730,1,0,0:0:0:0:
256,192,253814,1,0,0:0:0:0:
256,192,253897,1,0,0:0:0:0:
256,192,253980,1,8,0:0:0:0:
256,192,254147,1,8,0:0:0:0:
256,192,254230,1,0,0:0:0:0:
256,192,254314,1,8,0:0:0:0:
256,192,254397,1,8,0:0:0:0:
256,192,254480,1,0,0:0:0:0:
256,192,254564,1,0,0:0:0:0:
256,192,254647,1,8,0:0:0:0:
256,192,254730,1,0,0:0:0:0:
256,192,254814,1,8,0:0:0:0:
256,192,254897,1,8,0:0:0:0:
256,192,254980,1,0,0:0:0:0:
256,192,255064,1,8,0:0:0:0:
256,192,255147,1,8,0:0:0:0:
256,192,255230,1,0,0:0:0:0:
256,192,255314,1,8,0:0:0:0:
256,192,255397,1,8,0:0:0:0:
256,192,255480,1,0,0:0:0:0:
256,192,255564,1,0,0:0:0:0:
256,192,255647,1,8,0:0:0:0:
256,192,255730,1,0,0:0:0:0:
256,192,255814,1,0,0:0:0:0:
256,192,255897,1,0,0:0:0:0:
256,192,255980,1,8,0:0:0:0:
256,192,256064,1,8,0:0:0:0:
256,192,256147,1,0,0:0:0:0:
256,192,256230,1,0,0:0:0:0:
256,192,256314,1,0,0:0:0:0:
256,192,256397,1,0,0:0:0:0:
256,192,256480,1,8,0:0:0:0:
256,192,256564,1,8,0:0:0:0:
256,192,256647,1,8,0:0:0:0:
256,192,256730,1,8,0:0:0:0:
256,192,256814,1,0,0:0:0:0:
256,192,257147,1,0,0:0:0:0:
256,192,257314,1,0,0:0:0:0:
256,192,257397,1,0,0:0:0:0:
256,192,257480,1,0,0:0:0:0:
256,192,257647,1,0,0:0:0:0:
256,192,257814,1,12,0:0:0:0:
256,192,258147,1,0,0:0:0:0:
256,192,258314,1,0,0:0:0:0:
256,192,258647,1,0,0:0:0:0:
256,192,258814,1,8,0:0:0:0:
256,192,258980,1,0,0:0:0:0:
256,192,259147,1,12,0:0:0:0:
256,192,259314,1,0,0:0:0:0:
256,192,259480,1,12,0:0:0:0:
256,192,259814,1,0,0:0:0:0:
256,192,259980,1,0,0:0:0:0:
256,192,260064,1,0,0:0:0:0:
256,192,260147,1,0,0:0:0:0:
256,192,260314,5,0,0:0:0:0:
256,192,260480,1,12,0:0:0:0:
256,192,260814,1,8,0:0:0:0:
256,192,260980,1,0,0:0:0:0:
256,192,261147,1,0,0:0:0:0:
256,192,261314,1,8,0:0:0:0:
256,192,261397,1,0,0:0:0:0:
256,192,261480,1,0,0:0:0:0:
256,192,261647,1,0,0:0:0:0:
256,192,261814,1,8,0:0:0:0:
256,192,261980,1,0,0:0:0:0:
256,192,262147,1,12,0:0:0:0:
256,192,262480,1,0,0:0:0:0:
256,192,262647,1,0,0:0:0:0:
256,192,262730,1,0,0:0:0:0:
256,192,262814,1,0,0:0:0:0:
256,192,262980,1,0,0:0:0:0:
256,192,263147,1,12,0:0:0:0:
256,192,263480,1,0,0:0:0:0:
256,192,263647,1,0,0:0:0:0:
256,192,263980,1,0,0:0:0:0:
256,192,264147,1,8,0:0:0:0:
256,192,264314,1,0,0:0:0:0:
256,192,264480,1,12,0:0:0:0:
256,192,264647,1,0,0:0:0:0:
256,192,264814,1,12,0:0:0:0:
256,192,264980,1,0,0:0:0:0:
256,192,265147,1,0,0:0:0:0:
256,192,265230,1,0,0:0:0:0:
256,192,265314,1,0,0:0:0:0:
256,192,265397,1,0,0:0:0:0:
256,192,265480,1,0,0:0:0:0:
256,192,265647,5,0,0:0:0:0:
256,192,265814,1,12,0:0:0:0:
256,192,265980,1,0,0:0:0:0:
256,192,266147,1,12,0:0:0:0:
256,192,266314,1,0,0:0:0:0:
256,192,266397,1,0,0:0:0:0:
256,192,266480,1,8,0:0:0:0:
256,192,266564,1,8,0:0:0:0:
256,192,266647,1,8,0:0:0:0:
256,192,266730,1,8,0:0:0:0:
256,192,266814,1,8,0:0:0:0:
256,192,266897,1,8,0:0:0:0:
256,192,266980,1,0,0:0:0:0:
256,192,267064,1,0,0:0:0:0:
256,192,267147,1,0,0:0:0:0:
256,192,267230,1,0,0:0:0:0:
256,192,267314,1,0,0:0:0:0:
256,192,267397,1,0,0:0:0:0:
256,192,267480,1,8,0:0:0:0:
256,192,267647,1,0,0:0:0:0:
256,192,267730,1,0,0:0:0:0:
256,192,267814,1,8,0:0:0:0:
256,192,267980,1,0,0:0:0:0:
256,192,268147,1,8,0:0:0:0:
256,192,268314,1,0,0:0:0:0:
256,192,268397,1,0,0:0:0:0:
256,192,268480,1,8,0:0:0:0:
256,192,268564,1,8,0:0:0:0:
256,192,268647,1,0,0:0:0:0:
256,192,268814,1,8,0:0:0:0:
256,192,268980,1,0,0:0:0:0:
256,192,269064,1,0,0:0:0:0:
256,192,269147,1,8,0:0:0:0:
256,192,269314,1,0,0:0:0:0:
256,192,269480,1,8,0:0:0:0:
256,192,269564,1,8,0:0:0:0:
256,192,269647,1,0,0:0:0:0:
256,192,269730,1,0,0:0:0:0:
256,192,269814,1,8,0:0:0:0:
256,192,269980,1,0,0:0:0:0:
256,192,270147,1,8,0:0:0:0:
256,192,270314,1,0,0:0:0:0:
256,192,270397,1,0,0:0:0:0:
256,192,270480,1,8,0:0:0:0:
256,192,270647,1,0,0:0:0:0:
256,192,270814,1,8,0:0:0:0:
256,192,270980,1,0,0:0:0:0:
256,192,271064,1,0,0:0:0:0:
256,192,271147,5,8,0:0:0:0:
256,192,271230,1,8,0:0:0:0:
256,192,271314,1,0,0:0:0:0:
256,192,271480,1,8,0:0:0:0:
256,192,271647,1,0,0:0:0:0:
256,192,271730,1,0,0:0:0:0:
256,192,271814,1,8,0:0:0:0:
256,192,271980,1,0,0:0:0:0:
256,192,272147,2,0,L|256:256,6,35
256,192,272814,5,8,0:0:0:0:
256,192,272897,1,0,0:0:0:0:
256,192,272980,1,0,0:0:0:0:
256,192,273064,1,0,0:0:0:0:
256,192,273147,1,8,0:0:0:0:
256,192,273230,1,0,0:0:0:0:
256,192,273314,1,0,0:0:0:0:
256,192,273397,1,0,0:0:0:0:
256,192,273480,1,8,0:0:0:0:
256,192,273564,1,0,0:0:0:0:
256,192,273647,1,0,0:0:0:0:
256,192,273730,1,0,0:0:0:0:
256,192,273814,1,8,0:0:0:0:
256,192,273897,1,8,0:0:0:0:
256,192,273980,1,0,0:0:0:0:
256,192,274064,1,0,0:0:0:0:
256,192,274147,1,8,0:0:0:0:
256,192,274230,1,0,0:0:0:0:
256,192,274314,1,0,0:0:0:0:
256,192,274397,1,0,0:0:0:0:
256,192,274480,1,8,0:0:0:0:
256,192,274564,1,0,0:0:0:0:
256,192,274647,1,0,0:0:0:0:
256,192,274730,1,0,0:0:0:0:
256,192,274814,1,8,0:0:0:0:
256,192,274897,1,0,0:0:0:0:
256,192,274980,1,0,0:0:0:0:
256,192,275064,1,0,0:0:0:0:
256,192,275147,1,8,0:0:0:0:
256,192,275230,1,8,0:0:0:0:
256,192,275314,1,0,0:0:0:0:
256,192,275397,1,0,0:0:0:0:
256,192,275480,1,8,0:0:0:0:
256,192,275564,1,0,0:0:0:0:
256,192,275647,1,0,0:0:0:0:
256,192,275730,1,0,0:0:0:0:
256,192,275814,1,8,0:0:0:0:
256,192,275897,1,0,0:0:0:0:
256,192,275980,1,0,0:0:0:0:
256,192,276064,1,0,0:0:0:0:
256,192,276147,1,8,0:0:0:0:
256,192,276230,1,0,0:0:0:0:
256,192,276314,1,0,0:0:0:0:
256,192,276397,1,0,0:0:0:0:
256,192,276480,1,8,0:0:0:0:
256,192,276564,1,8,0:0:0:0:
256,192,276647,1,0,0:0:0:0:
256,192,276730,1,0,0:0:0:0:
256,192,276814,1,8,0:0:0:0:
256,192,276897,1,0,0:0:0:0:
256,192,276980,1,0,0:0:0:0:
256,192,277064,1,0,0:0:0:0:
256,192,277147,1,8,0:0:0:0:
256,192,277230,1,0,0:0:0:0:
256,192,277314,1,8,0:0:0:0:
256,192,277397,1,0,0:0:0:0:
256,192,277480,5,8,0:0:0:0:
256,192,277564,5,8,0:0:0:0:
256,192,277647,5,8,0:0:0:0:
256,192,277730,5,8,0:0:0:0:
256,192,277814,1,0,0:0:0:0:
256,192,277897,1,0,0:0:0:0:
256,192,277980,1,0,0:0:0:0:
256,192,278147,5,0,0:0:0:0:
256,192,278230,1,0,0:0:0:0:
256,192,278314,5,8,0:0:0:0:
256,192,278397,1,0,0:0:0:0:
256,192,278480,1,0,0:0:0:0:
256,192,278564,1,0,0:0:0:0:
256,192,278647,1,8,0:0:0:0:
256,192,278730,1,0,0:0:0:0:
256,192,278814,1,0,0:0:0:0:
256,192,278897,1,0,0:0:0:0:
256,192,278980,1,8,0:0:0:0:
256,192,279064,1,0,0:0:0:0:
256,192,279147,1,0,0:0:0:0:
256,192,279230,1,0,0:0:0:0:
256,192,279314,5,8,0:0:0:0:
256,192,279397,1,0,0:0:0:0:
256,192,279480,1,0,0:0:0:0:
256,192,279564,1,0,0:0:0:0:
256,192,279647,1,8,0:0:0:0:
256,192,279730,1,0,0:0:0:0:
256,192,279814,1,0,0:0:0:0:
256,192,279897,1,0,0:0:0:0:
256,192,279980,1,8,0:0:0:0:
256,192,280064,1,8,0:0:0:0:
256,192,280147,1,0,0:0:0:0:
256,192,280230,1,0,0:0:0:0:
256,192,280314,5,8,0:0:0:0:
256,192,280397,1,8,0:0:0:0:
256,192,280480,1,0,0:0:0:0:
256,192,280564,1,8,0:0:0:0:
256,192,280647,1,8,0:0:0:0:
256,192,280730,1,0,0:0:0:0:
256,192,280814,1,8,0:0:0:0:
256,192,280897,1,0,0:0:0:0:
256,192,280980,1,8,0:0:0:0:
256,192,281064,1,8,0:0:0:0:
256,192,281147,1,0,0:0:0:0:
256,192,281230,1,0,0:0:0:0:
256,192,281314,5,8,0:0:0:0:
256,192,281397,1,8,0:0:0:0:
256,192,281480,1,8,0:0:0:0:
256,192,281564,1,8,0:0:0:0:
256,192,281647,1,8,0:0:0:0:
256,192,281730,1,0,0:0:0:0:
256,192,281814,1,0,0:0:0:0:
256,192,281897,1,0,0:0:0:0:
256,192,281980,1,8,0:0:0:0:
256,192,282064,1,0,0:0:0:0:
256,192,282147,1,8,0:0:0:0:
256,192,282314,5,12,0:0:0:0:
256,192,282647,1,12,0:0:0:0:
256,192,282980,1,12,0:0:0:0:
256,192,283147,1,0,0:0:0:0:
256,192,283314,1,12,0:0:0:0:
256,192,283480,1,0,0:0:0:0:
256,192,283564,1,8,0:0:0:0:
256,192,283647,5,8,0:0:0:0:
256,192,283730,1,8,0:0:0:0:
256,192,283814,1,0,0:0:0:0:
256,192,283897,1,8,0:0:0:0:
256,192,283980,1,8,0:0:0:0:
256,192,284064,1,8,0:0:0:0:
256,192,284147,1,0,0:0:0:0:
256,192,284230,1,0,0:0:0:0:
256,192,284314,1,8,0:0:0:0:
256,192,284397,1,8,0:0:0:0:
256,192,284480,1,0,0:0:0:0:
256,192,284564,1,0,0:0:0:0:
256,192,284647,5,8,0:0:0:0:
256,192,284730,1,8,0:0:0:0:
256,192,284814,1,0,0:0:0:0:
256,192,284897,1,8,0:0:0:0:
256,192,284980,1,8,0:0:0:0:
256,192,285064,1,8,0:0:0:0:
256,192,285147,1,0,0:0:0:0:
256,192,285230,1,0,0:0:0:0:
256,192,285314,1,8,0:0:0:0:
256,192,285397,1,0,0:0:0:0:
256,192,285480,1,0,0:0:0:0:
256,192,285564,1,8,0:0:0:0:
256,192,285647,1,8,0:0:0:0:
256,192,285730,1,8,0:0:0:0:
256,192,285814,1,0,0:0:0:0:
256,192,285897,1,0,0:0:0:0:
256,192,285980,1,8,0:0:0:0:
256,192,286147,1,4,0:0:0:0:
256,192,286314,1,8,0:0:0:0:
256,192,286397,1,0,0:0:0:0:
256,192,286480,1,8,0:0:0:0:
256,192,286564,1,8,0:0:0:0:
256,192,286647,1,0,0:0:0:0:
256,192,286730,1,0,0:0:0:0:
256,192,286814,1,8,0:0:0:0:
256,192,286897,1,0,0:0:0:0:
256,192,286980,1,0,0:0:0:0:
256,192,287147,1,12,0:0:0:0:
256,192,287314,1,12,0:0:0:0:
256,192,287480,1,0,0:0:0:0:
256,192,287647,1,12,0:0:0:0:
256,192,287814,1,0,0:0:0:0:
256,192,287897,1,0,0:0:0:0:
256,192,287980,1,8,0:0:0:0:
256,192,288147,1,0,0:0:0:0:
256,192,288230,1,0,0:0:0:0:
256,192,288314,1,8,0:0:0:0:
256,192,288480,1,8,0:0:0:0:
256,192,288564,1,8,0:0:0:0:
256,192,288647,1,8,0:0:0:0:
256,192,288730,1,8,0:0:0:0:
256,192,288814,1,0,0:0:0:0:
256,192,289147,1,8,0:0:0:0:
256,192,289480,1,0,0:0:0:0:
256,192,289647,1,0,0:0:0:0:
256,192,289814,1,8,0:0:0:0:
256,192,290147,1,0,0:0:0:0:
256,192,290480,1,8,0:0:0:0:
256,192,290814,1,0,0:0:0:0:
256,192,290980,1,0,0:0:0:0:
256,192,291147,1,8,0:0:0:0:
256,192,291314,1,8,0:0:0:0:
256,192,291397,1,8,0:0:0:0:
256,192,291480,1,0,0:0:0:0:
256,192,291647,1,0,0:0:0:0:
256,192,291814,1,8,0:0:0:0:
256,192,292147,1,0,0:0:0:0:
256,192,292314,1,0,0:0:0:0:
256,192,292480,1,8,0:0:0:0:
256,192,292814,1,8,0:0:0:0:
256,192,292897,1,8,0:0:0:0:
256,192,292980,1,0,0:0:0:0:
256,192,293064,1,0,0:0:0:0:
256,192,293147,1,8,0:0:0:0:
256,192,293480,1,8,0:0:0:0:
256,192,293564,1,0,0:0:0:0:
256,192,293647,1,0,0:0:0:0:
256,192,293730,1,0,0:0:0:0:
256,192,293814,1,8,0:0:0:0:
256,192,293980,1,8,0:0:0:0:
256,192,294064,1,8,0:0:0:0:
256,192,294147,1,0,0:0:0:0:
256,192,294230,1,0,0:0:0:0:
256,192,294314,1,0,0:0:0:0:
256,192,294397,1,0,0:0:0:0:
256,192,294480,1,8,0:0:0:0:
256,192,294814,1,0,0:0:0:0:
256,192,294980,1,0,0:0:0:0:
256,192,295147,1,8,0:0:0:0:
256,192,295314,1,8,0:0:0:0:
256,192,295480,1,0,0:0:0:0:
256,192,295647,1,0,0:0:0:0:
256,192,295814,1,8,0:0:0:0:
256,192,296147,1,0,0:0:0:0:
256,192,296314,1,0,0:0:0:0:
256,192,296480,1,8,0:0:0:0:
256,192,296647,1,8,0:0:0:0:
256,192,296814,1,8,0:0:0:0:
256,192,296897,1,8,0:0:0:0:
256,192,296980,1,0,0:0:0:0:
256,192,297064,1,0,0:0:0:0:
256,192,297147,1,8,0:0:0:0:
256,192,297480,1,8,0:0:0:0:
256,192,297564,1,0,0:0:0:0:
256,192,297647,1,0,0:0:0:0:
256,192,297730,1,0,0:0:0:0:
256,192,297814,1,8,0:0:0:0:
256,192,297980,1,8,0:0:0:0:
256,192,298147,1,8,0:0:0:0:
256,192,298230,1,0,0:0:0:0:
256,192,298314,1,0,0:0:0:0:
256,192,298397,1,0,0:0:0:0:
256,192,298480,1,8,0:0:0:0:
256,192,298564,1,0,0:0:0:0:
256,192,298647,1,0,0:0:0:0:
256,192,298730,1,0,0:0:0:0:
256,192,298814,1,8,0:0:0:0:
256,192,298897,1,8,0:0:0:0:
256,192,298980,1,0,0:0:0:0:
256,192,299064,1,8,0:0:0:0:
256,192,299147,1,8,0:0:0:0:
256,192,299230,1,0,0:0:0:0:
256,192,299314,1,0,0:0:0:0:
256,192,299480,1,12,0:0:0:0:
256,192,299647,1,8,0:0:0:0:
256,192,299730,1,0,0:0:0:0:
256,192,299814,1,8,0:0:0:0:
256,192,299897,1,8,0:0:0:0:
256,192,299980,1,0,0:0:0:0:
256,192,300147,1,8,0:0:0:0:
256,192,300314,1,0,0:0:0:0:
256,192,300397,1,0,0:0:0:0:
256,192,300480,1,8,0:0:0:0:
256,192,300564,1,8,0:0:0:0:
256,192,300647,1,0,0:0:0:0:
256,192,300814,1,8,0:0:0:0:
256,192,300980,1,0,0:0:0:0:
256,192,301064,1,0,0:0:0:0:
256,192,301147,1,8,0:0:0:0:
256,192,301230,1,0,0:0:0:0:
256,192,301314,1,8,0:0:0:0:
256,192,301480,1,8,0:0:0:0:
256,192,301647,1,0,0:0:0:0:
256,192,301730,1,0,0:0:0:0:
256,192,301814,1,8,0:0:0:0:
256,192,301897,1,0,0:0:0:0:
256,192,301980,1,0,0:0:0:0:
256,192,302147,1,12,0:0:0:0:
256,192,302480,1,12,0:0:0:0:
256,192,302814,1,12,0:0:0:0:
256,192,303147,1,12,0:0:0:0:
256,192,303314,1,0,0:0:0:0:
256,192,303480,1,8,0:0:0:0:
256,192,303564,1,8,0:0:0:0:
256,192,303647,1,0,0:0:0:0:
256,192,303730,1,0,0:0:0:0:
256,192,303814,1,8,0:0:0:0:
256,192,303980,1,8,0:0:0:0:
256,192,304147,1,0,0:0:0:0:
256,192,304230,1,8,0:0:0:0:
256,192,304314,1,0,0:0:0:0:
256,192,304397,1,8,0:0:0:0:
256,192,304480,1,8,0:0:0:0:
256,192,304564,1,8,0:0:0:0:
256,192,304647,1,0,0:0:0:0:
256,192,304814,1,12,0:0:0:0:
256,192,304980,1,8,0:0:0:0:
256,192,305064,1,0,0:0:0:0:
256,192,305147,1,8,0:0:0:0:
256,192,305230,1,8,0:0:0:0:
256,192,305314,1,0,0:0:0:0:
256,192,305480,1,8,0:0:0:0:
256,192,305647,1,0,0:0:0:0:
256,192,305730,1,0,0:0:0:0:
256,192,305814,1,8,0:0:0:0:
256,192,305897,1,8,0:0:0:0:
256,192,305980,1,0,0:0:0:0:
256,192,306147,1,8,0:0:0:0:
256,192,306314,1,0,0:0:0:0:
256,192,306397,1,0,0:0:0:0:
256,192,306480,1,8,0:0:0:0:
256,192,306564,1,0,0:0:0:0:
256,192,306647,1,8,0:0:0:0:
256,192,306814,1,8,0:0:0:0:
256,192,306980,1,0,0:0:0:0:
256,192,307064,5,0,0:0:0:0:
256,192,307147,1,8,0:0:0:0:
256,192,307230,1,0,0:0:0:0:
256,192,307314,1,0,0:0:0:0:
256,192,307480,1,12,0:0:0:0:
256,192,307814,1,12,0:0:0:0:
256,192,308147,1,12,0:0:0:0:
256,192,308480,1,12,0:0:0:0:
256,192,308647,1,0,0:0:0:0:
256,192,308814,1,8,0:0:0:0:
256,192,308897,1,8,0:0:0:0:
256,192,308980,1,8,0:0:0:0:
256,192,309064,1,8,0:0:0:0:
256,192,309147,1,8,0:0:0:0:
256,192,309230,1,8,0:0:0:0:
256,192,309314,1,8,0:0:0:0:
256,192,309397,1,8,0:0:0:0:
256,192,309480,1,8,0:0:0:0:
256,192,309564,1,8,0:0:0:0:
256,192,309647,1,8,0:0:0:0:
256,192,309730,1,8,0:0:0:0:
256,192,309814,1,8,0:0:0:0:
256,192,309897,1,8,0:0:0:0:
256,192,309980,1,8,0:0:0:0:
256,192,310064,1,8,0:0:0:0:
256,192,310147,1,0,0:0:0:0:
256,192,310230,12,0,312480,0:0:0:0:
