osu file format v14

[General]
AudioFilename: audio.mp3
AudioLeadIn: 0
PreviewTime: 77655
Countdown: 0
SampleSet: Normal
StackLeniency: 0.2
Mode: 0
LetterboxInBreaks: 0
WidescreenStoryboard: 0

[Editor]
DistanceSpacing: 4.7
BeatDivisor: 4
GridSize: 8
TimelineZoom: 2.000001

[Metadata]
Title:Iz Govna I Palok
TitleUnicode:Iz Govna I Palok
Artist:Loqiemean
ArtistUnicode:Loqiemean
Creator:xp0wderx1_
Version:Kult Izdat
Source:
Tags:Loqiemean
BeatmapID:2105331
BeatmapSetID:1005945

[Difficulty]
HPDrainRate:6
CircleSize:4
OverallDifficulty:6
ApproachRate:9
SliderMultiplier:2
SliderTickRate:1

[Events]
//Background and Video events
0,0,"map.jpg",0,0
//Break Periods
2,68322,77052
2,104676,106699
2,107499,109523
//Storyboard Layer 0 (Background)
//Storyboard Layer 1 (Fail)
//Storyboard Layer 2 (Pass)
//Storyboard Layer 3 (Foreground)
//Storyboard Layer 4 (Overlay)
//Storyboard Sound Samples

[TimingPoints]
22594,352.941176470588,4,1,0,100,1,0
23299,-133.333333333333,4,1,0,100,0,0
24711,-80,4,1,0,100,0,0
36535,-100,4,1,0,100,0,0
44823,-58.8235294117647,4,1,0,100,0,0
44829,-57.1428571428571,4,1,0,100,0,0
47652,-100,4,1,0,100,0,0
51182,-66.6666666666667,4,1,0,100,0,0
53299,-76.9230769230769,4,1,0,100,0,0
67417,-66.6666666666667,4,1,0,100,0,0
89829,-80,4,1,0,100,0,1
96005,-80,4,1,0,100,0,1
96711,-80,4,1,0,100,0,1
101652,-80,4,1,0,100,0,1
107299,-80,4,1,0,100,0,0
110123,-80,4,1,0,100,0,0
111535,-66.6666666666667,4,1,0,50,0,0
112946,-50,4,1,0,25,0,0
113299,-80,4,1,0,100,0,0
123888,-200,4,1,0,100,0,0
124241,-83.3333333333333,4,1,0,100,0,0
129535,-200,4,1,0,100,0,0
129888,-83.3333333333333,4,1,0,100,0,0
134829,-83.3333333333333,4,1,0,100,0,0
139770,-71.4285714285714,4,1,0,100,0,0
141182,-100,4,1,0,100,0,0
143652,-200,4,1,0,100,0,0
144005,-100,4,1,0,100,0,0
146829,-200,4,1,0,40,0,0
148593,-250,4,1,0,20,0,0
149123,-250,4,1,0,5,0,0

[Colours]
Combo1 : 226,45,124
Combo2 : 0,255,255
Combo3 : 128,0,255
Combo4 : 221,221,221

[HitObjects]
139,116,22411,6,0,L|230:144,1,50,10|4,2:3|2:0,0:0:0:0:
253,91,22594,2,0,B|262:182|357:148|357:148|410:125|464:273,1,300
389,95,23299,5,8,1:0:0:0:
260,139,23476,1,8,1:0:0:0:
313,231,23652,2,0,L|379:184,1,75.0000028610231,8|12,0:0|1:0,0:0:0:0:
340,243,24005,6,0,L|305:172,1,75.0000028610231,8|12,0:0|0:0,0:0:0:0:
223,100,24358,1,2,3:0:0:0:
243,86,24535,2,0,B|264:-17|260:10,1,70,2|0,3:0|0:0,0:0:0:0:
216,234,25064,5,0,0:0:0:0:
335,127,25241,1,4,0:0:0:0:
436,284,25417,6,0,L|315:211,1,125,12|8,3:2|3:2,0:0:0:0:
83,303,25770,5,8,3:2:0:0:
332,94,25946,1,8,3:0:0:0:
122,210,26123,5,12,3:2:0:0:
446,155,26299,1,0,0:0:0:0:
236,33,26476,1,8,0:0:0:0:
345,326,26652,1,8,0:0:0:0:
243,177,26829,2,0,P|138:198|79:191,1,125,8|4,0:0|2:0,0:0:0:0:
276,70,27182,5,12,3:2:0:0:
460,228,27358,1,0,0:0:0:0:
91,227,27535,2,0,L|233:205,1,125,0|8,0:0|0:0,0:0:0:0:
261,207,27799,1,8,0:0:0:0:
284,204,27888,1,8,0:0:0:0:
352,163,28064,1,4,1:0:0:0:
407,65,28241,1,8,3:0:0:0:
151,133,28417,6,0,P|217:61|278:44,1,125,8|0,3:0|2:0,0:0:0:0:
238,288,28946,1,2,0:0:0:0:
363,160,29123,1,0,0:0:0:0:
147,160,29299,1,2,0:0:0:0:
363,160,29476,1,8,0:0:0:0:
146,292,29652,2,0,L|146:156,1,125.000004768372,12|0,3:2|0:0,0:0:0:0:
243,78,30005,5,8,2:0:0:0:
254,225,30182,2,0,L|370:174,1,125
356,171,30535,1,8,2:0:0:0:
123,153,30711,2,0,P|185:169|253:151,1,125,0|4,0:0|0:0,0:0:0:0:
42,82,31064,1,8,0:0:0:0:
250,27,31241,1,8,0:0:0:0:
278,329,31417,5,0,0:0:0:0:
305,287,31505,1,0,0:0:0:0:
302,239,31593,1,0,0:0:0:0:
412,108,31770,6,0,L|309:5,1,125,12|10,3:2|2:1,0:0:0:0:
104,1,32123,2,0,L|207:111,1,125
415,222,32476,2,0,P|364:138|323:108,1,125,10|0,2:1|0:0,0:0:0:0:
181,197,32829,1,0,0:0:0:0:
396,72,33005,1,10,2:3:0:0:
205,317,33182,6,0,P|270:280|291:234,1,125,0|0,2:0|2:0,2:0:0:0:
171,102,33535,1,2,0:0:0:0:
279,69,33711,1,2,0:0:0:0:
262,224,33888,2,0,L|271:134,2,62.5,8|8|8,0:0|0:0|0:0,0:0:0:0:
329,299,34241,1,12,0:0:0:0:
86,77,34417,1,8,0:0:0:0:
453,158,34594,6,0,P|511:54|553:44,1,125
335,41,34946,1,0,0:0:0:0:
419,232,35123,1,4,0:0:0:0:
355,145,35299,2,4,P|244:172|82:146,1,250,10|0,2:3|0:0,0:0:0:0:
183,293,35829,1,2,0:0:0:0:
263,225,36005,2,0,L|293:82,1,125,0|4,0:0|2:0,0:0:0:0:
147,187,36358,1,0,0:0:0:0:
367,98,36535,6,0,B|300:-17|293:-23,1,100,10|0,2:3|0:0,0:0:0:0:
312,251,36888,1,0,0:0:0:0:
116,121,37064,1,0,0:0:0:0:
162,251,37241,1,8,0:0:0:0:
316,118,37417,2,0,P|276:144|222:181,1,100,8|10,0:0|2:3,0:0:0:0:
362,190,37770,1,0,0:0:0:0:
111,230,37946,1,0,0:0:0:0:
368,0,38123,6,8,L|323:49,1,55.0000016784668
386,108,38299,2,8,L|427:135,1,50
431,243,38476,1,0,0:0:0:0:
130,289,38652,6,0,P|126:258|84:191,1,100,0|10,0:0|2:3,0:0:0:0:
356,74,39005,1,0,0:0:0:0:
362,274,39182,2,0,P|291:229|245:219,1,110.000003356934
224,64,39535,1,0,0:0:0:0:
116,236,39711,1,0,0:0:0:0:
320,320,39888,1,0,0:0:0:0:
416,128,40064,1,0,0:0:0:0:
151,68,40241,6,0,L|167:210,1,110.000003356934
316,71,40594,1,0,0:0:0:0:
237,299,40770,5,8,2:1:0:0:
320,160,40946,1,8,0:0:0:0:
371,335,41123,1,8,0:0:0:0:
472,211,41299,1,12,0:0:0:0:
249,340,41476,5,0,0:0:0:0:
127,100,41652,1,0,0:0:0:0:
260,178,41829,1,8,0:0:0:0:
103,278,42005,1,4,3:0:0:0:
252,88,42182,1,4,3:0:0:0:
342,301,42358,2,0,P|358:225|340:167,1,110.000003356934
187,149,42711,5,0,0:0:0:0:
303,347,42888,1,8,0:0:0:0:
310,242,43064,1,8,0:0:0:0:
79,266,43241,5,0,0:0:0:0:
82,271,43417,1,8,2:0:0:0:
428,204,43594,1,8,3:0:0:0:
321,99,43770,2,0,P|244:112|199:141,1,110.000003356934,4|8,2:0|3:0,0:0:0:0:
62,27,44123,1,0,0:0:0:0:
134,189,44299,2,0,P|186:207|246:201,1,110.000003356934,4|4,2:0|3:0,0:0:0:0:
278,68,44829,5,0,0:0:0:0:
201,236,45005,1,0,0:0:0:0:
279,61,45182,1,0,0:0:0:0:
194,251,45358,1,0,0:0:0:0:
233,142,45535,5,0,0:0:0:0:
141,182,45711,2,0,P|184:230|311:205,1,175.00000166893,0|4,0:0|2:0,0:0:0:0:
233,142,46064,1,0,0:0:0:0:
110,64,46241,5,0,0:0:0:0:
320,64,46417,1,0,0:0:0:0:
110,64,46594,1,0,0:0:0:0:
320,64,46770,1,0,0:0:0:0:
120,156,46946,6,0,B|186:225|292:147,1,175.00000166893,0|4,0:0|2:0,0:0:0:0:
225,75,47299,1,0,0:0:0:0:
164,319,47652,5,0,0:0:0:0:
242,297,47829,1,8,0:0:0:0:
330,254,48005,1,0,0:0:0:0:
410,190,48182,1,8,3:0:0:0:
449,88,48358,1,0,0:0:0:0:
324,41,48535,1,8,0:0:0:0:
173,31,48711,1,0,0:0:0:0:
50,180,48888,1,8,3:0:0:0:
118,293,49064,6,0,L|115:222,1,56.6666677474976,0|4,0:0|2:0,0:0:0:0:
36,304,49241,2,0,L|31:240,1,56.6666677474976,8|4,0:0|2:0,0:0:0:0:
179,103,49417,2,0,B|184:176|184:172,1,56.6666677474976,0|4,0:0|2:0,0:0:0:0:
94,105,49594,2,0,L|101:177,1,56.6666677474976,8|4,3:0|2:0,0:0:0:0:
213,263,49770,2,0,L|228:318,1,56.6666677474976,0|4,0:0|2:0,0:0:0:0:
289,236,49946,2,0,L|310:307,1,56.6666677474976,8|4,0:0|2:0,0:0:0:0:
422,370,50123,1,0,3:0:0:0:
133,112,50476,2,0,L|236:100,2,100,10|0|0,2:3|0:0|0:0,0:0:0:0:
366,210,51005,5,12,2:0:0:0:
17,236,51182,2,0,P|13:150|49:91,1,150.000005722046,10|0,2:3|0:0,0:0:0:0:
331,140,51535,2,0,P|279:97|201:65,1,150.000005722046,8|8,0:0|0:0,0:0:0:0:
266,195,51888,2,0,P|308:233|389:189,1,150.000005722046,10|8,2:3|0:0,0:0:0:0:
172,238,52241,1,0,0:0:0:0:
328,79,52417,1,0,0:0:0:0:
126,108,52594,1,10,2:3:0:0:
407,294,52770,1,10,3:2:0:0:
144,206,52946,5,8,0:0:0:0:
201,161,53123,1,8,0:0:0:0:
219,129,53299,2,0,B|168:107|136:133|90:111,1,129.999994049073,10|0,2:3|0:0,0:0:0:0:
377,57,53652,1,8,0:0:0:0:
228,345,53829,2,0,L|364:371,1,129.999994049073,0|10,0:0|2:3,0:0:0:0:
351,182,54182,2,0,L|209:164,1,129.999994049073,0|10,0:0|3:2,0:0:0:0:
449,113,54535,5,0,0:0:0:0:
349,289,54711,1,10,2:3:0:0:
160,64,54888,1,10,3:2:0:0:
405,147,55064,1,0,0:0:0:0:
185,288,55241,1,8,0:0:0:0:
311,107,55417,2,0,P|372:58|390:7,1,129.999994049073,10|12,2:3|0:0,0:0:0:0:
109,63,55770,5,0,0:0:0:0:
246,119,55946,2,0,P|293:167|363:152,1,129.999994049073
188,185,56300,1,8,0:0:0:0:
179,201,56388,1,8,0:0:0:0:
169,215,56476,1,8,0:0:0:0:
78,74,56652,1,4,3:0:0:0:
284,323,56829,1,4,3:0:0:0:
462,114,57005,6,0,P|381:109|317:108,1,129.999994049073,10|0,2:3|0:0,0:0:0:0:
147,219,57359,1,10,3:2:0:0:
236,126,57535,1,8,0:0:0:0:
189,325,57712,1,0,0:0:0:0:
146,93,57888,1,8,0:0:0:0:
501,209,58065,1,10,2:3:0:0:
113,355,58241,2,0,B|170:379|190:248|216:270,1,129.999994049073,10|8,3:2|0:0,0:0:0:0:
113,180,58594,6,0,L|108:43,1,129.999994049073,0|8,0:0|0:0,0:0:0:0:
407,234,58947,6,0,L|400:103,1,129.999994049073,0|10,0:0|2:3,0:0:0:0:
243,112,59300,5,10,3:2:0:0:
71,63,59476,1,8,0:0:0:0:
140,244,59653,1,0,0:0:0:0:
232,33,59829,1,8,0:0:0:0:
401,231,60005,1,0,0:0:0:0:
449,19,60182,1,10,2:3:0:0:
506,322,60358,1,10,3:2:0:0:
462,159,60535,1,0,0:0:0:0:
183,235,60711,6,0,L|80:132,2,129.999994049073
276,120,61241,2,0,P|335:81|324:32,1,129.999994049073,10|10,2:3|3:2,0:0:0:0:
154,340,61594,1,8,0:0:0:0:
156,334,61682,1,8,0:0:0:0:
155,328,61771,2,0,L|176:198,1,129.999994049073,10|10,2:3|3:2,0:0:0:0:
204,282,62123,1,8,0:0:0:0:
136,57,62299,5,0,0:0:0:0:
284,47,62476,2,0,L|427:50,1,129.999994049073,8|0,0:0|0:0,0:0:0:0:
416,288,62829,1,10,2:3:0:0:
320,288,63006,2,0,L|173:288,1,129.999994049073,10|8,3:2|0:0,0:0:0:0:
118,233,63359,1,0,0:0:0:0:
326,202,63535,5,8,0:0:0:0:
160,90,63711,2,0,P|195:160|191:93,1,194.999991073609
170,65,64064,1,4,2:0:0:0:
426,220,64241,1,10,2:3:0:0:
262,326,64417,1,10,3:2:0:0:
58,122,64593,1,8,0:0:0:0:
62,106,64682,5,8,0:0:0:0:
67,92,64770,2,0,P|94:44|158:-2,1,129.999994049073,10|10,2:3|3:2,0:0:0:0:
323,211,65123,2,0,P|283:172|207:151,1,129.999994049073,8|0,0:0|0:0,0:0:0:0:
117,55,65476,1,8,0:0:0:0:
216,95,65653,1,0,0:0:0:0:
8,224,65829,1,10,2:3:0:0:
375,121,66006,1,10,3:2:0:0:
250,342,66182,2,0,L|154:252,1,129.999994049073,0|8,0:0|0:0,0:0:0:0:
139,70,66535,2,0,L|249:157,2,129.999994049073,0|10|4,0:0|2:3|2:0,0:0:0:0:
174,219,67064,5,10,3:2:0:0:
438,111,67241,1,10,3:2:0:0:
329,381,67417,2,0,B|388:328|364:290|311:255|312:303|338:316|228:318,1,225.000008583069
280,303,67770,2,0,P|201:172|71:68,1,300.000011444092,0|4,0:0|2:3,0:0:0:0:
197,305,77652,5,8,3:0:0:0:
315,167,77829,1,8,3:2:0:0:
94,46,78005,1,0,3:0:0:0:
459,137,78182,1,8,2:2:0:0:
179,257,78358,1,10,3:2:0:0:
247,79,78535,1,0,0:0:0:0:
340,376,78711,1,0,0:0:0:0:
13,191,78887,1,10,3:2:0:0:
298,145,79064,6,8,P|387:107|402:50,1,150.000005722046,10|8,2:3|3:2,0:0:0:0:
380,262,79417,1,8,0:0:0:0:
71,59,79593,1,0,0:0:0:0:
296,223,79770,2,0,L|370:355,1,150.000005722046,8|10,0:0|3:2,0:0:0:0:
105,315,80123,2,0,L|98:219,1,75.0000028610231,8|8,0:0|0:0,0:0:0:0:
152,255,80299,1,8,2:0:0:0:
425,126,80476,6,0,L|338:126,1,75.0000028610231,10|8,2:3|0:0,0:0:0:0:
252,156,80652,1,8,0:0:0:0:
156,312,80829,5,2,0:0:0:0:
428,264,81005,1,0,0:0:0:0:
73,169,81182,1,2,0:0:0:0:
390,85,81358,1,0,0:0:0:0:
202,13,81535,5,10,3:2:0:0:
117,213,81711,1,8,0:0:0:0:
200,200,81799,1,8,0:0:0:0:
240,193,81888,2,0,B|286:207|349:151|372:188,1,125,10|10,2:3|3:2,0:0:0:0:
152,329,82241,1,8,0:0:0:0:
58,103,82417,5,8,0:0:0:0:
270,274,82593,1,10,2:3:0:0:
272,116,82770,1,0,0:0:0:0:
210,318,82946,1,8,0:0:0:0:
419,179,83123,1,8,0:0:0:0:
35,190,83299,2,0,P|137:186|170:154,2,150.000005722046,10|8|8,2:3|2:2|2:2,0:0:0:0:
292,27,83829,2,0,L|276:192,1,150.000005722046
157,372,84182,2,0,L|320:315,1,150.000005722046
446,231,84535,5,2,3:2:0:0:
142,134,84711,1,10,3:2:0:0:
313,287,84888,1,0,0:0:0:0:
313,287,85064,1,10,3:2:0:0:
362,96,85241,1,8,0:0:0:0:
209,23,85417,1,8,0:0:0:0:
446,276,85594,1,0,0:0:0:0:
63,165,85770,1,8,2:2:0:0:
63,165,85946,1,12,3:3:0:0:
322,27,86123,5,8,3:2:0:0:
505,200,86299,1,8,3:2:0:0:
122,112,86476,6,0,L|178:257,1,150.000005722046
460,124,86829,2,0,L|398:-27,1,150.000005722046
295,382,87182,2,0,L|260:209,1,150.000005722046
179,264,87535,5,0,0:0:0:0:
359,211,87711,1,0,0:0:0:0:
325,171,87799,1,0,0:0:0:0:
279,139,87888,1,8,0:0:0:0:
279,299,88064,5,8,0:0:0:0:
118,203,88241,1,8,0:0:0:0:
163,138,88329,1,0,0:0:0:0:
224,88,88417,1,0,0:0:0:0:
288,56,88505,1,0,0:0:0:0:
360,40,88594,5,8,2:3:0:0:
350,253,88770,1,0,0:0:0:0:
119,255,88946,2,0,L|163:187,1,75.0000028610231,8|8,3:2|3:2,0:0:0:0:
178,163,89123,1,8,3:2:0:0:
329,361,89299,1,10,2:3:0:0:
164,123,89476,1,8,0:0:0:0:
473,188,89652,1,8,0:0:0:0:
473,188,89829,1,0,0:0:0:0:
93,87,90005,6,0,L|221:152,1,125,8|8,3:0|0:0,0:0:0:0:
441,38,90358,1,8,0:0:0:0:
320,290,90535,1,10,3:2:0:0:
206,40,90711,1,8,3:3:0:0:
493,147,90888,1,2,0:0:0:0:
177,265,91064,1,10,2:3:0:0:
353,9,91241,1,8,2:3:0:0:
192,310,91417,6,0,L|300:236,1,125,10|12,2:3|0:0,0:0:0:0:
277,334,91770,1,10,2:3:0:0:
108,59,91946,1,0,0:0:0:0:
451,81,92123,1,10,2:3:0:0:
118,294,92299,1,8,0:0:0:0:
436,377,92476,1,10,2:3:0:0:
263,128,92652,1,8,3:2:0:0:
20,337,92829,6,0,B|26:292|-5:257|20:205,1,125,10|12,2:3|0:0,0:0:0:0:
173,252,93182,1,12,3:3:0:0:
435,334,93358,1,8,0:0:0:0:
226,71,93535,1,8,0:0:0:0:
335,348,93711,1,10,3:2:0:0:
118,145,93888,1,10,2:3:0:0:
508,133,94064,1,0,0:0:0:0:
181,346,94241,1,8,0:0:0:0:
80,107,94417,5,8,0:0:0:0:
385,30,94594,1,8,3:2:0:0:
71,204,94770,5,12,3:2:0:0:
431,214,94946,1,10,2:3:0:0:
257,100,95123,5,12,3:2:0:0:
132,300,95299,1,0,0:0:0:0:
322,272,95476,5,12,3:2:0:0:
14,106,95652,1,8,3:2:0:0:
358,0,95829,6,0,P|299:17|267:78,1,125,8|4,3:2|2:0,0:0:0:0:
157,265,96711,2,0,P|211:294|283:270,1,125,4|8,2:0|3:2,0:0:0:0:
331,222,97064,6,0,P|361:176|306:81,1,125
104,137,97417,1,0,0:0:0:0:
104,137,97467,2,0,L|261:236,1,156.25
372,372,97770,2,0,L|399:167,1,187.5
321,40,98123,6,0,L|290:206,1,125
149,35,98476,1,8,0:0:0:0:
317,332,98652,1,0,0:0:0:0:
253,117,98829,1,8,0:0:0:0:
176,284,99535,5,10,3:2:0:0:
466,108,99888,5,10,3:2:0:0:
127,352,100241,5,10,3:2:0:0:
168,25,100417,1,8,3:2:0:0:
263,384,100593,1,8,0:0:0:0:
262,38,100770,1,0,0:0:0:0:
49,347,100947,1,8,0:0:0:0:
456,35,101123,1,0,0:0:0:0:
456,35,101299,6,0,P|400:101|381:83,1,125,14|10,2:3|3:2,0:0:0:0:
249,192,101652,5,8,0:0:0:0:
88,247,101828,6,12,L|85:122,1,125,12|12,3:2|2:2,2:2:0:0:
307,266,102181,2,4,L|200:201,1,125,4|4,3:3|3:3,2:2:0:0:
396,39,102535,2,4,L|415:168,1,125,4|4,3:3|3:3,2:2:0:0:
86,296,102888,2,4,P|153:304|166:251,1,125,4|4,3:3|3:3,2:2:0:0:
356,92,103241,6,4,L|361:223,2,125,4|4|4,3:3|3:3|3:3,3:3:0:0:
83,97,103770,2,4,P|146:144|139:187,2,125,4|4|4,3:3|3:3|3:3,3:3:0:0:
148,52,104300,1,8,3:2:0:0:
240,142,104476,1,8,0:0:0:0:
260,200,107299,5,0,0:0:0:0:
430,297,110123,5,0,0:0:0:0:
141,256,111535,2,0,B|152:138|176:146|259:294|272:285|252:161|186:41|186:41|316:141|316:141|376:71|422:170|422:170|411:277|380:301|281:321|279:324|279:324|465:340|472:248,1,1125.00004291535
458,152,112946,6,0,L|281:303,1,200,0|0,0:0|2:2,0:0:0:0:
143,267,113652,5,0,0:0:0:0:
371,92,114005,5,0,0:0:0:0:
28,358,114358,1,0,0:0:0:0:
491,341,114711,1,0,0:0:0:0:
141,122,115064,5,0,0:0:0:0:
453,346,115417,1,0,0:0:0:0:
347,37,115770,1,0,0:0:0:0:
414,293,116476,5,0,0:0:0:0:
430,282,116829,1,0,0:0:0:0:
139,330,117182,5,0,0:0:0:0:
111,72,117358,1,0,0:0:0:0:
139,323,117535,1,0,0:0:0:0:
250,27,117888,5,0,0:0:0:0:
230,47,118241,5,0,0:0:0:0:
5,0,118593,5,0,0:0:0:0:
167,319,118946,2,0,P|153:254|224:274,1,125
279,291,119299,2,0,L|273:134,1,125
9,210,119652,2,0,P|91:177|120:136,1,125
429,14,120005,6,0,L|233:11,1,187.5
291,31,120358,2,0,B|240:101|322:76|385:102|312:201|410:229,1,250
306,172,121064,5,0,0:0:0:0:
437,237,121417,1,0,0:0:0:0:
291,122,122123,5,0,0:0:0:0:
291,122,122476,1,0,0:0:0:0:
331,290,122829,5,0,0:0:0:0:
461,351,123005,1,0,0:0:0:0:
318,283,123182,1,0,0:0:0:0:
330,186,123535,5,0,0:0:0:0:
174,336,123888,2,0,P|156:284|182:278,1,75
216,287,124241,5,0,0:0:0:0:
461,197,124417,1,0,0:0:0:0:
67,86,124593,2,0,L|128:136,1,59.9999981689454
153,88,124770,1,0,0:0:0:0:
11,192,124946,2,0,L|82:162,1,59.9999981689454
221,105,125123,1,0,0:0:0:0:
66,299,125299,1,0,0:0:0:0:
333,82,125476,6,0,L|407:187,1,119.999996337891
375,282,125829,2,0,P|462:236|498:178,1,119.999996337891
290,167,126182,5,0,0:0:0:0:
290,167,126270,1,0,0:0:0:0:
290,167,126358,2,0,P|263:209|265:234,1,59.9999981689454
46,328,126535,5,0,0:0:0:0:
46,328,126623,1,0,0:0:0:0:
46,328,126711,2,0,B|93:235|91:236|36:230,1,119.999996337891
119,151,127064,1,0,0:0:0:0:
171,361,127241,1,0,0:0:0:0:
236,258,127417,1,0,0:0:0:0:
11,308,127593,5,0,0:0:0:0:
11,308,127682,1,0,0:0:0:0:
11,308,127770,1,0,0:0:0:0:
251,376,127946,1,0,0:0:0:0:
169,83,128123,1,0,0:0:0:0:
169,83,128299,5,0,0:0:0:0:
83,138,128476,2,0,B|113:217|126:104|136:110|176:200|252:180,1,179.999994506836
267,115,128829,2,0,L|261:249,1,119.999996337891
375,357,129182,5,0,0:0:0:0:
425,324,129270,1,0,0:0:0:0:
413,263,129358,1,0,0:0:0:0:
448,217,129446,1,0,0:0:0:0:
443,159,129535,2,0,B|472:142|450:109|417:123|435:155,1,75
403,140,129888,5,0,0:0:0:0:
186,22,130064,1,0,0:0:0:0:
381,138,130241,2,0,P|364:150|317:243,1,119.999996337891
126,369,130593,6,0,L|181:308,1,59.9999981689454
132,285,130770,1,0,0:0:0:0:
60,95,130946,1,0,0:0:0:0:
260,90,131123,1,0,0:0:0:0:
260,90,131299,1,0,0:0:0:0:
47,209,131476,2,0,B|46:251|-13:260|35:321,1,119.999996337891
127,216,131829,5,0,0:0:0:0:
371,119,132005,2,0,L|292:127,1,59.9999981689454
370,267,132182,2,0,L|394:191,1,59.9999981689454
225,214,132358,1,0,0:0:0:0:
506,144,132535,1,0,0:0:0:0:
140,86,132711,6,0,L|298:16,1,119.999996337891
256,131,133064,1,0,0:0:0:0:
151,309,133241,1,0,0:0:0:0:
391,314,133417,5,0,0:0:0:0:
173,134,133593,1,0,0:0:0:0:
69,348,133770,5,0,0:0:0:0:
431,243,133946,1,0,0:0:0:0:
94,121,134123,1,0,0:0:0:0:
128,98,134829,5,0,0:0:0:0:
134,82,135005,1,0,0:0:0:0:
238,37,135182,2,0,B|320:30|204:160|270:128|361:102|332:202,1,179.999994506836
318,253,135535,6,0,L|393:155,1,119.999996337891
432,252,135888,1,0,0:0:0:0:
208,176,136064,2,0,B|222:255|262:172|261:292,1,119.999996337891
246,39,136417,2,0,B|294:154|297:50|210:113,1,119.999996337891
109,93,136770,5,0,0:0:0:0:
109,93,136858,1,0,0:0:0:0:
109,93,136946,2,0,B|199:142|125:151|228:195,1,119.999996337891
125,10,137299,5,0,0:0:0:0:
302,21,137476,2,0,L|345:149,2,119.999996337891
235,133,138005,1,0,0:0:0:0:
235,133,138182,1,0,0:0:0:0:
327,320,138358,6,0,B|298:281|427:269|381:217,1,119.999996337891
512,342,138711,2,0,B|460:298|459:297|419:323|419:323|397:293,1,119.999996337891
289,152,139064,2,0,B|241:171|225:162|225:162|179:205,2,119.999996337891
401,224,139593,1,0,0:0:0:0:
135,375,139770,2,0,B|163:333|163:333|201:374|201:374|129:375,1,139.999995727539
201,87,140123,6,0,B|241:112|241:112|275:77|275:77|202:88,1,139.999995727539
475,285,140476,6,0,B|486:234|486:234|527:279|527:279|480:287,1,139.999995727539
428,264,140829,2,0,B|390:246|390:246|400:307|400:307|425:266,1,139.999995727539
165,63,141182,5,0,0:0:0:0:
165,63,141270,1,0,0:0:0:0:
165,63,141358,2,0,L|252:159,1,100
155,276,141711,2,0,P|220:278|284:237,2,100
293,0,142241,2,0,B|292:98|303:140|302:208,1,200
406,115,142770,5,0,0:0:0:0:
406,115,142858,1,0,0:0:0:0:
406,115,142946,2,0,B|342:89|341:89|311:130|268:98,1,100
73,188,143299,6,0,L|137:187,1,50
137,224,143476,2,0,L|198:226,1,50
196,170,143652,2,0,B|242:185|186:219|180:175,1,75
229,278,144005,5,0,0:0:0:0:
296,179,144182,1,0,0:0:0:0:
446,265,144358,1,0,0:0:0:0:
202,118,144535,5,0,0:0:0:0:
202,118,144623,1,0,0:0:0:0:
202,118,144711,1,0,0:0:0:0:
96,291,144888,2,0,P|152:342|199:336,1,100
252,249,145241,1,0,0:0:0:0:
252,249,145329,5,0,0:0:0:0:
252,249,145417,2,0,L|293:353,1,100
305,82,145770,6,0,P|318:174|354:193,3,100
385,19,146476,1,0,0:0:0:0:
385,19,146652,5,0,0:0:0:0:
130,235,146829,2,0,L|173:127,4,100
217,315,148593,6,0,B|193:276|219:254|219:254|181:233,1,100
213,236,149123,6,0,L|248:194,1,40
273,193,149476,2,0,P|296:187|328:197,1,40
