osu file format v14

[General]
AudioFilename: audio.mp3
AudioLeadIn: 0
PreviewTime: 204292
Countdown: 0
SampleSet: Soft
StackLeniency: 0.7
Mode: 3
LetterboxInBreaks: 0
SpecialStyle: 0
WidescreenStoryboard: 0

[Editor]
DistanceSpacing: 1.1
BeatDivisor: 4
GridSize: 8
TimelineZoom: 1.6

[Metadata]
Title:Koi Yomi Zakura (Full Ver.)
TitleUnicode:恋詠桜 (Full Ver.)
Artist:Loos
ArtistUnicode:Loos
Creator:Claren
Version:Hanafubuki [IN]
Source:
Tags:loos koi yomi zakura full ver sakura cherry blossom
BeatmapID:1578175
BeatmapSetID:749224

[Difficulty]
HPDrainRate:8
CircleSize:4
OverallDifficulty:8
ApproachRate:5
SliderMultiplier:1.4
SliderTickRate:1

[Events]
//Background and Video events
0,0,"BG.jpg",0,0
//Break Periods
//Storyboard Layer 0 (Background)
//Storyboard Layer 1 (Fail)
//Storyboard Layer 2 (Pass)
//Storyboard Layer 3 (Foreground)
//Storyboard Layer 4 (Overlay)
//Storyboard Sound Samples
Sample,86792,0,"pon.wav",70

[TimingPoints]
1435,357.142857142857,4,2,1,70,1,0
58577,-100,4,2,1,70,0,1
81434,-100,4,2,1,70,0,0
150006,-100,4,2,1,70,0,1
164292,-100,4,2,1,70,0,0
204292,-100,4,2,1,70,0,1
227149,-100,4,2,1,70,0,0

[HitObjects]
64,192,1435,5,0,0:0:0:0:
448,192,1435,1,0,0:0:0:0:
192,192,1613,1,0,0:0:0:0:
320,192,1792,1,0,0:0:0:0:
192,192,1970,1,0,0:0:0:0:
320,192,2149,1,0,0:0:0:0:
192,192,2327,1,0,0:0:0:0:
320,192,2506,1,0,0:0:0:0:
448,192,2684,1,0,0:0:0:0:
64,192,2863,1,0,0:0:0:0:
192,192,2863,1,0,0:0:0:0:
448,192,3042,1,0,0:0:0:0:
64,192,3220,1,0,0:0:0:0:
448,192,3399,1,0,0:0:0:0:
64,192,3577,1,0,0:0:0:0:
320,192,3577,1,0,0:0:0:0:
448,192,3756,1,0,0:0:0:0:
320,192,3934,1,0,0:0:0:0:
192,192,4113,1,0,0:0:0:0:
64,192,4292,1,0,0:0:0:0:
320,192,4292,1,0,0:0:0:0:
192,192,4649,1,0,0:0:0:0:
448,192,4649,1,0,0:0:0:0:
64,192,5006,1,0,0:0:0:0:
320,192,5006,1,0,0:0:0:0:
192,192,5363,1,0,0:0:0:0:
448,192,5363,1,0,0:0:0:0:
64,192,5720,1,0,0:0:0:0:
320,192,5720,1,0,0:0:0:0:
192,192,6434,128,0,7149:0:0:0:0:
64,192,7149,1,2,0:0:0:0:
320,192,7149,1,0,0:0:0:0:
448,192,7149,1,0,0:0:0:0:
448,192,7327,1,0,0:0:0:0:
320,192,7417,1,0,0:0:0:0:
64,192,7506,1,0,0:0:0:0:
192,192,7506,1,0,0:0:0:0:
320,192,7684,1,0,0:0:0:0:
64,192,7863,1,2,0:0:0:0:
448,192,7863,1,0,0:0:0:0:
192,192,8042,1,0,0:0:0:0:
320,192,8131,1,0,0:0:0:0:
64,192,8220,1,0,0:0:0:0:
448,192,8220,1,0,0:0:0:0:
320,192,8399,1,0,0:0:0:0:
192,192,8577,1,2,0:0:0:0:
448,192,8577,1,0,0:0:0:0:
64,192,8756,1,0,0:0:0:0:
192,192,8845,1,0,0:0:0:0:
320,192,8934,1,2,0:0:0:0:
448,192,8934,1,0,0:0:0:0:
64,192,9113,1,0,0:0:0:0:
192,192,9292,1,2,0:0:0:0:
448,192,9292,1,0,0:0:0:0:
320,192,9470,1,0,0:0:0:0:
192,192,9559,1,0,0:0:0:0:
64,192,9649,1,0,0:0:0:0:
448,192,9649,1,0,0:0:0:0:
320,192,9827,1,0,0:0:0:0:
192,192,10006,1,2,0:0:0:0:
448,192,10006,1,0,0:0:0:0:
64,192,10184,1,0,0:0:0:0:
192,192,10274,1,0,0:0:0:0:
320,192,10363,1,2,0:0:0:0:
448,192,10363,1,0,0:0:0:0:
192,192,10542,1,0,0:0:0:0:
320,192,10720,1,2,0:0:0:0:
448,192,10720,1,0,0:0:0:0:
64,192,10899,1,2,0:0:0:0:
192,192,10899,1,0,0:0:0:0:
320,192,10988,1,0,0:0:0:0:
192,192,11077,1,0,0:0:0:0:
448,192,11077,1,0,0:0:0:0:
64,192,11256,1,2,0:0:0:0:
320,192,11256,1,0,0:0:0:0:
320,192,11434,1,2,0:0:0:0:
448,192,11434,1,0,0:0:0:0:
320,192,11613,1,2,0:0:0:0:
448,192,11613,1,0,0:0:0:0:
192,192,11702,1,0,0:0:0:0:
64,192,11792,1,0,0:0:0:0:
448,192,11792,1,0,0:0:0:0:
192,192,11970,1,2,0:0:0:0:
320,192,11970,1,0,0:0:0:0:
64,192,12149,1,8,0:0:0:0:
192,192,12149,1,2,0:0:0:0:
320,192,12149,1,0,0:0:0:0:
448,192,12149,1,0,0:0:0:0:
64,192,12863,128,2,14292:0:0:0:0:
192,192,12863,1,4,0:0:0:0:
320,192,12863,1,0,0:0:0:0:
448,192,12863,1,0,0:0:0:0:
448,192,13042,1,0,0:0:0:0:
320,192,13131,1,0,0:0:0:0:
192,192,13220,1,2,0:0:0:0:
448,192,13220,1,8,0:0:0:0:
320,192,13399,1,0,0:0:0:0:
192,192,13577,1,2,0:0:0:0:
448,192,13577,1,0,0:0:0:0:
192,192,13756,1,0,0:0:0:0:
320,192,13845,1,0,0:0:0:0:
192,192,13934,1,8,0:0:0:0:
448,192,13934,1,2,0:0:0:0:
320,192,14113,1,0,0:0:0:0:
192,192,14292,1,2,0:0:0:0:
320,192,14292,128,0,15720:0:0:0:0:
64,192,14470,1,0,0:0:0:0:
192,192,14559,1,0,0:0:0:0:
64,192,14649,1,2,0:0:0:0:
448,192,14649,1,8,0:0:0:0:
64,192,14827,1,0,0:0:0:0:
192,192,15006,1,2,0:0:0:0:
448,192,15006,1,0,0:0:0:0:
192,192,15184,1,0,0:0:0:0:
64,192,15274,1,0,0:0:0:0:
192,192,15363,1,8,0:0:0:0:
448,192,15363,1,2,0:0:0:0:
64,192,15542,1,0,0:0:0:0:
192,192,15720,128,2,17149:0:0:0:0:
448,192,15720,1,0,0:0:0:0:
64,192,15899,1,0,0:0:0:0:
320,192,15988,1,0,0:0:0:0:
64,192,16077,1,2,0:0:0:0:
448,192,16077,1,8,0:0:0:0:
320,192,16256,1,0,0:0:0:0:
64,192,16434,1,2,0:0:0:0:
448,192,16434,1,0,0:0:0:0:
320,192,16613,1,0,0:0:0:0:
448,192,16702,1,0,0:0:0:0:
64,192,16792,1,8,0:0:0:0:
320,192,16792,1,2,0:0:0:0:
64,192,16970,1,0,0:0:0:0:
320,192,17149,1,2,0:0:0:0:
448,192,17149,128,0,18577:0:0:0:0:
64,192,17327,1,2,0:0:0:0:
320,192,17327,1,0,0:0:0:0:
192,192,17417,1,0,0:0:0:0:
64,192,17506,1,2,0:0:0:0:
320,192,17506,1,8,0:0:0:0:
192,192,17684,1,2,0:0:0:0:
320,192,17684,1,0,0:0:0:0:
64,192,17863,1,2,0:0:0:0:
320,192,17863,1,0,0:0:0:0:
64,192,18042,1,0,0:0:0:0:
192,192,18131,1,0,0:0:0:0:
64,192,18220,1,2,0:0:0:0:
320,192,18220,1,8,0:0:0:0:
64,192,18399,1,2,0:0:0:0:
192,192,18399,1,0,0:0:0:0:
64,192,18577,128,2,18934:0:0:0:0:
192,192,18577,128,0,18934:0:0:0:0:
320,192,18577,128,0,18934:0:0:0:0:
192,192,19113,128,2,19917:0:0:0:0:
320,192,19113,128,0,19917:0:0:0:0:
448,192,19113,128,0,19917:0:0:0:0:
64,192,19470,1,8,0:0:0:0:
64,192,19649,1,8,0:0:0:0:
64,192,20006,128,2,20095:0:0:0:0:
192,192,20006,128,0,20095:0:0:0:0:
320,192,20006,128,0,20095:0:0:0:0:
64,192,20184,128,2,20274:0:0:0:0:
192,192,20184,128,0,20274:0:0:0:0:
320,192,20184,128,0,20274:0:0:0:0:
448,192,20363,1,0,0:0:0:0:
192,192,20542,128,2,21434:0:0:0:0:
320,192,20542,128,0,21434:0:0:0:0:
448,192,20542,128,0,21434:0:0:0:0:
64,192,20899,1,8,0:0:0:0:
64,192,21077,1,8,0:0:0:0:
64,192,21434,1,6,0:0:0:0:
192,192,21613,1,0,0:0:0:0:
64,192,21792,1,2,0:0:0:0:
320,192,21792,1,8,0:0:0:0:
448,192,21792,1,0,0:0:0:0:
192,192,21970,1,2,0:0:0:0:
448,192,21970,1,4,0:0:0:0:
320,192,22149,1,0,0:0:0:0:
64,192,22327,1,2,0:0:0:0:
192,192,22327,1,8,0:0:0:0:
448,192,22327,1,0,0:0:0:0:
192,192,22506,1,2,0:0:0:0:
320,192,22506,1,4,0:0:0:0:
64,192,22684,1,8,0:0:0:0:
320,192,22684,1,2,0:0:0:0:
448,192,22684,1,0,0:0:0:0:
192,192,22863,1,2,0:0:0:0:
320,192,22863,1,4,0:0:0:0:
64,192,23042,1,0,0:0:0:0:
192,192,23220,1,0,0:0:0:0:
320,192,23399,1,0,0:0:0:0:
448,192,23577,1,0,0:0:0:0:
192,192,23756,1,0,0:0:0:70:pon.wav
192,192,23845,1,0,0:0:0:70:pon.wav
64,192,23934,1,8,0:0:0:0:
320,192,23934,1,0,0:0:0:70:pon.wav
448,192,23934,1,0,0:0:0:0:
320,192,24113,1,0,0:0:0:70:pon.wav
64,192,24292,1,2,0:0:0:0:
192,192,24292,1,4,0:0:0:0:
448,192,24292,1,0,0:0:0:0:
320,192,24470,1,0,0:0:0:0:
64,192,24649,1,0,0:0:0:0:
192,192,24827,1,0,0:0:0:0:
448,192,25006,1,0,0:0:0:0:
192,192,25184,1,0,0:0:0:0:
320,192,25363,1,0,0:0:0:0:
64,192,25542,1,2,0:0:0:0:
192,192,25542,1,0,0:0:0:0:
320,192,25631,1,0,0:0:0:0:
64,192,25720,1,0,0:0:0:0:
448,192,25720,1,0,0:0:0:0:
192,192,25899,1,2,0:0:0:0:
320,192,25899,1,0,0:0:0:0:
64,192,26077,1,0,0:0:0:0:
448,192,26256,1,0,0:0:0:0:
192,192,26434,1,0,0:0:0:0:
320,192,26613,1,0,0:0:0:0:
192,192,26792,1,0,0:0:0:0:
64,192,26970,1,0,0:0:0:0:
192,192,27149,1,2,0:0:0:0:
320,192,27149,1,0,0:0:0:0:
448,192,27327,1,0,0:0:0:0:
192,192,27506,1,0,0:0:0:0:
320,192,27684,1,0,0:0:0:0:
64,192,27863,1,0,0:0:0:0:
320,192,28042,1,0,0:0:0:0:
448,192,28220,1,0,0:0:0:0:
192,192,28399,1,2,0:0:0:0:
320,192,28399,1,0,0:0:0:0:
448,192,28488,1,0,0:0:0:0:
64,192,28577,1,0,0:0:0:0:
320,192,28577,1,0,0:0:0:0:
192,192,28756,1,2,0:0:0:0:
448,192,28756,1,0,0:0:0:0:
320,192,28934,1,0,0:0:0:0:
448,192,29113,1,0,0:0:0:0:
64,192,29292,1,0,0:0:0:0:
192,192,29470,1,0,0:0:0:0:
448,192,29649,1,0,0:0:0:0:
64,192,29827,1,0,0:0:0:0:
320,192,30006,1,2,0:0:0:0:
448,192,30006,1,0,0:0:0:0:
192,192,30184,1,0,0:0:0:0:
64,192,30363,1,0,0:0:0:0:
320,192,30542,1,0,0:0:0:0:
448,192,30720,1,0,0:0:0:0:
192,192,30899,1,0,0:0:0:0:
320,192,31077,1,0,0:0:0:0:
64,192,31256,1,2,0:0:0:0:
448,192,31256,1,0,0:0:0:0:
192,192,31345,1,0,0:0:0:0:
320,192,31434,1,0,0:0:0:0:
448,192,31434,1,0,0:0:0:0:
64,192,31613,1,2,0:0:0:0:
192,192,31613,1,0,0:0:0:0:
320,192,31792,1,0,0:0:0:0:
64,192,31970,1,0,0:0:0:0:
448,192,32149,1,0,0:0:0:0:
192,192,32327,1,0,0:0:0:0:
320,192,32417,1,2,0:0:0:0:
448,192,32417,1,0,0:0:0:0:
64,192,32506,1,2,0:0:0:0:
192,192,32506,1,0,0:0:0:0:
320,192,32684,1,2,0:0:0:0:
448,192,32684,1,0,0:0:0:0:
64,192,32863,1,2,0:0:0:0:
192,192,32863,1,0,0:0:0:0:
320,192,33042,1,0,0:0:0:0:
64,192,33220,1,8,0:0:0:0:
192,192,33220,1,2,0:0:0:0:
448,192,33220,1,0,0:0:0:0:
320,192,33399,1,2,0:0:0:0:
64,192,33577,1,2,0:0:0:0:
192,192,33756,1,0,0:0:0:0:
64,192,33934,1,8,0:0:0:0:
320,192,33934,1,2,0:0:0:0:
448,192,33934,1,0,0:0:0:0:
192,192,34113,1,2,0:0:0:0:
64,192,34470,1,8,0:0:0:0:
320,192,34470,1,2,0:0:0:0:
448,192,34470,1,0,0:0:0:0:
64,192,34827,1,8,0:0:0:0:
192,192,34827,1,2,0:0:0:0:
448,192,34827,1,0,0:0:0:0:
192,192,35184,1,8,0:0:0:0:
320,192,35184,1,2,0:0:0:0:
448,192,35184,1,0,0:0:0:0:
192,192,35363,1,8,0:0:0:0:
320,192,35363,1,2,0:0:0:0:
448,192,35363,1,0,0:0:0:0:
64,192,35720,1,2,0:0:0:0:
192,192,35720,1,4,0:0:0:0:
320,192,35720,1,0,0:0:0:0:
192,192,35899,1,0,0:0:0:0:
320,192,35988,1,0,0:0:0:0:
64,192,36077,1,2,0:0:0:0:
448,192,36077,1,0,0:0:0:0:
320,192,36256,1,0,0:0:0:0:
64,192,36434,1,2,0:0:0:0:
192,192,36434,1,0,0:0:0:0:
448,192,36613,1,0,0:0:0:0:
320,192,36702,1,0,0:0:0:0:
64,192,36792,1,2,0:0:0:0:
192,192,36792,1,0,0:0:0:0:
192,192,36970,1,0,0:0:0:0:
320,192,37059,1,0,0:0:0:0:
64,192,37149,1,2,0:0:0:0:
448,192,37149,1,0,0:0:0:0:
64,192,37327,1,0,0:0:0:0:
192,192,37417,1,0,0:0:0:0:
320,192,37506,1,2,0:0:0:0:
448,192,37506,1,0,0:0:0:0:
192,192,37684,1,0,0:0:0:0:
64,192,37863,1,2,0:0:0:0:
448,192,37863,1,0,0:0:0:0:
320,192,38042,1,0,0:0:0:0:
192,192,38131,1,0,0:0:0:0:
64,192,38220,1,2,0:0:0:0:
448,192,38220,1,0,0:0:0:0:
192,192,38399,1,0,0:0:0:0:
320,192,38577,1,2,0:0:0:0:
448,192,38577,1,0,0:0:0:0:
192,192,38756,1,0,0:0:0:0:
320,192,38845,1,0,0:0:0:0:
64,192,38934,1,2,0:0:0:0:
448,192,38934,128,0,39292:0:0:0:0:
320,192,39113,1,0,0:0:0:0:
64,192,39292,1,2,0:0:0:0:
192,192,39292,128,0,39649:0:0:0:0:
320,192,39470,1,0,0:0:0:0:
448,192,39559,1,0,0:0:0:0:
64,192,39649,1,2,0:0:0:0:
320,192,39649,128,0,40006:0:0:0:0:
64,192,39827,1,0,0:0:0:0:
192,192,39917,1,0,0:0:0:0:
64,192,40006,128,2,40363:0:0:0:0:
448,192,40006,1,0,0:0:0:0:
320,192,40184,1,0,0:0:0:0:
448,192,40274,1,0,0:0:0:0:
192,192,40363,128,2,40720:0:0:0:0:
320,192,40363,1,0,0:0:0:0:
64,192,40542,1,0,0:0:0:0:
320,192,40720,1,2,0:0:0:0:
448,192,40720,128,0,41077:0:0:0:0:
192,192,40899,1,0,0:0:0:0:
64,192,40988,1,0,0:0:0:0:
192,192,41077,1,2,0:0:0:0:
320,192,41077,128,0,41434:0:0:0:0:
448,192,41256,1,0,0:0:0:0:
64,192,41434,1,2,0:0:0:0:
192,192,41434,128,0,42863:0:0:0:0:
320,192,41613,1,0,0:0:0:0:
448,192,41702,1,0,0:0:0:0:
64,192,41792,1,2,0:0:0:0:
320,192,41792,1,0,0:0:0:0:
64,192,41970,1,0,0:0:0:0:
320,192,42149,1,2,0:0:0:0:
448,192,42149,1,0,0:0:0:0:
64,192,42327,1,0,0:0:0:0:
320,192,42417,1,0,0:0:0:0:
64,192,42506,1,2,0:0:0:0:
448,192,42506,1,0,0:0:0:0:
320,192,42684,1,0,0:0:0:0:
448,192,42774,1,0,0:0:0:0:
64,192,42863,128,2,44292:0:0:0:0:
320,192,42863,1,0,0:0:0:0:
192,192,43042,1,0,0:0:0:0:
320,192,43131,1,0,0:0:0:0:
192,192,43220,1,2,0:0:0:0:
448,192,43220,1,0,0:0:0:0:
320,192,43399,1,0,0:0:0:0:
192,192,43577,1,2,0:0:0:0:
448,192,43577,1,0,0:0:0:0:
448,192,43756,1,0,0:0:0:0:
320,192,43845,1,0,0:0:0:0:
192,192,43934,1,2,0:0:0:0:
448,192,43934,1,0,0:0:0:0:
320,192,44113,1,0,0:0:0:0:
192,192,44202,1,0,0:0:0:0:
320,192,44292,1,2,0:0:0:0:
448,192,44292,1,0,0:0:0:0:
320,192,44470,1,2,0:0:0:0:
448,192,44470,1,0,0:0:0:0:
64,192,44649,1,8,0:0:0:0:
192,192,44649,1,4,0:0:0:0:
448,192,44649,1,2,0:0:0:0:
64,192,45006,1,2,0:0:0:0:
192,192,45006,1,0,0:0:0:0:
64,192,45184,1,2,0:0:0:0:
192,192,45184,1,0,0:0:0:0:
64,192,45363,1,8,0:0:0:0:
320,192,45363,1,2,0:0:0:0:
448,192,45363,1,0,0:0:0:0:
192,192,45720,1,2,0:0:0:0:
320,192,45720,1,0,0:0:0:0:
192,192,45899,1,2,0:0:0:0:
320,192,45899,1,0,0:0:0:0:
448,192,46077,1,0,0:0:0:0:
64,192,46256,1,8,0:0:0:0:
192,192,46256,1,4,0:0:0:0:
320,192,46256,1,2,0:0:0:0:
64,192,46434,1,0,0:0:0:0:
192,192,46613,1,0,0:0:0:0:
448,192,46613,1,0,0:0:0:0:
64,192,46702,1,0,0:0:0:0:
192,192,46792,1,8,0:0:0:0:
320,192,46792,1,2,0:0:0:0:
448,192,46792,1,0,0:0:0:0:
320,192,46970,1,0,0:0:0:0:
64,192,47149,1,4,0:0:0:0:
192,192,47149,1,2,0:0:0:0:
448,192,47149,1,0,0:0:0:0:
320,192,47327,1,0,0:0:0:0:
192,192,47417,1,0,0:0:0:0:
64,192,47506,1,8,0:0:0:0:
320,192,47506,1,2,0:0:0:0:
448,192,47506,1,0,0:0:0:0:
448,192,47684,1,0,0:0:0:0:
320,192,47774,1,0,0:0:0:0:
64,192,47863,1,2,0:0:0:0:
192,192,47863,1,0,0:0:0:0:
320,192,48042,1,2,0:0:0:0:
448,192,48042,1,0,0:0:0:0:
64,192,48131,1,0,0:0:0:0:
192,192,48220,1,8,0:0:0:0:
320,192,48220,1,2,0:0:0:0:
448,192,48220,1,0,0:0:0:0:
64,192,48399,1,2,0:0:0:0:
192,192,48399,1,0,0:0:0:0:
320,192,48488,1,0,0:0:0:0:
64,192,48577,1,0,0:0:0:0:
448,192,48577,1,0,0:0:0:0:
192,192,48756,1,2,0:0:0:0:
448,192,48756,1,0,0:0:0:0:
320,192,48845,1,0,0:0:0:0:
64,192,48934,1,2,0:0:0:0:
192,192,48934,1,8,0:0:0:0:
448,192,48934,1,0,0:0:0:0:
448,192,49113,1,0,0:0:0:0:
320,192,49202,1,0,0:0:0:0:
64,192,49292,1,2,0:0:0:0:
192,192,49292,1,0,0:0:0:0:
64,192,49470,1,8,0:0:0:0:
320,192,49470,1,2,0:0:0:0:
448,192,49470,1,0,0:0:0:0:
192,192,49559,1,0,0:0:0:0:
64,192,49649,1,8,0:0:0:0:
320,192,49649,1,2,0:0:0:0:
448,192,49649,1,0,0:0:0:0:
448,192,49827,1,0,0:0:0:0:
320,192,49917,1,0,0:0:0:0:
64,192,50006,1,2,0:0:0:0:
192,192,50006,1,0,0:0:0:0:
64,192,50184,1,0,0:0:0:0:
192,192,50274,1,0,0:0:0:0:
64,192,50363,1,8,0:0:0:0:
320,192,50363,1,2,0:0:0:0:
448,192,50363,1,0,0:0:0:0:
192,192,50542,1,2,0:0:0:0:
448,192,50542,1,0,0:0:0:0:
320,192,50631,1,0,0:0:0:0:
64,192,50720,1,2,0:0:0:0:
192,192,50720,1,0,0:0:0:0:
448,192,50899,1,0,0:0:0:0:
320,192,50988,1,0,0:0:0:0:
64,192,51077,1,8,0:0:0:0:
192,192,51077,1,2,0:0:0:0:
448,192,51077,1,0,0:0:0:0:
64,192,51256,1,2,0:0:0:0:
320,192,51256,1,0,0:0:0:0:
192,192,51345,1,0,0:0:0:0:
320,192,51434,1,0,0:0:0:0:
448,192,51434,1,0,0:0:0:0:
64,192,51613,1,2,0:0:0:0:
192,192,51702,1,0,0:0:0:0:
64,192,51792,1,8,0:0:0:0:
320,192,51792,1,2,0:0:0:0:
448,192,51792,1,0,0:0:0:0:
192,192,51970,1,2,0:0:0:0:
320,192,51970,1,0,0:0:0:0:
64,192,52059,1,0,0:0:0:0:
320,192,52149,1,2,0:0:0:0:
448,192,52149,1,0,0:0:0:0:
64,192,52327,1,8,0:0:0:0:
192,192,52327,1,2,0:0:0:0:
448,192,52327,1,0,0:0:0:0:
320,192,52417,1,0,0:0:0:0:
64,192,52506,1,8,0:0:0:0:
192,192,52506,1,2,0:0:0:0:
448,192,52506,1,0,0:0:0:0:
64,192,52684,1,0,0:0:0:0:
192,192,52774,1,0,0:0:0:0:
64,192,52863,1,2,0:0:0:0:
320,192,52863,1,4,0:0:0:0:
448,192,52863,1,0,0:0:0:0:
448,192,53042,1,0,0:0:0:0:
320,192,53131,1,0,0:0:0:0:
64,192,53220,1,8,0:0:0:0:
192,192,53220,1,2,0:0:0:0:
448,192,53220,1,0,0:0:0:0:
64,192,53399,1,0,0:0:0:0:
192,192,53488,1,0,0:0:0:0:
320,192,53577,1,2,0:0:0:0:
448,192,53577,1,0,0:0:0:0:
64,192,53756,1,2,0:0:0:0:
320,192,53756,1,0,0:0:0:0:
192,192,53845,1,0,0:0:0:0:
64,192,53934,1,8,0:0:0:0:
320,192,53934,1,2,0:0:0:0:
448,192,53934,1,0,0:0:0:0:
64,192,54113,1,2,0:0:0:0:
448,192,54113,1,0,0:0:0:0:
320,192,54202,1,0,0:0:0:0:
64,192,54292,1,0,0:0:0:0:
192,192,54292,1,0,0:0:0:0:
192,192,54470,1,2,0:0:0:0:
448,192,54470,1,0,0:0:0:0:
320,192,54559,1,0,0:0:0:0:
64,192,54649,1,8,0:0:0:0:
192,192,54649,1,2,0:0:0:0:
448,192,54649,1,0,0:0:0:0:
64,192,54827,1,2,0:0:0:0:
448,192,54827,1,0,0:0:0:0:
192,192,54917,1,0,0:0:0:0:
64,192,55006,1,2,0:0:0:0:
320,192,55006,1,8,0:0:0:0:
448,192,55006,1,0,0:0:0:0:
64,192,55363,1,8,0:0:0:0:
320,192,55363,1,2,0:0:0:0:
448,192,55363,1,0,0:0:0:0:
64,192,55720,1,8,0:0:0:0:
192,192,55720,1,2,0:0:0:0:
448,192,55720,1,4,0:0:0:0:
320,192,55899,1,0,0:0:0:0:
192,192,55988,1,0,0:0:0:0:
64,192,56077,1,2,0:0:0:0:
320,192,56077,1,8,0:0:0:0:
448,192,56077,1,0,0:0:0:0:
192,192,56256,1,0,0:0:0:0:
320,192,56345,1,0,0:0:0:0:
64,192,56434,1,8,0:0:0:0:
192,192,56434,1,2,0:0:0:0:
448,192,56434,1,0,0:0:0:0:
192,192,56613,1,0,0:0:0:0:
64,192,56702,1,0,0:0:0:0:
192,192,56792,1,8,0:0:0:0:
320,192,56792,1,2,0:0:0:0:
448,192,56792,1,0,0:0:0:0:
320,192,56970,1,0,0:0:0:0:
448,192,57059,1,0,0:0:0:0:
64,192,57149,1,8,0:0:0:0:
192,192,57149,1,2,0:0:0:0:
320,192,57149,1,4,0:0:0:0:
192,192,58042,1,0,0:0:0:70:pon.wav
192,192,58131,1,0,0:0:0:70:pon.wav
64,192,58220,1,8,0:0:0:0:
320,192,58220,1,0,0:0:0:70:pon.wav
448,192,58220,1,0,0:0:0:0:
320,192,58399,1,0,0:0:0:70:pon.wav
64,192,58577,1,2,0:0:0:0:
192,192,58577,1,4,0:0:0:0:
320,192,58577,1,0,0:0:0:0:
448,192,58577,1,0,0:0:0:0:
192,192,58756,1,0,0:0:0:0:
448,192,58756,1,0,0:0:0:0:
320,192,58845,1,0,0:0:0:0:
64,192,58934,1,8,0:0:0:0:
192,192,58934,1,2,0:0:0:0:
448,192,58934,1,0,0:0:0:0:
192,192,59113,1,0,0:0:0:0:
320,192,59113,1,0,0:0:0:0:
64,192,59292,1,2,0:0:0:0:
320,192,59292,1,0,0:0:0:0:
192,192,59470,1,0,0:0:0:0:
320,192,59559,1,0,0:0:0:0:
64,192,59649,1,8,0:0:0:0:
192,192,59649,1,2,0:0:0:0:
448,192,59649,1,0,0:0:0:0:
192,192,59827,1,0,0:0:0:0:
448,192,59827,1,0,0:0:0:0:
64,192,60006,1,2,0:0:0:0:
320,192,60006,1,0,0:0:0:0:
320,192,60184,1,0,0:0:0:0:
448,192,60184,1,0,0:0:0:0:
192,192,60274,1,0,0:0:0:0:
64,192,60363,1,8,0:0:0:0:
320,192,60363,1,2,0:0:0:0:
448,192,60363,1,0,0:0:0:0:
64,192,60542,1,0,0:0:0:0:
192,192,60720,1,2,0:0:0:0:
448,192,60720,1,0,0:0:0:0:
64,192,60899,1,0,0:0:0:0:
320,192,60899,1,0,0:0:0:0:
192,192,60988,1,0,0:0:0:0:
64,192,61077,1,8,0:0:0:0:
320,192,61077,1,2,0:0:0:0:
448,192,61077,1,0,0:0:0:0:
192,192,61256,1,0,0:0:0:0:
448,192,61256,1,0,0:0:0:0:
64,192,61434,1,2,0:0:0:0:
320,192,61434,1,0,0:0:0:0:
64,192,61613,1,0,0:0:0:0:
192,192,61613,1,0,0:0:0:0:
320,192,61702,1,0,0:0:0:0:
64,192,61792,1,8,0:0:0:0:
192,192,61792,1,2,0:0:0:0:
448,192,61792,1,0,0:0:0:0:
192,192,61970,1,0,0:0:0:0:
448,192,61970,1,0,0:0:0:0:
192,192,62149,1,2,0:0:0:0:
320,192,62149,1,0,0:0:0:0:
64,192,62327,1,0,0:0:0:0:
448,192,62327,1,0,0:0:0:0:
320,192,62417,1,0,0:0:0:0:
64,192,62506,1,8,0:0:0:0:
192,192,62506,1,2,0:0:0:0:
448,192,62506,1,0,0:0:0:0:
320,192,62684,1,0,0:0:0:0:
448,192,62684,1,0,0:0:0:0:
192,192,62863,1,2,0:0:0:0:
320,192,62863,1,0,0:0:0:0:
64,192,63042,1,0,0:0:0:0:
320,192,63042,1,0,0:0:0:0:
192,192,63131,1,0,0:0:0:0:
64,192,63220,1,8,0:0:0:0:
320,192,63220,1,2,0:0:0:0:
448,192,63220,1,0,0:0:0:0:
192,192,63399,1,0,0:0:0:0:
320,192,63399,1,0,0:0:0:0:
64,192,63577,1,2,0:0:0:0:
448,192,63577,1,0,0:0:0:0:
192,192,63756,1,0,0:0:0:0:
320,192,63845,1,0,0:0:0:0:
64,192,63934,1,2,0:0:0:0:
448,192,63934,1,0,0:0:0:0:
64,192,64113,1,2,0:0:0:0:
192,192,64113,1,8,0:0:0:0:
320,192,64113,1,0,0:0:0:0:
192,192,64292,1,2,0:0:0:0:
448,192,64292,1,0,0:0:0:0:
320,192,64470,1,0,0:0:0:0:
448,192,64470,1,0,0:0:0:0:
192,192,64559,1,0,0:0:0:0:
64,192,64649,1,8,0:0:0:0:
320,192,64649,1,2,0:0:0:0:
448,192,64649,1,0,0:0:0:0:
192,192,64827,1,0,0:0:0:0:
448,192,64827,1,0,0:0:0:0:
64,192,65006,1,2,0:0:0:0:
448,192,65006,1,0,0:0:0:0:
192,192,65184,1,0,0:0:0:0:
320,192,65274,1,0,0:0:0:0:
64,192,65363,1,8,0:0:0:0:
192,192,65363,1,2,0:0:0:0:
448,192,65363,1,0,0:0:0:0:
192,192,65542,1,0,0:0:0:0:
320,192,65542,1,0,0:0:0:0:
64,192,65720,1,2,0:0:0:0:
448,192,65720,1,0,0:0:0:0:
320,192,65899,1,0,0:0:0:0:
448,192,65899,1,0,0:0:0:0:
64,192,65988,1,0,0:0:0:0:
192,192,66077,1,8,0:0:0:0:
320,192,66077,1,2,0:0:0:0:
448,192,66077,1,0,0:0:0:0:
192,192,66256,1,0,0:0:0:0:
64,192,66434,1,2,0:0:0:0:
320,192,66434,1,0,0:0:0:0:
192,192,66613,1,0,0:0:0:0:
448,192,66613,1,0,0:0:0:0:
320,192,66702,1,0,0:0:0:0:
64,192,66792,1,8,0:0:0:0:
192,192,66792,1,2,0:0:0:0:
448,192,66792,1,0,0:0:0:0:
192,192,66970,1,0,0:0:0:0:
320,192,66970,1,0,0:0:0:0:
320,192,67149,1,2,0:0:0:0:
448,192,67149,1,0,0:0:0:0:
64,192,67327,1,0,0:0:0:0:
448,192,67327,1,0,0:0:0:0:
192,192,67417,1,0,0:0:0:0:
64,192,67506,1,8,0:0:0:0:
320,192,67506,1,2,0:0:0:0:
448,192,67506,1,0,0:0:0:0:
64,192,67684,1,0,0:0:0:0:
192,192,67684,1,0,0:0:0:0:
64,192,67863,1,2,0:0:0:0:
320,192,67863,1,0,0:0:0:0:
192,192,68042,1,0,0:0:0:0:
448,192,68042,1,0,0:0:0:0:
320,192,68131,1,0,0:0:0:0:
64,192,68220,1,8,0:0:0:0:
192,192,68220,1,2,0:0:0:0:
448,192,68220,1,0,0:0:0:0:
192,192,68399,1,0,0:0:0:0:
320,192,68399,1,0,0:0:0:0:
64,192,68577,1,2,0:0:0:0:
448,192,68577,1,0,0:0:0:0:
64,192,68756,1,0,0:0:0:0:
192,192,68756,1,0,0:0:0:0:
320,192,68845,1,0,0:0:0:0:
64,192,68934,1,8,0:0:0:0:
192,192,68934,1,2,0:0:0:0:
448,192,68934,1,0,0:0:0:0:
192,192,69113,1,0,0:0:0:0:
320,192,69113,1,0,0:0:0:0:
64,192,69292,1,2,0:0:0:0:
448,192,69292,1,0,0:0:0:0:
320,192,69470,1,0,0:0:0:0:
192,192,69559,1,0,0:0:0:0:
64,192,69649,1,2,0:0:0:0:
320,192,69649,1,8,0:0:0:0:
448,192,69649,1,0,0:0:0:0:
192,192,69827,1,2,0:0:0:0:
448,192,69827,1,0,0:0:0:0:
64,192,70006,1,4,0:0:0:0:
192,192,70006,1,2,0:0:0:0:
320,192,70006,1,0,0:0:0:0:
448,192,70006,1,0,0:0:0:0:
64,192,70184,1,0,0:0:0:0:
320,192,70184,1,0,0:0:0:0:
192,192,70274,1,0,0:0:0:0:
64,192,70363,1,8,0:0:0:0:
320,192,70363,1,2,0:0:0:0:
448,192,70363,1,0,0:0:0:0:
192,192,70542,1,0,0:0:0:0:
448,192,70542,1,0,0:0:0:0:
64,192,70720,1,2,0:0:0:0:
320,192,70720,1,0,0:0:0:0:
192,192,70899,1,0,0:0:0:0:
320,192,70988,1,0,0:0:0:0:
64,192,71077,1,8,0:0:0:0:
192,192,71077,1,2,0:0:0:0:
448,192,71077,1,0,0:0:0:0:
192,192,71256,1,0,0:0:0:0:
320,192,71256,1,0,0:0:0:0:
64,192,71434,1,2,0:0:0:0:
448,192,71434,1,0,0:0:0:0:
64,192,71613,1,0,0:0:0:0:
320,192,71613,1,0,0:0:0:0:
192,192,71702,1,0,0:0:0:0:
64,192,71792,1,8,0:0:0:0:
320,192,71792,1,2,0:0:0:0:
448,192,71792,1,0,0:0:0:0:
320,192,71970,1,0,0:0:0:0:
64,192,72149,1,2,0:0:0:0:
192,192,72149,1,0,0:0:0:0:
320,192,72327,1,0,0:0:0:0:
448,192,72327,1,0,0:0:0:0:
192,192,72417,1,0,0:0:0:0:
64,192,72506,1,8,0:0:0:0:
320,192,72506,1,2,0:0:0:0:
448,192,72506,1,0,0:0:0:0:
192,192,72684,1,0,0:0:0:0:
448,192,72684,1,0,0:0:0:0:
64,192,72863,1,2,0:0:0:0:
192,192,72863,1,0,0:0:0:0:
192,192,73042,1,0,0:0:0:0:
320,192,73042,1,0,0:0:0:0:
448,192,73131,1,0,0:0:0:0:
64,192,73220,1,8,0:0:0:0:
192,192,73220,1,2,0:0:0:0:
320,192,73220,1,0,0:0:0:0:
192,192,73399,1,0,0:0:0:0:
448,192,73399,1,0,0:0:0:0:
64,192,73577,1,2,0:0:0:0:
320,192,73577,1,0,0:0:0:0:
64,192,73756,1,0,0:0:0:0:
192,192,73756,1,0,0:0:0:0:
448,192,73845,1,0,0:0:0:0:
64,192,73934,1,8,0:0:0:0:
192,192,73934,1,2,0:0:0:0:
320,192,73934,1,0,0:0:0:0:
64,192,74113,1,0,0:0:0:0:
448,192,74113,1,0,0:0:0:0:
192,192,74292,1,2,0:0:0:0:
320,192,74292,1,0,0:0:0:0:
320,192,74470,1,0,0:0:0:0:
448,192,74470,1,0,0:0:0:0:
192,192,74559,1,0,0:0:0:0:
64,192,74649,1,8,0:0:0:0:
320,192,74649,1,2,0:0:0:0:
448,192,74649,1,0,0:0:0:0:
192,192,74827,1,0,0:0:0:0:
320,192,74827,1,0,0:0:0:0:
320,192,75006,1,2,0:0:0:0:
448,192,75006,1,0,0:0:0:0:
192,192,75184,1,0,0:0:0:0:
320,192,75274,1,0,0:0:0:0:
64,192,75363,1,2,0:0:0:0:
448,192,75363,1,0,0:0:0:0:
64,192,75542,1,8,0:0:0:0:
192,192,75542,1,2,0:0:0:0:
320,192,75542,1,0,0:0:0:0:
192,192,75720,1,2,0:0:0:0:
448,192,75720,1,0,0:0:0:0:
320,192,75899,1,0,0:0:0:0:
448,192,75899,1,0,0:0:0:0:
64,192,75988,1,0,0:0:0:0:
192,192,76077,1,8,0:0:0:0:
320,192,76077,1,2,0:0:0:0:
448,192,76077,1,0,0:0:0:0:
64,192,76256,1,0,0:0:0:0:
320,192,76256,1,0,0:0:0:0:
192,192,76434,1,2,0:0:0:0:
448,192,76434,1,0,0:0:0:0:
64,192,76613,1,0,0:0:0:0:
320,192,76613,1,0,0:0:0:0:
448,192,76702,1,0,0:0:0:0:
64,192,76792,1,8,0:0:0:0:
192,192,76792,1,2,0:0:0:0:
320,192,76792,1,0,0:0:0:0:
192,192,76970,1,0,0:0:0:0:
320,192,76970,1,0,0:0:0:0:
64,192,77149,1,2,0:0:0:0:
448,192,77149,1,0,0:0:0:0:
64,192,77327,1,0,0:0:0:0:
320,192,77327,1,0,0:0:0:0:
192,192,77417,1,0,0:0:0:0:
64,192,77506,1,8,0:0:0:0:
320,192,77506,1,2,0:0:0:0:
448,192,77506,1,0,0:0:0:0:
64,192,77684,1,0,0:0:0:0:
448,192,77684,1,0,0:0:0:0:
192,192,77863,1,2,0:0:0:0:
448,192,77863,1,0,0:0:0:0:
64,192,78042,1,0,0:0:0:0:
320,192,78042,1,0,0:0:0:0:
192,192,78131,1,0,0:0:0:0:
64,192,78220,1,8,0:0:0:0:
320,192,78220,1,2,0:0:0:0:
448,192,78220,1,0,0:0:0:0:
192,192,78399,1,2,0:0:0:0:
320,192,78399,1,0,0:0:0:0:
64,192,78577,1,4,0:0:0:0:
448,192,78577,1,2,0:0:0:0:
320,192,78667,1,0,0:0:0:0:
64,192,78756,1,0,0:0:0:0:
192,192,78756,1,0,0:0:0:0:
320,192,78845,1,0,0:0:0:0:
448,192,78845,1,0,0:0:0:0:
64,192,78934,1,2,0:0:0:0:
192,192,78934,1,0,0:0:0:0:
320,192,79024,1,0,0:0:0:0:
64,192,79113,1,8,0:0:0:0:
192,192,79113,1,2,0:0:0:0:
448,192,79113,1,0,0:0:0:0:
320,192,79202,1,0,0:0:0:0:
192,192,79292,1,2,0:0:0:0:
448,192,79292,1,4,0:0:0:0:
64,192,79381,1,0,0:0:0:0:
192,192,79470,1,0,0:0:0:0:
320,192,79470,1,0,0:0:0:0:
64,192,79559,1,0,0:0:0:0:
448,192,79559,1,0,0:0:0:0:
192,192,79649,1,2,0:0:0:0:
320,192,79649,1,0,0:0:0:0:
448,192,79738,1,0,0:0:0:0:
64,192,79827,1,8,0:0:0:0:
192,192,79827,1,2,0:0:0:0:
320,192,79827,1,0,0:0:0:0:
448,192,79917,1,0,0:0:0:0:
192,192,80006,1,2,0:0:0:0:
320,192,80006,1,0,0:0:0:0:
64,192,80095,1,0,0:0:0:0:
192,192,80184,1,2,0:0:0:0:
448,192,80184,1,0,0:0:0:0:
64,192,80274,1,0,0:0:0:0:
320,192,80274,1,0,0:0:0:0:
192,192,80363,1,2,0:0:0:0:
448,192,80363,1,0,0:0:0:0:
320,192,80452,1,0,0:0:0:0:
64,192,80542,1,2,0:0:0:0:
192,192,80542,1,8,0:0:0:0:
448,192,80542,1,0,0:0:0:0:
320,192,80631,1,0,0:0:0:0:
64,192,80720,1,2,0:0:0:0:
448,192,80720,1,0,0:0:0:0:
192,192,80809,1,0,0:0:0:70:pon.wav
64,192,80899,1,8,0:0:0:0:
320,192,80899,1,2,0:0:0:0:
448,192,80899,1,0,0:0:0:70:pon.wav
192,192,80988,1,0,0:0:0:70:pon.wav
64,192,81077,1,0,0:0:0:70:pon.wav
192,192,81256,1,8,0:0:0:0:
320,192,81256,1,2,0:0:0:0:
448,192,81256,1,0,0:0:0:70:pon.wav
64,192,81434,1,2,0:0:0:0:
448,192,81434,1,4,0:0:0:0:
192,192,81613,1,0,0:0:0:0:
64,192,81792,1,8,0:0:0:0:
320,192,81792,1,2,0:0:0:0:
448,192,81792,1,0,0:0:0:0:
448,192,81970,1,0,0:0:0:0:
64,192,82149,1,2,0:0:0:0:
192,192,82149,1,0,0:0:0:0:
320,192,82327,1,0,0:0:0:0:
64,192,82506,1,8,0:0:0:0:
192,192,82506,1,2,0:0:0:0:
448,192,82506,1,0,0:0:0:0:
64,192,82684,1,0,0:0:0:0:
320,192,82863,1,2,0:0:0:0:
448,192,82863,1,0,0:0:0:0:
192,192,83042,1,0,0:0:0:0:
448,192,83042,1,0,0:0:0:0:
64,192,83220,1,2,0:0:0:0:
320,192,83220,1,8,0:0:0:0:
64,192,83399,1,0,0:0:0:0:
192,192,83399,1,0,0:0:0:0:
192,192,83577,1,2,0:0:0:0:
320,192,83577,1,0,0:0:0:0:
448,192,83756,1,0,0:0:0:0:
64,192,83934,1,8,0:0:0:0:
192,192,83934,1,2,0:0:0:0:
320,192,83934,1,0,0:0:0:0:
192,192,84113,1,0,0:0:0:0:
448,192,84113,1,0,0:0:0:0:
320,192,84292,1,2,0:0:0:0:
448,192,84292,1,0,0:0:0:0:
192,192,84470,1,0,0:0:0:0:
64,192,84649,1,2,0:0:0:0:
320,192,84649,1,8,0:0:0:0:
448,192,84649,1,0,0:0:0:0:
320,192,84827,1,0,0:0:0:0:
64,192,85006,1,2,0:0:0:0:
448,192,85006,1,0,0:0:0:0:
192,192,85184,1,0,0:0:0:0:
64,192,85363,1,8,0:0:0:0:
320,192,85363,1,2,0:0:0:0:
448,192,85363,1,0,0:0:0:0:
64,192,85542,1,0,0:0:0:0:
320,192,85720,1,2,0:0:0:0:
448,192,85720,1,0,0:0:0:0:
192,192,85899,1,0,0:0:0:0:
320,192,85899,1,0,0:0:0:0:
64,192,86077,1,2,0:0:0:0:
192,192,86077,1,8,0:0:0:0:
192,192,86256,1,0,0:0:0:0:
320,192,86256,1,0,0:0:0:0:
64,192,86434,1,2,0:0:0:0:
448,192,86434,1,0,0:0:0:0:
320,192,86613,1,0,0:0:0:70:pon.wav
192,192,86702,1,0,0:0:0:70:pon.wav
320,192,86792,1,2,0:0:0:0:
64,192,86970,1,8,0:0:0:0:
192,192,86970,1,2,0:0:0:0:
448,192,86970,1,0,0:0:0:70:pon.wav
192,192,87149,1,0,0:0:0:0:
320,192,87149,1,0,0:0:0:0:
64,192,87506,1,10,0:0:0:0:
448,192,87506,1,4,0:0:0:0:
320,192,87684,1,0,0:0:0:0:
64,192,87863,1,2,0:0:0:0:
192,192,87863,1,0,0:0:0:0:
448,192,88042,1,0,0:0:0:0:
64,192,88220,1,2,0:0:0:0:
192,192,88220,1,8,0:0:0:0:
320,192,88220,1,0,0:0:0:0:
64,192,88399,1,0,0:0:0:0:
192,192,88577,1,2,0:0:0:0:
448,192,88577,1,0,0:0:0:0:
64,192,88756,1,0,0:0:0:0:
320,192,88756,1,0,0:0:0:0:
64,192,88934,1,8,0:0:0:0:
192,192,88934,1,2,0:0:0:0:
192,192,89113,1,0,0:0:0:0:
320,192,89113,1,0,0:0:0:0:
320,192,89292,1,2,0:0:0:0:
448,192,89292,1,0,0:0:0:0:
64,192,89470,1,0,0:0:0:0:
192,192,89649,1,2,0:0:0:0:
320,192,89649,1,8,0:0:0:0:
448,192,89649,1,0,0:0:0:0:
64,192,89827,1,0,0:0:0:0:
320,192,89827,1,0,0:0:0:0:
192,192,90006,1,2,0:0:0:0:
320,192,90006,1,0,0:0:0:0:
64,192,90184,1,0,0:0:0:0:
192,192,90363,1,8,0:0:0:0:
320,192,90363,1,2,0:0:0:0:
448,192,90363,1,0,0:0:0:0:
320,192,90542,1,0,0:0:0:0:
64,192,90720,1,2,0:0:0:0:
192,192,90720,1,0,0:0:0:0:
320,192,90899,1,0,0:0:0:0:
64,192,90988,1,8,0:0:0:0:
448,192,90988,1,0,0:0:0:0:
192,192,91077,1,2,0:0:0:0:
320,192,91077,1,0,0:0:0:0:
64,192,91256,1,2,0:0:0:0:
448,192,91256,1,0,0:0:0:0:
64,192,91434,1,8,0:0:0:0:
192,192,91434,1,2,0:0:0:0:
448,192,91434,1,0,0:0:0:0:
64,192,91613,1,8,0:0:0:0:
320,192,91613,1,2,0:0:0:0:
448,192,91613,1,0,0:0:0:0:
64,192,91792,1,8,0:0:0:0:
192,192,91792,1,2,0:0:0:0:
448,192,91792,1,0,0:0:0:0:
64,192,91970,1,8,0:0:0:0:
320,192,91970,1,2,0:0:0:0:
448,192,91970,1,0,0:0:0:0:
64,192,92149,1,2,0:0:0:0:
192,192,92149,1,8,0:0:0:0:
448,192,92149,1,0,0:0:0:0:
320,192,92506,1,0,0:0:0:0:
64,192,92863,128,4,94292:0:0:0:0:
192,192,92863,1,0,0:0:0:70:cymbol.wav
320,192,92863,1,0,0:0:0:0:
448,192,92863,1,0,0:0:0:0:
448,192,94292,1,0,0:0:0:0:
320,192,95184,1,0,0:0:0:70:pon.wav
320,192,95274,1,0,0:0:0:70:pon.wav
64,192,95363,1,8,0:0:0:0:
192,192,95363,1,0,0:0:0:70:pon.wav
448,192,95363,1,0,0:0:0:0:
320,192,95542,1,0,0:0:0:70:pon.wav
64,192,95720,1,2,0:0:0:0:
192,192,95720,1,4,0:0:0:0:
448,192,95720,1,0,0:0:0:0:
320,192,95899,1,0,0:0:0:0:
192,192,95988,1,0,0:0:0:0:
64,192,96077,1,2,0:0:0:0:
448,192,96077,1,0,0:0:0:0:
320,192,96256,1,0,0:0:0:0:
192,192,96434,1,2,0:0:0:0:
448,192,96434,1,0,0:0:0:0:
64,192,96613,1,0,0:0:0:0:
192,192,96702,1,0,0:0:0:0:
320,192,96792,1,2,0:0:0:0:
448,192,96792,1,0,0:0:0:0:
192,192,96970,1,0,0:0:0:0:
64,192,97059,1,0,0:0:0:0:
192,192,97149,1,2,0:0:0:0:
448,192,97149,1,0,0:0:0:0:
320,192,97327,1,0,0:0:0:0:
448,192,97417,1,0,0:0:0:0:
64,192,97506,1,2,0:0:0:0:
320,192,97506,1,0,0:0:0:0:
192,192,97684,1,0,0:0:0:0:
320,192,97863,1,2,0:0:0:0:
448,192,97863,1,0,0:0:0:0:
64,192,98042,1,0,0:0:0:0:
192,192,98131,1,0,0:0:0:0:
320,192,98220,1,2,0:0:0:0:
448,192,98220,1,0,0:0:0:0:
192,192,98399,1,0,0:0:0:0:
64,192,98577,1,2,0:0:0:0:
320,192,98577,1,0,0:0:0:0:
448,192,98756,1,0,0:0:0:0:
320,192,98845,1,0,0:0:0:0:
64,192,98934,1,2,0:0:0:0:
192,192,98934,1,0,0:0:0:0:
448,192,99113,1,0,0:0:0:0:
192,192,99292,1,2,0:0:0:0:
320,192,99292,1,0,0:0:0:0:
64,192,99470,1,0,0:0:0:0:
192,192,99559,1,0,0:0:0:0:
64,192,99649,1,2,0:0:0:0:
320,192,99649,1,0,0:0:0:0:
448,192,99827,1,0,0:0:0:0:
320,192,99917,1,0,0:0:0:0:
192,192,100006,1,2,0:0:0:0:
448,192,100006,1,0,0:0:0:0:
64,192,100184,1,0,0:0:0:0:
192,192,100274,1,0,0:0:0:0:
320,192,100363,1,2,0:0:0:0:
448,192,100363,1,0,0:0:0:0:
192,192,100542,1,0,0:0:0:0:
64,192,100720,1,2,0:0:0:0:
320,192,100720,1,0,0:0:0:0:
448,192,100899,1,0,0:0:0:0:
320,192,100988,1,0,0:0:0:0:
64,192,101077,1,2,0:0:0:0:
192,192,101077,1,0,0:0:0:0:
192,192,101256,1,2,0:0:0:0:
320,192,101256,1,0,0:0:0:0:
320,192,101434,1,2,0:0:0:0:
448,192,101434,1,0,0:0:0:0:
64,192,101792,1,8,0:0:0:0:
192,192,101792,1,2,0:0:0:0:
448,192,101792,1,0,0:0:0:0:
320,192,101970,1,2,0:0:0:0:
192,192,102149,1,2,0:0:0:0:
64,192,102506,1,8,0:0:0:0:
320,192,102506,1,2,0:0:0:0:
448,192,102506,1,0,0:0:0:0:
192,192,102684,1,2,0:0:0:0:
64,192,103042,1,8,0:0:0:0:
192,192,103042,1,2,0:0:0:0:
320,192,103042,1,0,0:0:0:0:
192,192,103399,1,8,0:0:0:0:
320,192,103399,1,2,0:0:0:0:
448,192,103399,1,0,0:0:0:0:
64,192,103756,1,8,0:0:0:0:
192,192,103756,1,2,0:0:0:0:
448,192,103756,1,0,0:0:0:0:
64,192,103934,1,2,0:0:0:0:
192,192,103934,1,8,0:0:0:0:
448,192,103934,1,0,0:0:0:0:
192,192,104292,1,2,0:0:0:0:
320,192,104292,1,4,0:0:0:0:
448,192,104292,1,0,0:0:0:0:
64,192,104470,1,0,0:0:0:0:
192,192,104559,1,0,0:0:0:0:
64,192,104649,1,8,0:0:0:0:
320,192,104649,1,2,0:0:0:0:
448,192,104649,1,0,0:0:0:0:
448,192,104827,1,0,0:0:0:0:
192,192,105006,1,2,0:0:0:0:
320,192,105006,1,0,0:0:0:0:
64,192,105184,1,0,0:0:0:0:
192,192,105274,1,0,0:0:0:0:
64,192,105363,1,2,0:0:0:0:
320,192,105363,1,8,0:0:0:0:
448,192,105363,1,0,0:0:0:0:
64,192,105542,1,0,0:0:0:0:
192,192,105631,1,0,0:0:0:0:
320,192,105720,1,2,0:0:0:0:
448,192,105720,1,0,0:0:0:0:
448,192,105899,1,0,0:0:0:0:
320,192,105988,1,0,0:0:0:0:
64,192,106077,1,8,0:0:0:0:
192,192,106077,1,2,0:0:0:0:
448,192,106077,1,0,0:0:0:0:
192,192,106256,1,0,0:0:0:0:
64,192,106434,1,2,0:0:0:0:
448,192,106434,1,0,0:0:0:0:
320,192,106613,1,0,0:0:0:0:
448,192,106702,1,0,0:0:0:0:
64,192,106792,1,2,0:0:0:0:
192,192,106792,1,8,0:0:0:0:
320,192,106792,1,0,0:0:0:0:
192,192,106970,1,0,0:0:0:0:
320,192,107149,1,2,0:0:0:0:
448,192,107149,1,0,0:0:0:0:
192,192,107327,1,0,0:0:0:0:
320,192,107417,1,0,0:0:0:0:
64,192,107506,128,8,107863:0:0:0:0:
192,192,107506,1,2,0:0:0:0:
448,192,107506,1,0,0:0:0:0:
320,192,107684,1,0,0:0:0:0:
320,192,107863,128,2,108220:0:0:0:0:
448,192,107863,1,0,0:0:0:0:
192,192,108042,1,0,0:0:0:0:
64,192,108131,1,0,0:0:0:0:
192,192,108220,128,2,108577:0:0:0:0:
448,192,108220,1,8,0:0:0:0:
320,192,108399,1,0,0:0:0:0:
64,192,108488,1,0,0:0:0:0:
320,192,108577,1,2,0:0:0:0:
448,192,108577,128,0,108934:0:0:0:0:
64,192,108756,1,0,0:0:0:0:
192,192,108845,1,0,0:0:0:0:
64,192,108934,1,8,0:0:0:0:
320,192,108934,128,2,109292:0:0:0:0:
192,192,109113,1,0,0:0:0:0:
64,192,109292,128,2,109649:0:0:0:0:
448,192,109292,1,0,0:0:0:0:
192,192,109470,1,0,0:0:0:0:
320,192,109559,1,0,0:0:0:0:
192,192,109649,128,2,110006:0:0:0:0:
448,192,109649,1,0,0:0:0:0:
64,192,109827,1,2,0:0:0:0:
320,192,109827,1,8,0:0:0:0:
448,192,109827,1,0,0:0:0:0:
320,192,110006,1,2,0:0:0:0:
448,192,110006,128,0,111434:0:0:0:0:
64,192,110184,1,0,0:0:0:0:
192,192,110274,1,0,0:0:0:0:
64,192,110363,1,2,0:0:0:0:
320,192,110363,1,8,0:0:0:0:
192,192,110542,1,0,0:0:0:0:
64,192,110720,1,2,0:0:0:0:
192,192,110720,1,0,0:0:0:0:
320,192,110899,1,0,0:0:0:0:
192,192,110988,1,0,0:0:0:0:
64,192,111077,1,8,0:0:0:0:
320,192,111077,1,2,0:0:0:0:
192,192,111256,1,0,0:0:0:0:
64,192,111345,1,0,0:0:0:0:
192,192,111434,1,2,0:0:0:0:
320,192,111434,128,0,112863:0:0:0:0:
64,192,111613,1,0,0:0:0:0:
448,192,111702,1,0,0:0:0:0:
64,192,111792,1,2,0:0:0:0:
192,192,111792,1,8,0:0:0:0:
192,192,111970,1,0,0:0:0:0:
64,192,112149,1,2,0:0:0:0:
448,192,112149,1,0,0:0:0:0:
192,192,112327,1,0,0:0:0:0:
64,192,112417,1,0,0:0:0:0:
192,192,112506,1,8,0:0:0:0:
448,192,112506,1,2,0:0:0:0:
64,192,112684,1,0,0:0:0:0:
192,192,112774,1,0,0:0:0:0:
64,192,112863,1,2,0:0:0:0:
448,192,112863,1,0,0:0:0:0:
64,192,113042,1,2,0:0:0:0:
448,192,113042,1,0,0:0:0:0:
64,192,113220,1,8,0:0:0:0:
320,192,113220,1,4,0:0:0:0:
448,192,113220,1,2,0:0:0:0:
64,192,113577,1,2,0:0:0:0:
320,192,113577,1,0,0:0:0:0:
64,192,113756,1,2,0:0:0:0:
320,192,113756,1,0,0:0:0:0:
64,192,113934,1,8,0:0:0:0:
192,192,113934,1,2,0:0:0:0:
448,192,113934,1,0,0:0:0:0:
192,192,114292,1,2,0:0:0:0:
448,192,114292,1,0,0:0:0:0:
192,192,114470,1,2,0:0:0:0:
448,192,114470,1,0,0:0:0:0:
64,192,114649,1,0,0:0:0:0:
192,192,114827,1,4,0:0:0:0:
320,192,114827,1,8,0:0:0:0:
448,192,114827,1,2,0:0:0:0:
448,192,115006,1,0,0:0:0:0:
64,192,115184,1,2,0:0:0:0:
320,192,115184,1,0,0:0:0:0:
448,192,115274,1,0,0:0:0:0:
64,192,115363,1,8,0:0:0:0:
192,192,115363,1,2,0:0:0:0:
320,192,115363,1,0,0:0:0:0:
320,192,115542,1,0,0:0:0:0:
64,192,115720,1,2,0:0:0:0:
192,192,115720,1,4,0:0:0:0:
448,192,115720,1,0,0:0:0:0:
64,192,115899,1,0,0:0:0:0:
192,192,115988,1,0,0:0:0:0:
64,192,116077,1,2,0:0:0:0:
320,192,116077,1,8,0:0:0:0:
448,192,116077,1,0,0:0:0:0:
448,192,116256,1,0,0:0:0:0:
320,192,116345,1,0,0:0:0:0:
64,192,116434,1,2,0:0:0:0:
192,192,116434,1,0,0:0:0:0:
64,192,116613,1,2,0:0:0:0:
320,192,116613,1,0,0:0:0:0:
192,192,116702,1,0,0:0:0:0:
64,192,116792,1,8,0:0:0:0:
320,192,116792,1,2,0:0:0:0:
448,192,116792,1,0,0:0:0:0:
64,192,116970,1,2,0:0:0:0:
448,192,116970,1,0,0:0:0:0:
192,192,117059,1,0,0:0:0:0:
320,192,117149,1,0,0:0:0:0:
448,192,117149,1,0,0:0:0:0:
320,192,117327,1,2,0:0:0:0:
448,192,117327,1,0,0:0:0:0:
192,192,117417,1,0,0:0:0:0:
64,192,117506,1,8,0:0:0:0:
320,192,117506,1,2,0:0:0:0:
448,192,117506,1,0,0:0:0:0:
64,192,117684,1,0,0:0:0:0:
192,192,117774,1,0,0:0:0:0:
320,192,117863,1,2,0:0:0:0:
448,192,117863,1,0,0:0:0:0:
64,192,118042,1,8,0:0:0:0:
192,192,118042,1,2,0:0:0:0:
448,192,118042,1,0,0:0:0:0:
320,192,118131,1,0,0:0:0:0:
64,192,118220,1,8,0:0:0:0:
192,192,118220,1,2,0:0:0:0:
448,192,118220,1,0,0:0:0:0:
64,192,118399,1,0,0:0:0:0:
192,192,118488,1,0,0:0:0:0:
320,192,118577,1,2,0:0:0:0:
448,192,118577,1,0,0:0:0:0:
448,192,118756,1,0,0:0:0:0:
320,192,118845,1,0,0:0:0:0:
64,192,118934,1,8,0:0:0:0:
192,192,118934,1,2,0:0:0:0:
448,192,118934,1,0,0:0:0:0:
320,192,119113,1,2,0:0:0:0:
448,192,119113,1,0,0:0:0:0:
192,192,119202,1,0,0:0:0:0:
64,192,119292,1,2,0:0:0:0:
448,192,119292,1,0,0:0:0:0:
64,192,119470,1,0,0:0:0:0:
192,192,119559,1,0,0:0:0:0:
64,192,119649,1,8,0:0:0:0:
320,192,119649,1,2,0:0:0:0:
448,192,119649,1,0,0:0:0:0:
320,192,119827,1,2,0:0:0:0:
448,192,119827,1,0,0:0:0:0:
192,192,119917,1,0,0:0:0:0:
64,192,120006,1,0,0:0:0:0:
448,192,120006,1,0,0:0:0:0:
64,192,120184,1,2,0:0:0:0:
192,192,120184,1,0,0:0:0:0:
320,192,120274,1,0,0:0:0:0:
64,192,120363,1,8,0:0:0:0:
192,192,120363,1,2,0:0:0:0:
448,192,120363,1,0,0:0:0:0:
64,192,120542,1,2,0:0:0:0:
320,192,120542,1,0,0:0:0:0:
192,192,120631,1,0,0:0:0:0:
320,192,120720,1,2,0:0:0:0:
448,192,120720,1,0,0:0:0:0:
64,192,120899,1,8,0:0:0:0:
192,192,120899,1,2,0:0:0:0:
320,192,120899,1,0,0:0:0:0:
448,192,120988,1,0,0:0:0:0:
64,192,121077,1,8,0:0:0:0:
192,192,121077,1,2,0:0:0:0:
320,192,121077,1,0,0:0:0:0:
64,192,121256,1,0,0:0:0:0:
192,192,121345,1,0,0:0:0:0:
64,192,121434,1,4,0:0:0:0:
320,192,121434,1,2,0:0:0:0:
448,192,121434,1,0,0:0:0:0:
448,192,121613,1,0,0:0:0:0:
320,192,121702,1,0,0:0:0:0:
64,192,121792,1,8,0:0:0:0:
192,192,121792,1,2,0:0:0:0:
448,192,121792,1,0,0:0:0:0:
64,192,121970,1,0,0:0:0:0:
192,192,122059,1,0,0:0:0:0:
320,192,122149,1,2,0:0:0:0:
448,192,122149,1,0,0:0:0:0:
64,192,122327,1,2,0:0:0:0:
192,192,122327,1,0,0:0:0:0:
320,192,122417,1,0,0:0:0:0:
64,192,122506,1,8,0:0:0:0:
192,192,122506,1,2,0:0:0:0:
448,192,122506,1,0,0:0:0:0:
320,192,122684,1,2,0:0:0:0:
448,192,122684,1,0,0:0:0:0:
192,192,122774,1,0,0:0:0:0:
64,192,122863,1,0,0:0:0:0:
448,192,122863,1,0,0:0:0:0:
64,192,123042,1,2,0:0:0:0:
192,192,123042,1,0,0:0:0:0:
320,192,123131,1,0,0:0:0:0:
64,192,123220,1,8,0:0:0:0:
192,192,123220,1,2,0:0:0:0:
448,192,123220,1,0,0:0:0:0:
64,192,123399,1,2,0:0:0:0:
448,192,123399,1,0,0:0:0:0:
192,192,123488,1,0,0:0:0:0:
64,192,123577,1,8,0:0:0:0:
320,192,123577,1,2,0:0:0:0:
448,192,123577,1,0,0:0:0:0:
64,192,123934,1,2,0:0:0:0:
320,192,123934,1,8,0:0:0:0:
448,192,123934,1,0,0:0:0:0:
64,192,124292,1,4,0:0:0:0:
192,192,124292,1,2,0:0:0:0:
448,192,124292,1,8,0:0:0:0:
320,192,124470,1,0,0:0:0:0:
192,192,124559,1,0,0:0:0:0:
64,192,124649,1,8,0:0:0:0:
320,192,124649,1,2,0:0:0:0:
448,192,124649,1,0,0:0:0:0:
192,192,124827,1,0,0:0:0:0:
320,192,124917,1,0,0:0:0:0:
64,192,125006,1,2,0:0:0:0:
192,192,125006,1,8,0:0:0:0:
448,192,125006,1,0,0:0:0:0:
192,192,125184,1,0,0:0:0:0:
64,192,125274,1,0,0:0:0:0:
192,192,125363,1,2,0:0:0:0:
320,192,125363,1,8,0:0:0:0:
448,192,125363,1,0,0:0:0:0:
320,192,125542,1,0,0:0:0:0:
448,192,125631,1,0,0:0:0:0:
64,192,125720,1,4,0:0:0:0:
192,192,125720,1,2,0:0:0:0:
320,192,125720,1,8,0:0:0:0:
192,192,126613,1,0,0:0:0:70:pon.wav
320,192,126702,1,0,0:0:0:70:pon.wav
192,192,126792,1,0,0:0:0:70:pon.wav
192,192,126970,1,0,0:0:0:70:pon.wav
64,192,127149,128,4,128577:0:0:0:0:
192,192,127149,1,0,0:0:0:70:cymbol.wav
320,192,127149,1,0,0:0:0:0:
448,192,127149,1,0,0:0:0:0:
320,192,127327,1,0,0:0:0:0:
192,192,127506,1,0,0:0:0:0:
448,192,127684,1,0,0:0:0:0:
192,192,127863,1,0,0:0:0:0:
320,192,127863,1,0,0:0:0:0:
448,192,128042,1,0,0:0:0:0:
320,192,128220,1,0,0:0:0:0:
192,192,128399,1,0,0:0:0:0:
192,192,128577,1,0,0:0:0:0:
320,192,128577,128,0,130006:0:0:0:0:
448,192,128756,1,0,0:0:0:0:
64,192,128934,1,0,0:0:0:0:
192,192,129113,1,0,0:0:0:0:
64,192,129292,1,0,0:0:0:0:
448,192,129292,1,0,0:0:0:0:
192,192,129470,1,0,0:0:0:0:
448,192,129649,1,0,0:0:0:0:
192,192,129827,1,0,0:0:0:0:
64,192,130006,1,0,0:0:0:0:
192,192,130006,128,0,132863:0:0:0:0:
320,192,130184,1,0,0:0:0:0:
448,192,130363,1,0,0:0:0:0:
64,192,130542,1,0,0:0:0:0:
320,192,130720,1,0,0:0:0:0:
448,192,130720,1,0,0:0:0:0:
64,192,130899,1,0,0:0:0:0:
320,192,131077,1,0,0:0:0:0:
448,192,131256,1,0,0:0:0:0:
64,192,131434,1,0,0:0:0:0:
320,192,131434,1,0,0:0:0:0:
448,192,131613,1,0,0:0:0:0:
320,192,131792,1,0,0:0:0:0:
64,192,131970,1,0,0:0:0:0:
320,192,132149,1,0,0:0:0:0:
448,192,132149,1,0,0:0:0:0:
64,192,132327,1,0,0:0:0:0:
320,192,132506,1,0,0:0:0:0:
448,192,132684,1,0,0:0:0:0:
320,192,132863,1,0,0:0:0:0:
448,192,132863,128,0,134292:0:0:0:0:
192,192,133042,1,0,0:0:0:0:
64,192,133220,1,0,0:0:0:0:
192,192,133399,1,0,0:0:0:0:
64,192,133577,1,0,0:0:0:0:
320,192,133577,1,0,0:0:0:0:
192,192,133756,1,0,0:0:0:0:
64,192,133934,1,0,0:0:0:0:
192,192,134113,1,0,0:0:0:0:
64,192,134292,128,0,135720:0:0:0:0:
192,192,134292,1,0,0:0:0:0:
320,192,134470,1,0,0:0:0:0:
448,192,134649,1,0,0:0:0:0:
320,192,134827,1,0,0:0:0:0:
192,192,135006,1,0,0:0:0:0:
448,192,135006,1,0,0:0:0:0:
320,192,135184,1,0,0:0:0:0:
192,192,135363,1,0,0:0:0:0:
320,192,135542,1,0,0:0:0:0:
192,192,135720,128,0,137149:0:0:0:0:
320,192,135720,1,0,0:0:0:0:
64,192,135899,1,0,0:0:0:0:
448,192,136077,1,0,0:0:0:0:
320,192,136256,1,0,0:0:0:0:
64,192,136434,1,0,0:0:0:0:
448,192,136434,1,0,0:0:0:0:
320,192,136613,1,0,0:0:0:0:
64,192,136792,1,0,0:0:0:0:
320,192,136970,1,0,0:0:0:0:
320,192,137149,1,0,0:0:0:0:
448,192,137149,128,0,138577:0:0:0:0:
192,192,137327,1,0,0:0:0:0:
320,192,137506,1,0,0:0:0:0:
64,192,137684,1,0,0:0:0:0:
192,192,137863,1,0,0:0:0:0:
320,192,137863,1,0,0:0:0:0:
64,192,138042,1,0,0:0:0:0:
192,192,138220,1,0,0:0:0:0:
320,192,138220,128,0,138577:0:0:0:0:
64,192,138399,1,0,0:0:0:0:
64,192,138577,1,4,0:0:0:0:
192,192,138577,1,0,0:0:0:70:cymbol.wav
64,192,138756,1,0,0:0:0:0:
320,192,138756,1,0,0:0:0:0:
64,192,138934,1,0,0:0:0:0:
448,192,138934,1,0,0:0:0:0:
64,192,139113,1,0,0:0:0:0:
192,192,139113,1,0,0:0:0:0:
64,192,139292,1,0,0:0:0:0:
320,192,139292,1,0,0:0:0:0:
64,192,139470,1,0,0:0:0:0:
448,192,139470,1,0,0:0:0:0:
64,192,139649,1,0,0:0:0:0:
320,192,139649,1,0,0:0:0:0:
64,192,139827,1,0,0:0:0:0:
192,192,139827,1,0,0:0:0:0:
320,192,139917,1,0,0:0:0:0:
64,192,140006,1,0,0:0:0:0:
448,192,140006,1,0,0:0:0:0:
192,192,140184,1,0,0:0:0:0:
448,192,140184,1,0,0:0:0:0:
320,192,140363,1,0,0:0:0:0:
448,192,140363,1,0,0:0:0:0:
192,192,140542,1,0,0:0:0:0:
448,192,140542,1,0,0:0:0:0:
64,192,140720,1,0,0:0:0:0:
448,192,140720,1,0,0:0:0:0:
320,192,140899,1,0,0:0:0:0:
448,192,140899,1,0,0:0:0:0:
192,192,141077,1,0,0:0:0:0:
448,192,141077,1,0,0:0:0:0:
64,192,141256,1,0,0:0:0:0:
448,192,141256,1,0,0:0:0:0:
320,192,141345,1,0,0:0:0:0:
64,192,141434,1,0,0:0:0:0:
192,192,141434,1,0,0:0:0:0:
192,192,141613,1,0,0:0:0:0:
320,192,141613,1,0,0:0:0:0:
192,192,141792,1,0,0:0:0:0:
448,192,141792,1,0,0:0:0:0:
192,192,141970,1,0,0:0:0:0:
320,192,141970,1,0,0:0:0:0:
64,192,142149,1,0,0:0:0:0:
192,192,142149,1,0,0:0:0:0:
192,192,142327,1,0,0:0:0:0:
448,192,142327,1,0,0:0:0:0:
192,192,142506,1,0,0:0:0:0:
320,192,142506,1,0,0:0:0:0:
64,192,142684,1,0,0:0:0:0:
192,192,142684,1,0,0:0:0:0:
448,192,142774,1,0,0:0:0:0:
64,192,142863,1,0,0:0:0:0:
320,192,142863,1,0,0:0:0:0:
192,192,143042,1,0,0:0:0:0:
320,192,143042,1,0,0:0:0:0:
320,192,143220,1,0,0:0:0:0:
448,192,143220,1,0,0:0:0:0:
64,192,143399,1,0,0:0:0:0:
320,192,143399,1,0,0:0:0:0:
192,192,143577,1,0,0:0:0:0:
320,192,143577,1,0,0:0:0:0:
320,192,143756,1,0,0:0:0:0:
448,192,143756,1,0,0:0:0:0:
192,192,143934,1,0,0:0:0:0:
320,192,143934,1,0,0:0:0:0:
64,192,144113,1,0,0:0:0:0:
320,192,144113,1,0,0:0:0:0:
192,192,144202,1,0,0:0:0:0:
64,192,144292,1,4,0:0:0:0:
448,192,144292,1,2,0:0:0:50:soft-hitwhistle.wav
320,192,144381,1,2,0:0:0:50:soft-hitwhistle.wav
64,192,144470,1,2,0:0:0:50:soft-hitwhistle.wav
192,192,144470,1,0,0:0:0:0:
320,192,144559,1,2,0:0:0:50:soft-hitwhistle.wav
192,192,144649,1,2,0:0:0:50:soft-hitwhistle.wav
448,192,144649,1,0,0:0:0:0:
64,192,144738,1,2,0:0:0:50:soft-hitwhistle.wav
320,192,144827,1,2,0:0:0:50:soft-hitwhistle.wav
448,192,144827,1,0,0:0:0:0:
192,192,144917,1,2,0:0:0:50:soft-hitwhistle.wav
64,192,145006,1,0,0:0:0:55:soft-hitwhistle.wav
448,192,145006,1,0,0:0:0:0:
320,192,145095,1,0,0:0:0:55:soft-hitwhistle.wav
64,192,145184,1,0,0:0:0:55:soft-hitwhistle.wav
192,192,145184,1,0,0:0:0:0:
448,192,145274,1,0,0:0:0:55:soft-hitwhistle.wav
64,192,145363,1,0,0:0:0:55:soft-hitwhistle.wav
320,192,145363,1,0,0:0:0:0:
192,192,145452,1,0,0:0:0:55:soft-hitwhistle.wav
64,192,145542,1,0,0:0:0:55:soft-hitwhistle.wav
448,192,145542,1,0,0:0:0:0:
320,192,145631,1,0,0:0:0:55:soft-hitwhistle.wav
64,192,145720,1,4,0:0:0:0:
192,192,145720,1,0,0:0:0:60:soft-hitwhistle.wav
448,192,145720,1,0,0:0:0:0:
320,192,145809,1,0,0:0:0:60:soft-hitwhistle.wav
64,192,145899,1,0,0:0:0:60:soft-hitwhistle.wav
192,192,145899,1,0,0:0:0:0:
448,192,145988,1,0,0:0:0:60:soft-hitwhistle.wav
64,192,146077,1,0,0:0:0:60:soft-hitwhistle.wav
320,192,146077,1,0,0:0:0:0:
192,192,146167,1,0,0:0:0:60:soft-hitwhistle.wav
320,192,146256,1,0,0:0:0:60:soft-hitwhistle.wav
448,192,146256,1,0,0:0:0:0:
64,192,146345,1,0,0:0:0:60:soft-hitwhistle.wav
192,192,146434,1,0,0:0:0:65:soft-hitwhistle.wav
320,192,146434,1,0,0:0:0:0:
448,192,146524,1,0,0:0:0:65:soft-hitwhistle.wav
64,192,146613,1,0,0:0:0:65:soft-hitwhistle.wav
320,192,146613,1,0,0:0:0:0:
192,192,146702,1,0,0:0:0:65:soft-hitwhistle.wav
320,192,146792,1,0,0:0:0:65:soft-hitwhistle.wav
448,192,146792,1,0,0:0:0:0:
64,192,146881,1,0,0:0:0:65:soft-hitwhistle.wav
192,192,146970,1,0,0:0:0:65:soft-hitwhistle.wav
448,192,146970,1,0,0:0:0:0:
320,192,147059,1,0,0:0:0:65:soft-hitwhistle.wav
64,192,147149,1,8,0:0:0:0:
192,192,147149,1,4,0:0:0:0:
448,192,147149,1,0,0:0:0:0:
320,192,147208,1,8,0:0:0:0:
192,192,147268,1,8,0:0:0:0:
64,192,147327,1,8,0:0:0:0:
448,192,147327,1,0,0:0:0:0:
320,192,147417,1,8,0:0:0:0:
64,192,147506,1,8,0:0:0:0:
192,192,147506,1,0,0:0:0:0:
320,192,147595,1,8,0:0:0:0:
64,192,147684,1,8,0:0:0:0:
448,192,147684,1,0,0:0:0:0:
192,192,147774,1,8,0:0:0:0:
64,192,147863,1,8,0:0:0:0:
320,192,147863,1,4,0:0:0:0:
448,192,147863,1,0,0:0:0:0:
192,192,147923,1,8,0:0:0:0:
320,192,147982,1,8,0:0:0:0:
64,192,148042,1,8,0:0:0:0:
448,192,148042,1,0,0:0:0:0:
192,192,148131,1,8,0:0:0:0:
320,192,148220,1,8,0:0:0:0:
448,192,148220,1,0,0:0:0:0:
192,192,148309,1,8,0:0:0:0:
64,192,148399,1,8,0:0:0:0:
448,192,148399,1,0,0:0:0:0:
320,192,148488,1,8,0:0:0:0:
64,192,148577,1,2,0:0:0:0:
192,192,148577,1,8,0:0:0:0:
448,192,148577,1,0,0:0:0:70:pon.wav
64,192,148756,1,2,0:0:0:0:
192,192,148756,1,8,0:0:0:0:
448,192,148756,1,0,0:0:0:0:
192,192,148934,1,0,0:0:0:70:pon.wav
64,192,149113,1,8,0:0:0:0:
320,192,149113,1,2,0:0:0:0:
448,192,149113,1,0,0:0:0:70:pon.wav
192,192,149470,1,8,0:0:0:0:
320,192,149470,1,2,0:0:0:0:
448,192,149470,1,0,0:0:0:0:
192,192,149649,1,8,0:0:0:0:
320,192,149649,1,2,0:0:0:0:
448,192,149649,1,0,0:0:0:0:
320,192,149827,1,0,0:0:0:70:pon.wav
64,192,150006,1,2,0:0:0:0:
192,192,150006,1,4,0:0:0:0:
320,192,150006,1,0,0:0:0:70:cymbol.wav
448,192,150006,1,0,0:0:0:0:
192,192,150184,1,0,0:0:0:0:
64,192,150363,1,2,0:0:0:0:
320,192,150363,1,8,0:0:0:0:
448,192,150363,1,0,0:0:0:0:
192,192,150542,1,0,0:0:0:0:
320,192,150542,1,0,0:0:0:0:
64,192,150720,1,2,0:0:0:0:
192,192,150720,1,0,0:0:0:70:cymbol.wav
320,192,150720,1,0,0:0:0:0:
192,192,150899,1,0,0:0:0:0:
448,192,150899,1,0,0:0:0:0:
320,192,150988,1,0,0:0:0:0:
64,192,151077,1,2,0:0:0:0:
192,192,151077,1,8,0:0:0:0:
448,192,151077,1,0,0:0:0:0:
64,192,151256,1,0,0:0:0:0:
448,192,151256,1,0,0:0:0:0:
192,192,151434,1,2,0:0:0:0:
448,192,151434,1,0,0:0:0:0:
64,192,151613,1,0,0:0:0:0:
320,192,151613,1,0,0:0:0:0:
192,192,151792,1,8,0:0:0:0:
320,192,151792,1,2,0:0:0:0:
448,192,151792,1,0,0:0:0:0:
320,192,151970,1,0,0:0:0:0:
448,192,151970,1,0,0:0:0:0:
64,192,152149,1,2,0:0:0:0:
192,192,152149,1,0,0:0:0:0:
192,192,152327,1,0,0:0:0:0:
64,192,152506,1,2,0:0:0:0:
320,192,152506,1,8,0:0:0:0:
448,192,152506,1,0,0:0:0:0:
192,192,152684,1,0,0:0:0:0:
320,192,152684,1,0,0:0:0:0:
64,192,152863,1,2,0:0:0:0:
192,192,152863,1,0,0:0:0:70:cymbol.wav
320,192,152863,1,0,0:0:0:0:
64,192,153042,1,0,0:0:0:0:
192,192,153220,1,2,0:0:0:0:
320,192,153220,1,8,0:0:0:0:
448,192,153220,1,0,0:0:0:0:
64,192,153399,1,0,0:0:0:0:
320,192,153399,1,0,0:0:0:0:
64,192,153577,1,2,0:0:0:0:
192,192,153577,1,0,0:0:0:70:cymbol.wav
448,192,153577,1,0,0:0:0:0:
320,192,153756,1,0,0:0:0:0:
448,192,153756,1,0,0:0:0:0:
192,192,153845,1,0,0:0:0:0:
64,192,153934,1,2,0:0:0:0:
320,192,153934,1,8,0:0:0:0:
448,192,153934,1,0,0:0:0:0:
64,192,154113,1,0,0:0:0:0:
192,192,154113,1,0,0:0:0:0:
192,192,154292,1,2,0:0:0:0:
320,192,154292,1,0,0:0:0:0:
320,192,154470,1,0,0:0:0:0:
448,192,154470,1,0,0:0:0:0:
64,192,154649,1,8,0:0:0:0:
192,192,154649,1,2,0:0:0:0:
448,192,154649,1,0,0:0:0:0:
64,192,154827,1,0,0:0:0:0:
448,192,154827,1,0,0:0:0:0:
192,192,155006,1,2,0:0:0:0:
448,192,155006,1,0,0:0:0:0:
320,192,155184,1,0,0:0:0:70:pon.wav
64,192,155363,1,2,0:0:0:0:
448,192,155363,1,0,0:0:0:70:pon.wav
64,192,155542,1,2,0:0:0:0:
192,192,155542,1,8,0:0:0:0:
448,192,155542,1,0,0:0:0:70:pon.wav
64,192,155720,1,2,0:0:0:0:
320,192,155720,1,0,0:0:0:70:cymbol.wav
448,192,155720,1,0,0:0:0:0:
320,192,155899,1,0,0:0:0:0:
64,192,156077,1,8,0:0:0:0:
192,192,156077,1,2,0:0:0:0:
448,192,156077,1,0,0:0:0:0:
320,192,156256,1,0,0:0:0:0:
448,192,156256,1,0,0:0:0:0:
64,192,156434,1,2,0:0:0:0:
192,192,156434,1,0,0:0:0:70:cymbol.wav
320,192,156434,1,0,0:0:0:0:
64,192,156613,1,0,0:0:0:0:
320,192,156613,1,0,0:0:0:0:
192,192,156702,1,0,0:0:0:0:
64,192,156792,1,8,0:0:0:0:
320,192,156792,1,2,0:0:0:0:
448,192,156792,1,0,0:0:0:0:
192,192,156970,1,0,0:0:0:0:
448,192,156970,1,0,0:0:0:0:
192,192,157149,1,2,0:0:0:0:
320,192,157149,1,0,0:0:0:0:
64,192,157327,1,0,0:0:0:0:
192,192,157327,1,0,0:0:0:0:
64,192,157506,1,2,0:0:0:0:
192,192,157506,1,8,0:0:0:0:
448,192,157506,1,0,0:0:0:0:
64,192,157684,1,0,0:0:0:0:
448,192,157684,1,0,0:0:0:0:
192,192,157863,1,2,0:0:0:0:
448,192,157863,1,0,0:0:0:0:
192,192,158042,1,0,0:0:0:0:
64,192,158220,1,8,0:0:0:0:
320,192,158220,1,2,0:0:0:0:
448,192,158220,1,0,0:0:0:0:
192,192,158399,1,0,0:0:0:0:
320,192,158399,1,0,0:0:0:0:
64,192,158577,1,2,0:0:0:0:
192,192,158577,1,0,0:0:0:70:cymbol.wav
448,192,158577,1,0,0:0:0:0:
192,192,158756,1,0,0:0:0:0:
64,192,158934,1,2,0:0:0:0:
320,192,158934,1,8,0:0:0:0:
448,192,158934,1,0,0:0:0:0:
192,192,159113,1,0,0:0:0:0:
320,192,159113,1,0,0:0:0:0:
64,192,159292,1,2,0:0:0:0:
192,192,159292,1,0,0:0:0:70:cymbol.wav
448,192,159292,1,0,0:0:0:0:
64,192,159470,1,0,0:0:0:0:
192,192,159470,1,0,0:0:0:0:
320,192,159559,1,2,0:0:0:0:
64,192,159649,1,2,0:0:0:0:
448,192,159649,1,0,0:0:0:0:
192,192,159827,1,2,0:0:0:0:
320,192,159827,1,8,0:0:0:0:
448,192,159827,1,0,0:0:0:0:
64,192,160006,1,2,0:0:0:0:
192,192,160006,1,8,0:0:0:0:
448,192,160006,1,0,0:0:0:0:
64,192,160184,1,8,0:0:0:0:
320,192,160184,1,2,0:0:0:0:
448,192,160184,1,0,0:0:0:0:
64,192,160363,1,2,0:0:0:0:
192,192,160363,1,8,0:0:0:0:
448,192,160363,1,0,0:0:0:0:
64,192,160542,1,8,0:0:0:0:
320,192,160542,1,2,0:0:0:0:
448,192,160542,1,0,0:0:0:0:
64,192,160720,1,2,0:0:0:0:
192,192,160720,1,8,0:0:0:0:
448,192,160720,1,0,0:0:0:0:
64,192,161077,1,0,0:0:0:0:
192,192,161434,1,8,0:0:0:0:
320,192,161434,1,2,0:0:0:0:
448,192,161434,1,0,0:0:0:0:
64,192,161613,1,2,0:0:0:0:
192,192,161613,1,8,0:0:0:0:
320,192,161613,1,0,0:0:0:0:
192,192,161792,1,8,0:0:0:0:
320,192,161792,1,2,0:0:0:0:
448,192,161792,1,0,0:0:0:0:
64,192,161970,1,2,0:0:0:0:
192,192,161970,1,8,0:0:0:0:
320,192,161970,1,0,0:0:0:0:
192,192,162149,1,8,0:0:0:0:
320,192,162149,1,2,0:0:0:0:
448,192,162149,1,0,0:0:0:0:
64,192,162327,1,0,0:0:0:70:pon.wav
192,192,162417,1,0,0:0:0:70:pon.wav
320,192,162506,1,0,0:0:0:70:pon.wav
320,192,162684,1,0,0:0:0:70:pon.wav
64,192,162863,1,2,0:0:0:0:
192,192,162863,1,8,0:0:0:0:
448,192,162863,1,0,0:0:0:0:
64,192,163042,1,8,0:0:0:0:
320,192,163042,1,2,0:0:0:0:
448,192,163042,1,0,0:0:0:0:
64,192,163220,1,2,0:0:0:0:
192,192,163220,1,8,0:0:0:0:
320,192,163220,1,0,0:0:0:0:
192,192,163399,1,8,0:0:0:0:
320,192,163399,1,2,0:0:0:0:
448,192,163399,1,0,0:0:0:0:
64,192,163577,1,2,0:0:0:0:
192,192,163577,1,8,0:0:0:0:
448,192,163577,128,0,164292:0:0:0:0:
64,192,164292,1,4,0:0:0:0:
192,192,164292,1,0,0:0:0:70:cymbol.wav
320,192,164292,1,0,0:0:0:0:
192,192,164470,1,0,0:0:0:0:
320,192,164649,1,0,0:0:0:0:
64,192,164827,1,0,0:0:0:0:
192,192,165006,1,0,0:0:0:0:
448,192,165006,1,0,0:0:0:0:
320,192,165184,1,0,0:0:0:0:
192,192,165363,1,0,0:0:0:0:
64,192,165542,1,0,0:0:0:0:
320,192,165720,1,0,0:0:0:0:
448,192,165720,1,0,0:0:0:0:
192,192,165899,1,0,0:0:0:0:
448,192,166077,1,0,0:0:0:0:
320,192,166256,1,0,0:0:0:0:
64,192,166434,1,0,0:0:0:0:
448,192,166434,1,0,0:0:0:0:
192,192,166613,1,0,0:0:0:0:
320,192,166792,1,0,0:0:0:0:
448,192,166970,1,0,0:0:0:0:
64,192,167149,1,0,0:0:0:0:
320,192,167149,1,0,0:0:0:0:
192,192,167327,1,0,0:0:0:0:
448,192,167506,1,0,0:0:0:0:
64,192,167684,1,0,0:0:0:0:
320,192,167863,1,0,0:0:0:0:
448,192,167863,1,0,0:0:0:0:
192,192,168042,1,0,0:0:0:0:
64,192,168220,1,0,0:0:0:0:
448,192,168399,1,0,0:0:0:0:
192,192,168577,1,0,0:0:0:0:
320,192,168577,1,0,0:0:0:0:
64,192,168756,1,0,0:0:0:0:
320,192,168934,1,0,0:0:0:0:
448,192,168934,1,0,0:0:0:0:
192,192,169113,1,0,0:0:0:0:
64,192,169292,1,0,0:0:0:0:
448,192,169292,1,0,0:0:0:0:
320,192,169470,1,0,0:0:0:0:
64,192,169649,1,0,0:0:0:0:
192,192,169649,1,0,0:0:0:0:
320,192,169827,1,0,0:0:0:0:
64,192,170006,1,0,0:0:0:0:
448,192,170006,1,0,0:0:0:0:
192,192,170184,1,0,0:0:0:0:
64,192,170363,1,0,0:0:0:0:
192,192,170542,1,0,0:0:0:0:
64,192,170720,1,0,0:0:0:0:
320,192,170720,1,0,0:0:0:0:
448,192,170899,1,0,0:0:0:0:
192,192,171077,1,0,0:0:0:0:
64,192,171256,1,0,0:0:0:0:
192,192,171434,1,0,0:0:0:0:
448,192,171434,1,0,0:0:0:0:
320,192,171613,1,0,0:0:0:0:
192,192,171792,1,0,0:0:0:0:
64,192,171970,1,0,0:0:0:0:
320,192,172149,1,0,0:0:0:0:
448,192,172149,1,0,0:0:0:0:
192,192,172327,1,0,0:0:0:0:
448,192,172506,1,0,0:0:0:0:
320,192,172684,1,0,0:0:0:0:
64,192,172863,1,0,0:0:0:0:
192,192,172863,1,0,0:0:0:0:
448,192,173042,1,0,0:0:0:0:
192,192,173220,1,0,0:0:0:0:
320,192,173399,1,0,0:0:0:0:
64,192,173577,1,0,0:0:0:0:
448,192,173577,1,0,0:0:0:0:
192,192,173756,1,0,0:0:0:0:
448,192,173934,1,0,0:0:0:0:
320,192,174113,1,0,0:0:0:0:
192,192,174292,1,0,0:0:0:0:
448,192,174292,1,0,0:0:0:0:
64,192,174470,1,0,0:0:0:0:
192,192,174649,1,0,0:0:0:0:
320,192,174649,1,0,0:0:0:0:
448,192,174827,1,0,0:0:0:0:
64,192,175006,1,0,0:0:0:0:
320,192,175006,1,0,0:0:0:0:
192,192,175184,1,0,0:0:0:0:
320,192,175363,1,0,0:0:0:0:
448,192,175363,1,0,0:0:0:0:
192,192,175542,1,0,0:0:0:0:
64,192,175720,1,4,0:0:0:0:
320,192,175720,1,0,0:0:0:70:cymbol.wav
448,192,175720,1,0,0:0:0:0:
320,192,175899,1,0,0:0:0:0:
64,192,176077,1,0,0:0:0:0:
448,192,176256,1,0,0:0:0:0:
64,192,176434,1,0,0:0:0:0:
192,192,176434,1,0,0:0:0:0:
320,192,176613,1,0,0:0:0:0:
448,192,176792,1,0,0:0:0:0:
64,192,176970,1,0,0:0:0:0:
192,192,177149,1,0,0:0:0:0:
320,192,177149,1,0,0:0:0:0:
448,192,177327,1,0,0:0:0:0:
192,192,177506,1,0,0:0:0:0:
64,192,177684,1,0,0:0:0:0:
320,192,177863,1,0,0:0:0:0:
448,192,177863,1,0,0:0:0:0:
192,192,178042,1,0,0:0:0:0:
448,192,178220,1,0,0:0:0:0:
320,192,178399,1,0,0:0:0:0:
64,192,178577,1,0,0:0:0:0:
192,192,178577,1,0,0:0:0:0:
448,192,178756,1,0,0:0:0:0:
192,192,178934,1,0,0:0:0:0:
64,192,179113,1,0,0:0:0:0:
192,192,179292,1,0,0:0:0:0:
320,192,179292,1,0,0:0:0:0:
448,192,179470,1,0,0:0:0:0:
192,192,179649,1,0,0:0:0:0:
64,192,179827,1,0,0:0:0:0:
320,192,180006,1,0,0:0:0:0:
448,192,180006,1,0,0:0:0:0:
192,192,180184,1,0,0:0:0:0:
64,192,180363,1,0,0:0:0:0:
320,192,180363,1,0,0:0:0:0:
192,192,180542,1,0,0:0:0:0:
320,192,180720,1,0,0:0:0:0:
448,192,180720,1,0,0:0:0:0:
64,192,180899,1,0,0:0:0:0:
192,192,181077,1,0,0:0:0:0:
448,192,181077,1,0,0:0:0:0:
320,192,181256,1,0,0:0:0:0:
192,192,181434,1,0,0:0:0:0:
448,192,181434,1,0,0:0:0:0:
64,192,181613,1,0,0:0:0:0:
192,192,181792,1,0,0:0:0:0:
448,192,181970,1,0,0:0:0:0:
64,192,182149,1,0,0:0:0:0:
320,192,182149,1,0,0:0:0:0:
192,192,182327,1,0,0:0:0:0:
64,192,182506,1,0,0:0:0:0:
448,192,182684,1,0,0:0:0:0:
64,192,182863,1,0,0:0:0:0:
320,192,182863,1,0,0:0:0:0:
192,192,183042,1,0,0:0:0:0:
448,192,183220,1,0,0:0:0:0:
320,192,183399,1,0,0:0:0:0:
192,192,183577,1,0,0:0:0:0:
448,192,183577,1,0,0:0:0:0:
64,192,183756,1,0,0:0:0:0:
320,192,183934,1,0,0:0:0:0:
448,192,184113,1,0,0:0:0:0:
64,192,184292,1,0,0:0:0:0:
192,192,184292,1,0,0:0:0:0:
320,192,184470,1,0,0:0:0:0:
192,192,184649,1,0,0:0:0:0:
448,192,184827,1,0,0:0:0:0:
64,192,185006,1,0,0:0:0:0:
320,192,185006,1,0,0:0:0:0:
192,192,185184,1,0,0:0:0:0:
320,192,185363,1,0,0:0:0:0:
448,192,185542,1,0,0:0:0:0:
192,192,185720,1,0,0:0:0:0:
320,192,185720,1,0,0:0:0:0:
64,192,185899,1,0,0:0:0:0:
320,192,186077,1,0,0:0:0:0:
448,192,186077,1,0,0:0:0:0:
192,192,186256,1,0,0:0:0:0:
64,192,186434,1,0,0:0:0:0:
320,192,186434,1,0,0:0:0:0:
448,192,186613,1,0,0:0:0:0:
192,192,186792,1,0,0:0:0:0:
320,192,186792,1,0,0:0:0:0:
64,192,186970,1,0,0:0:0:0:
448,192,188488,128,0,188622:0:0:0:0:
320,192,188622,1,0,0:0:0:0:
320,192,189470,128,0,189827:0:0:0:0:
64,192,189827,1,2,0:0:0:0:
192,192,189827,1,0,0:0:0:0:
448,192,189827,1,0,0:0:0:0:
64,192,190006,1,4,0:0:0:0:
192,192,190006,1,8,0:0:0:0:
320,192,190006,1,0,0:0:0:70:cymbol.wav
448,192,190006,1,0,0:0:0:0:
64,192,190184,1,0,0:0:0:0:
192,192,190184,1,0,0:0:0:0:
320,192,190274,1,0,0:0:0:0:
192,192,190363,1,0,0:0:0:0:
448,192,190363,1,0,0:0:0:0:
64,192,190542,1,0,0:0:0:0:
320,192,190542,1,0,0:0:0:0:
192,192,190720,1,8,0:0:0:0:
320,192,190720,1,0,0:0:0:70:cymbol.wav
448,192,190720,1,0,0:0:0:0:
320,192,190899,1,0,0:0:0:0:
448,192,190899,1,0,0:0:0:0:
192,192,190988,1,0,0:0:0:0:
64,192,191077,1,0,0:0:0:0:
448,192,191077,1,0,0:0:0:0:
192,192,191256,1,0,0:0:0:0:
320,192,191256,1,0,0:0:0:0:
64,192,191434,1,8,0:0:0:0:
192,192,191434,1,0,0:0:0:70:cymbol.wav
448,192,191434,1,0,0:0:0:0:
64,192,191613,1,8,0:0:0:0:
192,192,191613,1,0,0:0:0:70:cymbol.wav
448,192,191613,1,0,0:0:0:0:
192,192,191792,1,0,0:0:0:0:
320,192,191792,1,0,0:0:0:0:
64,192,191970,1,8,0:0:0:0:
320,192,191970,1,0,0:0:0:70:cymbol.wav
448,192,191970,1,0,0:0:0:0:
64,192,192149,1,8,0:0:0:0:
320,192,192149,1,0,0:0:0:70:cymbol.wav
448,192,192149,1,0,0:0:0:0:
192,192,192327,1,0,0:0:0:0:
448,192,192327,1,0,0:0:0:0:
320,192,192417,1,0,0:0:0:0:
192,192,192506,1,0,0:0:0:0:
448,192,192506,1,0,0:0:0:0:
64,192,192684,1,0,0:0:0:0:
320,192,192684,1,0,0:0:0:0:
192,192,192863,1,8,0:0:0:0:
320,192,192863,1,0,0:0:0:70:cymbol.wav
448,192,192863,1,0,0:0:0:0:
64,192,193042,1,0,0:0:0:0:
320,192,193042,1,0,0:0:0:0:
448,192,193131,1,0,0:0:0:0:
64,192,193220,1,8,0:0:0:0:
192,192,193220,1,0,0:0:0:70:cymbol.wav
320,192,193220,1,0,0:0:0:0:
192,192,193399,1,0,0:0:0:0:
448,192,193399,1,0,0:0:0:0:
64,192,193577,1,8,0:0:0:0:
320,192,193577,1,0,0:0:0:70:cymbol.wav
448,192,193577,1,0,0:0:0:0:
64,192,193756,1,8,0:0:0:0:
320,192,193756,1,0,0:0:0:70:cymbol.wav
448,192,193756,1,0,0:0:0:0:
192,192,193845,1,0,0:0:0:0:
320,192,193934,1,0,0:0:0:0:
448,192,193934,1,0,0:0:0:0:
64,192,194113,1,8,0:0:0:0:
192,192,194113,1,0,0:0:0:70:cymbol.wav
448,192,194113,1,0,0:0:0:0:
64,192,194292,1,8,0:0:0:0:
192,192,194292,1,0,0:0:0:70:cymbol.wav
448,192,194292,1,0,0:0:0:0:
64,192,194470,1,8,0:0:0:0:
192,192,194470,1,0,0:0:0:70:cymbol.wav
448,192,194470,1,0,0:0:0:0:
320,192,194559,1,0,0:0:0:0:
64,192,194649,1,0,0:0:0:0:
192,192,194649,1,0,0:0:0:0:
64,192,194827,1,8,0:0:0:0:
320,192,194827,1,0,0:0:0:70:cymbol.wav
448,192,194827,1,0,0:0:0:0:
64,192,195006,1,8,0:0:0:0:
320,192,195006,1,0,0:0:0:70:cymbol.wav
448,192,195006,1,0,0:0:0:0:
192,192,195184,1,0,0:0:0:0:
448,192,195184,1,0,0:0:0:0:
64,192,195274,1,0,0:0:0:0:
320,192,195274,1,0,0:0:0:0:
192,192,195363,1,0,0:0:0:0:
448,192,195363,1,0,0:0:0:0:
64,192,195542,1,0,0:0:0:0:
320,192,195542,1,0,0:0:0:0:
64,192,195720,1,8,0:0:0:0:
192,192,195720,1,4,0:0:0:0:
320,192,195720,1,0,0:0:0:70:cymbol.wav
448,192,195720,1,0,0:0:0:0:
192,192,195899,1,0,0:0:0:0:
320,192,195899,1,0,0:0:0:0:
448,192,195988,1,0,0:0:0:0:
64,192,196077,1,0,0:0:0:0:
320,192,196077,1,0,0:0:0:0:
192,192,196256,1,0,0:0:0:0:
448,192,196256,1,0,0:0:0:0:
64,192,196434,1,8,0:0:0:0:
320,192,196434,1,0,0:0:0:70:cymbol.wav
448,192,196434,1,0,0:0:0:0:
192,192,196613,1,0,0:0:0:0:
448,192,196613,1,0,0:0:0:0:
64,192,196702,1,0,0:0:0:0:
192,192,196792,1,0,0:0:0:0:
320,192,196792,1,0,0:0:0:0:
64,192,196970,1,0,0:0:0:0:
448,192,196970,1,0,0:0:0:0:
320,192,197059,1,0,0:0:0:0:
64,192,197149,1,8,0:0:0:0:
192,192,197149,1,0,0:0:0:70:cymbol.wav
448,192,197149,1,0,0:0:0:0:
64,192,197327,1,8,0:0:0:0:
192,192,197327,1,0,0:0:0:70:cymbol.wav
448,192,197327,1,0,0:0:0:0:
320,192,197417,1,0,0:0:0:0:
64,192,197506,1,0,0:0:0:0:
192,192,197506,1,0,0:0:0:0:
192,192,197684,1,8,0:0:0:0:
320,192,197684,1,0,0:0:0:70:cymbol.wav
448,192,197684,1,0,0:0:0:0:
192,192,197863,1,8,0:0:0:0:
320,192,197863,1,0,0:0:0:70:cymbol.wav
448,192,197863,1,0,0:0:0:0:
320,192,198042,1,0,0:0:0:0:
448,192,198042,1,0,0:0:0:0:
192,192,198131,1,0,0:0:0:0:
64,192,198220,1,0,0:0:0:0:
320,192,198220,1,0,0:0:0:0:
192,192,198399,1,0,0:0:0:0:
448,192,198399,1,0,0:0:0:0:
64,192,198577,1,8,0:0:0:0:
192,192,198577,1,0,0:0:0:70:cymbol.wav
320,192,198577,1,0,0:0:0:0:
64,192,198756,1,0,0:0:0:0:
448,192,198756,1,0,0:0:0:0:
192,192,198845,1,0,0:0:0:0:
64,192,198934,1,8,0:0:0:0:
320,192,198934,1,0,0:0:0:70:cymbol.wav
448,192,198934,1,0,0:0:0:0:
192,192,199113,1,0,0:0:0:0:
320,192,199113,1,0,0:0:0:0:
64,192,199292,1,8,0:0:0:0:
192,192,199292,1,0,0:0:0:70:cymbol.wav
448,192,199292,1,0,0:0:0:0:
64,192,199470,1,8,0:0:0:0:
192,192,199470,1,0,0:0:0:70:cymbol.wav
448,192,199470,1,0,0:0:0:0:
320,192,199559,1,0,0:0:0:0:
192,192,199649,1,0,0:0:0:0:
448,192,199649,1,0,0:0:0:0:
64,192,199827,1,8,0:0:0:0:
192,192,199827,1,0,0:0:0:70:cymbol.wav
320,192,199827,1,0,0:0:0:0:
64,192,200006,1,8,0:0:0:0:
192,192,200006,1,0,0:0:0:70:cymbol.wav
320,192,200006,1,0,0:0:0:0:
448,192,200006,1,0,0:0:0:0:
192,192,200720,1,0,0:0:0:30:cymbol.wav
320,192,200809,1,0,0:0:0:35:cymbol.wav
192,192,200899,1,0,0:0:0:40:cymbol.wav
320,192,200988,1,0,0:0:0:45:cymbol.wav
64,192,201077,1,0,0:0:0:50:cymbol.wav
192,192,201077,1,0,0:0:0:0:
320,192,201167,1,0,0:0:0:55:cymbol.wav
448,192,201167,1,0,0:0:0:0:
64,192,201256,1,0,0:0:0:60:cymbol.wav
192,192,201256,1,0,0:0:0:0:
320,192,201345,1,0,0:0:0:65:cymbol.wav
448,192,201345,1,0,0:0:0:0:
64,192,201434,1,0,0:0:0:70:cymbol.wav
192,192,201434,1,0,0:0:0:0:
320,192,203577,128,0,203934:0:0:0:0:
64,192,204292,1,4,0:0:0:0:
192,192,204292,1,2,0:0:0:0:
320,192,204292,1,0,0:0:0:0:
448,192,204292,1,0,0:0:0:0:
64,192,204470,1,0,0:0:0:0:
320,192,204470,1,0,0:0:0:0:
192,192,204559,1,0,0:0:0:0:
64,192,204649,1,2,0:0:0:0:
320,192,204649,1,8,0:0:0:0:
448,192,204649,1,0,0:0:0:0:
192,192,204827,1,0,0:0:0:0:
448,192,204827,1,0,0:0:0:0:
64,192,205006,1,2,0:0:0:0:
192,192,205006,1,0,0:0:0:0:
320,192,205006,1,0,0:0:0:0:
448,192,205184,1,0,0:0:0:0:
320,192,205274,1,0,0:0:0:0:
64,192,205363,1,2,0:0:0:0:
192,192,205363,1,8,0:0:0:0:
448,192,205363,1,0,0:0:0:0:
192,192,205542,1,0,0:0:0:0:
320,192,205542,1,0,0:0:0:0:
64,192,205720,1,2,0:0:0:0:
320,192,205720,1,0,0:0:0:0:
448,192,205720,1,0,0:0:0:0:
64,192,205899,1,0,0:0:0:0:
192,192,205899,1,0,0:0:0:0:
320,192,205988,1,0,0:0:0:0:
64,192,206077,1,8,0:0:0:0:
192,192,206077,1,2,0:0:0:0:
448,192,206077,1,0,0:0:0:0:
64,192,206256,1,0,0:0:0:0:
192,192,206434,1,2,0:0:0:0:
320,192,206434,1,0,0:0:0:0:
448,192,206434,1,0,0:0:0:0:
64,192,206613,1,0,0:0:0:0:
320,192,206613,1,0,0:0:0:0:
192,192,206702,1,0,0:0:0:0:
64,192,206792,1,2,0:0:0:0:
320,192,206792,1,8,0:0:0:0:
448,192,206792,1,0,0:0:0:0:
192,192,206970,1,0,0:0:0:0:
448,192,206970,1,0,0:0:0:0:
64,192,207149,1,2,0:0:0:0:
192,192,207149,1,0,0:0:0:0:
448,192,207149,1,0,0:0:0:0:
64,192,207327,1,0,0:0:0:0:
320,192,207327,1,0,0:0:0:0:
448,192,207417,1,0,0:0:0:0:
64,192,207506,1,8,0:0:0:0:
192,192,207506,1,2,0:0:0:0:
320,192,207506,1,0,0:0:0:0:
64,192,207684,1,0,0:0:0:0:
448,192,207684,1,0,0:0:0:0:
64,192,207863,1,2,0:0:0:0:
320,192,207863,1,0,0:0:0:0:
448,192,207863,1,0,0:0:0:0:
320,192,208042,1,0,0:0:0:0:
448,192,208042,1,0,0:0:0:0:
64,192,208131,1,0,0:0:0:0:
192,192,208220,1,2,0:0:0:0:
320,192,208220,1,8,0:0:0:0:
448,192,208220,1,0,0:0:0:0:
192,192,208399,1,0,0:0:0:0:
448,192,208399,1,0,0:0:0:0:
64,192,208577,1,2,0:0:0:0:
320,192,208577,1,0,0:0:0:0:
448,192,208577,1,0,0:0:0:0:
64,192,208756,1,0,0:0:0:0:
192,192,208756,1,0,0:0:0:0:
320,192,208845,1,0,0:0:0:0:
64,192,208934,1,8,0:0:0:0:
192,192,208934,1,2,0:0:0:0:
448,192,208934,1,0,0:0:0:0:
64,192,209113,1,0,0:0:0:0:
448,192,209113,1,0,0:0:0:0:
64,192,209292,1,2,0:0:0:0:
320,192,209292,1,0,0:0:0:0:
448,192,209292,1,0,0:0:0:0:
320,192,209470,1,0,0:0:0:70:pon.wav
64,192,209649,1,2,0:0:0:0:
192,192,209649,1,0,0:0:0:70:pon.wav
448,192,209649,1,0,0:0:0:0:
64,192,209827,1,2,0:0:0:0:
192,192,209827,1,8,0:0:0:0:
320,192,209827,1,0,0:0:0:70:pon.wav
64,192,210006,1,2,0:0:0:0:
320,192,210006,1,0,0:0:0:0:
448,192,210006,1,0,0:0:0:0:
192,192,210184,1,0,0:0:0:0:
448,192,210184,1,0,0:0:0:0:
320,192,210274,1,0,0:0:0:0:
64,192,210363,1,8,0:0:0:0:
192,192,210363,1,2,0:0:0:0:
448,192,210363,1,0,0:0:0:0:
64,192,210542,1,0,0:0:0:0:
192,192,210542,1,0,0:0:0:0:
64,192,210720,1,2,0:0:0:0:
320,192,210720,1,0,0:0:0:0:
448,192,210720,1,0,0:0:0:0:
192,192,210899,1,0,0:0:0:0:
320,192,210988,1,0,0:0:0:0:
64,192,211077,1,8,0:0:0:0:
192,192,211077,1,2,0:0:0:0:
448,192,211077,1,0,0:0:0:0:
64,192,211256,1,0,0:0:0:0:
192,192,211256,1,0,0:0:0:0:
192,192,211434,1,2,0:0:0:0:
320,192,211434,1,0,0:0:0:0:
448,192,211434,1,0,0:0:0:0:
64,192,211613,1,0,0:0:0:0:
320,192,211613,1,0,0:0:0:0:
192,192,211702,1,0,0:0:0:0:
64,192,211792,1,2,0:0:0:0:
320,192,211792,1,8,0:0:0:0:
448,192,211792,1,0,0:0:0:0:
64,192,211970,1,0,0:0:0:0:
192,192,212149,1,2,0:0:0:0:
320,192,212149,1,0,0:0:0:0:
448,192,212149,1,0,0:0:0:0:
320,192,212327,1,0,0:0:0:0:
448,192,212327,1,0,0:0:0:0:
192,192,212417,1,0,0:0:0:0:
64,192,212506,1,8,0:0:0:0:
320,192,212506,1,2,0:0:0:0:
448,192,212506,1,0,0:0:0:0:
192,192,212684,1,0,0:0:0:0:
320,192,212684,1,0,0:0:0:0:
64,192,212863,1,2,0:0:0:0:
192,192,212863,1,0,0:0:0:0:
448,192,212863,1,0,0:0:0:0:
64,192,213042,1,0,0:0:0:0:
448,192,213042,1,0,0:0:0:0:
192,192,213131,1,0,0:0:0:0:
64,192,213220,1,2,0:0:0:0:
320,192,213220,1,8,0:0:0:0:
448,192,213220,1,0,0:0:0:0:
64,192,213399,1,0,0:0:0:0:
320,192,213399,1,0,0:0:0:0:
64,192,213577,1,2,0:0:0:0:
192,192,213577,1,0,0:0:0:0:
448,192,213577,1,0,0:0:0:0:
320,192,213756,1,0,0:0:0:0:
448,192,213756,1,0,0:0:0:0:
192,192,213845,1,0,0:0:0:0:
64,192,213934,1,8,0:0:0:0:
320,192,213934,1,2,0:0:0:0:
448,192,213934,1,0,0:0:0:0:
192,192,214113,1,0,0:0:0:0:
320,192,214113,1,0,0:0:0:0:
64,192,214292,1,2,0:0:0:0:
192,192,214292,1,0,0:0:0:0:
448,192,214292,1,0,0:0:0:0:
192,192,214470,1,0,0:0:0:0:
320,192,214470,1,0,0:0:0:0:
448,192,214559,1,0,0:0:0:0:
64,192,214649,1,2,0:0:0:0:
192,192,214649,1,8,0:0:0:0:
320,192,214649,1,0,0:0:0:0:
192,192,214827,1,0,0:0:0:0:
448,192,214827,1,0,0:0:0:0:
64,192,215006,1,2,0:0:0:0:
320,192,215006,1,0,0:0:0:0:
448,192,215006,1,0,0:0:0:0:
192,192,215095,1,0,0:0:0:70:pon.wav
320,192,215184,1,0,0:0:0:70:pon.wav
448,192,215274,1,0,0:0:0:70:pon.wav
64,192,215363,1,8,0:0:0:0:
192,192,215363,1,2,0:0:0:0:
320,192,215363,1,0,0:0:0:70:pon.wav
64,192,215542,1,2,0:0:0:0:
192,192,215542,1,0,0:0:0:70:pon.wav
448,192,215542,1,0,0:0:0:0:
64,192,215720,1,2,0:0:0:0:
192,192,215720,1,4,0:0:0:0:
320,192,215720,1,0,0:0:0:70:cymbol.wav
448,192,215720,1,0,0:0:0:0:
64,192,215899,1,0,0:0:0:0:
448,192,215899,1,0,0:0:0:0:
320,192,215988,1,0,0:0:0:0:
64,192,216077,1,2,0:0:0:0:
192,192,216077,1,8,0:0:0:0:
448,192,216077,1,0,0:0:0:0:
192,192,216256,1,0,0:0:0:0:
448,192,216256,1,0,0:0:0:0:
64,192,216434,1,2,0:0:0:0:
320,192,216434,1,0,0:0:0:70:cymbol.wav
448,192,216434,1,0,0:0:0:0:
192,192,216613,1,0,0:0:0:0:
320,192,216702,1,0,0:0:0:0:
64,192,216792,1,2,0:0:0:0:
192,192,216792,1,8,0:0:0:0:
448,192,216792,1,0,0:0:0:0:
64,192,216970,1,0,0:0:0:0:
320,192,216970,1,0,0:0:0:0:
192,192,217149,1,2,0:0:0:0:
320,192,217149,1,0,0:0:0:0:
448,192,217149,1,0,0:0:0:0:
320,192,217327,1,0,0:0:0:0:
448,192,217327,1,0,0:0:0:0:
192,192,217417,1,0,0:0:0:0:
64,192,217506,1,8,0:0:0:0:
320,192,217506,1,2,0:0:0:0:
448,192,217506,1,0,0:0:0:0:
320,192,217684,1,0,0:0:0:0:
64,192,217863,1,2,0:0:0:0:
192,192,217863,1,0,0:0:0:0:
448,192,217863,1,0,0:0:0:0:
320,192,218042,1,0,0:0:0:0:
448,192,218042,1,0,0:0:0:0:
64,192,218131,1,0,0:0:0:0:
192,192,218220,1,2,0:0:0:0:
320,192,218220,1,8,0:0:0:0:
448,192,218220,1,0,0:0:0:0:
64,192,218399,1,0,0:0:0:0:
192,192,218399,1,0,0:0:0:0:
64,192,218577,1,2,0:0:0:0:
320,192,218577,1,0,0:0:0:70:cymbol.wav
448,192,218577,1,0,0:0:0:0:
320,192,218756,1,0,0:0:0:0:
448,192,218756,1,0,0:0:0:0:
192,192,218845,1,0,0:0:0:0:
64,192,218934,1,8,0:0:0:0:
320,192,218934,1,2,0:0:0:0:
448,192,218934,1,0,0:0:0:0:
64,192,219113,1,0,0:0:0:0:
192,192,219113,1,0,0:0:0:0:
192,192,219292,1,2,0:0:0:0:
320,192,219292,1,0,0:0:0:70:cymbol.wav
448,192,219292,1,0,0:0:0:0:
64,192,219470,1,0,0:0:0:0:
448,192,219470,1,0,0:0:0:0:
320,192,219559,1,0,0:0:0:0:
64,192,219649,1,2,0:0:0:0:
192,192,219649,1,8,0:0:0:0:
448,192,219649,1,0,0:0:0:0:
64,192,219827,1,0,0:0:0:0:
320,192,219827,1,0,0:0:0:0:
192,192,220006,1,2,0:0:0:0:
320,192,220006,1,0,0:0:0:0:
448,192,220006,1,0,0:0:0:0:
192,192,220184,1,0,0:0:0:0:
320,192,220184,1,0,0:0:0:0:
64,192,220274,1,0,0:0:0:0:
192,192,220363,1,8,0:0:0:0:
320,192,220363,1,2,0:0:0:0:
448,192,220363,1,0,0:0:0:0:
64,192,220542,1,0,0:0:0:0:
448,192,220542,1,0,0:0:0:0:
64,192,220720,1,2,0:0:0:0:
320,192,220720,1,0,0:0:0:0:
448,192,220720,1,0,0:0:0:0:
320,192,220899,1,0,0:0:0:0:
192,192,220988,1,0,0:0:0:0:
64,192,221077,1,2,0:0:0:0:
320,192,221077,1,0,0:0:0:0:
448,192,221077,1,0,0:0:0:0:
64,192,221256,1,8,0:0:0:0:
192,192,221256,1,2,0:0:0:0:
320,192,221256,1,0,0:0:0:0:
64,192,221434,1,2,0:0:0:0:
192,192,221434,1,0,0:0:0:70:cymbol.wav
448,192,221434,1,0,0:0:0:0:
64,192,221613,1,0,0:0:0:0:
320,192,221613,1,0,0:0:0:0:
192,192,221702,1,0,0:0:0:0:
64,192,221792,1,8,0:0:0:0:
320,192,221792,1,2,0:0:0:0:
448,192,221792,1,0,0:0:0:0:
192,192,221970,1,0,0:0:0:0:
320,192,221970,1,0,0:0:0:0:
64,192,222149,1,2,0:0:0:0:
192,192,222149,1,0,0:0:0:70:cymbol.wav
448,192,222149,1,0,0:0:0:0:
192,192,222327,1,0,0:0:0:0:
320,192,222327,1,0,0:0:0:0:
448,192,222417,1,0,0:0:0:0:
64,192,222506,1,2,0:0:0:0:
192,192,222506,1,8,0:0:0:0:
320,192,222506,1,0,0:0:0:0:
64,192,222684,1,0,0:0:0:0:
448,192,222684,1,0,0:0:0:0:
192,192,222863,1,2,0:0:0:0:
320,192,222863,1,0,0:0:0:0:
448,192,222863,1,0,0:0:0:0:
64,192,223042,1,0,0:0:0:0:
192,192,223042,1,0,0:0:0:0:
320,192,223131,1,0,0:0:0:0:
64,192,223220,1,8,0:0:0:0:
192,192,223220,1,2,0:0:0:0:
448,192,223220,1,0,0:0:0:0:
192,192,223399,1,0,0:0:0:0:
320,192,223399,1,0,0:0:0:0:
64,192,223577,1,2,0:0:0:0:
320,192,223577,1,0,0:0:0:0:
448,192,223577,1,0,0:0:0:0:
64,192,223756,1,0,0:0:0:0:
448,192,223756,1,0,0:0:0:0:
192,192,223845,1,2,0:0:0:0:
64,192,223934,1,2,0:0:0:0:
320,192,223934,1,8,0:0:0:0:
448,192,223934,1,0,0:0:0:0:
192,192,224113,1,0,0:0:0:0:
320,192,224113,1,0,0:0:0:0:
64,192,224292,1,8,0:0:0:0:
192,192,224292,1,0,0:0:0:0:
320,192,224381,1,8,0:0:0:0:
448,192,224381,1,0,0:0:0:0:
64,192,224470,1,8,0:0:0:0:
192,192,224470,1,0,0:0:0:0:
320,192,224559,1,0,0:0:0:0:
64,192,224649,1,8,0:0:0:0:
448,192,224649,1,0,0:0:0:0:
192,192,224738,1,8,0:0:0:0:
320,192,224738,1,0,0:0:0:0:
64,192,224827,1,8,0:0:0:0:
448,192,224827,1,0,0:0:0:0:
192,192,224917,1,0,0:0:0:0:
320,192,225006,1,8,0:0:0:0:
448,192,225006,1,0,0:0:0:0:
64,192,225095,1,8,0:0:0:0:
192,192,225095,1,0,0:0:0:0:
320,192,225184,1,8,0:0:0:0:
448,192,225184,1,0,0:0:0:0:
192,192,225274,1,0,0:0:0:0:
64,192,225363,1,8,0:0:0:0:
448,192,225363,1,0,0:0:0:0:
192,192,225452,1,8,0:0:0:0:
320,192,225452,1,0,0:0:0:0:
64,192,225542,1,8,0:0:0:0:
448,192,225542,1,0,0:0:0:0:
320,192,225631,1,0,0:0:0:0:
192,192,225720,1,8,0:0:0:0:
448,192,225720,1,0,0:0:0:0:
64,192,225809,1,8,0:0:0:0:
320,192,225809,1,0,0:0:0:0:
192,192,225899,1,8,0:0:0:0:
448,192,225899,1,0,0:0:0:0:
320,192,225988,1,0,0:0:0:0:
64,192,226077,1,8,0:0:0:0:
192,192,226077,1,0,0:0:0:0:
320,192,226167,1,8,0:0:0:0:
448,192,226167,1,0,0:0:0:0:
64,192,226256,1,8,0:0:0:0:
192,192,226256,1,0,0:0:0:0:
320,192,226345,1,0,0:0:0:0:
192,192,226434,1,8,0:0:0:0:
448,192,226434,1,0,0:0:0:0:
64,192,226524,1,8,0:0:0:0:
320,192,226524,1,0,0:0:0:70:pon.wav
192,192,226613,1,8,0:0:0:0:
448,192,226613,1,0,0:0:0:70:pon.wav
320,192,226702,1,0,0:0:0:0:
64,192,226792,1,8,0:0:0:0:
192,192,226792,1,0,0:0:0:70:pon.wav
320,192,226881,1,8,0:0:0:0:
448,192,226881,1,0,0:0:0:0:
64,192,226970,1,8,0:0:0:0:
192,192,226970,1,0,0:0:0:70:pon.wav
320,192,227059,1,0,0:0:0:0:
64,192,227149,1,4,0:0:0:0:
192,192,227149,1,2,0:0:0:0:
448,192,227149,1,0,0:0:0:0:
320,192,227327,1,0,0:0:0:0:
192,192,227506,1,0,0:0:0:0:
64,192,227684,1,0,0:0:0:0:
320,192,227863,1,0,0:0:0:0:
192,192,228042,1,0,0:0:0:0:
448,192,228220,1,0,0:0:0:0:
64,192,228399,1,0,0:0:0:0:
192,192,228577,1,0,0:0:0:0:
320,192,228756,1,0,0:0:0:0:
448,192,228934,1,0,0:0:0:0:
64,192,229113,1,0,0:0:0:0:
192,192,229292,1,0,0:0:0:0:
448,192,229292,128,0,230006:0:0:0:0:
320,192,230720,1,0,0:0:0:70:pon.wav
320,192,230854,1,0,0:0:0:70:pon.wav
