osu file format v14

[General]
AudioFilename: audio.mp3
AudioLeadIn: 0
PreviewTime: 67739
Countdown: 0
SampleSet: Soft
StackLeniency: 0.7
Mode: 2
LetterboxInBreaks: 0
WidescreenStoryboard: 0

[Editor]
Bookmarks: 13738
DistanceSpacing: 0.4
BeatDivisor: 4
GridSize: 8
TimelineZoom: 2.6

[Metadata]
Title:Alarm
TitleUnicode:Alarm
Artist:Lookas & Krewella
ArtistUnicode:Lookas & Krewella
Creator:-Ken
Version:Farewell
Source:
Tags:
BeatmapID:1989685
BeatmapSetID:952905

[Difficulty]
HPDrainRate:6
CircleSize:4
OverallDifficulty:9.3
ApproachRate:9.3
SliderMultiplier:1.8
SliderTickRate:1

[Events]
//Background and Video events
0,0,"ww.jpg",0,0
//Break Periods
//Storyboard Layer 0 (Background)
//Storyboard Layer 1 (Fail)
//Storyboard Layer 2 (Pass)
//Storyboard Layer 3 (Foreground)
//Storyboard Sound Samples

[TimingPoints]
25,428.571428571429,4,2,1,80,1,0
13738,-100,4,2,1,80,0,0
13739,-100,4,2,1,40,0,0
15560,-100,4,2,1,5,0,0
15667,-100,4,2,1,40,0,0
16632,-100,4,2,1,5,0,0
16739,-100,4,2,1,40,0,0
18989,-100,4,2,1,5,0,0
19096,-100,4,2,1,40,0,0
20060,-100,4,2,1,5,0,0
20167,-100,4,2,1,40,0,0
22417,-100,4,2,1,5,0,0
22525,-100,4,2,1,40,0,0
23489,-100,4,2,1,5,0,0
23596,-100,4,2,1,40,0,0
25846,-100,4,2,1,5,0,0
25953,-100,4,2,1,40,0,0
26810,-83.3333333333333,4,2,1,50,0,0
27453,-83.3333333333333,4,2,1,60,0,0
37203,-83.3333333333333,4,2,1,5,0,0
37310,-83.3333333333333,4,2,1,60,0,0
40739,-83.3333333333333,4,2,1,40,0,0
41167,-83.3333333333333,4,2,1,45,0,0
42025,-100,4,2,1,30,0,0
54882,-100,4,2,1,40,0,0
68596,-83.3333333333333,4,2,1,80,0,1
69453,-50,4,2,1,80,0,1
69882,-50,4,2,1,80,0,1
70203,-50,4,2,1,5,0,1
70310,-50,4,2,1,80,0,1
70632,-50,4,2,1,5,0,1
70739,-50,4,2,1,80,0,1
71060,-50,4,2,1,5,0,1
71167,-50,4,2,1,80,0,1
71489,-50,4,2,1,5,0,1
71596,-50,4,2,1,80,0,1
71917,-50,4,2,1,5,0,1
72025,-83.3333333333333,4,2,1,80,0,1
72882,-50,4,2,1,80,0,1
73310,-50,4,2,1,80,0,1
73632,-50,4,2,1,5,0,1
73739,-50,4,2,1,80,0,1
74060,-50,4,2,1,5,0,1
74167,-50,4,2,1,80,0,1
74489,-50,4,2,1,5,0,1
74596,-50,4,2,1,80,0,1
74917,-50,4,2,1,5,0,1
75025,-50,4,2,1,80,0,1
75346,-50,4,2,1,5,0,1
75453,-83.3333333333333,4,2,1,80,0,1
76739,-50,4,2,1,80,0,1
77060,-50,4,2,1,5,0,1
77167,-50,4,2,1,80,0,1
77489,-50,4,2,1,5,0,1
77596,-50,4,2,1,80,0,1
77917,-50,4,2,1,5,0,1
78025,-50,4,2,1,80,0,1
78346,-50,4,2,1,5,0,1
78453,-50,4,2,1,80,0,1
78775,-50,4,2,1,5,0,1
78880,-83.3333333333333,4,2,1,5,0,1
78882,-83.3333333333333,4,2,1,80,0,1
80596,-83.3333333333333,4,2,1,60,0,1
81453,-55.5555555555556,4,2,1,55,0,1
82310,-100,4,2,1,55,0,0
96025,-100,4,2,1,45,0,0
96882,-100,4,2,1,30,0,0
109739,-100,4,2,1,40,0,0
123025,-100,4,2,1,50,0,0
123453,-83.3333333333333,4,2,1,80,0,1
124310,-50,4,2,1,80,0,1
124739,-50,4,2,1,80,0,1
125060,-50,4,2,1,5,0,1
125167,-50,4,2,1,80,0,1
125489,-50,4,2,1,5,0,1
125596,-50,4,2,1,80,0,1
125917,-50,4,2,1,5,0,1
126024,-50,4,2,1,80,0,1
126346,-50,4,2,1,5,0,1
126453,-50,4,2,1,80,0,1
126775,-50,4,2,1,5,0,1
126882,-83.3333333333333,4,2,1,80,0,1
127739,-50,4,2,1,80,0,1
128167,-50,4,2,1,80,0,1
128489,-50,4,2,1,5,0,1
128596,-50,4,2,1,80,0,1
128917,-50,4,2,1,5,0,1
129024,-50,4,2,1,80,0,1
129346,-50,4,2,1,5,0,1
129453,-50,4,2,1,80,0,1
129774,-50,4,2,1,5,0,1
129882,-50,4,2,1,80,0,1
130203,-50,4,2,1,5,0,1
130310,-83.3333333333333,4,2,1,80,0,1
131596,-50,4,2,1,80,0,1
131917,-50,4,2,1,5,0,1
132024,-50,4,2,1,80,0,1
132346,-50,4,2,1,5,0,1
132453,-50,4,2,1,80,0,1
132774,-50,4,2,1,5,0,1
132882,-50,4,2,1,80,0,1
133203,-50,4,2,1,5,0,1
133310,-50,4,2,1,80,0,1
133632,-50,4,2,1,5,0,1
133739,-83.3333333333333,4,2,1,80,0,1
135453,-83.3333333333333,4,2,1,60,0,1
136310,-55.5555555555556,4,2,1,80,0,0
137167,-83.3333333333333,4,2,1,80,0,1
138025,-66.6666666666667,4,2,1,80,0,1
138453,-50,4,2,1,80,0,1
138774,-50,4,2,1,5,0,1
138881,-50,4,2,1,80,0,1
139203,-50,4,2,1,5,0,1
139310,-50,4,2,1,80,0,1
139631,-50,4,2,1,5,0,1
139738,-50,4,2,1,80,0,1
140060,-50,4,2,1,5,0,1
140167,-50,4,2,1,80,0,1
140489,-50,4,2,1,5,0,1
140596,-83.3333333333333,4,2,1,80,0,1
141882,-50,4,2,1,80,0,1
142203,-50,4,2,1,5,0,1
142310,-50,4,2,1,80,0,1
142631,-50,4,2,1,5,0,1
142738,-50,4,2,1,80,0,1
143060,-50,4,2,1,5,0,1
143167,-50,4,2,1,80,0,1
143488,-50,4,2,1,5,0,1
143596,-50,4,2,1,80,0,1
143917,-50,4,2,1,5,0,1
144025,-83.3333333333333,4,2,1,80,0,1
145310,-50,4,2,1,80,0,1
145631,-50,4,2,1,5,0,1
145738,-50,4,2,1,80,0,1
146060,-50,4,2,1,5,0,1
146167,-50,4,2,1,80,0,1
146488,-50,4,2,1,5,0,1
146596,-50,4,2,1,80,0,1
146917,-50,4,2,1,5,0,1
147024,-50,4,2,1,80,0,1
147346,-50,4,2,1,5,0,1
147453,-83.3333333333333,4,2,1,80,0,1
149167,-83.3333333333333,4,2,1,60,0,1
150025,-66.6666666666667,4,2,1,60,0,0

[HitObjects]
50,315,13739,6,0,L|50:122,1,180,4|0,0:3|0:0,0:0:0:0:
395,288,14596,2,0,L|296:273,2,90,8|0|0,0:1|0:0|0:0,0:0:0:0:
143,265,15239,2,0,P|96:232|170:157,1,180,4|4,0:3|0:3,0:0:0:0:
313,175,15882,1,4,0:3:0:0:
154,152,16096,1,0,0:0:0:0:
489,113,16310,2,0,L|496:304,1,180,8|0,0:1|0:0,0:0:0:0:
164,298,17167,6,0,L|147:202,1,90,4|0,0:3|0:0,0:0:0:0:
309,232,17596,2,0,L|310:141,1,90,0|4,0:0|0:3,0:0:0:0:
84,158,18025,2,0,L|196:165,2,90,8|0|0,0:1|0:0|0:0,0:0:0:0:
314,158,18667,2,0,L|503:147,1,180,4|4,0:3|0:3,0:0:0:0:
242,173,19310,2,0,L|117:168,1,90,4|0,0:3|0:0,0:0:0:0:
445,208,19739,2,0,P|461:166|408:35,1,180,8|0,0:1|0:0,0:0:0:0:
157,168,20596,6,0,L|52:166,3,90,4|0|0|4,0:3|0:0|0:0|0:3,0:0:0:0:
230,168,21453,5,8,0:1:0:0:
301,163,21667,1,0,0:0:0:0:
338,104,21882,1,0,0:0:0:0:
125,198,22096,6,0,P|80:193|110:79,1,180,4|4,0:3|0:3,0:0:0:0:
312,105,22739,6,0,L|410:40,1,90,4|0,0:3|0:0,0:0:0:0:
29,232,23167,2,0,L|18:46,1,180,8|0,0:1|0:0,0:0:0:0:
264,259,24025,6,0,L|168:262,1,90,4|0,0:3|0:0,0:0:0:0:
369,175,24453,2,0,L|259:179,1,90,0|4,0:0|0:3,0:0:0:0:
475,78,24882,2,0,L|374:86,2,90,8|0|0,0:1|0:0|0:0,0:0:0:0:
296,77,25525,1,4,0:3:0:0:
498,66,25953,2,0,L|503:168,1,90,4|4,0:3|0:3,0:0:0:0:
255,181,26596,1,8,0:1:0:0:
436,135,26810,6,0,L|328:133,2,107.999996704102,2|2|2,0:0|0:0|0:0,0:0:0:0:
45,270,27453,6,0,L|-8:157,1,107.999996704102,4|2,0:3|0:1,0:0:0:0:
200,149,27882,2,0,L|72:149,1,107.999996704102,2|4,0:1|0:3,0:0:0:0:
400,138,28310,1,8,0:1:0:0:
479,203,28525,1,2,0:0:0:0:
461,305,28739,1,2,0:0:0:0:
364,340,28953,1,4,0:3:0:0:
154,249,29167,2,0,L|289:247,1,107.999996704102,0|4,0:0|0:3,0:0:0:0:
118,203,29596,6,0,L|53:86,1,107.999996704102,4|2,0:3|0:0,0:0:0:0:
456,222,30025,2,0,L|407:117,1,107.999996704102,8|0,0:1|0:0,0:0:0:0:
82,215,30453,2,0,L|196:183,1,107.999996704102,2|0,0:0|0:0,0:0:0:0:
490,252,30882,6,0,L|485:116,1,107.999996704102,4|0,0:3|0:0,0:0:0:0:
301,148,31310,2,0,L|426:101,1,107.999996704102,2|4,0:0|0:3,0:0:0:0:
35,279,31739,2,0,L|188:269,2,107.999996704102,8|0|2,0:1|0:0|0:0,0:0:0:0:
220,278,32382,2,0,P|283:250|236:132,1,215.999993408203,4|4,0:3|0:3,0:0:0:0:
114,131,33025,5,4,0:3:0:0:
409,110,33239,1,0,0:0:0:0:
105,167,33453,2,0,L|84:286,1,107.999996704102,8|2,0:1|0:0,0:0:0:0:
432,246,33882,2,0,L|450:131,1,107.999996704102,2|0,0:0|0:0,0:0:0:0:
155,226,34310,6,0,L|48:233,3,107.999996704102,4|2|2|4,0:3|0:1|0:1|0:3,0:0:0:0:
244,288,35167,6,0,L|359:284,2,107.999996704102,8|0|2,0:1|0:0|0:0,0:0:0:0:
430,278,35810,2,0,P|484:262|425:129,1,215.999993408203,4|4,0:3|0:3,0:0:0:0:
346,135,36453,1,4,0:3:0:0:
477,95,36667,1,0,0:0:0:0:
158,225,36882,2,0,P|88:207|72:63,1,215.999993408203,8|2,0:1|0:0,0:0:0:0:
255,132,37525,6,0,L|264:89,3,26.9999991760254,0|0|0|0,0:0|0:0|0:0|0:0,0:0:0:0:
84,136,37739,6,0,L|86:23,1,107.999996704102,4|2,0:3|0:0,0:0:0:0:
270,143,38167,2,0,L|158:74,1,107.999996704102,2|4,0:0|0:3,0:0:0:0:
471,302,38596,2,0,L|362:303,2,107.999996704102,8|2|2,0:1|0:0|0:0,0:0:0:0:
287,309,39239,2,0,P|107:310|80:267,1,215.999993408203,4|4,0:3|0:3,0:0:0:0:
312,233,39882,2,0,L|451:232,1,107.999996704102,4|0,0:3|0:0,0:0:0:0:
113,233,40310,2,0,P|57:229|112:131,1,215.999993408203,8|2,0:1|0:0,0:0:0:0:
458,125,41167,1,4,0:1:0:0:
283,156,42025,5,2,0:0:0:0:
391,154,42239,1,2,0:0:0:0:
283,156,42453,1,2,0:0:0:0:
417,151,42667,2,0,P|497:217|402:331,1,270,2|0,0:0|0:0,0:0:0:0:
148,251,43739,6,0,L|251:248,1,90,2|2,0:0|0:0,0:0:0:0:
113,169,44167,2,0,L|308:169,1,180,2|0,0:0|0:0,0:0:0:0:
99,242,45453,6,0,L|-33:240,2,90,2|2|2,0:0|0:0|0:0,0:0:0:0:
260,237,46096,2,0,L|378:229,2,90,2|2|2,0:0|0:0|0:0,0:0:0:0:
99,242,46739,1,2,0:0:0:0:
99,242,47167,5,2,0:0:0:0:
224,238,47382,1,2,0:0:0:0:
347,235,47596,1,2,0:0:0:0:
472,232,47810,2,0,L|469:24,1,180,2|0,0:0|0:0,0:0:0:0:
240,189,48882,6,0,L|138:188,2,90,2|2|2,0:0|0:0|0:0,0:0:0:0:
430,162,49525,2,0,P|483:244|383:369,1,270,2|0,0:0|0:0,0:0:0:0:
101,304,50596,6,0,L|100:200,1,90,2|0,0:0|0:0,0:0:0:0:
244,121,51025,2,0,L|262:333,1,180,2|0,0:0|0:0,0:0:0:0:
413,242,52310,6,0,L|545:240,2,90,2|2|2,0:0|0:0|0:0,0:0:0:0:
252,237,52953,2,0,L|134:229,2,90,2|2|2,0:0|0:0|0:0,0:0:0:0:
413,242,53596,1,2,0:0:0:0:
413,242,54025,5,2,0:0:0:0:
289,236,54239,1,2,0:0:0:0:
166,234,54453,1,2,0:0:0:0:
43,231,54667,1,2,0:0:0:0:
166,234,54882,6,0,L|306:184,2,135,2|2|2,0:0|0:0|0:0,0:0:0:0:
350,203,55739,6,0,L|210:153,2,135,2|2|2,0:0|0:0|0:0,0:0:0:0:
159,150,56596,2,0,L|324:131,2,135,2|2|2,0:0|0:0|0:0,0:0:0:0:
341,131,57453,2,0,P|380:225|339:334,1,180,2|0,0:0|0:0,0:0:0:0:
39,295,58525,2,0,L|25:98,1,180,2|0,0:0|0:0,0:0:0:0:
187,108,59167,1,2,0:0:0:0:
403,204,60025,5,2,0:0:0:0:
403,204,60346,2,0,L|248:200,1,135,2|2,0:0|0:0,0:0:0:0:
87,215,60882,2,0,P|59:198|205:68,1,360,2|0,0:0|0:0,0:0:0:0:
428,271,62596,6,0,L|330:270,2,90,2|2|2,0:0|0:0|0:0,0:0:0:0:
270,278,63239,2,0,L|269:95,1,180,2|0,0:0|0:0,0:0:0:0:
62,218,64310,2,0,L|170:213,1,90,2|2,0:0|0:0,0:0:0:0:
302,212,64739,2,0,P|349:179|281:68,1,180,2|0,0:0|0:0,0:0:0:0:
142,238,66025,6,0,L|46:248,2,90,2|2|2,0:0|0:0|0:0,0:0:0:0:
252,185,66667,1,2,0:0:0:0:
104,271,66882,6,0,L|193:261,2,90,2|2|2,0:0|0:0|0:0,0:0:0:0:
311,257,67739,5,2,0:0:0:0:
192,267,67953,1,2,0:0:0:0:
186,187,68167,1,2,0:0:0:0:
310,180,68382,1,2,0:0:0:0:
473,219,68596,6,0,L|386:217,1,53.9999983520508,4|0,0:3|0:0,0:0:0:0:
204,219,68810,2,0,L|132:220,1,53.9999983520508,2|0,0:0|0:0,0:0:0:0:
473,219,69025,6,0,L|386:217,1,53.9999983520508,2|0,2:0|0:0,0:0:0:0:
204,219,69239,2,0,L|132:220,1,53.9999983520508,2|0,2:0|0:0,0:0:0:0:
419,155,69453,2,0,L|424:405,1,180,10|4,0:0|0:3,0:0:0:0:
237,284,69882,6,0,B|75:280|75:280|252:284,1,270,4|0,0:3|0:0,0:0:0:0:
423,286,70310,2,0,L|115:226,1,270,2|0,0:0|0:0,0:0:0:0:
340,155,70739,6,0,B|502:151|502:151|325:155,1,270,2|0,0:0|0:0,0:0:0:0:
151,168,71167,2,0,L|428:92,1,270,10|0,0:0|0:0,0:0:0:0:
174,89,71596,2,0,B|90:181|90:181|169:198,1,180,4|0,0:3|0:0,0:0:0:0:
385,262,72025,6,0,L|438:262,1,53.9999983520508,4|0,0:3|0:0,0:0:0:0:
116,262,72239,2,0,L|169:260,1,53.9999983520508,2|0,0:0|0:0,0:0:0:0:
385,262,72453,6,0,L|457:263,1,53.9999983520508,2|0,0:0|0:0,0:0:0:0:
116,262,72667,2,0,L|203:260,1,53.9999983520508,2|0,0:0|0:0,0:0:0:0:
452,229,72882,6,0,L|459:24,1,180,10|0,0:0|0:0,0:0:0:0:
33,191,73310,6,0,L|318:78,1,270,4|0,0:3|0:0,0:0:0:0:
33,191,73739,2,0,P|24:284|199:324,1,270,2|0,0:0|0:0,0:0:0:0:
384,190,74167,2,0,P|393:283|218:323,1,270,2|0,0:0|0:0,0:0:0:0:
447,213,74596,2,0,L|167:112,1,270,10|0,0:0|0:0,0:0:0:0:
376,78,75025,2,0,B|443:137|443:137|323:224,1,180,2|0,0:0|0:0,0:0:0:0:
170,202,75453,6,0,L|77:204,1,53.9999983520508,4|0,0:3|0:0,0:0:0:0:
341,186,75667,2,0,L|419:182,1,53.9999983520508,2|0,0:0|0:0,0:0:0:0:
92,149,75882,2,0,L|155:143,1,53.9999983520508,2|0,0:0|0:0,0:0:0:0:
363,126,76096,2,0,L|433:118,1,53.9999983520508,2|0,0:0|0:0,0:0:0:0:
105,269,76310,6,0,L|58:123,1,107.999996704102,10|4,0:0|0:3,0:0:0:0:
366,295,76739,6,0,P|425:206|286:131,1,270,4|0,0:3|0:0,0:0:0:0:
153,134,77167,2,0,P|81:206|226:327,1,270,2|0,0:0|0:0,0:0:0:0:
354,298,77596,2,0,P|242:227|229:65,1,270,2|0,0:0|0:0,0:0:0:0:
414,220,78025,2,0,P|481:129|324:79,1,270,10|0,2:0|2:0,0:0:0:0:
181,115,78453,2,0,L|-13:115,1,180,4|0,0:3|0:0,0:0:0:0:
308,237,78882,6,0,L|398:215,1,53.9999983520508,4|0,0:3|0:0,0:0:0:0:
56,240,79096,2,0,L|125:215,1,53.9999983520508,2|0,0:0|0:0,0:0:0:0:
308,237,79310,2,0,L|398:215,1,53.9999983520508,2|0,0:0|0:0,0:0:0:0:
56,240,79525,2,0,L|125:215,1,53.9999983520508,2|0,0:0|0:0,0:0:0:0:
315,189,79739,5,10,0:0:0:0:
236,175,79846,1,0,0:0:0:0:
491,140,79953,2,0,L|417:140,1,53.9999983520508,2|0,0:0|0:0,0:0:0:0:
253,146,80167,2,0,L|172:150,1,53.9999983520508,4|0,0:3|0:0,0:0:0:0:
490,141,80382,2,0,L|423:143,1,53.9999983520508,2|0,0:0|0:0,0:0:0:0:
248,148,80596,2,0,L|95:152,2,107.999996704102,2|2|2,0:0|0:0|0:0,0:0:0:0:
511,294,81453,5,8,0:0:0:0:
347,295,81667,1,2,0:0:0:0:
184,297,81882,1,2,0:0:0:0:
20,297,82096,1,2,0:0:0:0:
187,177,82310,6,0,L|203:300,1,90,4|0,0:3|0:0,0:0:0:0:
69,265,82739,2,0,L|45:358,1,90,2|4,0:0|0:3,0:0:0:0:
215,267,83167,2,0,L|327:259,1,90,8|0,0:1|0:0,0:0:0:0:
121,200,83596,2,0,L|23:200,1,90,2|4,0:0|0:3,0:0:0:0:
227,144,84025,2,0,L|322:143,2,90,2|4|4,0:0|0:3|0:3,0:0:0:0:
429,81,84667,5,0,0:0:0:0:
279,78,84882,1,8,0:1:0:0:
130,80,85096,1,2,0:0:0:0:
175,74,85739,6,0,L|302:70,1,90,4|0,0:3|0:0,0:0:0:0:
455,153,86167,2,0,L|348:153,1,90,2|4,0:0|0:3,0:0:0:0:
124,122,86596,2,0,L|234:121,1,90,8|0,0:1|0:0,0:0:0:0:
427,51,87025,2,0,L|332:49,2,90,2|4|2,0:0|0:3|0:0,0:0:0:0:
270,107,87667,1,4,0:3:0:0:
425,104,87882,1,4,0:3:0:0:
247,106,88096,2,0,P|195:168|260:272,1,180,0|0,0:0|0:0,0:0:0:0:
389,238,88739,1,0,0:0:0:0:
245,240,88953,1,0,0:0:0:0:
432,288,89167,6,0,L|313:291,1,90,4|0,0:3|0:0,0:0:0:0:
152,281,89596,2,0,L|148:164,1,90,2|4,0:0|0:3,0:0:0:0:
343,203,90025,2,0,L|224:206,1,90,8|0,0:1|0:0,0:0:0:0:
63,196,90453,2,0,L|59:79,1,90,2|4,0:0|0:3,0:0:0:0:
259,94,90882,2,0,L|146:97,2,90,2|4|4,0:0|0:3|0:3,0:0:0:0:
110,171,91525,1,0,0:0:0:0:
304,171,91739,2,0,L|306:51,1,90,8|2,0:1|0:0,0:0:0:0:
78,258,92596,6,0,L|195:257,1,90,4|0,0:3|0:0,0:0:0:0:
352,204,93025,2,0,L|245:202,1,90,2|4,0:0|0:3,0:0:0:0:
80,191,93453,2,0,L|109:86,1,90,8|0,0:1|0:0,0:0:0:0:
286,162,93882,2,0,L|253:52,1,90,2|4,0:0|0:3,0:0:0:0:
67,120,94310,2,0,L|156:119,2,90,2|4|4,0:0|0:3|0:3,0:0:0:0:
266,121,94953,2,0,P|376:164|354:308,1,270,0|2,0:0|0:0,0:0:0:0:
29,287,96025,1,4,0:1:0:0:
418,272,96882,5,2,0:0:0:0:
310,275,97096,1,2,0:0:0:0:
202,271,97310,1,2,0:0:0:0:
368,259,97525,2,0,P|461:201|350:170,1,270,2|0,0:0|0:0,0:0:0:0:
75,293,98596,6,0,L|88:182,1,90,2|2,0:0|0:0,0:0:0:0:
269,237,99025,2,0,L|461:222,1,180,2|0,0:0|0:0,0:0:0:0:
84,270,100310,6,0,L|48:167,2,90,2|2|2,0:0|0:0|0:0,0:0:0:0:
245,261,100953,6,0,L|277:158,2,90,2|2|2,0:0|0:0|0:0,0:0:0:0:
85,268,101596,1,2,0:0:0:0:
354,257,102025,5,2,0:0:0:0:
228,239,102239,1,2,0:0:0:0:
354,257,102453,1,2,0:0:0:0:
186,228,102667,2,0,P|122:201|190:112,1,180,2|0,0:0|0:0,0:0:0:0:
421,225,103739,6,0,L|297:225,2,90,2|2|2,0:0|0:0|0:0,0:0:0:0:
235,232,104382,2,0,P|126:188|224:105,1,270,2|0,0:0|0:0,0:0:0:0:
468,303,105453,6,0,L|483:203,1,90,2|0,0:0|0:0,0:0:0:0:
315,217,105882,2,0,L|302:34,1,180,2|0,0:0|0:0,0:0:0:0:
94,234,107167,5,2,0:0:0:0:
233,222,107382,1,2,0:0:0:0:
94,234,107596,1,2,0:0:0:0:
195,180,107810,1,2,0:0:0:0:
94,234,108025,5,2,0:0:0:0:
233,222,108239,1,2,0:0:0:0:
94,234,108453,1,2,0:0:0:0:
334,197,108882,6,0,L|225:193,3,90,2|2|2|2,0:0|0:0|0:0|0:0,0:0:0:0:
446,144,109739,2,0,L|283:141,1,135,2|2,0:0|0:0,0:0:0:0:
128,137,110382,1,2,0:0:0:0:
351,275,110596,6,0,L|508:273,1,135,2|2,0:0|0:0,0:0:0:0:
293,163,111239,1,2,0:0:0:0:
107,236,111453,6,0,L|283:235,2,135,2|2|2,0:0|0:0|0:0,0:0:0:0:
298,229,112310,2,0,P|375:209|297:69,1,270,2|0,0:0|0:0,0:0:0:0:
15,217,113382,2,0,L|203:217,1,180,2|0,0:0|0:0,0:0:0:0:
395,224,114025,2,0,P|450:216|375:82,1,270,2|0,0:0|0:0,0:0:0:0:
215,121,114882,2,0,L|378:119,2,135,2|2|2,0:0|0:0|0:0,0:0:0:0:
442,163,115739,2,0,L|446:366,1,180,2|0,0:0|0:0,0:0:0:0:
203,296,117453,6,0,L|82:277,1,90,2|2,0:0|0:0,0:0:0:0:
246,250,117882,1,2,0:0:0:0:
67,231,118096,2,0,P|34:167|188:87,1,270,2|0,0:0|0:0,0:0:0:0:
462,208,119167,2,0,L|336:208,1,90,2|2,0:0|0:0,0:0:0:0:
146,206,119596,2,0,L|310:104,1,180,2|0,0:0|0:0,0:0:0:0:
52,262,120882,5,2,0:0:0:0:
200,252,121096,1,2,0:0:0:0:
52,262,121310,1,2,0:0:0:0:
234,192,121525,5,2,0:0:0:0:
86,182,121739,1,2,0:0:0:0:
234,192,121953,1,2,0:0:0:0:
86,182,122167,1,2,0:0:0:0:
350,102,122596,6,0,L|175:102,1,135,2|4,0:0|0:3,0:0:0:0:
443,108,123025,2,0,L|472:235,1,90,8|4,0:1|0:3,0:0:0:0:
121,242,123453,6,0,L|35:224,1,53.9999983520508,4|0,0:3|0:0,0:0:0:0:
243,229,123667,2,0,L|157:211,1,53.9999983520508,2|0,0:0|0:0,0:0:0:0:
367,223,123882,2,0,L|281:205,1,53.9999983520508,2|0,0:0|0:0,0:0:0:0:
483,219,124096,2,0,L|395:201,1,53.9999983520508,2|0,0:0|0:0,0:0:0:0:
250,75,124310,2,0,L|490:76,1,180,8|4,0:0|0:3,0:0:0:0:
128,333,124739,6,0,L|420:322,1,270,4|0,0:3|0:0,0:0:0:0:
128,333,125167,2,0,P|307:238|444:241,1,270,2|0,0:0|0:0,0:0:0:0:
128,333,125596,2,0,P|177:216|334:227,1,270,2|0,0:0|0:0,0:0:0:0:
128,333,126025,2,0,P|108:210|276:217,1,270,8|0,0:0|0:0,0:0:0:0:
0,310,126453,2,0,P|6:258|114:195,1,180,4|0,0:3|0:0,0:0:0:0:
425,297,126882,6,0,L|493:297,1,53.9999983520508,4|0,0:3|0:0,0:0:0:0:
308,294,127096,2,0,L|385:288,1,53.9999983520508,2|0,0:0|0:0,0:0:0:0:
187,283,127310,2,0,L|255:283,1,53.9999983520508,2|0,0:0|0:0,0:0:0:0:
66,279,127525,2,0,L|143:273,1,53.9999983520508,2|0,0:0|0:0,0:0:0:0:
316,208,127739,2,0,L|106:206,1,180,10|0,0:0|0:0,0:0:0:0:
418,332,128167,6,0,L|126:321,1,270,4|0,0:3|0:0,0:0:0:0:
418,332,128596,2,0,P|239:237|102:240,1,270,2|0,0:0|0:0,0:0:0:0:
418,332,129025,2,0,P|369:215|212:226,1,270,2|0,0:0|0:0,0:0:0:0:
418,332,129453,2,0,P|438:209|270:216,1,270,8|0,0:0|0:0,0:0:0:0:
501,305,129882,2,0,P|495:253|388:185,1,180,2|0,0:0|0:0,0:0:0:0:
94,226,130310,6,0,L|24:226,1,53.9999983520508,4|0,0:3|0:0,0:0:0:0:
225,177,130525,2,0,L|163:174,1,53.9999983520508,2|0,0:0|0:0,0:0:0:0:
356,133,130739,2,0,L|419:131,1,53.9999983520508,2|0,0:0|0:0,0:0:0:0:
201,79,130953,2,0,L|282:80,1,53.9999983520508,2|0,0:0|0:0,0:0:0:0:
35,181,131167,2,0,P|-1:237|21:316,1,107.999996704102,8|4,0:0|0:3,0:0:0:0:
315,267,131596,6,0,B|378:227|378:227|273:196|273:196|347:153,1,270,4|0,0:3|0:0,0:0:0:0:
132,267,132025,2,0,B|70:227|70:227|175:196|175:196|101:153,1,270,2|0,0:0|0:0,0:0:0:0:
315,267,132453,2,0,B|378:227|378:227|273:196|273:196|347:153,1,270,2|0,0:0|0:0,0:0:0:0:
132,267,132882,2,0,B|70:227|70:227|175:196|175:196|101:153,1,270,8|0,0:0|0:0,0:0:0:0:
315,267,133310,2,0,B|378:227|378:227|273:196|273:196|347:153,1,270,4|0,0:3|0:0,0:0:0:0:
139,117,133739,5,4,0:3:0:0:
51,117,133846,1,0,0:0:0:0:
139,117,133953,1,2,0:0:0:0:
51,117,134060,1,0,0:0:0:0:
408,113,134167,2,0,L|420:262,1,107.999996704102,2|2,0:0|0:0,0:0:0:0:
139,117,134596,5,8,0:0:0:0:
51,117,134703,1,0,0:0:0:0:
139,117,134810,1,2,0:0:0:0:
51,117,134917,1,0,0:0:0:0:
408,113,135025,2,0,L|420:262,1,107.999996704102,4|2,0:3|0:0,0:0:0:0:
196,218,135453,2,0,L|301:196,2,107.999996704102,2|2|2,0:0|0:0|0:0,0:0:0:0:
494,164,136310,2,0,L|312:161,3,161.999995056153,10|2|2|2,0:0|0:0|0:0|0:0,0:0:0:0:
11,275,137167,6,0,L|90:276,1,53.9999983520508,4|0,0:3|0:0,0:0:0:0:
292,235,137382,2,0,L|219:234,1,53.9999983520508,2|0,0:0|0:0,0:0:0:0:
474,225,137596,2,0,L|474:164,1,53.9999983520508,2|0,0:0|0:0,0:0:0:0:
248,156,137810,2,0,L|345:154,1,53.9999983520508,2|0,0:0|0:0,0:0:0:0:
55,208,138025,2,0,P|30:115|96:80,1,135.000005149842,8|4,0:0|0:3,0:0:0:0:
490,262,138453,6,0,L|253:109,1,270,4|0,0:3|0:0,0:0:0:0:
70,256,138882,2,0,L|335:148,1,270,2|0,0:0|0:0,0:0:0:0:
130,291,139310,2,0,P|56:212|63:6,1,270,2|0,0:0|0:0,0:0:0:0:
259,161,139739,2,0,L|-37:162,1,270,8|0,0:0|0:0,0:0:0:0:
217,243,140167,2,0,P|321:210|336:109,1,180,4|0,0:3|0:0,0:0:0:0:
8,314,140596,6,0,L|81:313,1,53.9999983520508,4|0,0:3|0:0,0:0:0:0:
304,268,140810,2,0,L|239:268,1,53.9999983520508,2|0,0:0|0:0,0:0:0:0:
83,208,141025,2,0,L|156:207,1,53.9999983520508,2|0,0:0|0:0,0:0:0:0:
379,162,141239,2,0,L|314:162,1,53.9999983520508,2|0,0:0|0:0,0:0:0:0:
39,120,141453,2,0,L|34:257,1,107.999996704102,8|0,0:0|0:0,0:0:0:0:
308,277,141882,6,0,P|170:294|154:126,1,270,4|0,0:3|0:0,0:0:0:0:
359,223,142310,2,0,B|265:197|265:197|442:162|265:106,1,270,2|0,0:0|0:0,0:0:0:0:
109,178,142739,2,0,P|22:111|162:47,1,270,2|0,0:0|0:0,0:0:0:0:
301,93,143167,2,0,B|445:137|268:172|268:172|362:198,1,270,8|0,0:0|0:0,0:0:0:0:
168,295,143596,2,0,P|63:262|56:151,1,180,2|0,0:0|0:0,0:0:0:0:
461,248,144025,6,0,L|367:248,1,53.9999983520508,4|0,0:3|0:0,0:0:0:0:
223,244,144239,2,0,L|123:248,1,53.9999983520508,2|0,0:0|0:0,0:0:0:0:
489,173,144453,2,0,L|419:170,1,53.9999983520508,2|0,0:0|0:0,0:0:0:0:
244,174,144667,2,0,L|297:170,1,53.9999983520508,2|0,0:0|0:0,0:0:0:0:
52,285,144882,2,0,L|21:153,1,107.999996704102,8|4,0:0|0:3,0:0:0:0:
349,236,145310,6,0,B|210:207|210:207|371:168,1,270,4|0,0:3|0:0,0:0:0:0:
163,236,145739,2,0,B|302:207|302:207|141:168,1,270,2|0,0:0|0:0,0:0:0:0:
349,236,146167,2,0,B|210:207|210:207|371:168,1,270,2|0,0:0|0:0,0:0:0:0:
163,236,146596,2,0,B|302:207|302:207|141:168,1,270,8|0,0:0|0:0,0:0:0:0:
398,210,147025,2,0,P|472:172|497:75,1,180,4|0,0:3|0:0,0:0:0:0:
145,209,147453,6,0,L|50:209,1,53.9999983520508,4|0,0:3|0:0,0:0:0:0:
206,160,147667,2,0,L|134:158,1,53.9999983520508,2|0,0:0|0:0,0:0:0:0:
398,210,147882,6,0,L|493:210,1,53.9999983520508,2|0,0:0|0:3,0:0:0:0:
337,161,148096,2,0,L|409:159,1,53.9999983520508,2|0,0:0|0:3,0:0:0:0:
103,285,148310,6,0,L|8:285,1,53.9999983520508,10|0,0:0|0:3,0:0:0:0:
164,236,148525,2,0,L|92:234,1,53.9999983520508,2|0,0:0|0:3,0:0:0:0:
410,218,148739,6,0,L|479:220,1,53.9999983520508,2|0,0:0|0:3,0:0:0:0:
250,157,148953,2,0,L|330:157,1,53.9999983520508,2|0,0:0|0:3,0:0:0:0:
92,93,149167,2,0,L|178:86,1,53.9999983520508,2|0,0:0|0:0,0:0:0:0:
411,69,149382,2,0,L|334:79,1,53.9999983520508,2|0,0:0|0:0,0:0:0:0:
138,154,149596,2,0,P|78:191|151:263,1,161.999995056153,2|0,0:0|0:0,0:0:0:0:
201,267,150025,6,0,L|376:264,3,135.000005149842,2|0|0|0,0:0|0:0|0:0|0:0,0:0:0:0:
