osu file format v14

[General]
AudioFilename: audio.mp3
AudioLeadIn: 0
PreviewTime: 67739
Countdown: 0
SampleSet: Soft
StackLeniency: 0.7
Mode: 2
LetterboxInBreaks: 0
WidescreenStoryboard: 0

[Editor]
DistanceSpacing: 0.4
BeatDivisor: 2
GridSize: 32
TimelineZoom: 1

[Metadata]
Title:Alarm
TitleUnicode:Alarm
Artist:Lookas & Krewella
ArtistUnicode:Lookas & Krewella
Creator:-Ken
Version:Cup
Source:
Tags:
BeatmapID:1989684
BeatmapSetID:952905

[Difficulty]
HPDrainRate:4
CircleSize:2.5
OverallDifficulty:6
ApproachRate:6
SliderMultiplier:1.4
SliderTickRate:1

[Events]
//Background and Video events
0,0,"ww.jpg",0,0
//Break Periods
//Storyboard Layer 0 (Background)
//Storyboard Layer 1 (Fail)
//Storyboard Layer 2 (Pass)
//Storyboard Layer 3 (Foreground)
//Storyboard Sound Samples

[TimingPoints]
25,428.571428571429,4,2,1,80,1,0
13738,-100,4,2,1,40,0,0
15660,-100,4,2,1,5,0,0
15767,-100,4,2,1,40,0,0
16732,-100,4,2,1,5,0,0
16839,-100,4,2,1,40,0,0
19089,-100,4,2,1,5,0,0
19196,-100,4,2,1,40,0,0
20160,-100,4,2,1,5,0,0
20267,-100,4,2,1,40,0,0
22517,-100,4,2,1,5,0,0
22625,-100,4,2,1,40,0,0
23589,-100,4,2,1,5,0,0
23696,-100,4,2,1,40,0,0
25946,-100,4,2,1,5,0,0
26053,-100,4,2,1,40,0,0
26910,-100,4,2,1,50,0,0
27553,-100,4,2,1,60,0,0
37303,-100,4,2,1,5,0,0
37410,-100,4,2,1,60,0,0
40839,-100,4,2,1,40,0,0
41267,-100,4,2,1,45,0,0
42023,-200,4,2,1,45,0,0
42025,-200,4,2,1,30,0,0
54880,-100,4,2,1,30,0,0
54882,-100,4,2,1,40,0,0
68596,-83.3333333333333,4,2,1,80,0,1
70203,-83.3333333333333,4,2,1,5,0,1
70310,-83.3333333333333,4,2,1,80,0,1
70632,-83.3333333333333,4,2,1,5,0,1
70739,-83.3333333333333,4,2,1,80,0,1
71060,-83.3333333333333,4,2,1,5,0,1
71167,-83.3333333333333,4,2,1,80,0,1
71489,-83.3333333333333,4,2,1,5,0,1
71596,-83.3333333333333,4,2,1,80,0,1
71917,-83.3333333333333,4,2,1,5,0,1
72025,-83.3333333333333,4,2,1,80,0,1
73632,-83.3333333333333,4,2,1,5,0,1
73739,-83.3333333333333,4,2,1,80,0,1
74060,-83.3333333333333,4,2,1,5,0,1
74167,-83.3333333333333,4,2,1,80,0,1
74489,-83.3333333333333,4,2,1,5,0,1
74596,-83.3333333333333,4,2,1,80,0,1
74917,-83.3333333333333,4,2,1,5,0,1
75025,-83.3333333333333,4,2,1,80,0,1
75346,-83.3333333333333,4,2,1,5,0,1
75453,-83.3333333333333,4,2,1,80,0,1
77060,-83.3333333333333,4,2,1,5,0,1
77167,-83.3333333333333,4,2,1,80,0,1
77489,-83.3333333333333,4,2,1,5,0,1
77596,-83.3333333333333,4,2,1,80,0,1
77917,-83.3333333333333,4,2,1,5,0,1
78025,-83.3333333333333,4,2,1,80,0,1
78346,-83.3333333333333,4,2,1,5,0,1
78453,-83.3333333333333,4,2,1,80,0,1
78775,-83.3333333333333,4,2,1,5,0,1
78882,-83.3333333333333,4,2,1,80,0,1
80596,-83.3333333333333,4,2,1,60,0,1
81453,-83.3333333333333,4,2,1,55,0,1
82310,-100,4,2,1,55,0,0
96025,-100,4,2,1,45,0,0
96879,-166.666666666667,4,2,1,45,0,0
96882,-166.666666666667,4,2,1,30,0,0
109736,-100,4,2,1,30,0,0
109739,-100,4,2,1,40,0,0
123025,-100,4,2,1,50,0,0
123453,-83.3333333333333,4,2,1,80,0,1
125060,-83.3333333333333,4,2,1,5,0,1
125167,-83.3333333333333,4,2,1,80,0,1
125489,-83.3333333333333,4,2,1,5,0,1
125596,-83.3333333333333,4,2,1,80,0,1
125917,-83.3333333333333,4,2,1,5,0,1
126024,-83.3333333333333,4,2,1,80,0,1
126346,-83.3333333333333,4,2,1,5,0,1
126453,-83.3333333333333,4,2,1,80,0,1
126775,-83.3333333333333,4,2,1,5,0,1
126882,-83.3333333333333,4,2,1,80,0,1
128489,-83.3333333333333,4,2,1,5,0,1
128596,-83.3333333333333,4,2,1,80,0,1
128917,-83.3333333333333,4,2,1,5,0,1
129024,-83.3333333333333,4,2,1,80,0,1
129346,-83.3333333333333,4,2,1,5,0,1
129453,-83.3333333333333,4,2,1,80,0,1
129774,-83.3333333333333,4,2,1,5,0,1
129882,-83.3333333333333,4,2,1,80,0,1
130203,-83.3333333333333,4,2,1,5,0,1
130310,-83.3333333333333,4,2,1,80,0,1
131917,-83.3333333333333,4,2,1,5,0,1
132024,-83.3333333333333,4,2,1,80,0,1
132346,-83.3333333333333,4,2,1,5,0,1
132453,-83.3333333333333,4,2,1,80,0,1
132774,-83.3333333333333,4,2,1,5,0,1
132882,-83.3333333333333,4,2,1,80,0,1
133203,-83.3333333333333,4,2,1,5,0,1
133310,-83.3333333333333,4,2,1,80,0,1
133632,-83.3333333333333,4,2,1,5,0,1
133739,-83.3333333333333,4,2,1,80,0,1
135453,-83.3333333333333,4,2,1,60,0,1
136310,-83.3333333333333,4,2,1,80,0,0
137167,-83.3333333333333,4,2,1,80,0,1
138774,-83.3333333333333,4,2,1,5,0,1
138881,-83.3333333333333,4,2,1,80,0,1
139203,-83.3333333333333,4,2,1,5,0,1
139310,-83.3333333333333,4,2,1,80,0,1
139631,-83.3333333333333,4,2,1,5,0,1
139738,-83.3333333333333,4,2,1,80,0,1
140060,-83.3333333333333,4,2,1,5,0,1
140167,-83.3333333333333,4,2,1,80,0,1
140489,-83.3333333333333,4,2,1,5,0,1
140596,-83.3333333333333,4,2,1,80,0,1
142203,-83.3333333333333,4,2,1,5,0,1
142310,-83.3333333333333,4,2,1,80,0,1
142631,-83.3333333333333,4,2,1,5,0,1
142738,-83.3333333333333,4,2,1,80,0,1
143060,-83.3333333333333,4,2,1,5,0,1
143167,-83.3333333333333,4,2,1,80,0,1
143488,-83.3333333333333,4,2,1,5,0,1
143596,-83.3333333333333,4,2,1,80,0,1
143917,-83.3333333333333,4,2,1,5,0,1
144025,-83.3333333333333,4,2,1,80,0,1
145631,-83.3333333333333,4,2,1,5,0,1
145738,-83.3333333333333,4,2,1,80,0,1
146060,-83.3333333333333,4,2,1,5,0,1
146167,-83.3333333333333,4,2,1,80,0,1
146488,-83.3333333333333,4,2,1,5,0,1
146596,-83.3333333333333,4,2,1,80,0,1
146917,-83.3333333333333,4,2,1,5,0,1
147024,-83.3333333333333,4,2,1,80,0,1
147346,-83.3333333333333,4,2,1,5,0,1
147453,-83.3333333333333,4,2,1,80,0,1
149167,-83.3333333333333,4,2,1,60,0,1
150025,-83.3333333333333,4,2,1,60,0,0

[HitObjects]
64,160,13739,6,0,L|64:313,1,140,4|0,0:3|0:0,0:0:0:0:
224,288,14596,2,0,B|400:150,2,210,8|4|4,0:1|0:3|0:3,0:0:0:0:
384,224,16310,1,8,0:1:0:0:
256,224,16738,1,0,0:0:0:0:
406,96,17167,6,0,L|406:249,1,140,4|0,0:3|0:0,0:0:0:0:
246,228,18024,2,0,B|92:69,2,210,8|4|4,0:1|0:3|0:3,0:0:0:0:
86,217,19738,1,8,0:1:0:0:
214,217,20166,1,0,0:0:0:0:
59,210,20596,6,0,B|20:270|62:349,1,140,4|0,0:3|0:0,0:0:0:0:
219,305,21453,2,0,L|421:199,2,210,8|4|4,0:1|0:3|0:3,0:0:0:0:
379,261,23167,1,8,0:1:0:0:
249,253,23596,1,0,0:0:0:0:
120,249,24025,6,0,L|121:106,1,140,4|0,0:3|0:0,0:0:0:0:
281,181,24882,2,0,B|73:107,2,210,8|4|4,0:1|0:3|0:3,0:0:0:0:
444,178,26596,1,8,0:1:0:0:
206,200,27453,6,0,L|189:119,2,70,4|2|2,0:3|0:1|0:1,0:0:0:0:
346,187,28310,2,0,L|337:329,1,140,8|2,0:1|0:0,0:0:0:0:
278,329,28953,2,0,L|117:341,1,140,4|4,0:3|0:3,0:0:0:0:
193,334,29596,1,4,0:3:0:0:
386,341,30025,2,0,L|386:171,1,140,8|2,0:1|0:0,0:0:0:0:
202,234,30881,6,0,B|54:238,1,140,4|2,0:3|0:0,0:0:0:0:
217,237,31738,2,0,L|309:130,1,140,8|2,0:1|0:0,0:0:0:0:
253,124,32381,2,0,L|101:124,1,140,4|4,0:3|0:3,0:0:0:0:
168,127,33024,1,4,0:3:0:0:
352,155,33453,2,0,L|335:299,1,140,8|2,0:1|0:0,0:0:0:0:
170,267,34310,6,0,L|148:357,2,70,4|2|2,0:3|0:1|0:1,0:0:0:0:
310,299,35167,2,0,L|309:146,1,140,8|2,0:1|0:0,0:0:0:0:
232,210,35810,2,0,B|230:55,1,140,4|4,0:3|0:3,0:0:0:0:
315,153,36453,1,4,0:3:0:0:
462,77,36881,2,0,L|462:248,1,140,8|2,0:1|0:0,0:0:0:0:
310,166,37739,6,0,L|165:166,1,140,4|2,0:3|0:0,0:0:0:0:
32,324,38596,2,0,L|31:169,1,140,8|2,0:1|0:0,0:0:0:0:
87,191,39239,2,0,L|234:199,1,140,4|4,0:3|0:3,0:0:0:0:
272,204,39882,1,4,0:3:0:0:
433,225,40310,2,0,L|450:69,1,140,8|2,0:1|0:0,0:0:0:0:
303,64,41167,1,4,0:1:0:0:
303,64,42025,6,0,B|198:65,2,105,0|2|0,0:0|0:0|0:0,0:0:0:0:
198,141,43739,2,0,L|122:139,1,70,0|2,0:0|0:0,0:0:0:0:
128,139,45453,6,0,L|241:137,2,105,2|2|2,0:0|0:0|0:0,0:0:0:0:
253,275,47167,2,0,L|252:162,1,105
252,170,48882,6,0,B|147:169,2,105
138,230,50596,2,0,L|133:300,1,70
133,299,52310,6,0,B|242:290,2,105
260,305,54025,2,0,L|258:189,1,105,2|2,0:0|0:0,0:0:0:0:
364,123,54882,6,0,L|87:48,2,280,0|2|2,0:0|0:0|0:0,0:0:0:0:
139,200,57453,1,0,0:0:0:0:
360,143,58525,6,0,L|136:142,1,210,0|2,0:0|0:0,0:0:0:0:
382,235,60025,2,0,L|298:317,2,105,0|2|0,0:0|0:0|0:0,0:0:0:0:
470,226,60882,1,0,0:0:0:0:
243,136,62596,6,0,P|180:149|65:64,2,210
422,113,64310,2,0,L|420:253,1,140,0|2,0:0|0:0,0:0:0:0:
240,318,66025,6,0,B|457:309,2,210,2|2|2,0:0|0:0|0:0,0:0:0:0:
134,306,68596,5,0,0:0:0:0:
72,277,68810,1,0,0:0:0:0:
49,212,69025,1,0,0:0:0:0:
80,151,69239,1,0,0:0:0:0:
144,130,69453,1,0,0:0:0:0:
349,190,69882,6,0,L|180:192,4,167.999994873047,0|2|2|10|4,0:0|0:0|0:0|0:0|0:3,0:0:0:0:
183,282,72025,5,0,0:0:0:0:
252,280,72239,1,0,0:0:0:0:
312,245,72453,1,0,0:0:0:0:
348,187,72667,1,0,0:0:0:0:
352,117,72882,1,0,0:0:0:0:
149,222,73310,6,0,L|328:220,4,167.999994873047,0|0|2|0|0,0:0|0:0|0:0|0:0|0:0,0:0:0:0:
315,317,75453,5,0,0:0:0:0:
253,284,75667,1,0,0:0:0:0:
215,227,75882,1,0,0:0:0:0:
208,159,76096,1,0,0:0:0:0:
235,94,76310,1,0,0:0:0:0:
440,182,76739,6,0,L|276:226,4,167.999994873047,0|2|2|0|4,0:0|0:0|0:0|0:0|0:3,0:0:0:0:
274,180,78882,6,0,L|270:80,1,83.9999974365235,0|2,0:0|0:0,0:0:0:0:
344,138,79310,2,0,L|338:32,1,83.9999974365235
274,180,79739,6,0,L|270:77,1,83.9999974365235,0|2,0:0|0:0,0:0:0:0:
344,138,80167,2,0,L|337:40,1,83.9999974365235
273,182,80596,2,0,L|230:93,2,83.9999974365235,0|2|0,0:0|0:0|0:0,0:0:0:0:
456,270,81453,2,0,L|202:272,1,251.999992309571
274,272,82310,5,0,0:0:0:0:
393,232,82739,1,0,0:0:0:0:
512,182,83167,2,0,L|506:32,1,140
361,168,84025,1,0,0:0:0:0:
216,207,84453,2,0,L|216:287,1,70
282,286,84882,2,0,L|434:286,1,140
283,211,85739,5,0,0:0:0:0:
153,214,86167,1,0,0:0:0:0:
22,213,86596,1,0,0:0:0:0:
162,282,87025,2,0,L|250:281,1,70,0|4,0:0|0:3,0:0:0:0:
284,280,87453,2,0,L|285:117,1,140
71,329,88310,1,0,0:0:0:0:
328,299,89167,5,0,0:0:0:0:
193,240,89596,1,0,0:0:0:0:
328,299,90025,2,0,L|475:311,1,140,0|2,0:0|0:0,0:0:0:0:
319,220,90882,1,0,0:0:0:0:
466,205,91310,2,0,L|468:119,1,70
406,125,91739,2,0,B|252:124,1,140
114,113,92596,5,0,0:0:0:0:
254,116,93025,1,2,0:0:0:0:
394,120,93453,2,0,L|410:202,2,70
254,245,94310,2,0,L|103:244,1,140
248,176,95167,2,0,L|392:162,1,140
240,84,96025,1,0,0:0:0:0:
240,84,96882,6,0,B|375:82,2,125.999996154785
90,93,98596,2,0,B|89:192,1,83.9999974365235
316,181,100310,6,0,B|441:195,2,125.999996154785
166,186,102025,2,0,L|92:69,1,125.999996154785
339,142,103739,6,0,B|213:144,2,125.999996154785
489,149,105453,2,0,L|490:48,1,83.9999974365235
210,227,107167,6,0,L|72:251,2,125.999996154785
360,227,108882,2,0,L|359:91,1,125.999996154785
275,140,109739,6,0,B|14:14,2,280
46,199,112310,1,0,0:0:0:0:
309,265,113382,6,0,L|315:48,1,210
120,100,114882,2,0,L|33:28,2,105
227,96,115739,2,0,P|272:99|331:292,1,280
133,326,117453,6,0,B|341:298,2,210
286,270,119167,2,0,L|333:104,1,140
73,310,120882,6,0,B|291:312,2,210
287,288,123453,5,0,0:0:0:0:
369,286,123667,1,0,0:0:0:0:
431,232,123882,1,0,0:0:0:0:
445,151,124096,1,0,0:0:0:0:
404,79,124310,1,0,0:0:0:0:
212,124,124739,5,0,0:0:0:0:
388,127,125167,1,0,0:0:0:0:
212,124,125596,1,0,0:0:0:0:
35,121,126025,1,0,0:0:0:0:
212,124,126453,1,0,0:0:0:0:
408,129,126882,5,0,0:0:0:0:
437,205,127096,1,0,0:0:0:0:
410,283,127310,1,0,0:0:0:0:
339,324,127525,1,0,0:0:0:0:
258,310,127739,1,0,0:0:0:0:
62,175,128167,6,0,L|241:171,2,167.999994873047
266,167,129453,2,0,P|302:229|265:318,1,167.999994873047
49,268,130310,5,0,0:0:0:0:
25,188,130525,1,0,0:0:0:0:
53,110,130739,1,0,0:0:0:0:
120,63,130953,1,0,0:0:0:0:
203,64,131167,1,0,0:0:0:0:
400,131,131596,5,0,0:0:0:0:
218,126,132025,1,0,0:0:0:0:
400,131,132453,1,0,0:0:0:0:
218,126,132882,1,0,0:0:0:0:
400,131,133310,1,0,0:0:0:0:
204,126,133739,5,0,0:0:0:0:
148,184,133953,1,0,0:0:0:0:
167,262,134167,1,0,0:0:0:0:
244,287,134382,1,0,0:0:0:0:
322,248,134596,5,0,0:0:0:0:
378,190,134810,1,0,0:0:0:0:
359,112,135025,1,0,0:0:0:0:
282,87,135239,1,0,0:0:0:0:
198,79,135453,2,0,L|131:18,2,83.9999974365235
400,270,136310,2,0,B|413:257|437:233|431:115|323:85|258:175,1,251.999992309571
174,243,137167,5,0,0:0:0:0:
109,216,137382,1,0,0:0:0:0:
85,149,137596,1,0,0:0:0:0:
121,87,137810,1,0,0:0:0:0:
189,73,138025,1,0,0:0:0:0:
395,138,138453,6,0,L|219:139,4,167.999994873047
199,278,140596,5,0,0:0:0:0:
253,285,140810,1,0,0:0:0:0:
301,258,141025,1,0,0:0:0:0:
323,207,141239,1,0,0:0:0:0:
310,154,141453,1,0,0:0:0:0:
110,155,141882,5,0,0:0:0:0:
290,151,142310,1,0,0:0:0:0:
470,155,142739,1,0,0:0:0:0:
290,151,143167,1,0,0:0:0:0:
110,155,143596,1,0,0:0:0:0:
317,184,144025,5,0,0:0:0:0:
363,165,144239,1,0,0:0:0:0:
390,122,144453,1,0,0:0:0:0:
388,72,144667,1,0,0:0:0:0:
356,32,144882,1,0,0:0:0:0:
148,162,145310,5,0,0:0:0:0:
331,167,145739,1,0,0:0:0:0:
148,162,146167,1,0,0:0:0:0:
331,167,146596,1,0,0:0:0:0:
512,162,147025,1,0,0:0:0:0:
321,231,147453,6,0,L|237:231,1,83.9999974365235
170,228,147882,2,0,L|171:138,1,83.9999974365235
292,136,148310,6,0,L|208:136,1,83.9999974365235
141,133,148739,2,0,L|142:43,1,83.9999974365235
270,49,149167,6,0,L|186:49,2,83.9999974365235
167,126,150025,2,0,P|270:178|331:320,1,251.999992309571
