osu file format v14

[General]
AudioFilename: audio.mp3
AudioLeadIn: 0
PreviewTime: 41945
Countdown: 0
SampleSet: Soft
StackLeniency: 0.6
Mode: 0
LetterboxInBreaks: 0
WidescreenStoryboard: 1

[Editor]
Bookmarks: 14074,69816,88397,115880,144138,185945,223147,228953
DistanceSpacing: 1
BeatDivisor: 3
GridSize: 8
TimelineZoom: 2

[Metadata]
Title:Sweater In The Lake
TitleUnicode:Sweater In The Lake
Artist:Look Vibrant
ArtistUnicode:Look Vibrant
Creator:-Tatsuo
Version:Collab Insane
Source:
Tags:phynta english the up here place alternative drop rock experimental sounds core top pop art indie no wave post-punk prog progressive montreal noise avant-garde justin lazarus matthew murphy alex rand eli kaufman
BeatmapID:2313861
BeatmapSetID:1097306

[Difficulty]
HPDrainRate:5.2
CircleSize:4.7
OverallDifficulty:7.7
ApproachRate:8.7
SliderMultiplier:1.9
SliderTickRate:0.5

[Events]
//Background and Video events
0,0,"2872817-nature-artwork-lake-hill-reflection___abstract-wallpapers.jpg",0,0
//Break Periods
//Storyboard Layer 0 (Background)
//Storyboard Layer 1 (Fail)
//Storyboard Layer 2 (Pass)
//Storyboard Layer 3 (Foreground)
//Storyboard Layer 4 (Overlay)
//Storyboard Sound Samples

[TimingPoints]
132,387.096774193548,3,2,0,40,1,0
132,-100,3,2,0,40,0,0
14067,-125,3,2,0,40,0,0
23357,-111.111111111111,3,2,0,55,0,0
23648,-111.111111111111,3,2,0,5,0,0
23744,-111.111111111111,3,2,0,55,0,0
24809,-111.111111111111,3,2,0,5,0,0
24906,-111.111111111111,3,2,0,55,0,0
25970,-111.111111111111,3,2,0,5,0,0
26067,-111.111111111111,3,2,0,55,0,0
28293,-111.111111111111,3,2,0,5,0,0
28390,-111.111111111111,3,2,0,55,0,0
29454,-111.111111111111,3,2,0,5,0,0
29551,-111.111111111111,3,2,0,55,0,0
30615,-111.111111111111,3,2,0,5,0,0
30712,-111.111111111111,3,2,0,55,0,0
32648,-100,3,2,0,70,0,0
32938,-100,3,2,0,70,0,0
33035,-100,3,2,0,70,0,0
33325,-100,3,2,0,5,0,0
33422,-100,3,2,0,70,0,0
34099,-100,3,2,0,70,0,0
34196,-100,3,2,0,70,0,0
34486,-100,3,2,0,5,0,0
34583,-100,3,2,0,70,0,0
35261,-100,3,2,0,70,0,0
35357,-100,3,2,0,70,0,0
35648,-100,3,2,0,5,0,0
35744,-100,3,2,0,70,0,0
36422,-100,3,2,0,5,0,0
36519,-100,3,2,0,70,0,0
36809,-100,3,2,0,5,0,0
36906,-100,3,2,0,70,0,0
37196,-100,3,2,0,5,0,0
37293,-100,3,2,0,70,0,0
37583,-100,3,2,0,70,0,0
37680,-100,3,2,0,70,0,0
37970,-100,3,2,0,70,0,0
38067,-100,3,2,0,70,0,0
38744,-100,3,2,0,70,0,0
38841,-100,3,2,0,70,0,0
39131,-100,3,2,0,70,0,0
39228,-100,3,2,0,70,0,0
41938,-142.857142857143,3,2,0,60,0,0
48422,-142.857142857143,3,2,0,5,0,0
48519,-142.857142857143,3,2,0,60,0,0
49970,-142.857142857143,3,2,0,5,0,0
50067,-142.857142857143,3,2,0,60,0,0
51131,-142.857142857143,3,2,0,60,0,0
51228,-125,3,2,0,60,0,0
54422,-125,3,2,0,5,0,0
54519,-125,3,2,0,60,0,0
56551,-125,3,2,0,5,0,0
56648,-125,3,2,0,60,0,0
57712,-125,3,2,0,5,0,0
57809,-125,3,2,0,60,0,0
59261,-125,3,2,0,5,0,0
59357,-125,3,2,0,60,0,0
60519,-200,3,2,0,50,0,0
61680,379.746835443038,3,2,0,50,1,0
61680,-200,3,2,0,50,0,0
62313,397.350993377483,3,2,0,50,1,0
62712,387.096774193548,3,2,0,50,1,0
62712,-200,3,2,0,50,0,0
63228,372.670807453416,3,2,0,50,1,0
63972,404.040404040404,3,2,0,50,1,0
63972,-200,3,2,0,50,0,0
64780,451.127819548872,3,2,0,50,1,0
64780,-200,3,2,0,50,0,0
65006,355.029585798817,3,2,0,50,1,0
65184,370.37037037037,3,2,0,50,1,0
65184,-200,3,2,0,50,0,0
65803,384.615384615384,3,2,0,50,1,0
65803,-200,3,2,0,50,0,0
66315,390.243902439024,3,2,0,50,1,0
66315,-200,3,2,0,50,0,0
67357,343.839541547277,3,2,0,50,1,0
67357,-200,3,2,0,50,0,0
67873,387.096774193548,3,2,0,50,1,0
68647,387.096774193548,3,2,0,50,1,0
69808,-76.9230769230769,3,2,0,70,0,0
70969,-83.3333333333333,3,2,0,70,0,0
72130,-90.9090909090909,3,2,0,70,0,0
72711,-83.3333333333333,3,2,0,70,0,0
72905,-90.9090909090909,3,2,0,70,0,0
73292,-100,3,2,0,70,0,0
74453,-76.9230769230769,3,2,0,70,0,0
75614,-83.3333333333333,3,2,0,70,0,0
76776,-71.4285714285714,3,2,0,70,0,0
77937,-90.9090909090909,3,2,0,70,0,0
78517,-100,3,2,0,70,0,0
79098,-76.9230769230769,3,2,0,70,0,0
80259,-83.3333333333333,3,2,0,70,0,0
81421,-90.9090909090909,3,2,0,70,0,0
82001,-83.3333333333333,3,2,0,70,0,0
82195,-90.9090909090909,3,2,0,70,0,0
82582,-100,3,2,0,70,0,0
83743,-76.9230769230769,3,2,0,70,0,0
84905,-83.3333333333333,3,2,0,70,0,0
86066,-90.9090909090909,3,2,0,70,0,0
86646,-100,3,2,0,70,0,0
87227,-125,3,2,0,70,0,0
88388,-142.857142857143,3,2,0,60,0,0
96517,-100,3,2,0,60,0,0
96808,-100,3,2,0,60,0,0
96905,-100,3,2,0,60,0,0
97098,-100,3,2,0,5,0,0
97163,-100,3,2,0,60,0,0
97679,-125,3,2,0,60,0,0
99517,-125,3,2,0,5,0,0
99614,-125,3,2,0,60,0,0
104163,-125,3,2,0,5,0,0
104259,-125,3,2,0,60,0,0
105711,-125,3,2,0,5,0,0
105808,-125,3,2,0,60,0,0
106969,-200,3,2,0,50,0,0
108130,393.44262295082,3,2,0,50,1,0
108130,-200,3,2,0,50,0,0
108787,335.195530726257,3,2,0,50,1,0
109122,434.782608695652,3,2,0,50,1,0
109267,397.350993377483,3,2,0,50,1,0
109664,394.736842105263,3,2,0,50,1,0
110453,387.096774193548,3,2,0,50,1,0
110453,-166.666666666667,3,2,0,50,0,0
111227,348.837209302325,3,2,0,50,1,0
111227,-164.473684210526,3,2,0,50,0,0
111460,491.803278688524,3,2,0,50,1,0
111624,380.952380952381,3,2,0,50,1,0
111624,-250.000000000001,3,2,0,50,0,0
112195,413.793103448275,3,2,0,50,1,0
112195,-250.000000000001,3,2,0,50,0,0
112608,337.078651685393,3,2,0,50,1,0
112776,377.358490566037,3,2,0,50,1,0
113782,371.517027863777,3,2,0,50,1,0
114340,378.548895899054,3,2,0,50,1,0
115098,387.096774193548,3,2,0,50,1,0
115872,-250.000000000001,3,2,0,75,0,0
116259,-66.6666666666667,3,2,0,75,0,0
116646,-62.5,3,2,0,75,0,0
117033,-58.8235294117647,3,2,0,75,0,0
117420,-62.5,3,2,0,75,0,0
117807,-66.6666666666667,3,2,0,75,0,0
118194,-58.8235294117647,3,2,0,75,0,0
118581,-62.5,3,2,0,75,0,0
118968,-66.6666666666667,3,2,0,75,0,0
119356,-58.8235294117647,3,2,0,75,0,0
119743,-55.5555555555556,3,2,0,75,0,0
120517,-50,3,2,0,75,0,0
120904,-66.6666666666667,3,2,0,75,0,0
121291,-62.5,3,2,0,75,0,0
121678,-58.8235294117647,3,2,0,75,0,0
122065,-62.5,3,2,0,75,0,0
122452,-66.6666666666667,3,2,0,75,0,0
122839,-58.8235294117647,3,2,0,75,0,0
123227,-62.5,3,2,0,75,0,0
123614,-66.6666666666667,3,2,0,75,0,0
124001,-58.8235294117647,3,2,0,75,0,0
124388,-55.5555555555556,3,2,0,75,0,0
124646,-111.111111111111,3,2,0,75,0,0
125549,-200,3,2,0,50,0,0
126614,-200,3,2,0,5,0,0
126710,-200,3,2,0,50,0,0
127388,-200,3,2,0,5,0,0
127485,-200,3,2,0,50,0,0
127775,-200,3,2,0,5,0,0
127872,-200,3,2,0,50,0,0
128549,-200,3,2,0,5,0,0
128646,-200,3,2,0,50,0,0
128936,-200,3,2,0,5,0,0
129033,-200,3,2,0,50,0,0
129323,-200,3,2,0,5,0,0
129420,-200,3,2,0,50,0,0
129710,-200,3,2,0,5,0,0
129807,-200,3,2,0,50,0,0
130097,-200,3,2,0,5,0,0
130194,-200,3,2,0,50,0,0
131259,-200,3,2,0,5,0,0
131356,-200,3,2,0,50,0,0
132033,-200,3,2,0,5,0,0
132130,-200,3,2,0,50,0,0
132420,-200,3,2,0,5,0,0
132517,-200,3,2,0,50,0,0
134839,-1000,3,2,0,49,0,0
136001,-500,3,2,0,51,0,0
137162,-333.333333333333,3,2,0,53,0,0
138323,-250,3,2,0,55,0,0
139485,-200,3,2,0,57,0,0
140646,-166.666666666667,3,2,0,59,0,0
141807,-142.857142857143,3,2,0,61,0,0
142968,-125,3,2,0,63,0,0
144130,-111.111111111111,3,2,0,65,0,0
147323,-111.111111111111,3,2,0,5,0,0
147420,-111.111111111111,3,2,0,65,0,0
147904,-111.111111111111,3,2,0,5,0,0
148001,-111.111111111111,3,2,0,65,0,0
148678,-111.111111111111,3,2,0,5,0,0
148775,-111.111111111111,3,2,0,65,0,0
149646,-111.111111111111,3,2,0,5,0,0
149743,-111.111111111111,3,2,0,65,0,0
150227,-111.111111111111,3,2,0,5,0,0
150323,-111.111111111111,3,2,0,65,0,0
151097,-76.9230769230769,3,2,0,65,0,0
151388,-76.9230769230769,3,2,0,5,0,0
151485,-76.9230769230769,3,2,0,65,0,0
151581,-76.9230769230769,3,2,0,5,0,0
151678,-76.9230769230769,3,2,0,65,0,0
152162,-76.9230769230769,3,2,0,5,0,0
152259,-83.3333333333333,3,2,0,65,0,0
152549,-83.3333333333333,3,2,0,65,0,0
152646,-83.3333333333333,3,2,0,65,0,0
153420,-100,3,2,0,70,0,0
157194,-100,3,2,0,5,0,0
157291,-100,3,2,0,70,0,0
158065,-90.9090909090909,3,2,0,72,0,0
159033,-83.3333333333333,3,2,0,74,0,0
160194,-76.9230769230769,3,2,0,76,0,0
160678,-76.9230769230769,3,2,0,5,0,0
160775,-76.9230769230769,3,2,0,76,0,0
161356,-71.4285714285714,3,2,0,78,0,1
161694,-71.4285714285714,3,2,0,5,0,1
161743,-71.4285714285714,3,2,0,78,0,1
162033,-71.4285714285714,3,2,0,5,0,1
162130,-71.4285714285714,3,2,0,78,0,1
162420,-71.4285714285714,3,2,0,5,0,1
162517,-71.4285714285714,3,2,0,78,0,1
162710,-125,3,2,0,70,0,0
164743,-125,3,2,0,5,0,0
164839,-125,3,2,0,70,0,0
166678,-125,3,2,0,5,0,0
166775,-125,3,2,0,70,0,0
167065,-125,3,2,0,5,0,0
167162,-125,3,2,0,70,0,0
167646,-125,3,2,0,5,0,0
167743,-83.3333333333333,3,2,0,70,0,0
168807,-83.3333333333333,3,2,0,5,0,0
168904,-83.3333333333333,3,2,0,70,0,0
169194,-83.3333333333333,3,2,0,5,0,0
169291,-83.3333333333333,3,2,0,70,0,0
170839,-100,3,2,0,70,0,0
172001,-83.3333333333333,3,2,0,70,0,1
176646,-125,3,2,0,70,0,0
178678,-125,3,2,0,70,0,0
178775,-125,3,2,0,70,0,0
180614,-125,3,2,0,5,0,0
180710,-125,3,2,0,70,0,0
181581,-125,3,2,0,5,0,0
181678,-142.857142857143,3,2,0,70,0,0
182452,-125,3,2,0,70,0,0
183614,-105.263157894737,3,2,0,70,0,0
184001,-90.9090909090909,3,2,0,70,0,0
184388,-80,3,2,0,70,0,0
184775,-83.3333333333333,3,2,0,70,0,0
185936,-58.8235294117647,3,2,0,80,0,0
186323,-55.5555555555556,3,2,0,80,0,0
186710,-52.6315789473684,3,2,0,80,0,0
187097,-55.5555555555556,3,2,0,80,0,0
187485,-58.8235294117647,3,2,0,80,0,0
187872,-52.6315789473684,3,2,0,80,0,0
188259,-55.5555555555556,3,2,0,80,0,0
188646,-58.8235294117647,3,2,0,80,0,0
189033,-52.6315789473684,3,2,0,80,0,0
189420,-50,3,2,0,80,0,0
190194,-45.4545454545455,3,2,0,80,0,0
190581,-58.8235294117647,3,2,0,80,0,0
190968,-55.5555555555556,3,2,0,80,0,0
191356,-52.6315789473684,3,2,0,80,0,0
191743,-55.5555555555556,3,2,0,80,0,0
192130,-58.8235294117647,3,2,0,80,0,0
192517,-52.6315789473684,3,2,0,80,0,0
192904,-55.5555555555556,3,2,0,80,0,0
193291,-58.8235294117647,3,2,0,80,0,0
193678,-52.6315789473684,3,2,0,80,0,0
194065,-50,3,2,0,80,0,0
194839,-45.4545454545455,3,2,0,80,0,0
195227,-58.8235294117647,3,2,0,80,0,0
195614,-55.5555555555556,3,2,0,80,0,0
196001,-52.6315789473684,3,2,0,80,0,0
196388,-55.5555555555556,3,2,0,80,0,0
196775,-58.8235294117647,3,2,0,80,0,0
197162,-52.6315789473684,3,2,0,80,0,0
197549,-55.5555555555556,3,2,0,80,0,0
197936,-58.8235294117647,3,2,0,80,0,0
198323,-52.6315789473684,3,2,0,80,0,0
198710,-50,3,2,0,80,0,0
199485,-45.4545454545455,3,2,0,80,0,0
199872,-58.8235294117647,3,2,0,80,0,0
200259,-55.5555555555556,3,2,0,80,0,0
200646,-52.6315789473684,3,2,0,80,0,0
201033,-55.5555555555556,3,2,0,80,0,0
201420,-58.8235294117647,3,2,0,80,0,0
201807,-52.6315789473684,3,2,0,80,0,0
202194,-55.5555555555556,3,2,0,80,0,0
202581,-58.8235294117647,3,2,0,80,0,0
202968,-52.6315789473684,3,2,0,80,0,0
203356,-50,3,2,0,80,0,0
204130,-45.4545454545455,3,2,0,80,0,0
204517,-58.8235294117647,3,2,0,80,0,0
204904,-55.5555555555556,3,2,0,80,0,0
205291,-52.6315789473684,3,2,0,80,0,0
205678,-55.5555555555556,3,2,0,80,0,0
206065,-58.8235294117647,3,2,0,80,0,0
206452,-52.6315789473684,3,2,0,80,0,0
206839,-55.5555555555556,3,2,0,80,0,0
207227,-58.8235294117647,3,2,0,80,0,0
207614,-52.6315789473684,3,2,0,80,0,0
208001,-50,3,2,0,80,0,0
208775,-45.4545454545455,3,2,0,80,0,0
209162,-58.8235294117647,3,2,0,80,0,0
209549,-55.5555555555556,3,2,0,80,0,0
209936,-52.6315789473684,3,2,0,80,0,0
210323,-55.5555555555556,3,2,0,80,0,0
210710,-58.8235294117647,3,2,0,80,0,0
211097,-52.6315789473684,3,2,0,80,0,0
211485,-55.5555555555556,3,2,0,80,0,0
211872,-58.8235294117647,3,2,0,80,0,0
212259,-52.6315789473684,3,2,0,80,0,0
212646,-50,3,2,0,80,0,0
213420,-45.4545454545455,3,2,0,80,0,0
213807,-58.8235294117647,3,2,0,80,0,0
214194,-55.5555555555556,3,2,0,80,0,0
214581,-52.6315789473684,3,2,0,80,0,0
214968,-55.5555555555556,3,2,0,80,0,0
215356,-58.8235294117647,3,2,0,80,0,0
215743,-52.6315789473684,3,2,0,80,0,0
216130,-55.5555555555556,3,2,0,80,0,0
216517,-58.8235294117647,3,2,0,80,0,0
216904,-52.6315789473684,3,2,0,80,0,0
217291,-50,3,2,0,80,0,0
218065,-45.4545454545455,3,2,0,80,0,0
218452,-58.8235294117647,3,2,0,80,0,0
218839,-55.5555555555556,3,2,0,80,0,0
219227,-52.6315789473684,3,2,0,80,0,0
219614,-55.5555555555556,3,2,0,80,0,0
220001,-58.8235294117647,3,2,0,80,0,0
220388,-52.6315789473684,3,2,0,80,0,0
220775,-55.5555555555556,3,2,0,80,0,0
221162,-58.8235294117647,3,2,0,80,0,0
221549,-52.6315789473684,3,2,0,80,0,0
221936,-50,3,2,0,80,0,0
222904,364.741641337386,3,2,0,80,1,0
222904,-50,3,2,0,80,0,0
223147,387.096774193548,3,2,0,80,1,0
223147,-500,3,2,0,80,0,0
223921,-500,3,2,1,70,0,0
224695,-500,3,2,0,60,0,0
225469,-500,3,2,1,50,0,0
226243,-500,3,2,0,40,0,0
227017,-500,3,2,1,30,0,0
227792,-500,3,2,0,20,0,0
228566,-500,3,2,1,10,0,0
228953,-500,3,2,0,5,0,0

[Colours]
Combo1 : 128,255,128
Combo2 : 128,255,255
Combo3 : 255,128,64
Combo4 : 128,128,255

[HitObjects]
143,319,14067,6,0,P|129:267|73:212,1,114,2|0,3:0|1:0,0:0:0:0:
21,200,14454,2,0,P|81:200|114:181,2,76,0|0|0,3:0|1:0|3:0,0:0:0:0:
95,113,15035,1,0,1:0:0:0:
95,113,15228,1,0,3:0:0:0:
278,27,15519,1,0,1:0:0:0:
297,50,15615,2,0,P|245:60|213:54,2,76,0|0|0,3:0|1:0|3:0,0:0:0:0:
417,76,16196,1,0,1:0:0:0:
417,76,16390,1,2,3:0:0:0:
408,259,16680,1,0,1:0:0:0:
435,283,16777,2,0,P|439:250|429:195,2,76,0|0|0,3:0|1:0|3:0,0:0:0:0:
512,287,17357,1,0,1:0:0:0:
380,341,17551,6,0,P|319:346|225:371,2,152,0|0|0,3:0|3:0|3:0,0:0:0:0:
214,253,18712,6,0,P|146:250|95:214,1,114,2|0,3:0|1:0,0:0:0:0:
95,311,19099,2,0,P|133:266|167:257,2,76,0|0|0,3:0|1:0|3:0,0:0:0:0:
150,365,19680,1,0,1:0:0:0:
150,365,19873,1,0,3:0:0:0:
19,272,20164,1,0,1:0:0:0:
4,254,20261,2,0,P|0:197|23:155,2,76,0|0|0,3:0|1:0|3:0,0:0:0:0:
77,153,20841,1,0,1:0:0:0:
77,153,21035,1,2,3:0:0:0:
219,166,21325,1,0,1:0:0:0:
231,198,21422,2,0,L|142:189,2,76,0|0|0,3:0|1:0|3:0,0:0:0:0:
292,133,22002,1,0,1:0:0:0:
197,63,22196,6,0,B|225:33|286:35|349:90,2,152,0|0|0,3:0|3:0|3:0,0:0:0:0:
461,181,23357,6,0,L|442:46,1,128.249996086121,6|0,3:2|0:0,0:0:0:0:
389,10,23744,2,0,P|387:75|372:88,1,85.4999973907472,0|0,3:0|1:0,0:0:0:0:
251,166,24131,1,0,3:0:0:0:
362,124,24325,1,0,1:0:0:0:
424,239,24519,2,0,B|459:268|410:280|366:275|335:269,1,128.249996086121,0|0,3:0|0:0,0:0:0:0:
251,322,24906,2,0,P|300:305|348:313,1,85.4999973907472,0|0,3:0|1:0,0:0:0:0:
463,363,25293,1,0,3:0:0:0:
399,317,25486,1,0,1:0:0:0:
238,379,25680,2,0,B|255:339|230:304|205:320|204:256,1,128.249996086121,2|0,3:0|0:0,0:0:0:0:
246,188,26067,2,0,P|215:222|174:228,1,85.4999973907472,0|0,3:0|1:0,0:0:0:0:
66,185,26454,1,0,3:0:0:0:
132,103,26648,1,0,1:0:0:0:
18,17,26841,6,0,P|34:92|44:193,2,170.999994781494,0|0|0,3:0|3:0|3:0,0:0:0:0:
158,214,27906,5,0,1:0:0:0:
134,251,28002,2,0,P|147:234|170:301,1,128.249996086121,6|0,3:2|0:0,0:0:0:0:
176,353,28390,2,0,L|82:377,1,85.4999973907472,0|0,3:0|1:0,0:0:0:0:
4,301,28777,1,0,3:0:0:0:
102,340,28970,1,0,1:0:0:0:
181,229,29164,2,0,B|168:232|161:243|176:256|204:256|215:248|208:218|172:212|195:154,1,128.249996086121,0|0,3:0|0:0,0:0:0:0:
236,82,29551,2,0,P|193:103|173:139,1,85.4999973907472,0|0,3:0|1:0,0:0:0:0:
108,70,29938,1,0,3:0:0:0:
77,0,30131,1,0,1:0:0:0:
47,137,30325,2,0,B|82:148|116:147|145:123|204:139,1,128.249996086121,2|0,3:0|0:0,0:0:0:0:
247,155,30712,2,0,P|200:176|177:201,1,85.4999973907472,0|0,3:0|1:0,0:0:0:0:
161,325,31099,1,0,3:0:0:0:
250,345,31293,1,0,1:0:0:0:
380,349,31486,6,0,B|329:358|287:379|240:383|211:372,2,170.999994781494,0|0|0,3:0|3:0|3:0,0:0:0:0:
510,217,32551,1,0,1:0:0:0:
481,258,32648,6,0,P|482:218|387:145,1,142.5,2|0,3:0|0:0,0:0:0:0:
397,100,33035,1,0,3:0:0:0:
314,187,33228,2,0,L|324:253,1,47.5,0|0,1:0|0:0,0:0:0:0:
305,264,33422,1,0,3:0:0:0:
195,132,33615,1,0,1:0:0:0:
118,245,33809,2,0,L|129:389,1,142.5,2|0,3:0|0:0,0:0:0:0:
76,357,34196,1,0,3:0:0:0:
206,285,34390,2,0,P|192:323|190:350,1,47.5,0|0,1:0|0:0,0:0:0:0:
207,364,34583,1,0,3:0:0:0:
303,279,34777,1,0,1:0:0:0:
171,194,34970,2,0,B|139:212|80:204|77:198|74:195|41:189|13:206,1,142.5,2|0,3:0|0:0,0:0:0:0:
54,246,35357,1,0,3:0:0:0:
96,130,35551,2,0,L|106:192,1,47.5,0|0,1:0|0:0,0:0:0:0:
149,167,35744,1,0,3:0:0:0:
189,67,35938,1,0,1:0:0:0:
15,14,36131,6,0,B|68:59|125:15|135:14|75:22|80:73,1,142.5,4|0,3:2|0:0,0:0:0:0:
161,74,36519,2,0,P|199:52|293:101,1,142.5,0|0,3:0|0:0,0:0:0:0:
417,105,36906,2,0,P|369:121|373:206,1,142.5,0|0,3:0|0:0,0:0:0:0:
281,119,37293,6,0,B|245:134|247:206|289:200|276:258,1,142.5,6|0,3:2|0:0,0:0:0:0:
309,258,37680,1,0,3:0:0:0:
205,323,37873,2,0,P|234:341|247:362,1,47.5,0|0,1:0|0:0,0:0:0:0:
282,356,38067,1,0,3:0:0:0:
111,298,38261,1,0,1:0:0:0:
272,274,38454,2,0,P|325:287|408:250,1,142.5,4|0,3:2|0:0,0:0:0:0:
383,207,38841,1,0,3:0:0:0:
507,202,39035,2,0,L|492:253,1,47.5,0|0,1:0|0:0,0:0:0:0:
510,289,39228,1,0,3:0:0:0:
511,87,39422,1,0,1:0:0:0:
379,14,39615,1,6,3:2:0:0:
362,154,39809,2,0,P|349:126|276:81,1,95,0|0,1:0|3:0,0:0:0:0:
204,128,40196,1,0,1:0:0:0:
221,268,40390,1,0,3:0:0:0:
349,237,40583,1,0,1:0:0:0:
394,366,40777,6,0,B|323:355|315:354|251:361,1,142.5,0|0,3:0|3:0,0:0:0:0:
181,377,41164,2,0,P|212:363|226:343,1,47.5,0|0,3:0|3:0,0:0:0:0:
54,284,41454,1,0,3:0:0:0:
36,316,41551,2,0,P|34:283|21:261,1,47.5,0|0,3:0|3:0,0:0:0:0:
215,165,41938,6,0,P|108:177|67:186,1,132.999995941162,4|2,3:1|0:0,0:0:0:0:
74,105,42519,1,0,3:0:0:0:
6,33,42712,1,2,0:0:0:0:
230,77,43099,2,0,B|258:131|218:165|218:165|216:227|279:251,1,199.499993911743,2|0,1:2|3:0,0:0:0:0:
416,227,43873,1,0,0:0:0:0:
353,154,44067,1,2,3:2:0:0:
323,318,44261,5,2,3:2:0:0:
438,240,44454,1,2,0:0:0:0:
490,106,44648,2,0,P|481:167|534:247,1,132.999995941162,2|0,0:0|0:0,0:0:0:0:
506,350,45228,1,2,3:2:0:0:
326,344,45422,2,0,B|387:370|460:304|487:264|442:339|384:324,1,199.499993911743,2|0,1:2|3:0,0:0:0:0:
331,268,46196,1,0,0:0:0:0:
311,337,46390,1,2,3:2:0:0:
191,151,46583,5,2,3:2:0:0:
212,260,46777,1,2,0:0:0:0:
93,169,46970,2,0,P|119:216|157:232,1,66.4999979705811,2|0,0:0|3:0,0:0:0:0:
227,142,47357,1,2,0:0:0:0:
116,68,47551,1,2,3:2:0:0:
17,219,47744,2,0,P|29:267|27:307,1,66.4999979705811,2|0,1:2|0:0,0:0:0:0:
152,384,48131,2,0,P|161:324|212:293,1,99.7499969558717,2|0,0:0|0:0,0:0:0:0:
233,319,48519,1,2,0:0:0:0:
146,233,48712,1,2,3:2:0:0:
275,103,48906,5,2,3:2:0:0:
216,198,49099,1,0,0:0:0:0:
312,298,49293,2,0,P|347:293|384:299,1,66.4999979705811,2|2,0:2|3:2,0:0:0:0:
507,171,49680,2,0,B|470:172|454:193|445:253,1,99.7499969558717,2|0,0:0|0:0,0:0:0:0:
397,174,50067,6,0,L|412:213,1,33.2499989852906,0|0,1:0|0:0,0:0:0:0:
303,54,50454,2,0,L|298:99,1,33.2499989852906
484,26,50744,1,0,1:0:0:0:
506,3,50841,2,0,L|515:113,1,99.7499969558717,0|0,1:0|0:0,0:0:0:0:
409,152,51228,6,0,P|416:104|406:69,1,76,6|0,3:2|0:0,0:0:0:0:
236,24,51615,2,0,P|275:67|301:78,1,76,2|0,0:0|3:0,0:0:0:0:
193,158,52002,2,0,P|153:171|122:193,1,76,2|0,0:0|3:0,0:0:0:0:
38,44,52390,2,0,B|67:33|62:-20|-12:-17|-47:32|25:82|32:87|86:105|90:201|17:236,1,304,2|0,1:2|0:0,0:0:0:0:
101,314,53357,1,2,3:2:0:0:
202,376,53551,6,0,P|149:376|120:385,1,76,2|2,3:2|0:0,0:0:0:0:
279,245,53938,2,0,P|260:281|358:272,1,190,2|0,0:0|0:0,0:0:0:0:
369,269,54519,1,2,3:2:0:0:
288,151,54712,2,0,B|356:165|394:96|394:96|453:122|456:182,1,228,2|0,1:2|0:0,0:0:0:0:
476,70,55486,2,0,P|478:43|511:5,1,76,0|0,0:0|3:0,0:0:0:0:
236,123,55873,5,2,3:2:0:0:
259,46,56067,1,2,0:0:0:0:
98,179,56261,2,0,P|146:200|193:261,1,114,2|0,0:0|0:0,0:0:0:0:
194,276,56648,1,2,0:0:0:0:
273,198,56841,1,2,3:2:0:0:
407,222,57035,1,2,1:2:0:0:
282,250,57228,1,2,0:0:0:0:
221,378,57422,2,0,P|227:333|199:266,1,114,2|0,0:0|0:0,0:0:0:0:
161,294,57809,1,2,0:0:0:0:
49,248,58002,1,2,3:2:0:0:
167,148,58196,5,2,3:2:0:0:
105,74,58390,1,2,3:2:0:0:
234,5,58583,1,2,0:0:0:0:
175,74,58777,1,2,3:2:0:0:
315,73,58970,2,0,B|364:65|453:110|453:110,1,114,2|0,0:0|0:0,0:0:0:0:
506,156,59357,6,0,P|481:159|464:169,1,25.3333333333333,0|0,1:0|0:0,0:0:0:0:
236,270,59744,2,0,P|259:276|275:285,1,25.3333333333333,0|0,1:0|0:0,0:0:0:0:
500,380,60131,2,0,L|503:337,1,25.3333333333333,0|0,1:0|0:0,0:0:0:0:
402,191,60422,2,0,L|392:166,1,19,0|0,1:0|0:0,0:0:0:0:
395,213,60519,5,4,3:2:0:0:
6,364,61680,2,0,B|33:333|118:396|163:336,1,158.333333333333,0|0,1:0|0:0,0:0:0:0:
236,384,62445,1,0,3:0:0:0:
190,134,62712,2,0,L|195:160,2,15.8333333333333,0|0|2,1:0|1:0|3:0,0:0:0:0:
0,179,63228,1,2,3:0:0:0:
269,234,63849,1,2,3:0:0:0:
290,269,63972,2,0,P|285:242|293:196,1,63.3333333333333,0|0,1:0|0:0,0:0:0:0:
369,152,64376,2,0,P|365:184|381:218,1,63.3333333333333,0|0,3:0|0:0,0:0:0:0:
469,220,64780,2,0,P|436:231|418:246,1,47.5,0|0,1:0|3:0,0:0:0:0:
360,317,65184,6,0,L|356:291,1,15.8333333333333,2|0,3:0|0:0,0:0:0:0:
508,83,65803,2,0,L|513:55,1,15.8333333333333,2|0,3:0|0:0,0:0:0:0:
324,0,66315,2,0,B|329:45|279:95|311:163,1,158.333333333333,0|0,1:0|0:0,0:0:0:0:
16,116,67357,2,0,L|-8:127,2,15.8333333333333,0|0|2,1:0|1:0|3:0,0:0:0:0:
172,1,67873,1,2,3:0:0:0:
512,248,69808,5,4,3:2:0:0:
481,244,69905,1,0,3:0:0:0:
450,241,70001,1,0,3:0:0:0:
419,237,70098,1,0,3:0:0:0:
388,234,70195,2,0,L|366:176,1,61.7499971733095,4|0,3:0|3:0,0:0:0:0:
295,151,70388,1,0,1:0:0:0:
264,155,70485,1,0,3:0:0:0:
233,158,70582,1,4,3:0:0:0:
202,162,70679,1,0,3:0:0:0:
171,165,70776,1,0,1:0:0:0:
81,274,70969,6,0,P|52:256|15:255,1,56.9999982604981,4|0,3:0|3:0,0:0:0:0:
113,341,71163,2,0,P|96:310|65:291,1,56.9999982604981,0|0,3:0|3:0,0:0:0:0:
214,341,71356,2,0,P|192:359|180:384,1,56.9999982604981,4|0,3:0|3:0,0:0:0:0:
263,297,71550,2,0,P|235:302|211:318,1,56.9999982604981,0|0,1:0|3:0,0:0:0:0:
353,330,71743,2,0,P|343:356|345:384,1,56.9999982604981,4|0,3:0|3:0,0:0:0:0:
374,267,71937,1,0,1:0:0:0:
472,213,72130,5,4,3:0:0:0:
472,213,72227,1,0,3:0:0:0:
472,213,72324,1,0,3:0:0:0:
472,213,72421,1,0,3:0:0:0:
472,213,72517,1,4,3:0:0:0:
472,213,72614,1,0,3:0:0:0:
447,182,72711,2,0,L|375:164,1,56.9999982604981,0|0,1:0|3:0,0:0:0:0:
297,192,72905,1,4,3:0:0:0:
297,192,73001,1,0,3:0:0:0:
272,223,73098,1,0,1:0:0:0:
81,193,73292,6,0,P|97:169|102:133,1,47.5,4|0,3:0|3:0,0:0:0:0:
185,160,73485,2,0,P|186:131|173:97,1,47.5,0|0,3:0|3:0,0:0:0:0:
258,79,73679,2,0,P|245:53|216:30,1,47.5,4|0,3:0|3:0,0:0:0:0:
379,87,73872,2,0,P|356:80|337:66,1,47.5,0|0,3:0|3:0,0:0:0:0:
512,41,74066,5,0,1:0:0:0:
505,95,74163,1,0,1:0:0:0:
462,129,74259,1,0,1:0:0:0:
455,184,74356,1,0,1:0:0:0:
461,226,74453,5,4,3:0:0:0:
431,236,74550,1,0,3:0:0:0:
402,247,74647,1,0,3:0:0:0:
373,258,74743,1,0,3:0:0:0:
344,269,74840,2,0,L|298:227,1,61.7499971733095,4|0,3:0|3:0,0:0:0:0:
223,238,75034,1,0,1:0:0:0:
197,255,75130,1,0,3:0:0:0:
171,272,75227,1,4,3:0:0:0:
145,290,75324,1,0,3:0:0:0:
119,306,75421,1,0,1:0:0:0:
54,228,75614,6,0,P|19:229|-12:211,1,56.9999982604981,4|0,3:0|3:0,0:0:0:0:
115,187,75808,2,0,P|84:205|48:206,1,56.9999982604981,0|0,3:0|3:0,0:0:0:0:
205,228,76001,2,0,P|183:245|170:273,1,56.9999982604981,4|0,3:0|3:0,0:0:0:0:
253,183,76195,2,0,P|224:188|201:204,1,56.9999982604981,0|0,1:0|3:0,0:0:0:0:
344,217,76388,2,0,P|333:243|335:272,1,56.9999982604981,4|0,3:0|3:0,0:0:0:0:
365,154,76582,1,0,1:0:0:0:
287,39,76776,5,4,3:0:0:0:
247,62,76872,1,0,3:0:0:0:
200,68,76969,1,0,3:0:0:0:
154,55,77066,1,0,3:0:0:0:
107,47,77163,1,4,3:0:0:0:
62,61,77259,1,0,3:0:0:0:
32,96,77356,1,0,3:0:0:0:
32,142,77453,1,0,3:0:0:0:
52,184,77550,2,0,P|54:140|76:100,1,66.4999979705811,4|0,3:0|3:0,0:0:0:0:
10,297,77743,2,0,P|8:253|-14:213,1,66.4999979705811,0|0,3:0|3:0,0:0:0:0:
75,348,77937,5,0,1:0:0:0:
174,305,78130,1,0,1:0:0:0:
174,305,78227,2,0,L|184:254,1,52.2500015945435,0|4,1:0|3:0,0:0:0:0:
259,384,78421,1,0,3:0:0:0:
259,384,78517,2,0,L|248:333,1,47.5,0|0,1:0|3:0,0:0:0:0:
390,332,78711,5,0,1:0:0:0:
406,280,78808,1,0,1:0:0:0:
454,254,78905,1,0,1:0:0:0:
470,201,79001,1,0,1:0:0:0:
433,176,79098,5,4,3:2:0:0:
402,169,79195,1,0,3:0:0:0:
371,164,79292,1,0,3:0:0:0:
340,159,79388,1,0,3:0:0:0:
310,154,79485,2,0,L|291:94,1,61.7499971733095,4|0,3:0|3:0,0:0:0:0:
220,67,79679,1,0,1:0:0:0:
189,69,79776,1,0,3:0:0:0:
158,70,79872,1,4,3:0:0:0:
127,73,79969,1,0,3:0:0:0:
96,74,80066,1,0,1:0:0:0:
156,222,80259,6,0,P|122:211|87:221,1,56.9999982604981,4|0,3:0|3:0,0:0:0:0:
204,277,80453,2,0,P|178:251|144:241,1,56.9999982604981,0|0,3:0|3:0,0:0:0:0:
301,261,80646,2,0,P|284:238|279:211,1,56.9999982604981,4|0,3:0|3:0,0:0:0:0:
336,316,80840,2,0,P|309:303|291:282,1,56.9999982604981,0|0,1:0|3:0,0:0:0:0:
433,307,81034,2,0,P|429:279|438:253,1,56.9999982604981,4|0,3:0|3:0,0:0:0:0:
437,373,81227,1,0,1:0:0:0:
368,195,81421,5,4,3:0:0:0:
368,195,81517,1,0,3:0:0:0:
368,195,81614,1,0,3:0:0:0:
368,195,81711,1,0,3:0:0:0:
368,195,81808,1,4,3:0:0:0:
368,195,81905,1,0,3:0:0:0:
330,209,82001,2,0,L|258:188,1,56.9999982604981,0|0,1:0|3:0,0:0:0:0:
224,66,82195,1,4,3:0:0:0:
224,66,82292,1,0,3:0:0:0:
218,105,82388,1,0,1:0:0:0:
51,171,82582,6,0,P|73:151|107:140,1,47.5,4|0,3:0|3:0,0:0:0:0:
91,273,82776,2,0,P|99:245|123:218,1,47.5,0|0,3:0|3:0,0:0:0:0:
223,271,82969,2,0,P|243:284|266:290,1,47.5,4|0,3:0|3:0,0:0:0:0:
308,358,83163,2,0,P|337:350|373:358,1,47.5,0|0,3:0|3:0,0:0:0:0:
512,279,83356,5,0,1:0:0:0:
496,227,83453,1,0,1:0:0:0:
448,201,83550,1,0,1:0:0:0:
432,148,83646,1,0,1:0:0:0:
448,107,83743,5,4,3:0:0:0:
417,114,83840,1,0,3:0:0:0:
386,119,83937,1,0,3:0:0:0:
355,124,84034,1,0,3:0:0:0:
325,129,84130,2,0,L|306:189,1,61.7499971733095,4|0,3:0|3:0,0:0:0:0:
235,216,84324,1,0,1:0:0:0:
204,214,84421,1,0,3:0:0:0:
173,213,84517,1,4,3:0:0:0:
142,210,84614,1,0,3:0:0:0:
111,209,84711,1,0,1:0:0:0:
147,41,84905,6,0,P|123:16|88:5,1,56.9999982604981,4|0,3:0|3:0,0:0:0:0:
160,114,85098,2,0,P|151:79|126:53,1,56.9999982604981,0|0,3:0|3:0,0:0:0:0:
289,42,85292,2,0,P|263:53|245:74,1,56.9999982604981,4|0,3:0|3:0,0:0:0:0:
347,12,85485,2,0,P|318:9|291:18,1,56.9999982604981,0|0,1:0|3:0,0:0:0:0:
428,132,85679,2,0,P|410:109|385:97,1,56.9999982604981,4|0,3:0|3:0,0:0:0:0:
471,180,85872,1,0,1:0:0:0:
356,255,86066,5,4,3:0:0:0:
356,255,86163,1,0,3:0:0:0:
356,255,86259,1,0,3:0:0:0:
356,255,86356,1,0,3:0:0:0:
356,255,86453,1,4,3:0:0:0:
356,255,86550,1,0,3:0:0:0:
318,241,86646,2,0,L|246:262,1,47.5,0|0,3:0|3:0,0:0:0:0:
233,322,86840,2,0,L|305:343,2,47.5,4|0|0,3:0|3:0|3:0,0:0:0:0:
109,384,87227,6,0,P|79:325|-14:293,1,152,0|4,1:0|3:0,0:0:0:0:
147,111,88001,1,4,3:0:0:0:
78,13,88388,6,0,B|119:14|119:68|226:34,1,132.999995941162,4|2,3:1|0:0,0:0:0:0:
296,15,88969,1,0,3:0:0:0:
274,103,89163,1,2,0:0:0:0:
507,173,89550,2,0,B|463:128|492:61|492:61|464:103|410:88,1,199.499993911743,2|0,1:2|3:0,0:0:0:0:
353,154,90324,1,0,0:0:0:0:
371,238,90517,1,2,3:2:0:0:
277,365,90711,5,2,3:2:0:0:
379,310,90905,1,2,0:0:0:0:
504,378,91098,2,0,B|513:360|510:339|494:348|476:357|477:389|397:375,1,132.999995941162,2|0,0:0|0:0,0:0:0:0:
346,305,91679,1,2,3:2:0:0:
241,284,91872,2,0,P|68:320|44:324,1,199.499993911743,2|0,1:2|3:0,0:0:0:0:
21,244,92646,1,0,0:0:0:0:
119,270,92840,1,2,3:2:0:0:
221,110,93034,5,2,3:2:0:0:
240,20,93227,1,2,0:0:0:0:
151,141,93421,2,0,P|158:192|126:278,1,132.999995941162,2|0,0:0|0:0,0:0:0:0:
235,256,94001,1,2,3:2:0:0:
361,193,94195,2,0,P|321:198|290:209,1,66.4999979705811,2|0,1:2|0:0,0:0:0:0:
158,123,94582,2,0,P|202:118|230:124,1,66.4999979705811,2|2,0:0|3:2,0:0:0:0:
354,87,94969,1,2,0:0:0:0:
409,18,95163,1,2,3:2:0:0:
510,221,95356,6,0,P|504:189|520:146,1,66.4999979705811,2|0,3:2|0:0,0:0:0:0:
354,87,95743,2,0,P|388:63|395:34,1,66.4999979705811,2|0,0:2|3:0,0:0:0:0:
240,71,96130,2,0,P|237:108|253:147,1,66.4999979705811,2|0,0:0|3:0,0:0:0:0:
356,314,96517,6,0,P|329:295|196:311,1,142.5,0|0,1:0|0:0,0:0:0:0:
284,231,96905,2,0,P|238:270|180:295,1,95,2|0,0:0|0:0,0:0:0:0:
191,355,97163,1,0,1:0:0:0:
191,355,97227,1,0,1:0:0:0:
191,355,97292,1,0,1:0:0:0:
31,97,97679,6,0,P|35:142|18:177,1,76,6|0,3:2|0:0,0:0:0:0:
120,229,98066,1,2,0:0:0:0:
73,306,98259,2,0,P|76:230|47:125,1,152,2|0,3:2|3:0,0:0:0:0:
140,99,98840,2,0,B|165:73|220:76|261:109|238:193|223:279|236:287|271:292,1,266,2|0,1:2|0:0,0:0:0:0:
288,272,99614,1,0,1:0:0:0:
411,260,99808,1,2,3:2:0:0:
512,384,100001,5,2,3:2:0:0:
391,349,100195,1,2,0:0:0:0:
490,162,100388,2,0,P|485:210|502:333,1,152,2|0,0:0|0:0,0:0:0:0:
380,371,100969,1,2,3:2:0:0:
314,215,101163,2,0,L|303:132,1,76,2|0,1:2|1:0,0:0:0:0:
327,106,101453,1,0,1:0:0:0:
346,95,101550,1,0,3:0:0:0:
239,36,101743,1,0,3:0:0:0:
511,11,101937,1,0,1:0:0:0:
433,67,102130,2,0,P|422:97|428:125,1,38,2|0,3:2|1:0,0:0:0:0:
280,147,102324,5,2,3:2:0:0:
302,42,102517,1,2,0:0:0:0:
169,0,102711,2,0,P|253:7|336:4,1,152,2|0,0:0|0:0,0:0:0:0:
432,0,103292,1,2,3:2:0:0:
315,140,103485,1,2,1:2:0:0:
394,202,103679,1,0,0:0:0:0:
215,223,103872,2,0,P|158:237|105:279,1,114,2|0,0:0|0:0,0:0:0:0:
72,270,104259,1,2,0:0:0:0:
7,384,104453,1,0,3:0:0:0:
224,370,104646,5,2,3:2:0:0:
189,302,104840,1,2,0:0:0:0:
99,190,105034,1,2,0:0:0:0:
130,131,105227,1,2,3:2:0:0:
4,69,105421,2,0,P|60:93|128:95,1,114,2|0,0:0|0:0,0:0:0:0:
130,12,105808,6,0,L|136:60,1,25.3333333333333,0|0,1:2|0:0,0:0:0:0:
379,141,106195,2,0,L|363:183,1,25.3333333333333,0|0,1:0|0:0,0:0:0:0:
74,291,106582,2,0,L|117:283,1,25.3333333333333,0|0,1:0|0:0,0:0:0:0:
251,360,106872,2,0,L|234:340,1,19,0|0,1:0|0:0,0:0:0:0:
222,310,106969,5,4,3:2:0:0:
245,60,108001,1,0,3:0:0:0:
306,102,108130,2,0,B|310:112|307:134|307:134|339:98|293:66|316:6,1,158.333333333333,0|0,1:0|0:0,0:0:0:0:
483,108,109122,1,0,1:0:0:0:
459,103,109194,1,0,1:0:0:0:
435,99,109267,1,2,3:0:0:0:
508,322,109664,1,2,3:0:0:0:
181,68,110321,1,2,3:0:0:0:
114,136,110453,6,0,B|88:126|111:50|111:50,1,75.9999976806641,0|0,1:0|0:0,0:0:0:0:
67,1,110840,1,0,3:0:0:0:
275,52,111098,1,0,3:0:0:0:
285,121,111227,2,0,P|280:156|277:210,1,77.0133359656251,0|0,1:0|3:0,0:0:0:0:
215,290,111624,6,0,P|203:245|179:212,1,76,2|0,3:0|0:0,0:0:0:0:
61,298,112195,2,0,P|101:307|134:336,1,76,2|0,3:0|0:0,0:0:0:0:
6,229,112776,1,0,1:0:0:0:
188,114,113153,1,0,3:0:0:0:
176,203,113404,1,2,3:0:0:0:
7,5,113782,1,0,1:0:0:0:
8,23,113843,1,0,1:0:0:0:
9,42,113905,1,2,3:0:0:0:
366,102,114340,1,2,3:0:0:0:
352,348,115872,5,0,1:0:0:0:
333,320,116001,1,0,1:0:0:0:
358,285,116130,1,0,1:0:0:0:
343,235,116259,5,6,3:2:0:0:
97,268,116517,1,0,3:0:0:0:
97,217,116646,2,0,P|150:148|287:117,1,202.666666666667,2|0,3:0|3:0,0:0:0:0:
361,141,117033,2,0,P|274:129|179:26,1,215.333337440491,2|0,3:0|3:0,0:0:0:0:
92,82,117420,5,2,1:2:0:0:
190,371,117678,1,0,3:0:0:0:
143,374,117807,2,0,P|213:303|230:205,1,190.000007247925,2|0,3:0|0:0,0:0:0:0:
257,113,118194,2,0,P|201:208|102:254,1,215.333337440491,2|0,3:0|0:0,0:0:0:0:
48,333,118581,5,2,3:2:0:0:
311,298,118839,1,0,3:0:0:0:
350,324,118968,2,0,P|342:273|475:200,1,190.000007247925,2|0,3:0|3:0,0:0:0:0:
495,100,119356,2,0,P|416:168|316:137,1,215.333337440491,2|0,3:0|3:0,0:0:0:0:
308,24,119743,5,2,1:2:0:0:
175,132,120130,1,2,3:0:0:0:
343,321,120517,1,2,3:0:0:0:
231,260,120775,1,0,3:0:0:0:
210,302,120904,5,6,3:2:0:0:
261,119,121162,1,0,3:0:0:0:
296,154,121291,2,0,P|352:166|363:49,1,202.666666666667,2|0,3:0|3:0,0:0:0:0:
464,0,121678,2,0,P|416:126|438:220,1,215.333337440491,2|0,3:0|3:0,0:0:0:0:
371,285,122065,5,2,1:2:0:0:
193,383,122323,1,0,3:0:0:0:
148,365,122452,2,0,P|118:273|17:216,1,190.000007247925,2|0,3:0|0:0,0:0:0:0:
0,123,122839,2,0,P|68:202|163:148,1,215.333337440491,2|0,3:0|0:0,0:0:0:0:
255,142,123227,5,2,3:2:0:0:
110,0,123485,1,0,3:0:0:0:
156,10,123614,2,0,P|256:2|327:83,1,190.000007247925,2|0,3:0|3:0,0:0:0:0:
421,27,124001,2,0,P|323:97|278:190,1,215.333337440491,2|0,3:0|3:0,0:0:0:0:
348,272,124388,5,2,1:2:0:0:
195,296,124646,1,0,1:0:0:0:
195,296,124775,1,0,3:0:0:0:
160,250,124904,1,0,1:0:0:0:
125,204,125033,1,0,1:0:0:0:
69,190,125162,1,0,1:0:0:0:
77,133,125291,1,0,1:0:0:0:
45,85,125420,1,0,1:0:0:0:
93,65,125549,6,0,B|127:16|223:15|272:142|202:225,1,285,4|2,3:2|0:3,0:0:0:0:
269,285,127485,2,0,L|236:381,1,95,2|2,0:3|0:3,0:0:0:0:
380,343,128259,1,0,0:0:0:0:
380,343,128452,1,0,0:0:0:0:
363,273,128646,2,0,L|401:222,1,47.5,2|0,0:3|0:0,0:0:0:0:
307,168,129033,1,2,0:3:0:0:
443,119,129420,1,2,0:3:0:0:
443,119,129614,1,0,0:0:0:0:
376,93,129807,2,0,L|440:99,1,47.5,2|0,0:3|0:0,0:0:0:0:
350,19,130194,1,2,0:3:0:0:
247,117,130581,1,0,0:0:0:0:
149,220,130968,1,0,0:0:0:0:
290,200,131356,1,2,0:3:0:0:
208,317,131743,1,0,0:0:0:0:
230,303,131936,1,0,0:0:0:0:
158,368,132130,2,0,L|170:303,1,47.5,2|0,0:3|0:0,0:0:0:0:
132,258,132517,1,2,0:3:0:0:
7,187,132904,1,0,0:0:0:0:
30,160,133097,1,0,0:0:0:0:
119,218,133291,2,0,L|180:200,1,47.5,2|0,0:3|0:0,0:0:0:0:
225,60,133678,5,0,1:0:0:0:
332,113,133968,1,0,1:0:0:0:
332,113,134065,1,0,1:0:0:0:
424,78,134259,2,0,L|437:116,1,23.75,0|0,3:0|3:0,0:0:0:0:
485,108,134452,1,0,1:0:0:0:
485,108,134549,2,0,L|521:127,1,23.75,0|0,1:0|3:0,0:0:0:0:
447,210,134839,6,0,P|428:203|410:202,1,38,2|0,3:2|0:0,0:0:0:0:
346,242,136001,2,0,P|305:245|272:265,1,76,2|0,3:2|0:0,0:0:0:0:
305,372,137162,2,0,P|265:352|208:393,1,113.999996520996,2|0,3:2|0:0,0:0:0:0:
72,322,138323,2,0,P|84:305|89:284,1,38,2|0,3:2|0:0,0:0:0:0:
157,256,138710,2,0,P|155:216|121:179,1,76,2|0,0:0|0:0,0:0:0:0:
0,53,139485,6,0,B|45:21|100:49|85:58|135:89|188:61,1,190,6|0,3:2|0:0,0:0:0:0:
399,0,140646,2,0,P|366:44|447:185,1,227.999993041992,2|0,3:2|0:0,0:0:0:0:
236,360,141807,2,0,B|289:325|300:238|185:196|280:89,1,265.999991882324,2|0,3:2|0:0,0:0:0:0:
70,349,142968,2,0,P|41:239|-36:145,1,228,2|0,3:2|0:0,0:0:0:0:
123,36,143743,2,0,P|103:77|118:119,1,76,2|0,0:0|0:0,0:0:0:0:
305,246,144130,6,0,B|278:202|197:234|212:282|147:268,1,170.999994781494,4|2,3:1|0:0,0:0:0:0:
189,342,144710,1,0,3:0:0:0:
266,384,144904,1,2,0:0:0:0:
276,40,145291,2,0,P|248:90|341:49,1,256.499992172241,2|0,1:2|3:0,0:0:0:0:
424,9,146065,1,0,0:0:0:0:
503,46,146259,1,2,3:2:0:0:
414,223,146452,5,2,3:2:0:0:
349,116,146646,1,2,0:0:0:0:
218,336,146839,2,0,B|281:308|321:348|357:372|392:344|309:375|321:308,1,170.999994781494,2|0,0:0|0:0,0:0:0:0:
220,256,147420,1,2,3:2:0:0:
36,361,147614,2,0,P|24:289|-13:195,1,170.999994781494,2|2,1:2|0:0,0:0:0:0:
163,178,148194,2,0,B|193:155|251:195|329:215,1,170.999994781494,2|0,3:2|0:0,0:0:0:0:
305,5,148775,5,2,3:2:0:0:
334,128,148968,1,2,0:0:0:0:
160,51,149162,2,0,B|175:84|228:94|310:21,1,170.999994781494,2|0,0:0|0:0,0:0:0:0:
409,48,149743,1,2,3:2:0:0:
235,99,149936,2,0,P|200:129|198:264,1,170.999994781494,2|2,1:2|0:0,0:0:0:0:
371,223,150517,2,0,B|364:277|400:343|382:388|359:366|360:314,1,170.999994781494,2|0,3:2|3:0,0:0:0:0:
114,355,151097,6,0,P|197:353|256:250,1,185.249991519928,2|0,3:2|0:0,0:0:0:0:
168,288,151485,2,0,P|135:316|120:338,1,61.7499971733095,2|0,0:2|0:0,0:0:0:0:
88,229,151678,2,0,B|86:118|10:76|10:76|-10:127|0:162,1,246.999988693238,2|0,3:2|0:0,0:0:0:0:
146,55,152259,6,0,P|163:80|221:-7,1,170.999994781494,0|0,1:0|0:0,0:0:0:0:
215,123,152646,2,0,P|260:98|337:103,1,113.999996520996,0|0,3:0|0:0,0:0:0:0:
365,76,152904,2,0,L|350:33,1,37.9999988403321,0|0,1:0|1:0,0:0:0:0:
380,98,153033,1,0,1:0:0:0:
352,203,153227,1,2,3:2:0:0:
179,266,153420,6,0,P|187:343|170:378,1,95,6|0,3:2|0:0,0:0:0:0:
95,336,153807,1,2,0:0:0:0:
22,368,154001,1,0,3:0:0:0:
138,187,154194,2,0,P|141:235|168:279,1,95,2|0,0:0|3:0,0:0:0:0:
341,76,154581,2,0,B|312:52|275:68|229:91|250:165|279:173|284:175|291:178|317:188|337:255|304:280,1,285,2|0,1:2|0:0,0:0:0:0:
394,189,155356,1,0,0:0:0:0:
432,253,155549,1,0,3:0:0:0:
223,312,155743,5,2,3:2:0:0:
385,354,155936,1,0,0:0:0:0:
284,207,156130,2,0,P|230:206|224:330,1,190,2|0,0:0|0:0,0:0:0:0:
332,264,156710,1,2,3:2:0:0:
181,199,156904,2,0,P|194:176|190:98,1,95,2|0,1:2|0:0,0:0:0:0:
115,57,157291,1,2,0:0:0:0:
396,18,157485,2,0,P|301:6|206:6,1,190,0|0,3:0|3:0,0:0:0:0:
104,150,158065,5,2,3:2:0:0:
124,70,158259,1,0,0:0:0:0:
288,235,158452,2,0,P|304:188|338:124,1,104.500003189087,2|0,1:2|0:0,0:0:0:0:
138,381,158839,2,0,P|117:336|95:267,1,104.500003189087,2|2,1:2|3:2,0:0:0:0:
76,268,159130,1,0,3:0:0:0:
76,268,159227,5,0,3:0:0:0:
2,222,159420,1,0,0:0:0:0:
250,299,159614,2,0,B|308:317|315:266|377:301,1,113.999996520996,2|0,1:2|0:0,0:0:0:0:
187,76,160001,2,0,B|215:129|256:98|275:167,1,113.999996520996,2|2,1:2|3:2,0:0:0:0:
303,162,160291,1,0,3:0:0:0:
303,162,160388,5,0,3:0:0:0:
336,88,160581,1,0,0:0:0:0:
487,219,160775,2,0,P|481:312|444:366,1,123.499994346619,2|0,1:2|0:0,0:0:0:0:
435,8,161162,1,2,1:2:0:0:
215,204,161356,6,0,B|158:196|150:136|167:109|220:66|291:130,1,232.749992897034,2|0,3:2|0:0,0:0:0:0:
303,126,161743,1,0,0:0:0:0:
162,29,161936,2,0,P|110:32|81:13,1,66.4999979705811,0|0,1:0|0:0,0:0:0:0:
67,26,162130,1,0,0:0:0:0:
8,209,162323,2,0,P|16:186|59:173,1,66.4999979705811,0|0,1:0|0:0,0:0:0:0:
80,155,162517,1,0,3:0:0:0:
149,254,162710,6,0,B|107:274|76:320|96:378|96:378|57:353|17:375,1,228,4|0,3:1|3:0,0:0:0:0:
193,323,163485,2,0,P|246:324|288:353,1,76,2|0,2:0|3:0,0:0:0:0:
404,220,163872,1,2,1:2:0:0:
372,348,164065,1,2,3:2:0:0:
281,99,164452,2,0,P|274:42|245:-15,1,114,2|0,1:2|0:0,0:0:0:0:
201,0,164839,1,2,3:2:0:0:
95,180,165033,2,0,B|124:119|219:109|234:204|317:166,1,228,2|0,3:2|0:0,0:0:0:0:
470,87,165807,2,0,P|447:112|441:184,1,76,2|0,2:0|3:0,0:0:0:0:
362,363,166194,5,2,1:2:0:0:
227,229,166388,2,0,P|231:282|202:346,1,114,2|0,3:2|0:0,0:0:0:0:
233,380,166775,1,2,1:2:0:0:
35,68,167162,1,2,3:2:0:0:
130,162,167356,2,0,B|120:219|138:269|137:254|144:238|116:218|100:223,1,114,2|0,3:2|0:0,0:0:0:0:
45,203,167743,6,0,P|75:255|82:316,1,113.999996520996,2|0,1:2|0:0,0:0:0:0:
266,107,168130,2,0,P|219:145|192:200,1,113.999996520996,2|0,1:2|0:0,0:0:0:0:
189,244,168420,1,0,0:0:0:0:
198,278,168517,2,0,B|226:241|265:237|293:289|358:223,1,170.999994781494,2|0,3:2|0:0,0:0:0:0:
405,151,168904,6,0,P|394:202|387:274,1,113.999996520996,2|0,1:2|0:0,0:0:0:0:
500,23,169291,2,0,P|502:75|514:146,1,113.999996520996,2|2,1:2|3:2,0:0:0:0:
487,177,169581,1,0,1:0:0:0:
496,220,169678,2,0,P|450:207|406:150,1,113.999996520996,2|0,1:2|0:0,0:0:0:0:
314,2,170065,6,0,B|335:61|294:61|327:133,1,113.999996520996,0|0,1:0|0:0,0:0:0:0:
167,67,170452,2,0,B|131:118|171:129|120:190,1,113.999996520996,0|0,1:0|0:0,0:0:0:0:
85,151,170743,1,0,3:0:0:0:
31,137,170839,5,2,3:2:0:0:
158,19,171033,1,2,3:2:0:0:
335,169,171227,2,0,P|280:160|206:187,1,95,2|0,1:2|3:0,0:0:0:0:
71,253,171614,1,2,1:2:0:0:
104,251,171710,1,0,1:0:0:0:
132,267,171807,1,0,1:0:0:0:
149,296,171904,1,0,0:0:0:0:
160,327,172001,6,0,P|203:320|232:332,1,56.9999982604981,2|0,1:2|0:0,0:0:0:0:
280,327,172194,2,0,P|257:309|230:302,1,56.9999982604981,0|0,3:0|0:0,0:0:0:0:
218,255,172388,2,0,P|251:227|282:223,1,56.9999982604981,0|0,1:0|0:0,0:0:0:0:
321,194,172581,2,0,P|292:190|265:197,1,56.9999982604981,2|0,3:2|0:0,0:0:0:0:
245,158,172775,1,0,1:0:0:0:
241,123,172872,1,0,0:0:0:0:
217,91,172968,1,2,0:0:0:0:
220,57,173065,1,0,0:0:0:0:
201,12,173162,2,0,P|205:46|200:73,1,56.9999982604981,2|0,1:2|0:0,0:0:0:0:
160,123,173356,2,0,P|156:94|160:66,1,56.9999982604981,2|0,3:2|0:0,0:0:0:0:
105,67,173549,2,0,P|125:94|134:120,1,56.9999982604981,0|0,1:0|0:0,0:0:0:0:
124,183,173743,2,0,P|106:160|96:134,1,56.9999982604981,2|0,3:2|0:0,0:0:0:0:
37,137,173936,1,0,1:0:0:0:
55,164,174033,1,0,0:0:0:0:
44,200,174130,1,2,0:0:0:0:
46,232,174227,1,0,0:0:0:0:
29,255,174323,2,0,P|32:308|31:331,1,56.9999982604981,2|0,1:2|0:0,0:0:0:0:
50,375,174517,2,0,P|56:347|61:319,1,56.9999982604981,2|0,3:2|0:0,0:0:0:0:
102,273,174710,2,0,P|119:323|124:345,1,56.9999982604981,2|0,1:2|0:0,0:0:0:0:
155,382,174904,2,0,P|154:353|151:325,1,56.9999982604981,2|0,3:2|0:0,0:0:0:0:
193,298,175097,1,0,1:0:0:0:
225,309,175194,1,0,0:0:0:0:
254,336,175291,1,0,0:0:0:0:
287,332,175388,1,0,0:0:0:0:
326,324,175485,2,0,L|376:286,1,56.9999982604981,2|0,1:2|0:0,0:0:0:0:
441,285,175678,2,0,L|387:305,1,56.9999982604981,2|0,3:2|0:0,0:0:0:0:
391,350,175872,2,0,L|454:348,1,56.9999982604981,0|0,1:0|0:0,0:0:0:0:
507,384,176065,2,0,L|451:370,1,56.9999982604981,2|0,3:2|0:0,0:0:0:0:
470,324,176259,1,0,1:0:0:0:
471,289,176356,1,0,0:0:0:0:
496,261,176452,1,2,3:2:0:0:
495,226,176549,1,0,1:0:0:0:
450,172,176646,6,0,B|445:90|377:28|377:28|397:60|387:98,1,228,4|0,3:1|3:0,0:0:0:0:
278,147,177420,2,0,P|275:110|250:83,1,76,2|0,0:0|3:0,0:0:0:0:
161,100,177807,1,2,1:2:0:0:
268,48,178001,1,2,3:2:0:0:
46,289,178388,2,0,P|41:223|15:182,1,114,2|0,1:2|0:0,0:0:0:0:
29,136,178775,1,2,3:2:0:0:
157,232,178968,2,0,B|113:296|132:384|144:421|154:397|160:357|149:326,1,228,2|0,3:2|0:0,0:0:0:0:
294,313,179743,2,0,P|250:304|208:304,1,76,2|0,0:0|3:0,0:0:0:0:
443,371,180130,5,2,1:2:0:0:
352,176,180323,2,0,B|396:202|402:148|475:171,1,114,2|0,3:2|0:0,0:0:0:0:
492,205,180710,1,2,1:2:0:0:
230,22,181097,1,2,3:2:0:0:
332,68,181291,2,0,P|390:47|455:53,1,114,2|0,3:2|0:0,0:0:0:0:
487,27,181678,6,0,P|483:82|489:115,1,66.4999979705811
330,99,182065,2,0,P|340:153|354:183,1,66.4999979705811,2|0,3:2|0:0,0:0:0:0:
496,319,182452,6,0,P|462:303|413:306,1,76,2|0,3:2|0:0,0:0:0:0:
317,224,182839,2,0,P|279:227|238:254,1,76,2|0,3:2|0:0,0:0:0:0:
114,231,183227,2,0,P|83:252|61:296,1,76,2|0,3:2|0:0,0:0:0:0:
184,380,183614,6,0,P|179:316|167:262,1,90.2499975900651,2|0,1:2|0:0,0:0:0:0:
420,276,184001,2,0,P|426:194|446:138,1,104.500003189087,0|0,1:0|0:0,0:0:0:0:
172,22,184388,2,0,P|187:95|167:162,1,118.75,0|0,1:0|0:0,0:0:0:0:
35,68,184775,5,2,1:2:0:0:
146,20,184968,1,2,0:0:0:0:
352,131,185162,2,0,P|295:136|233:181,1,113.999996520996,0|0,1:0|0:0,0:0:0:0:
0,309,185549,2,0,P|66:286|130:310,1,113.999996520996,2|0,1:2|0:0,0:0:0:0:
323,384,185936,5,6,3:2:0:0:
505,270,186194,1,0,3:0:0:0:
459,236,186323,2,0,P|364:198|238:198,1,227.999993041992,2|0,3:0|3:0,0:0:0:0:
142,268,186710,2,0,P|192:233|128:76,1,240.666660240174,2|0,3:0|3:0,0:0:0:0:
186,4,187097,5,2,1:2:0:0:
395,92,187356,1,0,3:0:0:0:
349,63,187485,2,0,P|362:108|515:99,1,215.333337440491,2|0,3:0|0:0,0:0:0:0:
433,18,187872,2,0,P|439:147|491:263,1,240.666660240174,2|0,3:0|0:0,0:0:0:0:
451,359,188259,5,2,3:2:0:0:
224,329,188517,1,0,3:0:0:0:
274,310,188646,2,0,P|113:275|50:234,1,215.333337440491,2|0,3:0|3:0,0:0:0:0:
18,141,189033,2,0,P|69:221|171:140,1,240.666660240174,2|0,3:0|3:0,0:0:0:0:
293,190,189420,5,2,1:2:0:0:
350,8,189807,1,2,3:0:0:0:
397,282,190194,1,2,3:0:0:0:
267,334,190452,1,0,3:0:0:0:
276,281,190581,5,6,3:2:0:0:
197,80,190839,1,0,3:0:0:0:
149,48,190968,2,0,P|156:94|78:249,1,227.999993041992,2|0,3:0|3:0,0:0:0:0:
219,219,191356,2,0,P|123:242|147:377,1,240.666660240174,2|0,3:0|3:0,0:0:0:0:
241,345,191743,5,2,1:2:0:0:
397,179,192001,1,0,3:0:0:0:
360,218,192130,2,0,B|390:184|376:51|184:40,1,215.333337440491,2|0,3:0|0:0,0:0:0:0:
171,133,192517,2,0,P|235:75|130:-7,1,240.666660240174,2|0,3:0|0:0,0:0:0:0:
68,66,192904,5,2,3:2:0:0:
138,282,193162,1,0,3:0:0:0:
117,331,193291,2,0,P|174:287|395:297,1,215.333337440491,2|0,3:0|3:0,0:0:0:0:
418,206,193678,2,0,B|366:184|299:217|293:304|340:368,1,240.666660240174,2|0,3:0|3:0,0:0:0:0:
462,383,194065,5,2,1:2:0:0:
512,137,194323,1,0,1:0:0:0:
512,137,194452,1,0,3:0:0:0:
456,124,194581,1,0,1:0:0:0:
400,112,194710,1,0,1:0:0:0:
348,137,194839,1,0,1:0:0:0:
317,88,194968,1,0,1:0:0:0:
262,72,195097,1,0,1:0:0:0:
247,19,195227,5,6,3:2:0:0:
90,167,195485,1,0,3:0:0:0:
112,219,195614,2,0,B|155:177|236:203|253:270|350:239,1,227.999993041992,2|0,3:0|3:0,0:0:0:0:
405,154,196001,2,0,B|313:206|362:347|452:366,1,240.666660240174,2|0,3:0|3:0,0:0:0:0:
309,383,196388,5,2,1:2:0:0:
89,321,196646,1,0,3:0:0:0:
139,301,196775,2,0,B|85:272|85:157|215:133,1,215.333337440491,2|0,3:0|0:0,0:0:0:0:
149,25,197162,2,0,P|244:127|322:92,1,240.666660240174,2|0,3:0|0:0,0:0:0:0:
385,0,197549,5,2,3:2:0:0:
500,196,197807,1,0,3:0:0:0:
479,245,197936,2,0,B|354:217|385:313|274:342,1,215.333337440491,2|0,3:0|3:0,0:0:0:0:
188,383,198323,2,0,P|258:338|219:172,1,240.666660240174,2|0,3:0|3:0,0:0:0:0:
320,94,198710,5,2,1:2:0:0:
136,45,199097,1,2,3:0:0:0:
38,305,199485,1,2,3:0:0:0:
170,262,199743,1,0,3:0:0:0:
213,294,199872,5,6,3:2:0:0:
424,334,200130,1,0,3:0:0:0:
456,286,200259,2,0,B|444:324|333:350|287:204,1,227.999993041992,2|0,3:0|3:0,0:0:0:0:
169,179,200646,2,0,P|271:209|257:108,1,240.666660240174,2|0,3:0|3:0,0:0:0:0:
338,27,201033,5,2,1:2:0:0:
118,88,201291,1,0,3:0:0:0:
65,74,201420,2,0,B|134:107|14:217|115:302,1,215.333337440491,2|0,3:0|0:0,0:0:0:0:
33,380,201807,2,0,P|125:285|234:242,1,240.666660240174,2|0,3:0|0:0,0:0:0:0:
323,299,202194,5,2,3:2:0:0:
436,101,202452,1,0,3:0:0:0:
395,65,202581,2,0,P|324:104|272:-1,1,215.333337440491,2|0,3:0|3:0,0:0:0:0:
160,61,202968,2,0,B|193:32|243:42|276:87|265:193|175:240,1,240.666660240174,2|0,3:0|3:0,0:0:0:0:
247,332,203356,5,2,1:2:0:0:
448,178,203614,1,0,1:0:0:0:
448,178,203743,1,0,3:0:0:0:
399,208,203872,1,0,1:0:0:0:
351,240,204001,1,0,1:0:0:0:
332,294,204130,1,0,1:0:0:0:
275,281,204259,1,0,1:0:0:0:
225,309,204388,1,0,1:0:0:0:
177,282,204517,5,6,3:2:0:0:
367,382,204775,1,0,3:0:0:0:
416,354,204904,2,0,B|447:369|447:369|417:271|482:163,1,227.999993041992,2|0,3:0|3:0,0:0:0:0:
478,62,205291,2,0,P|412:187|301:219,1,240.666660240174,2|0,3:0|3:0,0:0:0:0:
231,152,205678,5,2,1:2:0:0:
81,323,205936,1,0,3:0:0:0:
48,280,206065,2,0,B|22:278|1:290|1:290|81:223|30:77,1,215.333337440491,2|0,3:0|0:0,0:0:0:0:
130,51,206452,2,0,P|80:100|168:225,1,240.666660240174,2|0,3:0|0:0,0:0:0:0:
185,334,206839,5,2,3:2:0:0:
404,271,207097,1,0,3:0:0:0:
390,218,207227,2,0,B|351:203|351:203|375:103|521:129,1,215.333337440491,2|0,3:0|3:0,0:0:0:0:
391,50,207614,2,0,B|409:119|280:167|199:73,1,240.666660240174,2|0,3:0|3:0,0:0:0:0:
150,195,208001,5,2,1:2:0:0:
248,357,208388,1,2,3:0:0:0:
472,239,208775,1,2,3:0:0:0:
332,244,209033,1,0,3:0:0:0:
285,216,209162,5,6,3:2:0:0:
375,20,209420,1,0,3:0:0:0:
412,62,209549,2,0,B|433:87|433:87|338:39|326:117|216:77,1,227.999993041992,2|0,3:0|3:0,0:0:0:0:
184,190,209936,2,0,P|211:152|76:46,1,240.666660240174,2|0,3:0|3:0,0:0:0:0:
47,129,210323,5,2,1:2:0:0:
127,342,210581,1,0,3:0:0:0:
148,292,210710,2,0,B|126:266|126:266|227:254|197:358|354:346,1,215.333337440491,2|0,3:0|0:0,0:0:0:0:
398,381,211097,2,0,P|299:310|285:147,1,240.666660240174,2|0,3:0|0:0,0:0:0:0:
373,149,211485,5,2,3:2:0:0:
171,42,211743,1,0,3:0:0:0:
124,69,211872,2,0,B|95:60|95:60|162:169|110:274,1,215.333337440491,2|0,3:0|3:0,0:0:0:0:
155,353,212259,2,0,P|151:218|220:99,1,240.666660240174,2|0,3:0|3:0,0:0:0:0:
316,85,212646,5,2,1:2:0:0:
323,122,212775,1,0,3:0:0:0:
330,159,212904,1,0,3:0:0:0:
317,208,213033,1,0,3:0:0:0:
324,245,213162,1,0,3:0:0:0:
331,282,213291,1,0,3:0:0:0:
380,260,213420,1,0,1:0:0:0:
154,26,213678,1,0,3:0:0:0:
100,19,213807,5,6,3:2:0:0:
43,226,214065,1,0,3:0:0:0:
76,271,214194,2,0,B|64:246|64:246|153:298|302:278,1,227.999993041992,2|0,3:0|3:0,0:0:0:0:
348,361,214581,2,0,P|257:259|200:154,1,240.666660240174,2|0,3:0|3:0,0:0:0:0:
234,58,214968,5,2,1:2:0:0:
454,0,215227,1,0,3:0:0:0:
407,27,215356,2,0,B|381:21|381:21|390:141|490:182,1,215.333337440491,2|0,3:0|0:0,0:0:0:0:
435,288,215743,2,0,P|448:209|305:175,1,240.666660240174,2|0,3:0|0:0,0:0:0:0:
278,269,216130,5,2,3:2:0:0:
66,356,216388,1,0,3:0:0:0:
42,307,216517,2,0,B|17:328|17:328|65:233|-13:221|27:111,1,215.333337440491,2|0,3:0|3:0,0:0:0:0:
72,43,216904,2,0,B|23:74|16:189|130:245,1,240.666660240174,2|0,3:0|3:0,0:0:0:0:
239,195,217291,5,2,1:2:0:0:
344,353,217678,1,2,3:0:0:0:
507,159,218065,1,2,3:0:0:0:
368,142,218323,1,0,3:0:0:0:
348,91,218452,5,6,3:2:0:0:
143,158,218710,1,0,3:0:0:0:
108,203,218839,2,0,B|79:199|79:199|107:302|256:297,1,227.999993041992,2|0,3:0|3:0,0:0:0:0:
337,360,219227,2,0,P|260:296|300:139,1,240.666660240174,2|0,3:0|3:0,0:0:0:0:
220,64,219614,5,2,1:2:0:0:
4,138,219872,1,0,3:0:0:0:
40,98,220001,2,0,B|21:74|21:74|119:78|99:146|158:183,1,215.333337440491,2|0,3:0|0:0,0:0:0:0:
44,225,220388,2,0,B|113:179|163:231|163:235|212:276|300:214,1,240.666660240174,2|0,3:0|0:0,0:0:0:0:
372,283,220775,5,2,3:2:0:0:
496,91,221033,1,0,3:0:0:0:
443,102,221162,2,0,B|416:129|416:129|348:69|236:85,1,215.333337440491,2|0,3:0|3:0,0:0:0:0:
162,0,221549,2,0,B|224:23|255:121|144:212,1,240.666660240174,2|0,3:0|0:0,0:0:0:0:
198,319,221936,5,2,2:0:0:0:
198,319,222065,1,0,1:0:0:0:
476,383,222356,1,0,1:0:0:0:
416,136,222614,1,0,1:0:0:0:
416,136,222743,1,0,3:0:0:0:
493,289,222904,1,0,1:0:0:0:
493,289,223025,1,0,1:0:0:0:
502,316,223147,6,0,B|483:308|464:308|437:318|419:338|419:338|400:322|400:322|379:340|335:340|323:328|332:306|318:292|283:279|251:282|223:294|227:320|216:358|154:351|154:351|147:327|128:311|100:307|72:316|61:342|67:348|52:375|16:385,1,570,4|0,3:2|0:0,0:0:0:0:
