osu file format v14

[General]
AudioFilename: audio.mp3
AudioLeadIn: 0
PreviewTime: 41945
Countdown: 0
SampleSet: Soft
StackLeniency: 0.6
Mode: 0
LetterboxInBreaks: 0
WidescreenStoryboard: 1

[Editor]
Bookmarks: 14074,115880,144138,185945,223147,228953
DistanceSpacing: 1
BeatDivisor: 3
GridSize: 8
TimelineZoom: 2

[Metadata]
Title:Sweater In The Lake
TitleUnicode:Sweater In The Lake
Artist:Look Vibrant
ArtistUnicode:Look Vibrant
Creator:-Tatsuo
Version:Collab Hard
Source:
Tags:phynta english the up here place alternative drop rock experimental sounds core top pop art indie no wave post-punk prog progressive montreal noise avant-garde justin lazarus matthew murphy alex rand eli kaufman
BeatmapID:2347097
BeatmapSetID:1097306

[Difficulty]
HPDrainRate:4.2
CircleSize:3.5
OverallDifficulty:6.7
ApproachRate:7.7
SliderMultiplier:1.5
SliderTickRate:0.5

[Events]
//Background and Video events
0,0,"2872817-nature-artwork-lake-hill-reflection___abstract-wallpapers.jpg",0,0
//Break Periods
//Storyboard Layer 0 (Background)
//Storyboard Layer 1 (Fail)
//Storyboard Layer 2 (Pass)
//Storyboard Layer 3 (Foreground)
//Storyboard Layer 4 (Overlay)
//Storyboard Sound Samples

[TimingPoints]
132,387.096774193548,3,2,0,40,1,0
132,-100,3,2,0,40,0,0
14067,-125,3,2,0,40,0,0
23357,-111.111111111111,3,2,0,55,0,0
32648,-100,3,2,0,70,0,0
41164,-117.647058823529,3,2,0,70,0,0
41551,-142.857142857143,3,2,0,70,0,0
41938,-142.857142857143,3,2,0,60,0,0
51228,-125,3,2,0,60,0,0
60519,-200,3,2,0,50,0,0
61680,379.746835443038,3,2,0,50,1,0
61680,-125,3,2,0,50,0,0
62313,397.350993377483,3,2,0,50,1,0
62712,387.096774193548,3,2,0,50,1,0
62712,-250,3,2,0,50,0,0
63228,372.670807453416,3,2,0,50,1,0
63972,404.040404040404,3,2,0,50,1,0
63972,-163.132137030995,3,2,0,50,0,0
64780,451.127819548872,3,2,0,50,1,0
65006,355.029585798817,3,2,0,50,1,0
65184,370.37037037037,3,2,0,50,1,0
65184,-142.857142857143,3,2,0,50,0,0
65803,384.615384615384,3,2,0,50,1,0
65803,-142.857142857143,3,2,0,50,0,0
66315,390.243902439024,3,2,0,50,1,0
66705,-166.666666666667,3,2,0,50,0,0
67357,343.839541547277,3,2,0,50,1,0
67357,-166.666666666667,3,2,0,50,0,0
67873,387.096774193548,3,2,0,50,1,0
68647,387.096774193548,3,2,0,50,1,0
69808,-76.9230769230769,3,2,0,70,0,0
70969,-83.3333333333333,3,2,0,70,0,0
72130,-90.9090909090909,3,2,0,70,0,0
72711,-83.3333333333333,3,2,0,70,0,0
72905,-90.9090909090909,3,2,0,70,0,0
73292,-100,3,2,0,70,0,0
74453,-76.9230769230769,3,2,0,70,0,0
75614,-83.3333333333333,3,2,0,70,0,0
76776,-71.4285714285714,3,2,0,70,0,0
77937,-90.9090909090909,3,2,0,70,0,0
78517,-100,3,2,0,70,0,0
79098,-76.9230769230769,3,2,0,70,0,0
80259,-83.3333333333333,3,2,0,70,0,0
81421,-90.9090909090909,3,2,0,70,0,0
82001,-83.3333333333333,3,2,0,70,0,0
82195,-90.9090909090909,3,2,0,70,0,0
82582,-100,3,2,0,70,0,0
83743,-76.9230769230769,3,2,0,70,0,0
84905,-83.3333333333333,3,2,0,70,0,0
86066,-90.9090909090909,3,2,0,70,0,0
86646,-100,3,2,0,70,0,0
87227,-125,3,2,0,70,0,0
88388,-142.857142857143,3,2,0,60,0,0
96517,-100,3,2,0,60,0,0
97679,-125,3,2,0,60,0,0
106969,-200,3,2,0,50,0,0
108130,393.44262295082,3,2,0,50,1,0
108130,-125,3,2,0,50,0,0
108787,335.195530726257,3,2,0,50,1,0
109122,434.782608695652,3,2,0,50,1,0
109122,-125,3,2,0,50,0,0
109267,397.350993377483,3,2,0,50,1,0
109664,394.736842105263,3,2,0,50,1,0
110453,387.096774193548,3,2,0,50,1,0
110453,-125,3,2,0,50,0,0
111227,348.837209302325,3,2,0,50,1,0
111460,491.803278688524,3,2,0,50,1,0
111624,380.952380952381,3,2,0,50,1,0
111624,-125,3,2,0,50,0,0
112195,413.793103448275,3,2,0,50,1,0
112195,-166.666666666667,3,2,0,50,0,0
112608,337.078651685393,3,2,0,50,1,0
112776,377.358490566037,3,2,0,50,1,0
112776,-250.000000000001,3,2,0,50,0,0
113782,371.517027863777,3,2,0,50,1,0
113782,-142.857142857143,3,2,0,50,0,0
114340,378.548895899054,3,2,0,50,1,0
115098,387.096774193548,3,2,0,50,1,0
115872,-142.857142857143,3,2,0,75,0,0
116259,-66.6666666666667,3,2,0,75,0,0
116646,-62.5,3,2,0,75,0,0
117033,-58.8235294117647,3,2,0,75,0,0
117420,-62.5,3,2,0,75,0,0
117807,-66.6666666666667,3,2,0,75,0,0
118194,-58.8235294117647,3,2,0,75,0,0
118581,-62.5,3,2,0,75,0,0
118968,-66.6666666666667,3,2,0,75,0,0
119356,-58.8235294117647,3,2,0,75,0,0
119743,-55.5555555555556,3,2,0,75,0,0
120517,-50,3,2,0,75,0,0
120904,-66.6666666666667,3,2,0,75,0,0
121291,-62.5,3,2,0,75,0,0
121678,-58.8235294117647,3,2,0,75,0,0
122065,-62.5,3,2,0,75,0,0
122452,-66.6666666666667,3,2,0,75,0,0
122839,-58.8235294117647,3,2,0,75,0,0
123227,-62.5,3,2,0,75,0,0
123614,-66.6666666666667,3,2,0,75,0,0
124001,-58.8235294117647,3,2,0,75,0,0
124388,-55.5555555555556,3,2,0,75,0,0
124646,-111.111111111111,3,2,0,75,0,0
125549,-200,3,2,0,50,0,0
126614,-200,3,2,0,5,0,0
126710,-200,3,2,0,50,0,0
127388,-200,3,2,0,5,0,0
127485,-200,3,2,0,50,0,0
127775,-200,3,2,0,5,0,0
127872,-200,3,2,0,50,0,0
128549,-200,3,2,0,5,0,0
128646,-200,3,2,0,50,0,0
128936,-200,3,2,0,5,0,0
129033,-200,3,2,0,50,0,0
129323,-200,3,2,0,5,0,0
129420,-200,3,2,0,50,0,0
129710,-200,3,2,0,5,0,0
129807,-200,3,2,0,50,0,0
130097,-200,3,2,0,5,0,0
130194,-200,3,2,0,50,0,0
131259,-200,3,2,0,5,0,0
131356,-200,3,2,0,50,0,0
132033,-200,3,2,0,5,0,0
132130,-200,3,2,0,50,0,0
132420,-200,3,2,0,5,0,0
132517,-200,3,2,0,50,0,0
134452,-142.857142857143,3,2,0,50,0,0
134839,-1000,3,2,0,49,0,0
136001,-500,3,2,0,51,0,0
137162,-333.333333333333,3,2,0,53,0,0
138323,-250,3,2,0,55,0,0
139485,-200,3,2,0,57,0,0
140646,-166.666666666667,3,2,0,59,0,0
141807,-142.857142857143,3,2,0,61,0,0
142968,-125,3,2,0,63,0,0
144130,-125,3,2,0,65,0,0
144517,-111.111111111111,3,2,0,65,0,0
144904,-100,3,2,0,65,0,0
145291,-90.9090909090909,3,2,0,65,0,0
146452,-111.111111111111,3,2,0,65,0,0
147323,-111.111111111111,3,2,0,5,0,0
147420,-111.111111111111,3,2,0,65,0,0
147904,-111.111111111111,3,2,0,5,0,0
148001,-111.111111111111,3,2,0,65,0,0
148678,-111.111111111111,3,2,0,5,0,0
148775,-111.111111111111,3,2,0,65,0,0
149646,-111.111111111111,3,2,0,5,0,0
149743,-111.111111111111,3,2,0,65,0,0
150227,-111.111111111111,3,2,0,5,0,0
150323,-111.111111111111,3,2,0,65,0,0
151097,-90.9090909090909,3,2,0,65,0,0
151388,-90.9090909090909,3,2,0,5,0,0
151485,-90.9090909090909,3,2,0,65,0,0
151581,-90.9090909090909,3,2,0,5,0,0
151678,-90.9090909090909,3,2,0,65,0,0
152162,-90.9090909090909,3,2,0,5,0,0
152259,-83.3333333333333,3,2,0,65,0,0
153420,-100,3,2,0,70,0,0
156904,-111.111111111111,3,2,0,70,0,0
157194,-111.111111111111,3,2,0,5,0,0
157291,-111.111111111111,3,2,0,70,0,0
157485,-142.857142857143,3,2,0,70,0,0
158065,-90.9090909090909,3,2,0,72,0,0
159033,-83.3333333333333,3,2,0,74,0,0
160194,-76.9230769230769,3,2,0,76,0,0
160678,-76.9230769230769,3,2,0,5,0,0
160775,-76.9230769230769,3,2,0,76,0,0
161356,-71.4285714285714,3,2,0,78,0,1
162710,-142.857142857143,3,2,0,70,0,0
164743,-142.857142857143,3,2,0,5,0,0
164839,-142.857142857143,3,2,0,70,0,0
167065,-142.857142857143,3,2,0,5,0,0
167162,-142.857142857143,3,2,0,70,0,0
169194,-142.857142857143,3,2,0,5,0,0
169291,-142.857142857143,3,2,0,70,0,0
169485,-111.111111111111,3,2,0,70,0,0
170452,-142.857142857143,3,2,0,70,0,0
170839,-100,3,2,0,70,0,0
172001,-83.3333333333333,3,2,0,70,0,1
176646,-142.857142857143,3,2,0,70,0,0
181291,-200,3,2,0,70,0,0
181678,-166.666666666667,3,2,0,70,0,0
182065,-142.857142857143,3,2,0,70,0,0
182452,-111.111111111111,3,2,0,70,0,0
182839,-142.857142857143,3,2,0,70,0,0
183227,-125,3,2,0,70,0,0
183614,-100,3,2,0,70,0,0
184001,-125,3,2,0,70,0,0
184388,-111.111111111111,3,2,0,70,0,0
184775,-100,3,2,0,70,0,0
185936,-58.8235294117647,3,2,0,80,0,0
186323,-55.5555555555556,3,2,0,80,0,0
186710,-52.6315789473684,3,2,0,80,0,0
187097,-55.5555555555556,3,2,0,80,0,0
187485,-58.8235294117647,3,2,0,80,0,0
187872,-52.6315789473684,3,2,0,80,0,0
188259,-55.5555555555556,3,2,0,80,0,0
188646,-58.8235294117647,3,2,0,80,0,0
189033,-52.6315789473684,3,2,0,80,0,0
189420,-50,3,2,0,80,0,0
190194,-45.4545454545455,3,2,0,80,0,0
190581,-58.8235294117647,3,2,0,80,0,0
190968,-55.5555555555556,3,2,0,80,0,0
191356,-52.6315789473684,3,2,0,80,0,0
191743,-55.5555555555556,3,2,0,80,0,0
192130,-58.8235294117647,3,2,0,80,0,0
192517,-52.6315789473684,3,2,0,80,0,0
192904,-55.5555555555556,3,2,0,80,0,0
193291,-58.8235294117647,3,2,0,80,0,0
193678,-52.6315789473684,3,2,0,80,0,0
194065,-50,3,2,0,80,0,0
194839,-45.4545454545455,3,2,0,80,0,0
195227,-58.8235294117647,3,2,0,80,0,0
195614,-55.5555555555556,3,2,0,80,0,0
196001,-52.6315789473684,3,2,0,80,0,0
196388,-55.5555555555556,3,2,0,80,0,0
196775,-58.8235294117647,3,2,0,80,0,0
197162,-52.6315789473684,3,2,0,80,0,0
197549,-55.5555555555556,3,2,0,80,0,0
197936,-58.8235294117647,3,2,0,80,0,0
198323,-52.6315789473684,3,2,0,80,0,0
198710,-50,3,2,0,80,0,0
199485,-45.4545454545455,3,2,0,80,0,0
199872,-58.8235294117647,3,2,0,80,0,0
200259,-55.5555555555556,3,2,0,80,0,0
200646,-52.6315789473684,3,2,0,80,0,0
201033,-55.5555555555556,3,2,0,80,0,0
201420,-58.8235294117647,3,2,0,80,0,0
201807,-52.6315789473684,3,2,0,80,0,0
202194,-55.5555555555556,3,2,0,80,0,0
202581,-58.8235294117647,3,2,0,80,0,0
202968,-52.6315789473684,3,2,0,80,0,0
203356,-50,3,2,0,80,0,0
204130,-45.4545454545455,3,2,0,80,0,0
204517,-58.8235294117647,3,2,0,80,0,0
204904,-55.5555555555556,3,2,0,80,0,0
205291,-52.6315789473684,3,2,0,80,0,0
205678,-55.5555555555556,3,2,0,80,0,0
206065,-58.8235294117647,3,2,0,80,0,0
206452,-52.6315789473684,3,2,0,80,0,0
206839,-55.5555555555556,3,2,0,80,0,0
207227,-58.8235294117647,3,2,0,80,0,0
207614,-52.6315789473684,3,2,0,80,0,0
208001,-50,3,2,0,80,0,0
208775,-45.4545454545455,3,2,0,80,0,0
209162,-58.8235294117647,3,2,0,80,0,0
209549,-55.5555555555556,3,2,0,80,0,0
209936,-52.6315789473684,3,2,0,80,0,0
210323,-55.5555555555556,3,2,0,80,0,0
210710,-58.8235294117647,3,2,0,80,0,0
211097,-52.6315789473684,3,2,0,80,0,0
211485,-55.5555555555556,3,2,0,80,0,0
211872,-58.8235294117647,3,2,0,80,0,0
212259,-52.6315789473684,3,2,0,80,0,0
212646,-50,3,2,0,80,0,0
213420,-45.4545454545455,3,2,0,80,0,0
213807,-58.8235294117647,3,2,0,80,0,0
214194,-55.5555555555556,3,2,0,80,0,0
214581,-52.6315789473684,3,2,0,80,0,0
214968,-55.5555555555556,3,2,0,80,0,0
215356,-58.8235294117647,3,2,0,80,0,0
215743,-52.6315789473684,3,2,0,80,0,0
216130,-55.5555555555556,3,2,0,80,0,0
216517,-58.8235294117647,3,2,0,80,0,0
216904,-52.6315789473684,3,2,0,80,0,0
217291,-50,3,2,0,80,0,0
218065,-45.4545454545455,3,2,0,80,0,0
218452,-58.8235294117647,3,2,0,80,0,0
218839,-55.5555555555556,3,2,0,80,0,0
219227,-52.6315789473684,3,2,0,80,0,0
219614,-55.5555555555556,3,2,0,80,0,0
220001,-58.8235294117647,3,2,0,80,0,0
220388,-52.6315789473684,3,2,0,80,0,0
220775,-55.5555555555556,3,2,0,80,0,0
221162,-58.8235294117647,3,2,0,80,0,0
221549,-52.6315789473684,3,2,0,80,0,0
221936,-58.4795321637427,3,2,0,80,0,0
222904,364.741641337386,3,2,0,80,1,0
222904,-66.6666666666667,3,2,0,80,0,0
223147,387.096774193548,3,2,0,80,1,0
223147,-454.545454545455,3,2,0,80,0,0
223921,-454.545454545455,3,2,1,70,0,0
224695,-454.545454545455,3,2,0,60,0,0
225469,-454.545454545455,3,2,1,50,0,0
226243,-454.545454545455,3,2,0,40,0,0
227017,-454.545454545455,3,2,1,30,0,0
227792,-454.545454545455,3,2,0,20,0,0
228566,-454.545454545455,3,2,1,10,0,0
228953,-454.545454545455,3,2,0,5,0,0

[Colours]
Combo1 : 128,255,128
Combo2 : 128,255,255
Combo3 : 255,128,64
Combo4 : 128,128,255

[HitObjects]
16,359,14067,6,0,L|3:36,1,300,2|0,3:0|1:0,0:0:0:0:
101,23,15228,2,0,L|95:157,1,120,0|0,3:0|3:0,0:0:0:0:
181,284,16002,2,0,L|178:216,1,60,0|0,3:0|1:0,0:0:0:0:
281,263,16390,2,0,L|275:397,1,120,2|0,3:0|3:0,0:0:0:0:
380,133,17164,2,0,L|371:199,1,60,0|0,3:0|1:0,0:0:0:0:
483,150,17551,2,0,L|477:15,2,120,0|0|0,3:0|3:0|3:0,0:0:0:0:
512,307,18712,6,0,L|188:299,1,300,2|0,3:0|1:0,0:0:0:0:
150,384,19873,2,0,L|289:380,1,120,0|0,3:0|3:0,0:0:0:0:
139,243,20648,2,0,L|69:241,1,60,0|0,3:0|1:0,0:0:0:0:
28,165,21035,2,0,L|167:161,1,120,2|0,3:0|3:0,0:0:0:0:
213,2,21809,2,0,L|218:70,1,60,0|0,3:0|1:0,0:0:0:0:
315,126,22196,2,0,L|324:-13,2,120,0|0|0,3:0|3:0|3:0,0:0:0:0:
356,281,23357,6,0,P|309:300|255:368,1,134.999995880127,6|0,3:2|3:0,0:0:0:0:
188,297,23938,1,0,1:0:0:0:
102,365,24131,2,0,P|145:368|171:377,1,67.4999979400635,0|0,3:0|1:0,0:0:0:0:
25,278,24519,2,0,L|35:134,1,134.999995880127,0|0,3:0|3:0,0:0:0:0:
89,67,25099,1,0,1:0:0:0:
135,151,25293,2,0,L|140:223,1,67.4999979400635,0|0,3:0|1:0,0:0:0:0:
129,309,25680,2,0,P|70:323|6:378,1,134.999995880127,2|0,3:0|3:0,0:0:0:0:
33,255,26261,1,0,1:0:0:0:
124,191,26454,2,0,P|174:206|205:208,1,67.4999979400635,0|0,3:0|1:0,0:0:0:0:
304,167,26841,2,0,B|307:142|307:142|278:60|278:60|285:20,2,134.999995880127,0|0|0,3:0|3:0|3:0,0:0:0:0:
480,294,28002,6,0,L|484:141,1,134.999995880127,6|0,3:2|3:0,0:0:0:0:
422,110,28583,1,0,1:0:0:0:
347,72,28777,2,0,L|338:0,1,67.4999979400635,0|0,3:0|1:0,0:0:0:0:
503,8,29164,2,0,P|468:37|449:124,1,134.999995880127,0|0,3:0|3:0,0:0:0:0:
408,217,29744,1,0,1:0:0:0:
319,258,29938,2,0,P|273:284|239:289,1,67.4999979400635,0|0,3:0|1:0,0:0:0:0:
130,309,30325,2,0,B|121:308|108:264|181:254|183:325|158:364,1,134.999995880127,2|0,3:0|3:0,0:0:0:0:
49,360,30906,1,0,1:0:0:0:
7,263,31099,2,0,P|0:225|-12:185,1,67.4999979400635,0|0,3:0|1:0,0:0:0:0:
118,115,31486,2,0,B|81:137|82:193|92:251,2,134.999995880127,0|0|0,3:0|3:0|3:0,0:0:0:0:
491,242,32648,6,0,P|402:240|325:241,1,150,2|0,3:0|3:0,0:0:0:0:
253,296,33228,1,0,1:0:0:0:
329,364,33422,2,0,P|375:363|414:367,1,75,0|0,3:0|1:0,0:0:0:0:
510,259,33809,2,0,B|472:266|433:288|433:288|401:268|367:259,1,150,2|0,3:0|3:0,0:0:0:0:
315,189,34390,1,0,1:0:0:0:
367,111,34583,2,0,B|395:142|395:142|440:144,1,75,0|0,3:0|1:0,0:0:0:0:
509,33,34970,2,0,B|425:33|457:80|359:74,1,150,2|0,3:0|3:0,0:0:0:0:
290,14,35551,1,0,1:0:0:0:
193,50,35744,2,0,P|147:68|121:86,1,75,0|0,3:0|1:0,0:0:0:0:
6,147,36131,2,0,B|28:153|30:70|-15:99|6:1|25:10,2,150,4|0|0,3:2|3:0|3:0,0:0:0:0:
193,243,37293,6,0,B|192:183|239:137|239:137|252:178,1,150,6|0,3:2|3:0,0:0:0:0:
342,204,37873,1,0,1:0:0:0:
448,231,38067,2,0,P|417:268|407:300,1,75,0|0,3:0|1:0,0:0:0:0:
365,384,38454,2,0,P|351:347|258:276,1,150,4|0,3:2|3:0,0:0:0:0:
197,328,39035,1,0,1:0:0:0:
102,310,39228,2,0,P|111:352|106:390,1,75,0|0,3:0|1:0,0:0:0:0:
13,287,39615,5,6,3:2:0:0:
13,287,39809,1,0,1:0:0:0:
51,208,40002,1,0,3:0:0:0:
4,120,40196,2,0,B|-2:0|-2:0|23:22,1,150,0|0,1:0|1:0,0:0:0:0:
161,83,40777,6,0,P|137:113|122:152,1,75,0|0,3:0|0:0,0:0:0:0:
212,236,41164,2,0,P|209:204|215:172,1,63.7500012159348,0|0,3:0|0:0,0:0:0:0:
309,233,41551,2,0,P|319:257|335:279,1,52.4999983978272,0|0,3:0|0:0,0:0:0:0:
443,361,41938,6,0,P|446:298|465:237,1,104.999996795654,4|2,3:1|0:0,0:0:0:0:
400,165,42519,1,0,3:0:0:0:
400,165,42712,2,0,P|379:140|354:123,1,52.4999983978272,2|0,0:0|3:0,0:0:0:0:
291,31,43099,2,0,B|333:67|372:43|421:1|512:38,1,209.999993591309,2|0,1:2|0:0,0:0:0:0:
510,110,44067,1,2,3:2:0:0:
400,165,44261,2,0,P|444:165|472:174,1,52.4999983978272,2|2,3:2|0:0,0:0:0:0:
506,249,44648,2,0,B|470:240|419:264|453:310|372:312,1,157.499995193482,2|2,0:0|3:2,0:0:0:0:
269,338,45422,2,0,B|282:319|308:334|327:424|161:402|234:315|259:301|248:248,1,209.999993591309,2|0,1:2|0:0,0:0:0:0:
183,194,46390,1,2,3:2:0:0:
76,253,46583,6,0,L|141:265,1,52.4999983978272,2|2,3:2|0:0,0:0:0:0:
101,349,46970,2,0,P|52:358|0:380,1,104.999996795654,2|2,0:0|0:0,0:0:0:0:
0,293,47551,1,2,3:2:0:0:
11,150,47744,2,0,L|19:222,1,52.4999983978272,2|0,1:2|0:0,0:0:0:0:
118,165,48131,2,0,L|127:110,1,52.4999983978272,2|0,0:0|3:0,0:0:0:0:
43,40,48519,1,2,0:0:0:0:
43,40,48712,1,2,3:2:0:0:
131,1,48906,2,0,P|161:9|191:24,1,52.4999983978272,2|0,3:2|0:0,0:0:0:0:
273,75,49293,2,0,P|313:54|381:49,1,104.999996795654,2|2,0:2|0:0,0:0:0:0:
159,167,50067,6,0,B|179:164|179:164|224:113|224:113|250:106,1,104.999996795654,0|0,1:0|0:0,0:0:0:0:
269,258,50744,1,0,1:0:0:0:
245,237,50841,2,0,L|183:249,1,52.4999983978272,0|0,1:0|3:0,0:0:0:0:
81,297,51228,6,0,P|125:310|181:366,1,120,6|2,3:2|0:0,0:0:0:0:
271,318,51809,1,0,3:0:0:0:
271,318,52002,2,0,P|272:284|282:254,1,60,2|0,0:0|3:0,0:0:0:0:
364,338,52390,2,0,B|428:391|515:363|515:363|477:368|435:348,1,240,2|0,1:2|0:0,0:0:0:0:
471,229,53357,2,0,P|478:263|491:290,2,60,2|2|2,3:2|3:2|0:0,0:0:0:0:
390,187,53938,2,0,P|420:158|449:84,1,120,2|0,0:0|0:0,0:0:0:0:
474,7,54519,1,2,3:2:0:0:
474,7,54712,2,0,B|391:-9|315:33|315:33|361:58|397:28,1,240,2|0,1:2|0:0,0:0:0:0:
64,166,55873,6,0,P|51:137|29:106,1,60,2|2,3:2|0:0,0:0:0:0:
62,35,56261,1,2,0:0:0:0:
162,266,56648,2,0,P|197:242|223:229,1,60,2|2,0:0|3:2,0:0:0:0:
301,265,57035,2,0,P|332:274|365:297,1,60,2|2,1:2|0:0,0:0:0:0:
384,370,57422,1,2,0:0:0:0:
507,122,57809,2,0,P|497:157|496:193,1,60,2|2,0:0|3:2,0:0:0:0:
416,233,58196,2,0,P|402:196|381:171,1,60,2|2,3:2|2:0,0:0:0:0:
309,121,58583,2,0,P|326:89|352:68,1,60,2|2,0:0|3:2,0:0:0:0:
408,7,58970,1,2,0:0:0:0:
75,251,59357,5,0,1:0:0:0:
216,188,59744,1,0,1:0:0:0:
44,84,60131,1,0,1:0:0:0:
146,12,60325,6,0,L|142:44,1,30,0|0,3:0|1:0,0:0:0:0:
170,89,60519,1,4,3:2:0:0:
478,240,61680,6,0,B|422:235|385:269|335:373,1,200,0|0,1:0|0:0,0:0:0:0:
192,298,62712,2,0,L|190:281,2,10,0|0|2,1:0|1:0|3:0,0:0:0:0:
257,200,63228,1,2,3:0:0:0:
450,156,63849,1,2,3:0:0:0:
431,172,63972,6,0,P|399:153|362:107,1,91.9499976990052,0|0,1:0|0:0,0:0:0:0:
239,86,64645,2,0,P|263:89|306:143,1,82.5000025177003,0|0,3:0|3:0,0:0:0:0:
241,207,65184,6,0,L|127:192,1,104.999996795654,2|0,3:0|0:0,0:0:0:0:
0,239,65803,2,0,L|114:224,1,104.999996795654,2|0,3:0|0:0,0:0:0:0:
147,285,66315,1,0,1:0:0:0:
249,142,66705,2,0,L|317:124,1,59.9999981689454,0|0,3:0|0:0,0:0:0:0:
103,69,67355,1,0,1:0:0:0:
58,157,67471,2,0,L|44:48,1,104.999996795654,2|2,3:0|3:0,0:0:0:0:
87,355,69808,6,0,P|65:301|19:255,2,97.4999955368044,4|0|4,3:2|3:0|3:0,0:0:0:0:
175,311,70388,1,0,1:0:0:0:
184,322,70485,1,0,3:0:0:0:
193,333,70582,2,0,L|303:345,1,97.4999955368044,4|0,3:0|1:0,0:0:0:0:
448,337,70969,2,0,P|400:361|366:391,2,89.9999972534181,4|0|4,3:0|3:0|3:0,0:0:0:0:
485,232,71550,1,0,1:0:0:0:
479,219,71647,1,0,3:0:0:0:
474,206,71743,2,0,L|482:98,1,89.9999972534181,4|0,3:0|1:0,0:0:0:0:
393,0,72130,6,0,L|403:90,1,82.5000025177003,4|0,3:0|3:0,0:0:0:0:
356,162,72517,1,4,3:0:0:0:
266,113,72711,1,0,1:0:0:0:
261,125,72808,1,0,3:0:0:0:
257,136,72905,1,4,3:0:0:0:
173,212,73098,1,0,1:0:0:0:
106,103,73292,2,0,P|171:98|257:68,1,150,4|4,3:0|3:0,0:0:0:0:
158,0,73872,1,0,3:0:0:0:
53,75,74066,1,0,1:0:0:0:
56,100,74163,1,0,1:0:0:0:
53,125,74259,1,0,1:0:0:0:
47,151,74356,1,0,1:0:0:0:
29,179,74453,6,0,P|15:128|-8:91,2,97.4999955368044,4|0|4,3:0|3:0|3:0,0:0:0:0:
81,269,75034,1,0,1:0:0:0:
86,282,75130,1,0,3:0:0:0:
92,295,75227,2,0,P|137:259|183:245,1,97.4999955368044,4|0,3:0|1:0,0:0:0:0:
259,291,75614,2,0,L|272:385,2,89.9999972534181,4|0|4,3:0|3:0|3:0,0:0:0:0:
311,203,76195,1,0,1:0:0:0:
305,190,76292,1,0,3:0:0:0:
300,177,76388,2,0,P|308:125|331:71,1,89.9999972534181,4|0,3:0|1:0,0:0:0:0:
428,65,76776,5,4,3:0:0:0:
165,146,77163,1,4,3:0:0:0:
436,325,77550,1,4,3:0:0:0:
103,372,77937,6,0,P|93:326|75:291,1,82.5000025177003,0|0,1:0|1:0,0:0:0:0:
44,276,78227,2,0,P|22:227|35:136,1,123.75000377655,0|0,1:0|1:0,0:0:0:0:
96,82,78711,1,0,1:0:0:0:
122,77,78808,1,0,1:0:0:0:
154,79,78905,1,0,1:0:0:0:
184,95,79001,1,0,1:0:0:0:
205,115,79098,6,0,P|197:62|207:19,1,97.4999955368044,4|0,3:2|3:0,0:0:0:0:
319,5,79485,1,4,3:0:0:0:
336,136,79679,1,0,1:0:0:0:
343,148,79776,1,0,3:0:0:0:
350,160,79872,2,0,P|311:197|293:249,1,97.4999955368044,4|0,3:0|1:0,0:0:0:0:
224,305,80259,2,0,P|198:323|126:327,1,89.9999972534181,4|0,3:0|3:0,0:0:0:0:
277,384,80646,1,4,3:0:0:0:
364,340,80840,1,0,1:0:0:0:
376,346,80937,1,0,3:0:0:0:
387,353,81034,2,0,P|457:350|497:359,1,89.9999972534181,4|0,3:0|1:0,0:0:0:0:
512,264,81421,6,0,L|501:173,1,82.5000025177003,4|0,3:0|3:0,0:0:0:0:
432,119,81808,1,4,3:0:0:0:
481,30,82001,1,0,1:0:0:0:
470,21,82098,1,0,3:0:0:0:
460,13,82195,1,4,3:0:0:0:
350,8,82388,1,0,1:0:0:0:
275,86,82582,2,0,P|318:112|399:184,1,150,4|4,3:0|3:0,0:0:0:0:
345,264,83163,1,0,3:0:0:0:
254,218,83356,1,0,1:0:0:0:
228,210,83453,1,0,1:0:0:0:
201,211,83550,1,0,1:0:0:0:
175,218,83646,1,0,1:0:0:0:
144,232,83743,6,0,L|164:332,1,97.4999955368044,4|0,3:0|3:0,0:0:0:0:
52,307,84130,1,4,3:0:0:0:
49,198,84324,1,0,1:0:0:0:
55,185,84421,1,0,3:0:0:0:
62,172,84517,2,0,P|36:120|13:82,1,97.4999955368044,4|0,3:0|1:0,0:0:0:0:
62,0,84905,2,0,P|115:16|162:16,1,89.9999972534181,4|0,3:0|3:0,0:0:0:0:
234,67,85292,1,4,3:0:0:0:
198,163,85485,1,0,1:0:0:0:
204,174,85582,1,0,3:0:0:0:
211,185,85679,2,0,P|257:155|300:153,1,89.9999972534181,4|0,3:0|1:0,0:0:0:0:
394,92,86066,6,0,L|372:-1,1,82.5000025177003,4|0,3:0|3:0,0:0:0:0:
488,4,86453,1,4,3:0:0:0:
512,100,86646,2,0,B|503:153|515:188|515:188|483:208|457:252,1,150,0|0,3:0|3:0,0:0:0:0:
368,318,87227,6,0,L|378:181,2,120,0|4|4,1:0|3:0|3:0,0:0:0:0:
3,230,88388,6,0,P|46:240|120:232,1,104.999996795654,4|2,3:1|0:0,0:0:0:0:
177,130,88969,1,0,3:0:0:0:
177,130,89163,2,0,P|136:143|114:158,1,52.4999983978272,2|0,0:0|3:0,0:0:0:0:
26,137,89550,2,0,B|41:92|45:6|45:6|56:49|97:63,1,209.999993591309,2|0,1:2|0:0,0:0:0:0:
179,16,90517,1,2,3:2:0:0:
295,73,90711,2,0,P|257:82|232:98,1,52.4999983978272,2|2,3:2|0:0,0:0:0:0:
201,173,91098,2,0,B|236:178|261:188|297:248,1,104.999996795654,2|0,0:0|0:0,0:0:0:0:
261,323,91679,1,2,3:2:0:0:
356,370,91872,2,0,P|399:353|510:370,1,157.499995193482,2|0,1:2|3:0,0:0:0:0:
497,274,92646,1,0,0:0:0:0:
417,180,92840,5,2,3:2:0:0:
512,99,93034,2,0,P|497:136|497:167,1,52.4999983978272,2|2,3:2|0:0,0:0:0:0:
420,69,93421,2,0,P|413:56|317:18,1,104.999996795654,2|0,0:0|0:0,0:0:0:0:
284,87,94001,1,2,3:2:0:0:
175,28,94195,2,0,P|187:76|185:134,1,104.999996795654,2|2,1:2|0:0,0:0:0:0:
95,209,94776,2,0,P|99:180|108:156,1,52.4999983978272,2|2,3:2|0:0,0:0:0:0:
298,312,95356,6,0,P|263:312|236:306,1,52.4999983978272,2|0,3:2|0:0,0:0:0:0:
174,255,95743,1,2,0:2:0:0:
0,384,96130,2,0,P|0:350|-3:313,1,52.4999983978272,2|0,0:0|3:0,0:0:0:0:
65,195,96517,2,0,P|56:241|100:336,1,150,0|2,1:0|0:0,0:0:0:0:
275,365,97163,2,0,L|247:399,2,25,0|0|0,1:0|1:0|1:0,0:0:0:0:
297,286,97485,1,0,3:0:0:0:
411,308,97679,6,0,P|360:300|290:266,1,120,6|2,3:2|0:0,0:0:0:0:
219,217,98259,2,0,B|226:183|265:162|332:163,1,120,2|0,3:2|3:0,0:0:0:0:
453,129,98840,2,0,P|412:136|424:25,1,180,2|0,1:2|0:0,0:0:0:0:
507,15,99614,2,0,P|502:49|509:79,1,60,0|2,1:0|3:2,0:0:0:0:
510,205,100001,5,2,3:2:0:0:
410,188,100195,1,2,0:0:0:0:
340,271,100388,2,0,P|320:237|199:167,1,180,2|2,0:0|3:2,0:0:0:0:
129,226,101163,1,2,1:2:0:0:
32,230,101356,2,0,L|38:196,1,30,0|0,1:0|3:0,0:0:0:0:
0,18,101743,1,0,3:0:0:0:
82,68,101937,2,0,P|65:98|55:128,1,60,0|2,1:0|3:2,0:0:0:0:
138,150,102324,5,2,3:2:0:0:
218,102,102517,1,2,0:0:0:0:
328,176,102711,2,0,P|295:182|234:252,1,120,2|0,0:0|0:0,0:0:0:0:
193,320,103292,1,2,3:2:0:0:
267,373,103485,2,0,L|331:386,1,60,2|0,1:2|0:0,0:0:0:0:
391,281,103872,2,0,P|359:285|332:297,2,60,2|0|2,0:0|3:0|0:0,0:0:0:0:
125,367,104646,6,0,P|71:376|41:391,1,60,2|2,3:2|0:0,0:0:0:0:
15,248,105034,2,0,P|44:267|67:291,1,60,2|2,0:0|3:2,0:0:0:0:
127,226,105421,2,0,P|130:184|148:117,1,90,2|0,0:0|0:0,0:0:0:0:
123,95,105808,5,0,1:2:0:0:
258,194,106195,1,0,1:0:0:0:
374,61,106582,1,0,1:0:0:0:
288,86,106776,6,0,L|256:90,1,30,0|0,3:0|1:0,0:0:0:0:
232,72,106969,1,4,3:2:0:0:
472,373,108130,6,0,P|485:332|527:253,1,120,0|0,1:0|0:0,0:0:0:0:
433,148,108787,1,0,3:0:0:0:
295,276,109122,2,0,L|290:243,1,20,0|0,1:0|1:0,0:0:0:0:
266,218,109267,1,2,3:0:0:0:
116,296,109664,1,2,3:0:0:0:
233,120,110321,1,2,3:0:0:0:
270,96,110453,2,0,P|309:101|346:121,1,80,0|0,1:0|3:0,0:0:0:0:
439,177,110840,2,0,P|400:182|363:202,1,80,0|0,3:0|3:0,0:0:0:0:
337,225,111227,1,0,1:0:0:0:
197,250,111460,1,0,3:0:0:0:
180,228,111624,6,0,P|179:196|118:130,1,120,2|0,3:0|0:0,0:0:0:0:
36,93,112195,2,0,P|57:104|122:89,1,89.9999972534181,2|0,3:0|0:0,0:0:0:0:
177,49,112776,2,0,P|161:57|147:102,1,60,0|0,1:0|0:0,0:0:0:0:
214,151,113404,1,0,3:0:0:0:
394,94,113782,2,0,L|398:117,1,17.4999994659424,0|0,1:0|1:0,0:0:0:0:
393,137,113905,1,2,3:0:0:0:
450,359,114340,1,2,3:0:0:0:
7,375,115872,6,0,L|1:321,2,34.9999989318848,0|0|0,1:0|1:0|1:0,0:0:0:0:
80,288,116259,6,0,P|81:211|-20:75,2,225.000008583069,6|2|2,3:2|3:0|3:0,0:0:0:0:
221,382,117291,1,0,3:0:0:0:
240,363,117420,2,0,P|310:324|436:320,1,160,2|0,1:2|0:0,0:0:0:0:
459,335,117807,2,0,P|405:286|363:194,1,150.000005722046,2|0,3:0|0:0,0:0:0:0:
382,134,118194,1,2,3:0:0:0:
239,40,118452,1,0,0:0:0:0:
214,55,118581,2,0,P|201:160|112:272,2,240,2|2|2,3:2|3:0|3:0,0:0:0:0:
377,7,119614,1,0,3:0:0:0:
412,20,119743,5,2,1:2:0:0:
511,271,120130,1,2,3:0:0:0:
232,383,120517,2,0,P|171:361|239:247,1,200,2|0,3:0|3:0,0:0:0:0:
168,180,120904,6,0,P|243:126|311:13,2,225.000008583069,6|2|2,3:2|3:0|3:0,0:0:0:0:
0,207,121936,1,0,3:0:0:0:
14,232,122065,2,0,P|73:267|128:352,1,160,2|0,1:2|0:0,0:0:0:0:
66,383,122452,2,0,P|120:359|228:364,1,150.000005722046,2|0,3:0|0:0,0:0:0:0:
289,328,122839,1,2,3:0:0:0:
426,227,123098,1,0,0:0:0:0:
413,205,123227,2,0,P|443:93|519:-17,2,240,2|2|2,3:2|3:0|3:0,0:0:0:0:
512,349,124259,1,0,3:0:0:0:
506,377,124388,5,2,1:2:0:0:
316,245,124646,1,0,1:0:0:0:
316,245,124775,1,0,3:0:0:0:
288,258,124904,2,0,L|232:240,1,44.999998626709,0|0,1:0|1:0,0:0:0:0:
173,190,125162,1,0,1:0:0:0:
152,172,125291,2,0,L|96:192,1,44.999998626709,0|0,1:0|1:0,0:0:0:0:
48,256,125549,6,0,B|94:190|23:123|84:39,1,225,4|2,3:2|0:3,0:0:0:0:
299,0,127485,1,2,0:3:0:0:
273,109,127872,5,2,0:3:0:0:
309,215,128259,2,0,B|321:233|318:246|330:262,1,37.5
394,271,128646,2,0,B|394:262|421:291|415:304,1,37.5,2|0,0:3|0:0,0:0:0:0:
428,371,129033,1,2,0:3:0:0:
511,295,129420,2,0,B|509:277|494:268|494:256,1,37.5,2|0,0:3|0:0,0:0:0:0:
419,227,129807,2,0,B|416:198|434:200|435:178,1,37.5,2|0,0:3|0:0,0:0:0:0:
410,120,130194,2,0,B|362:117|337:101|329:124,2,75,2|0|0,0:3|0:0|0:0,0:0:0:0:
267,60,131356,5,2,0:3:0:0:
163,181,131743,2,0,B|173:167|187:161|184:148,1,37.5
160,79,132130,2,0,B|167:64|164:52|155:34,1,37.5,2|0,0:3|0:0,0:0:0:0:
96,0,132517,1,2,0:3:0:0:
0,115,132904,2,0,B|20:133|11:146|18:160,1,37.5
73,211,133291,2,0,B|65:230|72:250|84:260,1,37.5,2|0,0:3|0:0,0:0:0:0:
148,318,133678,5,0,1:0:0:0:
179,210,133968,5,0,1:0:0:0:
179,210,134065,1,0,1:0:0:0:
242,250,134259,5,0,3:0:0:0:
263,242,134356,1,0,3:0:0:0:
284,234,134452,2,0,L|319:240,1,26.2499991989136,0|0,1:0|1:0,0:0:0:0:
440,353,134839,6,0,P|441:337|444:324,1,30,2|0,3:2|0:0,0:0:0:0:
412,255,136001,2,0,P|411:237|392:197,1,60,2|0,3:2|0:0,0:0:0:0:
452,103,137162,2,0,P|465:68|507:32,1,89.9999972534181,2|0,3:2|0:0,0:0:0:0:
356,2,138323,1,2,3:2:0:0:
278,46,138710,1,2,0:0:0:0:
245,316,139485,6,0,P|251:273|197:181,1,150,6|0,3:2|0:0,0:0:0:0:
332,59,140646,2,0,B|285:32|234:58|244:70|192:96|142:67,1,179.999994506836,2|0,3:2|0:0,0:0:0:0:
37,245,141807,2,0,B|80:222|81:113|-10:67,1,209.999993591309,2|0,3:2|0:0,0:0:0:0:
228,295,142968,2,0,P|253:257|393:239,1,180,2|0,3:2|0:0,0:0:0:0:
471,114,143743,2,0,P|422:102|401:82,1,60,2|0,0:0|0:0,0:0:0:0:
255,154,144130,6,0,P|227:141|193:139,1,60,4|0,3:1|0:0,0:0:0:0:
121,122,144517,2,0,P|146:100|180:89,1,67.4999979400635,2|0,0:0|3:0,0:0:0:0:
252,49,144904,2,0,P|223:24|183:11,1,75,2|0,0:0|3:0,0:0:0:0:
15,75,145291,2,0,B|41:90|62:88|68:84|149:135|195:-36|-3:-81|-11:66|41:143|93:106|73:201,1,330.000010070801,2|0,1:2|0:0,0:0:0:0:
131,276,146259,1,2,3:2:0:0:
17,373,146452,2,0,P|9:331|-6:293,1,67.4999979400635,2|2,3:2|0:0,0:0:0:0:
118,323,146839,2,0,P|164:333|237:388,1,134.999995880127,2|0,0:0|0:0,0:0:0:0:
319,253,147420,1,2,3:2:0:0:
319,253,147614,2,0,P|298:292|291:323,1,67.4999979400635,2|0,1:2|0:0,0:0:0:0:
391,358,148001,1,2,0:0:0:0:
391,358,148194,2,0,B|441:341|486:350|486:350|465:339|448:318,1,134.999995880127,2|0,3:2|0:0,0:0:0:0:
493,166,148775,6,0,P|482:203|490:243,1,67.4999979400635,2|2,3:2|0:0,0:0:0:0:
381,179,149162,2,0,P|349:155|256:147,1,134.999995880127,2|0,0:0|0:0,0:0:0:0:
173,117,149743,1,2,3:2:0:0:
114,57,149936,2,0,P|156:69|251:41,1,134.999995880127,2|2,1:2|0:0,0:0:0:0:
365,28,150517,2,0,P|344:65|342:117,1,67.4999979400635,2|0,3:2|0:0,0:0:0:0:
381,179,150904,1,0,3:0:0:0:
381,179,151001,1,0,0:0:0:0:
381,179,151097,2,0,B|415:133|483:181|458:229|434:241|406:250|406:250|385:292|345:297|345:297|322:325|296:333|296:333|270:317,1,330.000010070801,2|0,3:2|0:0,0:0:0:0:
202,375,152065,1,0,3:0:0:0:
84,370,152259,2,0,P|128:364|181:387,1,89.9999972534181,0|0,1:0|0:0,0:0:0:0:
152,273,152646,1,0,3:0:0:0:
152,273,152839,2,0,B|98:294|14:291|-14:278|11:228|74:258|49:293,1,179.999994506836,0|2,3:0|3:2,0:0:0:0:
125,132,153420,6,0,P|114:179|116:210,1,75,6|0,3:2|0:0,0:0:0:0:
25,152,153807,2,0,P|14:107|-1:74,1,75,2|0,0:0|3:0,0:0:0:0:
86,31,154194,2,0,P|120:7|166:-7,1,75,2|0,0:0|3:0,0:0:0:0:
251,67,154581,2,0,B|191:69|156:132|156:132|181:178|207:232,1,225,2|0,1:2|0:0,0:0:0:0:
269,303,155356,2,0,P|282:264|306:232,1,75,0|0,0:0|3:0,0:0:0:0:
351,170,155743,1,2,3:2:0:0:
446,218,155936,1,0,0:0:0:0:
507,128,156130,2,0,P|503:78|510:28,2,75,2|0|0,0:0|0:0|0:0,0:0:0:0:
417,98,156710,1,2,3:2:0:0:
373,13,156904,2,0,P|324:20|238:72,1,134.999995880127,2|2,1:2|0:0,0:0:0:0:
165,136,157485,2,0,B|198:143|221:160|247:217,1,104.999996795654,0|0,3:0|3:0,0:0:0:0:
279,313,158065,6,0,P|309:276|360:257,1,82.5000025177003,2|0,3:2|0:0,0:0:0:0:
471,311,158452,2,0,P|439:346|425:386,2,82.5000025177003,2|0|2,1:2|0:0|1:2,0:0:0:0:
407,204,159033,1,2,3:2:0:0:
407,204,159130,1,0,1:0:0:0:
407,204,159227,2,0,L|390:109,1,89.9999972534181,0|0,0:3|0:0,0:0:0:0:
512,27,159614,2,0,L|495:122,2,89.9999972534181,2|0|2,1:2|0:0|1:2,0:0:0:0:
364,20,160194,1,2,3:2:0:0:
364,20,160291,1,0,1:0:0:0:
364,20,160388,2,0,B|311:18|322:60|263:54,1,97.4999955368044,0|0,3:0|0:0,0:0:0:0:
148,64,160775,2,0,P|185:101|202:148,1,97.4999955368044,2|0,1:2|0:0,0:0:0:0:
148,239,161162,1,2,1:2:0:0:
262,271,161356,6,0,B|269:246|294:216|360:208|396:259|396:303|396:303|404:304|404:304|396:303|396:303|398:337|375:364|339:362|339:362|319:377|295:370|295:370|274:380|251:371|251:371|228:379|207:362,1,419.999987182618,2|0,3:2|1:0,0:0:0:0:
87,311,162323,2,0,B|110:317|124:337|124:337|130:335|130:335|124:337|124:337|139:361|136:396,1,104.999996795654,0|0,1:0|3:0,0:0:0:0:
8,279,162710,6,0,B|30:195|-25:223|5:121,1,157.499995193482,4|0,3:1|3:0,0:0:0:0:
86,66,163485,2,0,P|88:98|98:124,1,52.4999983978272,2|0,2:0|3:0,0:0:0:0:
151,200,163872,1,2,1:2:0:0:
214,124,164065,1,2,3:2:0:0:
268,359,164452,2,0,P|282:322|341:279,1,104.999996795654,2|2,1:2|3:2,0:0:0:0:
428,328,165033,6,0,B|398:334|386:354|386:354|443:344|500:372,1,157.499995193482,2|0,3:2|0:0,0:0:0:0:
503,282,165807,2,0,P|511:238|516:220,1,52.4999983978272,2|0,2:0|3:0,0:0:0:0:
449,149,166194,1,2,1:2:0:0:
361,212,166388,1,2,3:2:0:0:
107,139,166775,2,0,P|155:131|218:163,1,104.999996795654,2|2,1:2|3:2,0:0:0:0:
304,117,167356,5,2,3:2:0:0:
97,14,167743,1,2,1:2:0:0:
107,139,168130,1,2,1:2:0:0:
142,262,168420,5,0,1:0:0:0:
115,239,168517,2,0,P|81:231|50:232,1,52.4999983978272,2|0,3:3|3:0,0:0:0:0:
8,322,168904,2,0,P|55:330|98:373,1,104.999996795654,2|2,1:2|1:2,0:0:0:0:
199,310,169485,2,0,B|186:314|173:322|130:391|278:412|238:307|215:303|209:297|201:294|188:264|195:222,1,202.499993820191,2|0,3:2|1:0,0:0:0:0:
269,171,170259,1,0,3:0:0:0:
204,99,170452,2,0,L|141:107,1,52.4999983978272,0|0,1:0|0:0,0:0:0:0:
51,25,170839,6,0,L|134:35,2,75,2|2|2,3:2|3:2|1:2,0:0:0:0:
98,127,171420,1,0,3:0:0:0:
204,99,171614,2,0,P|249:99|293:111,1,75,2|0,1:2|1:0,0:0:0:0:
358,209,172001,6,0,L|367:114,2,89.9999972534181,2|0|0,1:2|3:0|1:0,0:0:0:0:
341,300,172581,1,2,3:2:0:0:
401,372,172775,1,0,1:0:0:0:
507,265,172968,1,2,0:0:0:0:
501,252,173065,1,0,0:0:0:0:
487,254,173162,2,0,P|441:233|392:243,2,89.9999972534181,2|2|0,1:2|3:2|1:0,0:0:0:0:
475,146,173743,1,2,3:2:0:0:
504,63,173936,1,0,1:0:0:0:
385,0,174130,1,2,0:0:0:0:
372,5,174227,1,0,0:0:0:0:
369,18,174323,6,0,L|270:30,2,89.9999972534181,2|2|2,1:2|3:2|1:2,0:0:0:0:
323,117,174904,1,2,3:2:0:0:
195,83,175097,1,0,1:0:0:0:
153,230,175291,1,0,0:0:0:0:
147,242,175388,1,0,0:0:0:0:
133,240,175485,2,0,P|97:212|54:202,2,89.9999972534181,2|2|0,1:2|3:2|1:0,0:0:0:0:
88,337,176065,1,2,3:2:0:0:
243,381,176259,1,0,1:0:0:0:
245,367,176356,1,0,0:0:0:0:
253,356,176452,1,2,3:2:0:0:
264,348,176549,1,0,1:0:0:0:
269,378,176646,6,0,B|266:328|294:274|294:274|324:280|352:272,1,157.499995193482,4|0,3:1|3:0,0:0:0:0:
466,266,177420,2,0,P|437:284|411:316,1,52.4999983978272,2|0,0:0|3:0,0:0:0:0:
356,384,177807,1,2,1:2:0:0:
462,384,178001,1,2,3:2:0:0:
281,92,178388,2,0,P|297:140|292:205,1,104.999996795654,2|2,1:2|3:2,0:0:0:0:
246,302,178968,2,0,B|285:286|317:301|317:301|351:333|400:327,1,157.499995193482,2|0,3:2|0:0,0:0:0:0:
430,246,179743,2,0,P|438:202|443:184,1,52.4999983978272,2|0,0:0|3:0,0:0:0:0:
380,110,180130,1,2,1:2:0:0:
266,148,180323,1,2,3:2:0:0:
147,355,180710,2,0,P|121:355|93:369,1,52.4999983978272,2|0,1:2|0:0,0:0:0:0:
15,301,181097,1,2,3:2:0:0:
70,216,181291,6,0,P|92:198|114:193,1,37.5,2|0,3:2|0:0,0:0:0:0:
120,70,181678,2,0,P|148:65|169:72,1,44.999998626709
250,44,182065,2,0,P|277:54|293:71,1,52.4999983978272,2|0,3:2|0:0,0:0:0:0:
385,201,182452,6,0,B|389:166|389:166|407:117,1,67.4999979400635,2|0,3:2|0:0,0:0:0:0:
488,96,182839,2,0,B|491:126|491:126|506:168,1,52.4999983978272,2|0,3:2|0:0,0:0:0:0:
479,244,183227,2,0,B|454:261|454:261|426:296,1,60,2|0,3:2|0:0,0:0:0:0:
334,384,183614,6,0,B|321:333|305:369|287:298,1,75,2|0,1:2|0:0,0:0:0:0:
196,174,184001,2,0,P|176:222|149:245,1,60,0|0,1:0|0:0,0:0:0:0:
27,349,184388,2,0,P|77:337|124:370,1,101.249996910095,0|0,1:0|0:0,0:0:0:0:
139,365,184775,5,2,1:2:0:0:
179,285,184968,1,2,0:0:0:0:
74,210,185162,2,0,P|29:215|-17:239,1,75,0|0,1:0|0:0,0:0:0:0:
243,129,185549,2,0,P|279:155|307:199,1,75,2|0,1:2|0:0,0:0:0:0:
94,20,185936,5,6,3:2:0:0:
263,17,186194,1,0,0:0:0:0:
280,40,186323,2,0,P|361:40|388:136,1,179.999994506836,2|0,3:0|3:0,0:0:0:0:
440,204,186710,1,2,3:0:0:0:
253,239,186968,1,0,3:0:0:0:
258,266,187097,2,0,P|196:246|91:317,1,179.999994506836,2|0,1:2|0:0,0:0:0:0:
102,383,187485,2,0,P|79:307|-11:214,1,170.000003242493,2|0,3:0|0:0,0:0:0:0:
52,146,187872,1,2,3:0:0:0:
230,80,188130,1,0,0:0:0:0:
215,56,188259,2,0,P|202:161|341:166,2,269.999991760254,2|2|2,3:2|3:0|3:0,0:0:0:0:
396,0,189291,1,0,3:0:0:0:
412,20,189420,5,2,1:2:0:0:
505,305,189807,1,2,3:0:0:0:
184,383,190194,2,0,P|229:322|380:295,1,220.000006713867,2|0,3:0|3:0,0:0:0:0:
403,215,190581,6,0,P|470:148|334:137,2,255.000004863739,6|2|2,3:2|3:0|3:0,0:0:0:0:
219,165,191614,1,0,3:0:0:0:
192,192,191743,2,0,P|125:176|31:239,1,179.999994506836,2|0,1:2|0:0,0:0:0:0:
16,314,192130,2,0,P|6:243|-31:133,1,170.000003242493,2|0,3:0|0:0,0:0:0:0:
8,59,192517,1,2,3:0:0:0:
192,13,192775,1,0,0:0:0:0:
217,31,192904,2,0,B|294:54|314:104|306:109|307:194|417:218,2,269.999991760254,2|2|2,3:2|3:0|3:0,0:0:0:0:
73,155,193936,1,0,3:0:0:0:
79,183,194065,5,2,1:2:0:0:
196,344,194323,2,0,L|172:236,2,100,0|0|0,1:0|3:0|1:0,0:0:0:0:
295,356,194710,1,0,1:0:0:0:
320,343,194839,1,0,1:0:0:0:
339,320,194968,1,0,1:0:0:0:
343,292,195097,1,0,1:0:0:0:
370,252,195227,6,0,P|337:136|347:-16,2,255.000004863739,6|2|2,3:2|3:0|3:0,0:0:0:0:
507,383,196259,1,0,3:0:0:0:
498,357,196388,2,0,P|422:336|316:382,1,179.999994506836,2|0,1:2|0:0,0:0:0:0:
259,321,196775,2,0,P|152:281|126:207,1,170.000003242493,2|0,3:0|0:0,0:0:0:0:
40,270,197162,1,2,3:0:0:0:
55,80,197420,1,0,0:0:0:0:
42,56,197549,2,0,B|141:93|196:7|309:30,2,269.999991760254,2|2|2,3:2|3:0|3:0,0:0:0:0:
202,157,198581,1,0,3:0:0:0:
231,148,198710,5,2,1:2:0:0:
491,0,199097,1,2,3:0:0:0:
456,328,199485,2,0,P|376:279|405:160,1,220.000006713867,2|0,3:0|3:0,0:0:0:0:
345,99,199872,6,0,B|307:132|186:116|140:-13,2,255.000004863739,6|2|2,3:2|3:0|3:0,0:0:0:0:
248,263,200904,1,0,3:0:0:0:
223,286,201033,2,0,P|125:246|27:263,1,179.999994506836,2|0,1:2|0:0,0:0:0:0:
5,323,201420,2,0,P|16:277|6:81,1,170.000003242493,2|0,3:0|0:0,0:0:0:0:
55,66,201807,1,2,3:0:0:0:
235,125,202065,1,0,0:0:0:0:
266,107,202194,2,0,P|350:138|372:-13,2,269.999991760254,2|2|2,3:2|3:0|3:0,0:0:0:0:
192,282,203227,1,0,3:0:0:0:
202,311,203356,5,2,1:2:0:0:
376,232,203614,2,0,L|395:331,1,100,0|0,1:0|3:0,0:0:0:0:
511,343,203872,1,0,1:0:0:0:
495,314,204001,1,0,1:0:0:0:
487,270,204130,1,0,1:0:0:0:
494,230,204259,1,0,1:0:0:0:
512,192,204388,1,0,1:0:0:0:
494,142,204517,6,0,B|535:107|535:107|415:41|327:167,2,255.000004863739,6|2|2,3:2|3:0|3:0,0:0:0:0:
347,21,205549,1,0,3:0:0:0:
317,11,205678,2,0,P|252:32|97:-9,1,179.999994506836,2|0,1:2|0:0,0:0:0:0:
88,82,206065,2,0,P|154:70|166:193,1,170.000003242493,2|0,3:0|0:0,0:0:0:0:
270,210,206452,1,2,3:0:0:0:
147,355,206710,1,0,0:0:0:0:
124,327,206839,2,0,P|76:213|-36:98,2,269.999991760254,2|2|2,3:2|3:0|3:0,0:0:0:0:
311,297,207872,1,0,3:0:0:0:
336,316,208001,5,2,1:2:0:0:
511,71,208388,1,2,3:0:0:0:
188,0,208775,2,0,P|198:65|337:79,1,220.000006713867,2|0,3:0|3:0,0:0:0:0:
395,140,209162,6,0,B|420:101|420:101|407:250|498:322,2,255.000004863739,6|2|2,3:2|3:0|3:0,0:0:0:0:
336,316,210194,1,0,3:0:0:0:
317,342,210323,2,0,P|290:292|136:204,1,179.999994506836,2|0,1:2|0:0,0:0:0:0:
194,132,210710,2,0,P|171:189|29:177,1,170.000003242493,2|0,3:0|0:0,0:0:0:0:
0,274,211097,1,2,3:0:0:0:
65,95,211356,1,0,0:0:0:0:
53,65,211485,2,0,B|56:12|195:-8|182:75|305:42,2,269.999991760254,2|2|2,3:2|3:0|3:0,0:0:0:0:
226,143,212517,1,0,3:0:0:0:
237,168,212646,6,0,L|212:291,2,100,2|0|0,1:2|3:0|3:0,0:0:0:0:
323,217,213033,1,0,3:0:0:0:
323,217,213162,1,0,3:0:0:0:
323,217,213291,1,0,3:0:0:0:
347,200,213420,1,0,1:0:0:0:
490,328,213678,1,0,0:0:0:0:
469,348,213807,6,0,B|512:378|512:378|469:273|512:181,2,255.000004863739,6|2|2,3:2|3:0|3:0,0:0:0:0:
307,247,214839,1,0,3:0:0:0:
284,264,214968,2,0,P|227:199|278:103,1,179.999994506836,2|0,1:2|0:0,0:0:0:0:
204,49,215356,2,0,P|185:132|117:218,1,170.000003242493,2|0,3:0|0:0,0:0:0:0:
98,287,215743,1,2,3:0:0:0:
1,119,216001,1,0,0:0:0:0:
22,98,216130,2,0,P|75:81|-24:48,2,269.999991760254,2|2|2,3:2|3:0|3:0,0:0:0:0:
207,143,217162,1,0,3:0:0:0:
230,129,217291,5,2,1:2:0:0:
500,0,217678,1,2,3:0:0:0:
470,328,218065,2,0,P|419:253|310:310,1,220.000006713867,2|0,3:0|3:0,0:0:0:0:
240,254,218452,6,0,B|190:273|190:273|266:181|249:64,2,255.000004863739,6|2|2,3:2|3:0|3:0,0:0:0:0:
64,327,219485,1,0,3:0:0:0:
48,305,219614,2,0,P|66:230|-35:182,1,179.999994506836,2|0,1:2|0:0,0:0:0:0:
10,93,220001,2,0,P|49:160|118:219,1,170.000003242493,2|0,3:0|0:0,0:0:0:0:
206,181,220388,1,2,3:0:0:0:
333,321,220646,1,0,0:0:0:0:
360,306,220775,2,0,P|376:221|544:206,2,269.999991760254,2|2|2,3:2|3:0|3:0,0:0:0:0:
287,130,221807,1,0,3:0:0:0:
294,91,221936,2,0,L|204:115,1,85.5000026744843,2|0,2:0|1:0,0:0:0:0:
6,177,222356,2,0,P|78:230|106:313,1,171.000005348969,0|0,1:0|1:0,0:0:0:0:
145,288,222743,1,0,3:0:0:0:
149,188,222904,2,0,L|181:119,1,75.000002861023,0|0,1:0|1:0,0:0:0:0:
160,84,223147,6,0,B|152:-2|234:-45|316:-17|300:77|297:86|298:94|233:124|259:174|259:191|259:191|269:207|272:224|272:224|292:242|292:242|278:276|300:288|300:288|308:300|305:315,1,495.000015106202,4|0,3:2|0:0,0:0:0:0:
