osu file format v14

[General]
AudioFilename: audio.mp3
AudioLeadIn: 0
PreviewTime: 41945
Countdown: 0
SampleSet: Soft
StackLeniency: 0.6
Mode: 0
LetterboxInBreaks: 0
WidescreenStoryboard: 1

[Editor]
Bookmarks: 137,14072,23362,32653,41943,60524,69814,88397,106977,116268,125558,134848,144138,162719,185945,223147,228953
DistanceSpacing: 0.5
BeatDivisor: 12
GridSize: 8
TimelineZoom: 2.100017

[Metadata]
Title:Sweater In The Lake
TitleUnicode:Sweater In The Lake
Artist:Look Vibrant
ArtistUnicode:Look Vibrant
Creator:-Tatsuo
Version:Expert
Source:
Tags:phynta english the up here place alternative drop rock experimental sounds core top pop art indie no wave post-punk prog progressive montreal noise avant-garde justin lazarus matthew murphy alex rand eli kaufman
BeatmapID:2292884
BeatmapSetID:1097306

[Difficulty]
HPDrainRate:5.8
CircleSize:4
OverallDifficulty:8.2
ApproachRate:9.2
SliderMultiplier:2.5
SliderTickRate:0.5

[Events]
//Background and Video events
0,0,"2872817-nature-artwork-lake-hill-reflection___abstract-wallpapers.jpg",0,0
//Break Periods
//Storyboard Layer 0 (Background)
//Storyboard Layer 1 (Fail)
//Storyboard Layer 2 (Pass)
//Storyboard Layer 3 (Foreground)
//Storyboard Layer 4 (Overlay)
//Storyboard Sound Samples

[TimingPoints]
132,387.096774193548,3,2,0,40,1,0
132,-100,3,2,0,40,0,0
14067,-125,3,2,0,40,0,0
23357,-111.111111111111,3,2,0,55,0,0
27615,-166.666666666666,3,2,0,55,0,0
28002,-111.111111111111,3,2,0,55,0,0
32261,-166.666666666666,3,2,0,55,0,0
32648,-100,3,2,0,70,0,0
41938,-142.857142857143,3,2,0,60,0,0
51228,-125,3,2,0,60,0,0
60519,-200,3,2,0,50,0,0
61680,379.746835443038,3,2,0,50,1,0
61680,-125,3,2,0,50,0,0
62313,397.350993377483,3,2,0,50,1,0
62313,-250,3,2,0,50,0,0
62712,387.096774193548,3,2,0,50,1,0
63228,372.670807453416,3,2,0,50,1,0
63972,404.040404040404,3,2,0,50,1,0
63972,-145.985401459854,3,2,0,50,0,0
64780,451.127819548872,3,2,0,50,1,0
65006,355.029585798817,3,2,0,50,1,0
65184,370.37037037037,3,2,0,50,1,0
65184,-142.857142857143,3,2,0,50,0,0
65803,384.615384615384,3,2,0,50,1,0
65803,-142.857142857143,3,2,0,50,0,0
66315,390.243902439024,3,2,0,50,1,0
66315,-250.000000000001,3,2,0,50,0,0
67357,343.839541547277,3,2,0,50,1,0
67873,387.096774193548,3,2,0,50,1,0
68647,387.096774193548,3,2,0,50,1,0
69808,-76.9230769230769,3,2,0,70,0,0
70969,-83.3333333333333,3,2,0,70,0,0
72130,-90.9090909090909,3,2,0,70,0,0
72711,-83.3333333333333,3,2,0,70,0,0
72905,-90.9090909090909,3,2,0,70,0,0
73292,-100,3,2,0,70,0,0
74453,-76.9230769230769,3,2,0,70,0,0
75614,-83.3333333333333,3,2,0,70,0,0
76776,-71.4285714285714,3,2,0,70,0,0
77937,-90.9090909090909,3,2,0,70,0,0
78517,-100,3,2,0,70,0,0
79098,-76.9230769230769,3,2,0,70,0,0
80259,-83.3333333333333,3,2,0,70,0,0
81421,-90.9090909090909,3,2,0,70,0,0
82001,-83.3333333333333,3,2,0,70,0,0
82195,-90.9090909090909,3,2,0,70,0,0
82582,-100,3,2,0,70,0,0
83743,-76.9230769230769,3,2,0,70,0,0
84905,-83.3333333333333,3,2,0,70,0,0
86066,-90.9090909090909,3,2,0,70,0,0
86646,-100,3,2,0,70,0,0
87227,-125,3,2,0,70,0,0
88388,-142.857142857143,3,2,0,60,0,0
96517,-100,3,2,0,60,0,0
97679,-125,3,2,0,60,0,0
106969,-200,3,2,0,50,0,0
108130,393.44262295082,3,2,0,50,1,0
108130,-125,3,2,0,50,0,0
108787,335.195530726257,3,2,0,50,1,0
108787,-250,3,2,0,50,0,0
109122,434.782608695652,3,2,0,50,1,0
109122,-250,3,2,0,50,0,0
109267,397.350993377483,3,2,0,50,1,0
109664,394.736842105263,3,2,0,50,1,0
110453,387.096774193548,3,2,0,50,1,0
110453,-148.367952522255,3,2,0,50,0,0
111227,348.837209302325,3,2,0,50,1,0
111460,491.803278688524,3,2,0,50,1,0
111624,380.952380952381,3,2,0,50,1,0
111624,-142.857142857143,3,2,0,50,0,0
112195,413.793103448275,3,2,0,50,1,0
112608,337.078651685393,3,2,0,50,1,0
112776,377.358490566037,3,2,0,50,1,0
112776,-250.000000000001,3,2,0,50,0,0
113782,371.517027863777,3,2,0,50,1,0
114340,378.548895899054,3,2,0,50,1,0
115098,387.096774193548,3,2,0,50,1,0
115872,-250.000000000001,3,2,0,75,0,0
116259,-66.6666666666667,3,2,0,75,0,0
116646,-62.5,3,2,0,75,0,0
117033,-58.8235294117647,3,2,0,75,0,0
117420,-62.5,3,2,0,75,0,0
117807,-66.6666666666667,3,2,0,75,0,0
118194,-58.8235294117647,3,2,0,75,0,0
118581,-62.5,3,2,0,75,0,0
118968,-66.6666666666667,3,2,0,75,0,0
119356,-58.8235294117647,3,2,0,75,0,0
119743,-55.5555555555556,3,2,0,75,0,0
120517,-50,3,2,0,75,0,0
120904,-66.6666666666667,3,2,0,75,0,0
121291,-62.5,3,2,0,75,0,0
121678,-58.8235294117647,3,2,0,75,0,0
122065,-62.5,3,2,0,75,0,0
122452,-66.6666666666667,3,2,0,75,0,0
122839,-58.8235294117647,3,2,0,75,0,0
123227,-62.5,3,2,0,75,0,0
123614,-66.6666666666667,3,2,0,75,0,0
124001,-58.8235294117647,3,2,0,75,0,0
124388,-55.5555555555556,3,2,0,75,0,0
124646,-111.111111111111,3,2,0,75,0,0
125549,-200,3,2,0,50,0,0
126614,-200,3,2,0,5,0,0
126710,-200,3,2,0,50,0,0
127388,-200,3,2,0,5,0,0
127485,-200,3,2,0,50,0,0
127775,-200,3,2,0,5,0,0
127872,-200,3,2,0,50,0,0
128549,-200,3,2,0,5,0,0
128646,-200,3,2,0,50,0,0
128936,-200,3,2,0,5,0,0
129033,-200,3,2,0,50,0,0
129323,-200,3,2,0,5,0,0
129420,-200,3,2,0,50,0,0
129710,-200,3,2,0,5,0,0
129807,-200,3,2,0,50,0,0
130097,-200,3,2,0,5,0,0
130194,-200,3,2,0,50,0,0
131259,-200,3,2,0,5,0,0
131356,-200,3,2,0,50,0,0
132033,-200,3,2,0,5,0,0
132130,-200,3,2,0,50,0,0
132420,-200,3,2,0,5,0,0
132517,-200,3,2,0,50,0,0
134839,-1000,3,2,0,49,0,0
136001,-500,3,2,0,51,0,0
137162,-333.333333333333,3,2,0,53,0,0
138323,-250,3,2,0,55,0,0
139485,-200,3,2,0,57,0,0
140646,-166.666666666667,3,2,0,59,0,0
141807,-142.857142857143,3,2,0,61,0,0
142968,-125,3,2,0,63,0,0
144130,-111.111111111111,3,2,0,65,0,0
147323,-111.111111111111,3,2,0,5,0,0
147420,-111.111111111111,3,2,0,65,0,0
147904,-111.111111111111,3,2,0,5,0,0
148001,-111.111111111111,3,2,0,65,0,0
148678,-111.111111111111,3,2,0,5,0,0
148775,-111.111111111111,3,2,0,65,0,0
149646,-111.111111111111,3,2,0,5,0,0
149743,-111.111111111111,3,2,0,65,0,0
150227,-111.111111111111,3,2,0,5,0,0
150323,-111.111111111111,3,2,0,65,0,0
151388,-111.111111111111,3,2,0,5,0,0
151485,-111.111111111111,3,2,0,65,0,0
151581,-111.111111111111,3,2,0,5,0,0
151678,-111.111111111111,3,2,0,65,0,0
152162,-111.111111111111,3,2,0,5,0,0
152259,-83.3333333333333,3,2,0,65,0,0
153420,-100,3,2,0,70,0,0
157194,-100,3,2,0,5,0,0
157291,-100,3,2,0,70,0,0
158065,-90.9090909090909,3,2,0,72,0,0
159033,-83.3333333333333,3,2,0,74,0,0
160194,-76.9230769230769,3,2,0,76,0,0
160678,-76.9230769230769,3,2,0,5,0,0
160775,-76.9230769230769,3,2,0,76,0,0
161356,-71.4285714285714,3,2,0,78,0,1
162710,-142.857142857143,3,2,0,70,0,0
164743,-142.857142857143,3,2,0,5,0,0
164839,-142.857142857143,3,2,0,70,0,0
167065,-142.857142857143,3,2,0,5,0,0
167162,-142.857142857143,3,2,0,70,0,0
169194,-142.857142857143,3,2,0,5,0,0
169291,-142.857142857143,3,2,0,70,0,0
170839,-100,3,2,0,70,0,0
172001,-71.4285714285714,3,2,0,70,0,1
176646,-142.857142857143,3,2,0,70,0,0
178678,-142.857142857143,3,2,0,70,0,0
178775,-142.857142857143,3,2,0,70,0,0
181001,-142.857142857143,3,2,0,70,0,0
181097,-142.857142857143,3,2,0,70,0,0
184775,-100,3,2,0,70,0,0
185936,-58.8235294117647,3,2,0,80,0,0
186323,-55.5555555555556,3,2,0,80,0,0
186710,-52.6315789473684,3,2,0,80,0,0
187097,-55.5555555555556,3,2,0,80,0,0
187485,-58.8235294117647,3,2,0,80,0,0
187872,-52.6315789473684,3,2,0,80,0,0
188259,-55.5555555555556,3,2,0,80,0,0
188646,-58.8235294117647,3,2,0,80,0,0
189033,-52.6315789473684,3,2,0,80,0,0
189420,-50,3,2,0,80,0,0
190194,-45.4545454545455,3,2,0,80,0,0
190581,-58.8235294117647,3,2,0,80,0,0
190968,-55.5555555555556,3,2,0,80,0,0
191356,-52.6315789473684,3,2,0,80,0,0
191743,-55.5555555555556,3,2,0,80,0,0
192130,-58.8235294117647,3,2,0,80,0,0
192517,-52.6315789473684,3,2,0,80,0,0
192904,-55.5555555555556,3,2,0,80,0,0
193291,-58.8235294117647,3,2,0,80,0,0
193678,-52.6315789473684,3,2,0,80,0,0
194065,-50,3,2,0,80,0,0
194839,-45.4545454545455,3,2,0,80,0,0
195227,-58.8235294117647,3,2,0,80,0,0
195614,-55.5555555555556,3,2,0,80,0,0
196001,-52.6315789473684,3,2,0,80,0,0
196388,-55.5555555555556,3,2,0,80,0,0
196775,-58.8235294117647,3,2,0,80,0,0
197162,-52.6315789473684,3,2,0,80,0,0
197549,-55.5555555555556,3,2,0,80,0,0
197936,-58.8235294117647,3,2,0,80,0,0
198323,-52.6315789473684,3,2,0,80,0,0
198710,-50,3,2,0,80,0,0
199485,-45.4545454545455,3,2,0,80,0,0
199872,-58.8235294117647,3,2,0,80,0,0
200259,-55.5555555555556,3,2,0,80,0,0
200646,-52.6315789473684,3,2,0,80,0,0
201033,-55.5555555555556,3,2,0,80,0,0
201420,-58.8235294117647,3,2,0,80,0,0
201807,-52.6315789473684,3,2,0,80,0,0
202194,-55.5555555555556,3,2,0,80,0,0
202581,-58.8235294117647,3,2,0,80,0,0
202968,-52.6315789473684,3,2,0,80,0,0
203356,-50,3,2,0,80,0,0
204130,-45.4545454545455,3,2,0,80,0,0
204517,-58.8235294117647,3,2,0,80,0,0
204904,-55.5555555555556,3,2,0,80,0,0
205291,-52.6315789473684,3,2,0,80,0,0
205678,-55.5555555555556,3,2,0,80,0,0
206065,-58.8235294117647,3,2,0,80,0,0
206452,-52.6315789473684,3,2,0,80,0,0
206839,-55.5555555555556,3,2,0,80,0,0
207227,-58.8235294117647,3,2,0,80,0,0
207614,-52.6315789473684,3,2,0,80,0,0
208001,-50,3,2,0,80,0,0
208775,-45.4545454545455,3,2,0,80,0,0
209162,-58.8235294117647,3,2,0,80,0,0
209549,-55.5555555555556,3,2,0,80,0,0
209936,-52.6315789473684,3,2,0,80,0,0
210323,-55.5555555555556,3,2,0,80,0,0
210710,-58.8235294117647,3,2,0,80,0,0
211097,-52.6315789473684,3,2,0,80,0,0
211485,-55.5555555555556,3,2,0,80,0,0
211872,-58.8235294117647,3,2,0,80,0,0
212259,-52.6315789473684,3,2,0,80,0,0
212646,-50,3,2,0,80,0,0
213420,-45.4545454545455,3,2,0,80,0,0
213807,-58.8235294117647,3,2,0,80,0,0
214194,-55.5555555555556,3,2,0,80,0,0
214581,-52.6315789473684,3,2,0,80,0,0
214968,-55.5555555555556,3,2,0,80,0,0
215356,-58.8235294117647,3,2,0,80,0,0
215743,-52.6315789473684,3,2,0,80,0,0
216130,-55.5555555555556,3,2,0,80,0,0
216517,-58.8235294117647,3,2,0,80,0,0
216904,-52.6315789473684,3,2,0,80,0,0
217291,-50,3,2,0,80,0,0
218065,-45.4545454545455,3,2,0,80,0,0
218452,-58.8235294117647,3,2,0,80,0,0
218839,-55.5555555555556,3,2,0,80,0,0
219227,-52.6315789473684,3,2,0,80,0,0
219614,-55.5555555555556,3,2,0,80,0,0
220001,-58.8235294117647,3,2,0,80,0,0
220388,-52.6315789473684,3,2,0,80,0,0
220775,-55.5555555555556,3,2,0,80,0,0
221162,-58.8235294117647,3,2,0,80,0,0
221549,-52.6315789473684,3,2,0,80,0,0
221936,-50,3,2,0,80,0,0
222904,364.741641337386,3,2,0,80,1,0
222904,-50,3,2,0,80,0,0
223147,387.096774193548,3,2,0,80,1,0
223147,-323.624595469256,3,2,0,80,0,0
223921,-322.58064516129,3,2,1,70,0,0
224695,-322.58064516129,3,2,0,60,0,0
225469,-322.58064516129,3,2,1,50,0,0
226243,-322.58064516129,3,2,0,40,0,0
227017,-322.58064516129,3,2,1,30,0,0
227792,-322.58064516129,3,2,0,20,0,0
228566,-322.58064516129,3,2,1,10,0,0
228953,-322.58064516129,3,2,0,5,0,0

[Colours]
Combo1 : 128,255,128
Combo2 : 128,255,255
Combo3 : 255,128,64
Combo4 : 128,128,255

[HitObjects]
0,352,14067,5,2,3:0:0:0:
0,352,14357,1,0,1:0:0:0:
0,352,14454,1,0,3:0:0:0:
44,261,14648,1,0,1:0:0:0:
141,240,14841,1,0,3:0:0:0:
121,141,15035,1,0,1:0:0:0:
171,55,15228,1,0,3:0:0:0:
171,55,15519,1,0,1:0:0:0:
171,55,15615,1,0,3:0:0:0:
259,102,15809,1,0,1:0:0:0:
306,14,16002,1,0,3:0:0:0:
405,0,16196,1,0,1:0:0:0:
384,103,16390,1,2,3:0:0:0:
384,103,16680,1,0,1:0:0:0:
384,103,16777,1,0,3:0:0:0:
404,200,16970,1,0,1:0:0:0:
326,263,17164,1,0,3:0:0:0:
383,344,17357,1,0,1:0:0:0:
237,383,17551,2,0,L|12:332,2,200,0|0|0,3:0|3:0|3:0,0:0:0:0:
96,241,18712,5,2,3:0:0:0:
176,180,19002,1,0,1:0:0:0:
176,180,19099,1,0,3:0:0:0:
151,82,19293,1,0,1:0:0:0:
208,0,19486,1,0,3:0:0:0:
291,55,19680,1,0,1:0:0:0:
280,154,19873,1,0,3:0:0:0:
378,126,20164,1,0,1:0:0:0:
378,126,20261,1,0,3:0:0:0:
456,187,20454,1,0,1:0:0:0:
419,280,20648,1,0,3:0:0:0:
446,375,20841,1,0,1:0:0:0:
347,359,21035,1,2,3:0:0:0:
312,270,21325,1,0,1:0:0:0:
312,270,21422,1,0,3:0:0:0:
216,299,21615,1,0,1:0:0:0:
126,253,21809,1,0,3:0:0:0:
205,192,22002,1,0,1:0:0:0:
176,49,22196,2,0,L|-49:100,2,200,0|0|0,3:0|3:0|3:0,0:0:0:0:
307,231,23357,5,6,3:2:0:0:
413,193,23551,1,0,1:0:0:0:
339,108,23744,1,0,3:0:0:0:
469,0,23938,1,0,1:0:0:0:
358,20,24131,1,0,3:0:0:0:
482,134,24325,1,0,1:0:0:0:
510,243,24519,1,0,3:0:0:0:
428,319,24712,1,0,1:0:0:0:
341,246,24906,1,0,3:0:0:0:
182,302,25099,1,0,1:0:0:0:
269,372,25293,1,0,3:0:0:0:
234,207,25486,1,0,1:0:0:0:
291,109,25680,1,2,3:0:0:0:
213,28,25873,1,0,1:0:0:0:
179,135,26067,1,0,3:0:0:0:
20,76,26261,1,0,1:0:0:0:
78,171,26454,1,0,3:0:0:0:
41,335,26648,1,0,1:0:0:0:
202,383,26841,2,0,L|237:224,1,112.499996566773,0|0,3:0|1:0,0:0:0:0:
251,163,27228,2,0,L|215:321,1,112.499996566773,0|0,3:0|1:0,0:0:0:0:
202,383,27615,2,0,L|232:243,1,112.499996566773,0|0,3:0|1:0,0:0:0:0:
354,277,28002,5,6,3:2:0:0:
464,253,28196,1,0,1:0:0:0:
493,144,28390,1,0,3:0:0:0:
330,189,28583,1,0,1:0:0:0:
380,88,28777,1,0,3:0:0:0:
236,0,28970,1,0,1:0:0:0:
192,104,29164,1,0,3:0:0:0:
82,126,29357,1,0,1:0:0:0:
27,224,29551,1,0,3:0:0:0:
193,194,29744,1,0,1:0:0:0:
303,216,29938,1,0,3:0:0:0:
154,295,30131,1,0,1:0:0:0:
223,383,30325,1,2,3:0:0:0:
324,333,30519,1,0,1:0:0:0:
434,354,30712,1,0,3:0:0:0:
376,194,30906,1,0,1:0:0:0:
401,84,31099,1,0,3:0:0:0:
242,144,31293,1,0,1:0:0:0:
95,60,31486,2,0,L|70:169,1,112.499996566773,0|0,3:0|1:0,0:0:0:0:
46,279,31873,2,0,L|70:169,1,112.499996566773,0|0,3:0|1:0,0:0:0:0:
95,60,32261,2,0,L|63:198,1,112.499996566773,0|0,3:0|1:0,0:0:0:0:
171,279,32648,6,0,B|195:217|294:253|296:352,1,187.5,2|0,3:0|0:0,0:0:0:0:
386,358,33035,1,0,3:0:0:0:
324,181,33228,1,0,1:0:0:0:
353,59,33422,1,0,3:0:0:0:
192,155,33615,1,0,1:0:0:0:
57,23,33809,2,0,B|119:47|83:146|-16:148,1,187.5,2|0,3:0|0:0,0:0:0:0:
46,227,34196,1,0,3:0:0:0:
230,257,34390,1,0,1:0:0:0:
342,200,34583,1,0,3:0:0:0:
160,153,34777,1,0,1:0:0:0:
301,30,34970,2,0,B|274:90|369:135|441:66,1,187.5,2|0,3:0|0:0,0:0:0:0:
480,155,35357,1,0,3:0:0:0:
350,291,35551,1,0,1:0:0:0:
226,310,35744,1,0,3:0:0:0:
399,383,35938,1,0,1:0:0:0:
278,239,36131,2,0,L|244:93,1,125,4|0,3:2|1:0,0:0:0:0:
94,269,36519,2,0,L|127:414,1,125,0|0,3:0|1:0,0:0:0:0:
62,120,36906,2,0,L|28:-25,1,125,0|0,3:0|1:0,0:0:0:0:
178,204,37293,6,0,B|119:229|75:134|134:73,1,187.5,6|0,3:2|0:0,0:0:0:0:
227,67,37680,1,0,3:0:0:0:
372,185,37873,2,0,B|406:184|430:167|435:148,1,62.5,0|0,1:0|0:0,0:0:0:0:
259,245,38067,1,0,3:0:0:0:
385,382,38261,1,0,1:0:0:0:
145,309,38454,2,0,B|189:263|114:188|37:223,1,187.5,4|0,3:2|0:0,0:0:0:0:
0,137,38841,1,0,3:0:0:0:
186,124,39035,2,0,B|158:104|147:77|153:58,1,62.5,0|0,1:0|0:0,0:0:0:0:
312,172,39228,1,0,3:0:0:0:
388,0,39422,1,0,1:0:0:0:
511,217,39615,2,0,B|535:213|478:168|416:232,1,62.5,6|0,3:2|0:0,0:0:0:0:
305,295,39809,2,0,B|282:303|309:236|394:260,1,62.5,0|0,1:0|0:0,0:0:0:0:
219,207,40002,1,0,3:0:0:0:
77,83,40196,2,0,B|111:82|135:65|140:46,1,62.5,0|0,1:0|0:0,0:0:0:0:
0,192,40390,1,0,3:0:0:0:
54,371,40583,1,0,1:0:0:0:
318,275,40777,2,0,L|179:251,1,125,0|0,3:0|0:0,0:0:0:0:
150,187,41067,1,0,3:0:0:0:
143,159,41164,1,0,3:0:0:0:
137,131,41261,1,0,3:0:0:0:
16,0,41454,1,0,3:0:0:0:
8,37,41551,1,0,3:0:0:0:
0,73,41648,1,0,3:0:0:0:
367,150,41938,6,0,B|362:121|412:97|455:138,1,87.499997329712,4|0,3:1|0:0,0:0:0:0:
511,230,42325,2,0,B|493:269|439:272|401:250,1,87.499997329712,2|0,0:0|3:0,0:0:0:0:
312,345,42712,2,0,B|338:314|334:250|288:249,1,87.499997329712,2|0,0:0|3:0,0:0:0:0:
152,322,43099,2,0,B|181:314|208:217|81:188,1,174.999994659424,2|0,1:2|0:0,0:0:0:0:
200,148,43680,1,0,3:0:0:0:
200,148,43873,1,0,0:0:0:0:
91,183,44067,1,2,3:2:0:0:
40,52,44261,1,2,3:2:0:0:
160,68,44454,1,2,0:0:0:0:
355,12,44648,2,0,B|361:-8|286:-1|277:46|307:47|322:101|238:146,1,174.999994659424,2|0,0:0|0:0,0:0:0:0:
159,197,45228,1,2,3:2:0:0:
259,306,45422,2,0,B|251:255|153:268|126:358,1,174.999994659424,2|0,1:2|0:0,0:0:0:0:
25,317,46002,1,0,3:0:0:0:
25,317,46196,1,0,0:0:0:0:
1,199,46390,1,2,3:2:0:0:
131,213,46583,5,2,3:2:0:0:
243,145,46777,1,2,0:0:0:0:
346,251,46970,2,0,B|323:275|273:258|265:210,1,87.499997329712,2|0,0:0|3:0,0:0:0:0:
326,112,47357,1,2,0:0:0:0:
444,169,47551,1,2,3:2:0:0:
396,28,47744,2,0,B|358:30|343:0|302:8,1,87.499997329712,2|0,1:2|0:0,0:0:0:0:
183,81,48131,2,0,B|177:101|113:78|106:55,1,87.499997329712,2|0,0:0|3:0,0:0:0:0:
31,188,48519,1,2,0:0:0:0:
160,167,48712,1,2,3:2:0:0:
55,273,48906,2,0,B|61:331|164:307|153:310,1,87.499997329712,2|0,3:2|0:0,0:0:0:0:
247,230,49293,1,2,0:2:0:0:
370,272,49486,1,2,3:2:0:0:
432,136,49680,2,0,B|407:136|408:212|468:229,1,87.499997329712,2|0,0:0|3:0,0:0:0:0:
329,72,50067,5,0,1:0:0:0:
226,95,50454,1,0,0:0:0:0:
123,118,50744,1,0,1:0:0:0:
123,118,50841,2,0,L|151:135,1,21.874999332428,0|0,1:0|1:0,0:0:0:0:
20,141,51035,1,0,3:0:0:0:
115,281,51228,6,0,B|126:247|195:202|235:255,1,100,6|0,3:2|0:0,0:0:0:0:
327,336,51615,2,0,B|323:350|248:376|239:276,1,100,2|0,0:0|3:0,0:0:0:0:
395,230,52002,2,0,B|372:202|380:138|439:140,1,100,2|0,0:0|3:0,0:0:0:0:
286,0,52390,2,0,B|186:-12|164:79|211:118|214:120|217:124|299:167|245:239|197:275|150:256|99:183|175:148,1,400,2|0,1:2|0:0,0:0:0:0:
318,129,53357,1,2,3:2:0:0:
424,234,53551,1,2,3:2:0:0:
380,377,53744,1,2,0:0:0:0:
508,265,53938,2,0,B|447:218|508:130|427:94,1,200,2|0,0:0|0:0,0:0:0:0:
282,135,54519,1,2,3:2:0:0:
380,0,54712,2,0,B|441:-40|490:58|441:117|305:102|307:56|330:-2|213:-4|150:66,1,400,2|0,1:2|0:0,0:0:0:0:
42,0,55680,1,0,3:0:0:0:
201,82,55873,5,2,3:2:0:0:
75,164,56067,1,2,0:0:0:0:
105,331,56261,2,0,B|99:363|23:350|18:291,1,100,2|0,0:0|3:0,0:0:0:0:
166,265,56648,1,2,0:0:0:0:
308,309,56841,1,2,3:2:0:0:
213,167,57035,1,2,1:2:0:0:
289,62,57228,1,2,0:0:0:0:
166,0,57422,2,0,B|137:38|180:62|153:105,1,100,2|0,0:0|3:0,0:0:0:0:
72,193,57809,1,2,0:0:0:0:
145,274,58002,1,2,3:2:0:0:
240,157,58196,2,0,B|231:161|259:224|354:164,1,100,2|0,3:2|0:0,0:0:0:0:
261,320,58583,1,2,0:0:0:0:
146,381,58777,1,2,3:2:0:0:
343,356,58970,2,0,B|354:305|400:309|371:226,1,100,2|0,0:0|3:0,0:0:0:0:
296,68,59357,5,0,1:0:0:0:
240,157,59744,1,0,1:0:0:0:
183,246,60131,1,0,1:0:0:0:
127,335,60422,2,0,L|168:323,1,25,0|0,1:0|0:0,0:0:0:0:
120,322,60519,6,0,P|167:302|173:165,1,187.5,4|0,3:2|0:0,0:0:0:0:
217,84,61648,1,0,0:0:0:0:
217,84,61680,2,0,B|289:139|332:56|418:82,1,200,0|0,1:0|0:0,0:0:0:0:
478,146,62313,2,0,P|464:97|485:76,1,83.3333333333333
403,3,62712,1,0,1:0:0:0:
383,6,62776,1,0,1:0:0:0:
363,9,62841,1,2,3:0:0:0:
343,12,63228,1,2,3:0:0:0:
391,178,63849,1,2,3:0:0:0:
216,302,63972,2,0,B|195:406|324:386|372:323|266:224|260:221|257:216|191:130|272:28,1,437.49998664856,0|0,1:0|3:0,0:0:0:0:
377,99,65184,6,0,P|460:87|391:188,1,262.499991989136,2|0,3:0|0:0,0:0:0:0:
490,228,65803,2,0,P|397:254|426:329,1,174.999994659424,2|0,3:0|0:0,0:0:0:0:
337,363,66315,2,0,B|276:406|238:325|172:370,1,166.666666666667,0|0,1:0|0:0,0:0:0:0:
45,294,67355,1,0,1:0:0:0:
57,254,67414,1,0,1:0:0:0:
69,214,67471,1,2,3:0:0:0:
105,94,67873,1,2,3:0:0:0:
512,384,69808,5,4,3:2:0:0:
470,357,69905,1,0,3:0:0:0:
446,314,70001,1,0,3:0:0:0:
445,265,70098,1,0,3:0:0:0:
423,221,70195,1,4,3:0:0:0:
377,203,70292,1,0,3:0:0:0:
329,215,70388,1,0,1:0:0:0:
301,255,70485,1,0,3:0:0:0:
259,279,70582,1,4,3:0:0:0:
211,267,70679,1,0,3:0:0:0:
185,225,70776,1,0,1:0:0:0:
203,180,70872,1,0,3:0:0:0:
206,240,70969,1,4,3:0:0:0:
231,277,71066,1,0,3:0:0:0:
272,293,71163,1,0,3:0:0:0:
313,275,71259,1,0,3:0:0:0:
338,238,71356,1,4,3:0:0:0:
332,193,71453,1,0,3:0:0:0:
301,159,71550,1,0,1:0:0:0:
256,153,71647,1,0,3:0:0:0:
216,131,71743,1,4,3:0:0:0:
189,94,71840,1,0,3:0:0:0:
185,49,71937,1,0,1:0:0:0:
217,31,72034,1,0,3:0:0:0:
196,67,72130,1,4,3:0:0:0:
211,105,72227,1,0,3:0:0:0:
244,128,72324,1,0,3:0:0:0:
259,166,72421,1,0,3:0:0:0:
242,203,72517,1,4,3:0:0:0:
257,241,72614,1,0,3:0:0:0:
222,192,72711,1,0,1:0:0:0:
178,180,72808,1,0,3:0:0:0:
218,217,72905,1,4,3:0:0:0:
233,255,73001,1,0,3:0:0:0:
201,282,73098,1,0,1:0:0:0:
216,320,73195,1,0,3:0:0:0:
178,286,73292,2,0,L|96:299,1,62.5,4|0,3:0|3:0,0:0:0:0:
358,248,73485,2,0,L|296:238,1,62.5,0|0,3:0|3:0,0:0:0:0:
183,291,73679,2,0,L|122:301,1,62.5,4|0,3:0|3:0,0:0:0:0:
358,243,73872,2,0,L|276:230,1,62.5,0|0,3:0|3:0,0:0:0:0:
512,384,74066,5,0,1:0:0:0:
498,304,74163,1,0,1:0:0:0:
484,224,74259,1,0,1:0:0:0:
470,144,74356,1,0,1:0:0:0:
493,204,74453,5,4,3:0:0:0:
476,249,74550,1,0,3:0:0:0:
432,271,74647,1,0,3:0:0:0:
384,263,74743,1,0,3:0:0:0:
346,231,74840,1,4,3:0:0:0:
301,210,74937,1,0,3:0:0:0:
263,241,75034,1,0,1:0:0:0:
250,287,75130,1,0,3:0:0:0:
219,325,75227,1,4,3:0:0:0:
176,349,75324,1,0,3:0:0:0:
132,326,75421,1,0,1:0:0:0:
125,277,75517,1,0,3:0:0:0:
110,334,75614,1,4,3:0:0:0:
72,359,75711,1,0,3:0:0:0:
30,340,75808,1,0,3:0:0:0:
18,296,75905,1,0,3:0:0:0:
38,256,76001,1,4,3:0:0:0:
80,240,76098,1,0,3:0:0:0:
113,210,76195,1,0,1:0:0:0:
126,166,76292,1,0,3:0:0:0:
102,127,76388,1,4,3:0:0:0:
59,112,76485,1,0,3:0:0:0:
19,132,76582,1,0,1:0:0:0:
6,175,76679,1,0,3:0:0:0:
38,113,76776,1,4,3:0:0:0:
53,54,76872,1,0,3:0:0:0:
102,19,76969,1,0,3:0:0:0:
162,24,77066,1,0,3:0:0:0:
209,64,77163,1,4,3:0:0:0:
227,122,77259,1,0,3:0:0:0:
205,180,77356,1,0,3:0:0:0:
208,240,77453,1,0,3:0:0:0:
245,289,77550,1,4,3:0:0:0:
303,306,77646,1,0,3:0:0:0:
357,280,77743,1,0,3:0:0:0:
377,222,77840,1,0,3:0:0:0:
343,266,77937,6,0,L|425:279,1,68.7500020980836,0|0,1:0|3:0,0:0:0:0:
200,384,78130,1,0,1:0:0:0:
200,384,78227,2,0,L|282:371,1,68.7500020980836,0|4,1:0|3:0,0:0:0:0:
79,323,78421,1,0,3:0:0:0:
79,323,78517,2,0,L|161:310,1,62.5,0|0,1:0|3:0,0:0:0:0:
134,31,78711,5,0,1:0:0:0:
161,107,78808,1,0,1:0:0:0:
189,183,78905,1,0,1:0:0:0:
217,259,79001,1,0,1:0:0:0:
165,218,79098,5,4,3:2:0:0:
143,174,79195,1,0,3:0:0:0:
154,126,79292,1,0,3:0:0:0:
199,108,79388,1,0,3:0:0:0:
241,131,79485,1,4,3:0:0:0:
287,146,79582,1,0,3:0:0:0:
327,119,79679,1,0,1:0:0:0:
327,70,79776,1,0,3:0:0:0:
354,30,79872,1,4,3:0:0:0:
399,12,79969,1,0,3:0:0:0:
438,40,80066,1,0,1:0:0:0:
441,88,80163,1,0,3:0:0:0:
412,35,80259,1,4,3:0:0:0:
368,43,80356,1,0,3:0:0:0:
351,84,80453,1,0,3:0:0:0:
365,126,80550,1,0,3:0:0:0:
397,157,80646,1,4,3:0:0:0:
400,201,80743,1,0,3:0:0:0:
370,235,80840,1,0,1:0:0:0:
326,247,80937,1,0,3:0:0:0:
286,224,81034,1,4,3:0:0:0:
276,180,81130,1,0,3:0:0:0:
246,145,81227,1,0,1:0:0:0:
200,143,81324,1,0,3:0:0:0:
246,172,81421,1,4,3:0:0:0:
285,160,81517,1,0,3:0:0:0:
311,128,81614,1,0,3:0:0:0:
350,140,81711,1,0,3:0:0:0:
369,176,81808,1,4,3:0:0:0:
408,164,81905,1,0,3:0:0:0:
358,197,82001,1,0,1:0:0:0:
335,236,82098,1,0,3:0:0:0:
378,202,82195,1,4,3:0:0:0:
417,190,82292,1,0,3:0:0:0:
450,234,82388,1,0,1:0:0:0:
489,246,82485,1,0,3:0:0:0:
459,286,82582,2,0,L|472:204,1,62.5,4|0,3:0|3:0,0:0:0:0:
372,45,82776,2,0,L|385:127,1,62.5,0|0,3:0|3:0,0:0:0:0:
464,291,82969,2,0,L|477:209,1,62.5,4|0,3:0|3:0,0:0:0:0:
377,40,83163,2,0,L|390:122,1,62.5,0|0,3:0|3:0,0:0:0:0:
110,74,83356,5,0,1:0:0:0:
180,112,83453,1,0,1:0:0:0:
251,153,83550,1,0,1:0:0:0:
321,194,83646,1,0,1:0:0:0:
258,178,83743,5,4,3:0:0:0:
225,214,83840,1,0,3:0:0:0:
223,262,83937,1,0,3:0:0:0:
249,303,84034,1,0,3:0:0:0:
290,327,84130,1,4,3:0:0:0:
307,372,84227,1,0,3:0:0:0:
354,381,84324,1,0,1:0:0:0:
394,354,84421,1,0,3:0:0:0:
399,305,84517,1,4,3:0:0:0:
368,267,84614,1,0,3:0:0:0:
333,232,84711,1,0,1:0:0:0:
333,183,84808,1,0,3:0:0:0:
358,237,84905,1,4,3:0:0:0:
402,242,85001,1,0,3:0:0:0:
426,204,85098,1,0,3:0:0:0:
421,159,85195,1,0,3:0:0:0:
384,131,85292,1,4,3:0:0:0:
339,140,85388,1,0,3:0:0:0:
314,177,85485,1,0,1:0:0:0:
277,203,85582,1,0,3:0:0:0:
231,201,85679,1,4,3:0:0:0:
202,166,85776,1,0,3:0:0:0:
159,152,85872,1,0,1:0:0:0:
119,173,85969,1,0,3:0:0:0:
156,132,86066,1,4,3:0:0:0:
194,147,86163,1,0,3:0:0:0:
225,119,86259,1,0,3:0:0:0:
263,104,86356,1,0,3:0:0:0:
294,130,86453,1,4,3:0:0:0:
332,145,86550,1,0,3:0:0:0:
282,149,86646,2,0,L|255:226,1,62.5,0|0,3:0|3:0,0:0:0:0:
381,107,86840,2,0,L|354:184,1,62.5,4|0,3:0|3:0,0:0:0:0:
480,65,87034,2,0,L|453:142,1,62.5,0|0,3:0|3:0,0:0:0:0:
485,279,87227,6,0,P|407:270|406:383,1,200,0|4,1:0|3:0,0:0:0:0:
93,331,88001,1,4,3:0:0:0:
0,384,88388,6,0,B|-29:377|-37:316|5:297,1,87.499997329712,4|0,3:1|0:0,0:0:0:0:
91,242,88776,2,0,B|135:276|106:301|134:338,1,87.499997329712,2|0,0:0|3:0,0:0:0:0:
293,274,89163,2,0,B|269:248|244:227|199:247,1,87.499997329712,2|0,0:0|3:0,0:0:0:0:
379,173,89550,2,0,B|397:151|359:103|306:128|311:166|242:158|207:125,1,174.999994659424,2|0,1:2|0:0,0:0:0:0:
152,165,90130,1,0,3:0:0:0:
152,165,90324,1,0,0:0:0:0:
212,47,90517,1,2,3:2:0:0:
71,0,90711,1,2,3:2:0:0:
0,110,90905,1,2,0:0:0:0:
80,244,91098,2,0,B|107:207|179:317|113:373|176:390,1,174.999994659424,2|0,0:0|0:0,0:0:0:0:
273,347,91679,1,2,3:2:0:0:
201,217,91872,2,0,B|241:236|316:162|325:98,1,174.999994659424,2|0,1:2|0:0,0:0:0:0:
200,91,92453,1,0,3:0:0:0:
200,91,92646,1,0,0:0:0:0:
59,43,92840,1,2,3:2:0:0:
112,209,93034,5,2,3:2:0:0:
61,348,93227,1,2,0:0:0:0:
246,295,93421,2,0,B|220:313|264:346|289:329|339:307|391:337,1,174.999994659424,2|0,0:0|0:0,0:0:0:0:
511,253,94001,1,2,3:2:0:0:
398,130,94195,2,0,B|358:124|319:84|359:28,1,131.249995994568,2|0,1:2|0:0,0:0:0:0:
389,154,94582,1,2,0:0:0:0:
283,161,94776,1,2,3:2:0:0:
176,252,94969,1,2,0:0:0:0:
76,195,95163,1,2,3:2:0:0:
144,336,95356,2,0,B|107:354|87:326|40:302,1,87.499997329712,2|0,3:2|0:0,0:0:0:0:
282,308,95743,2,0,B|238:320|225:345|227:401,1,87.499997329712,2|0,0:2|3:0,0:0:0:0:
383,214,96130,2,0,B|350:253|388:284|362:326,1,87.499997329712,2|0,0:0|3:0,0:0:0:0:
178,117,96517,6,0,B|213:79|213:79|292:132|292:132|391:113,1,187.5,0|0,1:0|0:0,0:0:0:0:
393,53,96905,2,0,L|314:38,1,62.5,2|0,0:0|0:0,0:0:0:0:
239,206,97163,1,0,1:0:0:0:
239,206,97227,1,0,1:0:0:0:
251,231,97292,1,0,1:0:0:0:
143,293,97485,1,0,3:0:0:0:
376,383,97679,6,0,B|338:373|356:306|435:298,1,100,6|0,3:2|0:0,0:0:0:0:
450,168,98066,1,2,0:0:0:0:
307,74,98259,2,0,B|278:129|217:113|176:53|84:102,1,200,2|0,3:2|3:0,0:0:0:0:
287,253,98840,2,0,B|308:134|59:142|217:317|18:334|-39:249,1,400,2|0,1:2|1:0,0:0:0:0:
52,113,99808,1,2,3:2:0:0:
190,170,100001,1,2,3:2:0:0:
250,327,100195,1,2,0:0:0:0:
431,241,100388,2,0,B|451:179|384:181|425:86,1,150,2|0,0:0|0:0,0:0:0:0:
374,25,100776,1,0,0:0:0:0:
259,86,100969,1,2,3:2:0:0:
65,34,101163,2,0,B|84:-16|-14:-59|-65:14|-40:142|66:161,1,300,2|0,1:2|3:0,0:0:0:0:
0,277,101937,1,0,1:0:0:0:
142,319,102130,1,2,3:2:0:0:
280,174,102324,5,2,3:2:0:0:
429,192,102517,1,2,0:0:0:0:
340,370,102711,2,0,B|409:357|259:256|279:369|185:337,1,200,2|0,0:0|0:0,0:0:0:0:
128,231,103292,1,2,3:2:0:0:
253,88,103485,2,0,B|264:125|329:93|336:52,1,100,2|0,1:2|0:0,0:0:0:0:
83,107,103872,2,0,B|106:87|112:34|170:11,1,100,2|0,0:0|3:0,0:0:0:0:
113,247,104259,2,0,B|117:219|80:179|19:217,1,100,2|0,0:0|3:0,0:0:0:0:
258,178,104646,1,2,3:2:0:0:
352,281,104840,1,2,0:0:0:0:
216,383,105034,1,2,0:0:0:0:
264,273,105227,1,2,3:2:0:0:
190,97,105421,2,0,B|148:142|111:127|83:106,1,100,2|0,0:0|3:0,0:0:0:0:
322,0,105808,5,0,1:2:0:0:
322,0,105872,1,0,0:0:0:0:
345,102,106195,1,0,1:0:0:0:
345,102,106259,1,0,0:0:0:0:
368,205,106582,1,0,1:0:0:0:
390,308,106872,2,0,L|363:289,1,25,0|0,1:0|0:0,0:0:0:0:
392,322,106969,6,0,P|345:302|339:168,1,187.5,4|0,3:2|0:0,0:0:0:0:
190,80,108098,1,0,0:0:0:0:
190,80,108130,2,0,B|208:28|291:44|278:116|398:81,1,200,0|0,1:0|0:0,0:0:0:0:
511,43,108787,2,0,P|474:54|455:104,1,83.3333333333333
512,173,109122,2,0,L|510:154,1,16.6666666666667,0|0,1:0|1:0,0:0:0:0:
505,197,109267,1,2,3:0:0:0:
498,221,109664,1,2,3:0:0:0:
341,178,110321,1,2,3:0:0:0:
117,241,110453,2,0,B|211:230|221:120|223:114|221:107|210:-40|291:-54|405:37|307:100,1,437.49998664856,0|0,1:0|3:0,0:0:0:0:
146,40,111624,6,0,P|65:35|54:126,1,174.999994659424,2|0,3:0|0:0,0:0:0:0:
0,223,112195,1,2,3:0:0:0:
46,297,112401,1,0,3:0:0:0:
322,182,112776,2,0,B|256:211|305:282|236:316,1,166.666666666667,0|2,1:0|3:0,0:0:0:0:
476,247,113782,1,0,1:0:0:0:
464,207,113843,1,0,1:0:0:0:
452,167,113905,1,2,3:0:0:0:
512,367,114308,1,0,0:0:0:0:
512,367,114340,1,2,3:0:0:0:
203,357,115872,5,0,1:0:0:0:
258,299,116001,1,0,1:0:0:0:
202,228,116130,1,0,1:0:0:0:
290,105,116259,6,0,P|379:160|326:57,1,250.000009536744,6|0,3:2|0:0,0:0:0:0:
189,69,116646,2,0,P|297:86|423:-21,1,266.666666666667,2|0,3:0|3:0,0:0:0:0:
173,29,117033,2,0,B|187:89|302:103|314:-4|391:-15|482:84,1,283.333338737488,2|0,3:0|3:0,0:0:0:0:
179,251,117420,6,0,B|128:217|169:85|360:145|365:310,1,266.666666666667,2|0,1:2|0:0,0:0:0:0:
241,364,117807,2,0,P|327:232|427:263,1,250.000009536744,2|0,3:0|0:0,0:0:0:0:
509,77,118194,2,0,P|439:64|449:227,1,283.333338737488,2|0,3:0|0:0,0:0:0:0:
260,14,118581,6,0,B|185:-53|74:-20|107:123|-55:60,1,266.666666666667,2|0,3:2|0:0,0:0:0:0:
305,86,118968,2,0,P|258:40|224:166,1,250.000009536744,2|0,3:0|3:0,0:0:0:0:
112,331,119356,2,0,P|132:262|310:172,1,283.333338737488,2|0,3:0|3:0,0:0:0:0:
0,324,119743,6,0,B|191:199|155:488|407:345,1,299.999990844727,2|0,1:2|0:0,0:0:0:0:
476,279,120130,2,0,B|285:154|321:443|69:300,1,299.999990844727,2|0,3:0|0:0,0:0:0:0:
70,210,120517,1,2,3:0:0:0:
59,114,120775,1,0,3:0:0:0:
264,29,120904,6,0,P|238:-7|202:100,1,250.000009536744,6|0,3:2|0:0,0:0:0:0:
331,229,121291,2,0,P|214:92|88:98,1,266.666666666667,2|0,3:0|3:0,0:0:0:0:
232,258,121678,2,0,B|246:200|164:64|99:206|2:74,1,283.333338737488,2|0,3:0|3:0,0:0:0:0:
9,306,122065,6,0,P|109:284|239:392,1,266.666666666667,2|0,1:2|0:0,0:0:0:0:
0,286,122452,2,0,P|-11:182|126:174,1,250.000009536744,2|0,3:0|0:0,0:0:0:0:
259,29,122839,2,0,P|123:92|34:196,1,283.333338737488,2|0,3:0|0:0,0:0:0:0:
359,68,123227,6,0,B|255:102|211:227|317:258|347:209,1,266.666666666667,2|0,3:2|0:0,0:0:0:0:
285,58,123614,2,0,P|229:22|234:146,1,250.000009536744,2|0,3:0|3:0,0:0:0:0:
289,358,124001,2,0,P|259:193|359:68,1,283.333338737488,2|0,3:0|3:0,0:0:0:0:
158,0,124388,5,2,1:2:0:0:
83,36,124646,2,0,L|9:0,1,74.9999977111817,0|0,1:0|3:0,0:0:0:0:
0,209,124904,1,0,1:0:0:0:
85,176,125033,1,0,1:0:0:0:
152,256,125162,1,0,1:0:0:0:
241,272,125291,1,0,1:0:0:0:
278,378,125420,1,0,1:0:0:0:
237,342,125549,6,0,B|199:253|287:187|290:202|348:174|333:98|301:51|217:76,1,343.75,4|0,3:2|0:0,0:0:0:0:
177,133,126710,2,0,B|128:140|90:199|122:259|43:313,1,218.75,2|0,0:3|0:0,0:0:0:0:
104,383,127485,2,0,B|122:342|170:342|201:353,1,93.75,2|0,0:3|0:0,0:0:0:0:
262,297,127872,2,0,B|291:359|409:306|377:192,1,218.75,2|0,0:3|0:0,0:0:0:0:
459,148,128646,2,0,B|476:98|418:89|431:44,1,93.75,2|0,0:3|0:0,0:0:0:0:
359,0,129033,2,0,B|344:32|318:56|277:29,1,93.75,2|0,0:3|0:0,0:0:0:0:
193,12,129420,2,0,B|216:56|206:102|173:113,1,93.75,2|0,0:3|0:0,0:0:0:0:
130,171,129807,2,0,B|166:166|196:197|205:232,1,93.75,2|0,0:3|0:0,0:0:0:0:
297,140,130194,6,0,B|269:109|285:37|393:46|406:126|396:167|336:196|308:229|321:286|340:314,1,343.75,2|0,0:3|0:0,0:0:0:0:
401,371,131356,2,0,B|350:283|266:355|196:284,1,218.75,2|0,0:3|0:0,0:0:0:0:
168,207,132130,2,0,B|140:214|120:241|72:244,1,93.75,2|0,0:3|0:0,0:0:0:0:
176,184,132517,2,0,B|205:149|216:88|174:47|117:59|106:91,1,187.5,2|0,0:3|0:0,0:0:0:0:
25,123,133291,2,0,B|29:120|35:93|6:47,1,62.5,2|0,0:3|0:0,0:0:0:0:
82,242,133678,5,0,1:0:0:0:
162,256,133968,1,0,1:0:0:0:
162,256,134065,1,0,1:0:0:0:
242,270,134259,2,0,L|225:308,1,31.25,0|0,3:0|3:0,0:0:0:0:
322,284,134452,1,0,1:0:0:0:
322,284,134549,2,0,L|305:322,1,31.25,0|0,1:0|3:0,0:0:0:0:
492,193,134839,6,0,P|464:187|444:177,1,50,2|0,3:2|0:0,0:0:0:0:
349,208,136001,2,0,P|290:203|252:227,1,100,2|0,3:2|0:0,0:0:0:0:
130,149,137162,2,0,B|83:148|62:111|77:114|51:70|-8:82,1,149.999995422363,2|0,3:2|0:0,0:0:0:0:
201,44,138323,2,0,P|232:45|258:60,1,50,2|0,3:2|0:0,0:0:0:0:
344,21,138710,2,0,P|387:48|412:91,1,100,2|0,0:0|0:0,0:0:0:0:
204,228,139485,6,0,B|269:186|340:225|316:226|381:271|451:229,1,250,6|0,3:2|0:0,0:0:0:0:
178,371,140646,2,0,P|192:299|41:150,1,299.999990844727,2|0,3:2|0:0,0:0:0:0:
380,41,141807,2,0,B|268:4|240:172|314:165|356:254|301:333,1,349.999989318848,2|0,3:2|0:0,0:0:0:0:
0,0,142968,2,0,P|96:48|206:225,1,300,2|0,3:2|0:0,0:0:0:0:
393,149,143743,2,0,P|433:187|483:198,1,100,2|0,0:0|0:0,0:0:0:0:
93,304,144130,6,0,B|80:303|49:253|115:187,1,112.499996566773,4|0,3:1|0:0,0:0:0:0:
142,40,144517,2,0,B|156:41|110:16|82:39|64:112,1,112.499996566773,2|0,0:0|3:0,0:0:0:0:
241,239,144904,2,0,B|261:207|239:158|182:142,1,112.499996566773,2|0,0:0|3:0,0:0:0:0:
303,379,145291,2,0,B|241:339|216:214|337:190|341:183|334:92|287:83|277:90,1,337.499989700318,2|0,1:2|3:0,0:0:0:0:
165,38,146065,1,0,0:0:0:0:
353,0,146259,1,2,3:2:0:0:
391,163,146452,1,2,3:2:0:0:
509,267,146646,1,2,0:0:0:0:
307,383,146839,2,0,B|278:308|115:358|116:353|121:355|118:368|178:345|198:288,1,281.249991416931,2|0,0:0|0:0,0:0:0:0:
132,236,147420,1,2,3:2:0:0:
88,18,147614,2,0,B|106:-38|211:-23|244:24,1,168.749994850159,2|0,1:2|0:0,0:0:0:0:
317,0,148001,1,2,0:0:0:0:
432,192,148194,2,0,B|494:162|346:59|349:172|335:217|348:223|373:276|280:328,1,281.249991416931,2|0,3:2|0:0,0:0:0:0:
351,380,148775,5,2,3:2:0:0:
511,299,148968,1,2,0:0:0:0:
252,218,149162,2,0,B|281:270|194:291|145:271|128:249|144:165|7:181,1,281.249991416931,2|0,0:0|0:0,0:0:0:0:
0,102,149743,1,2,3:2:0:0:
372,0,149936,2,0,B|313:-22|262:70|318:129|354:148,1,168.749994850159,2|0,1:2|0:0,0:0:0:0:
273,188,150323,1,2,0:0:0:0:
374,336,150517,2,0,B|396:297|419:299|423:301|427:304|430:308|339:202|236:314,1,224.999993133545,2|0,3:2|3:0,0:0:0:0:
10,300,151097,2,0,B|48:251|0:198|70:128,1,168.749994850159,2|0,3:2|0:0,0:0:0:0:
149,85,151485,2,0,B|121:85|95:78|79:35,1,56.2499982833863,2|0,0:2|0:0,0:0:0:0:
286,198,151678,2,0,B|275:184|309:109|389:178|369:188|439:223|527:183|546:110,1,281.249991416931,2|0,3:2|0:0,0:0:0:0:
412,0,152259,6,0,B|397:50|397:50|350:32|350:32|178:106,1,224.999993133545,0|0,1:0|0:0,0:0:0:0:
154,13,152646,1,0,0:0:0:0:
154,13,152743,2,0,L|75:-2,1,74.9999977111817
12,45,152904,1,0,1:0:0:0:
12,45,152968,1,0,1:0:0:0:
0,20,153033,1,0,1:0:0:0:
169,152,153227,1,2,3:2:0:0:
0,342,153420,6,0,B|15:318|82:324|108:368,1,125,6|0,3:2|0:0,0:0:0:0:
282,270,153807,2,0,B|294:259|261:230|221:302|260:359,1,125,2|0,0:0|3:0,0:0:0:0:
421,197,154194,2,0,B|365:194|388:137|321:128,1,125,2|0,0:0|3:0,0:0:0:0:
512,384,154581,2,0,B|532:367|477:312|409:342|399:363|385:391|300:402|230:383|162:352|121:262|125:167|132:145|191:88|266:134|252:192,1,625,2|0,1:2|3:0,0:0:0:0:
14,303,155743,2,0,B|32:299|33:205|-55:190,1,125,2|0,3:2|0:0,0:0:0:0:
147,0,156130,2,0,B|115:-31|66:-13|17:48|78:86|121:117|57:199,1,250,2|0,0:0|0:0,0:0:0:0:
134,362,156710,1,2,3:2:0:0:
325,243,156904,2,0,B|295:245|263:225|257:181|234:147|172:138,1,187.5,2|0,1:2|0:0,0:0:0:0:
256,66,157291,2,0,B|219:53|207:-12|263:-55|344:-41|405:22|428:101|366:175,1,375,2|0,0:0|3:0,0:0:0:0:
512,384,158065,6,0,B|486:381|485:315|505:278|577:248,1,137.500004196167,2|0,3:2|0:0,0:0:0:0:
270,337,158452,2,0,B|291:314|263:282|195:267|156:320|151:347,1,137.500004196167,2|0,1:2|0:0,0:0:0:0:
405,164,158839,1,2,1:2:0:0:
63,6,159033,6,0,B|28:29|169:94|189:35|206:-37|348:5,1,299.999990844727,2|0,3:2|0:0,0:0:0:0:
411,208,159614,2,0,B|404:169|496:138|568:209,1,149.999995422363,2|0,1:2|0:0,0:0:0:0:
373,384,160001,1,2,1:2:0:0:
21,137,160194,6,0,B|98:69|216:93|248:196|210:237|294:331|405:319,1,406.249981403352,2|0,3:2|0:0,0:0:0:0:
423,229,160775,2,0,B|420:262|454:269|518:255|538:187,1,162.499992561341,2|0,1:2|0:0,0:0:0:0:
272,0,161162,1,2,1:2:0:0:
0,341,161356,6,0,B|13:237|122:189|218:188|403:227|311:297|277:407|434:367|475:324|551:275|574:328|662:219|679:-9|428:-80|339:39|320:83|314:108|301:163|310:186|338:213|356:209,1,1049.99996795654,2|0,3:2|3:0,0:0:0:0:
122,377,162710,6,0,B|188:388|219:315|206:199|92:163,1,262.499991989136,4|0,3:1|3:0,0:0:0:0:
241,81,163485,2,0,B|262:39|254:6|223:-13,1,87.499997329712,0|0,0:0|3:0,0:0:0:0:
321,173,163872,1,2,1:2:0:0:
387,80,164065,1,2,3:2:0:0:
366,306,164452,2,0,B|390:326|429:308|440:268|401:218,1,131.249995994568,2|0,1:2|0:0,0:0:0:0:
446,146,164839,1,2,3:2:0:0:
306,0,165033,2,0,B|298:34|266:66|224:39|175:-1|104:31|76:93,1,262.499991989136,2|0,3:2|0:0,0:0:0:0:
132,240,165807,2,0,B|111:220|115:180|156:158,1,87.499997329712,2|0,2:0|3:0,0:0:0:0:
332,214,166194,1,2,1:2:0:0:
430,157,166388,1,2,3:2:0:0:
319,355,166775,2,0,B|285:342|319:295|351:296|386:297|408:319,1,131.249995994568,2|0,1:2|0:0,0:0:0:0:
468,242,167162,1,2,3:2:0:0:
331,56,167356,6,0,B|350:42|314:6|267:31|203:104|280:178|172:233,1,262.499991989136,2|0,3:2|0:0,0:0:0:0:
3,127,168130,2,0,B|-7:137|56:150|90:94,1,87.499997329712,2|0,1:2|0:0,0:0:0:0:
288,220,168517,2,0,B|275:200|297:157|259:130,1,87.499997329712,2|0,3:2|3:0,0:0:0:0:
130,319,168904,2,0,B|153:306|168:257|118:193,1,131.249995994568,2|0,1:2|0:0,0:0:0:0:
169,125,169291,1,2,1:2:0:0:
388,181,169485,2,0,B|370:170|376:146|383:105|443:85|469:132|508:184|441:212|489:275,1,262.499991989136,2|0,3:2|1:0,0:0:0:0:
351,383,170452,1,0,1:0:0:0:
131,181,170839,1,2,3:2:0:0:
252,231,171033,1,2,3:2:0:0:
204,36,171227,2,0,B|165:10|100:70|74:30,1,125,2|0,1:2|3:0,0:0:0:0:
366,174,171614,1,2,1:2:0:0:
401,161,171710,1,0,1:0:0:0:
436,148,171807,1,0,1:0:0:0:
6,384,172001,5,2,1:2:0:0:
47,351,172097,1,0,0:0:0:0:
66,302,172194,1,0,3:0:0:0:
60,249,172291,1,0,0:0:0:0:
74,198,172388,1,0,1:0:0:0:
110,160,172485,1,0,0:0:0:0:
83,94,172581,1,2,3:2:0:0:
127,121,172678,1,0,0:0:0:0:
179,128,172775,1,0,1:0:0:0:
229,114,172872,1,0,0:0:0:0:
262,175,172968,1,2,0:0:0:0:
276,124,173065,1,0,0:0:0:0:
340,96,173162,1,2,1:2:0:0:
320,46,173259,1,0,0:0:0:0:
372,0,173356,1,2,3:2:0:0:
407,38,173452,1,0,0:0:0:0:
456,55,173549,1,0,1:0:0:0:
508,56,173646,1,0,0:0:0:0:
496,124,173743,1,2,3:2:0:0:
511,174,173839,1,0,0:0:0:0:
505,226,173936,1,0,1:0:0:0:
481,272,174033,1,0,0:0:0:0:
511,334,174130,1,2,0:0:0:0:
465,361,174227,1,0,0:0:0:0:
407,321,174323,1,2,1:2:0:0:
354,326,174420,1,0,0:0:0:0:
300,280,174517,1,2,3:2:0:0:
252,259,174614,1,0,0:0:0:0:
202,308,174710,1,2,1:2:0:0:
155,332,174807,1,0,0:0:0:0:
90,304,174904,1,2,3:2:0:0:
108,255,175001,1,0,0:0:0:0:
100,202,175097,1,0,1:0:0:0:
71,157,175194,1,0,0:0:0:0:
65,104,175291,1,0,0:0:0:0:
89,57,175388,1,0,0:0:0:0:
155,36,175485,1,2,1:2:0:0:
201,10,175581,1,0,0:0:0:0:
234,71,175678,1,2,3:2:0:0:
220,121,175775,1,0,0:0:0:0:
229,172,175872,1,0,1:0:0:0:
258,215,175968,1,0,0:0:0:0:
224,276,176065,1,2,3:2:0:0:
249,322,176162,1,0,0:0:0:0:
298,339,176259,1,0,1:0:0:0:
347,323,176356,1,0,0:0:0:0:
411,351,176452,2,0,L|462:265,1,87.499997329712,2|0,3:2|1:0,0:0:0:0:
268,225,176646,6,0,B|245:207|272:182|335:162|398:217|394:271|516:256,1,262.499991989136,4|0,3:1|3:0,0:0:0:0:
303,379,177420,2,0,B|292:356|249:328|202:346,1,87.499997329712,2|0,0:0|3:0,0:0:0:0:
447,359,177807,1,2,1:2:0:0:
385,263,178001,1,2,3:2:0:0:
157,284,178388,2,0,B|192:226|145:206|187:136,1,131.249995994568,2|0,1:2|0:0,0:0:0:0:
155,67,178775,1,2,3:2:0:0:
369,177,178968,2,0,B|317:205|282:126|315:33|401:-11|448:0,1,262.499991989136,2|0,3:2|0:0,0:0:0:0:
204,62,179743,2,0,B|201:20|158:37|135:-28,1,87.499997329712,2|0,0:0|3:0,0:0:0:0:
117,215,180130,1,2,1:2:0:0:
195,297,180323,1,2,3:2:0:0:
413,152,180710,2,0,B|414:134|391:103|341:113|303:157,1,131.249995994568,2|0,1:2|0:0,0:0:0:0:
240,95,181097,1,2,3:2:0:0:
287,353,181291,2,0,B|262:339|277:249|391:245|422:285|423:333|503:323,1,262.499991989136,2|0,3:2|0:0,0:0:0:0:
173,288,182065,6,0,B|152:256|118:269|71:252,1,87.499997329712,2|0,3:2|0:0,0:0:0:0:
362,176,182452,2,0,B|390:169|419:141|468:183,1,87.499997329712,2|0,3:2|0:0,0:0:0:0:
200,165,182839,2,0,B|240:150|237:90|209:60,1,87.499997329712,2|0,3:2|0:0,0:0:0:0:
471,72,183227,2,0,B|458:48|438:21|467:-9,1,87.499997329712,2|0,3:2|0:0,0:0:0:0:
279,207,183614,2,0,B|326:233|273:342|208:349,1,174.999994659424,2|0,1:2|1:0,0:0:0:0:
66,266,184388,1,0,1:0:0:0:
192,50,184775,1,2,1:2:0:0:
319,127,184968,1,2,0:0:0:0:
512,29,185162,2,0,B|476:64|422:15|360:82,1,125,0|0,1:0|0:0,0:0:0:0:
372,305,185549,2,0,B|403:295|420:256|355:196,1,125,2|0,1:2|0:0,0:0:0:0:
54,287,185936,5,6,3:2:0:0:
368,1,186194,1,0,0:0:0:0:
451,60,186323,2,0,P|329:168|283:311,1,299.999990844727,2|0,3:0|3:0,0:0:0:0:
493,313,186710,2,0,P|506:229|330:270,1,316.666658210755,2|0,3:0|3:0,0:0:0:0:
155,52,187097,6,0,B|179:-4|316:14|290:211|129:245,1,299.999990844727,2|0,1:2|0:0,0:0:0:0:
83,43,187485,2,0,P|129:113|-13:176,1,283.333338737488,2|0,3:0|0:0,0:0:0:0:
270,108,187872,2,0,P|162:168|26:386,1,316.666658210755,2|0,3:0|0:0,0:0:0:0:
225,381,188259,6,0,P|301:307|173:327,1,299.999990844727,2|0,3:2|0:0,0:0:0:0:
392,327,188646,2,0,P|326:222|166:230,1,283.333338737488,2|0,3:0|3:0,0:0:0:0:
0,335,189033,2,0,B|-3:254|137:218|175:271|158:346|355:227,1,316.666658210755,2|0,3:0|3:0,0:0:0:0:
451,316,189420,6,0,B|542:153|379:42|326:175,1,333.333333333333,2|0,1:2|0:0,0:0:0:0:
122,183,189807,2,0,B|31:20|194:-91|247:42,1,333.333333333333,2|0,3:0|0:0,0:0:0:0:
165,271,190194,1,2,3:0:0:0:
442,337,190452,1,0,3:0:0:0:
314,384,190581,6,0,P|239:273|317:147,1,283.333338737488,6|0,3:2|0:0,0:0:0:0:
473,249,190968,2,0,P|302:213|406:141,1,299.999990844727,2|0,3:0|3:0,0:0:0:0:
511,125,191356,2,0,P|332:138|253:27,1,316.666658210755,2|0,3:0|3:0,0:0:0:0:
72,0,191743,6,0,P|38:8|70:203,1,299.999990844727,2|0,1:2|0:0,0:0:0:0:
161,318,192130,2,0,P|120:175|74:287,1,283.333338737488,2|0,3:0|0:0,0:0:0:0:
205,38,192517,2,0,B|282:-9|363:121|302:237|185:261,1,316.666658210755,2|0,3:0|0:0,0:0:0:0:
0,313,192904,6,0,B|-60:297|-30:138|118:187|151:273,1,299.999990844727,2|0,3:2|0:0,0:0:0:0:
153,384,193291,2,0,P|154:344|357:301,1,283.333338737488,2|0,3:0|3:0,0:0:0:0:
512,289,193678,2,0,B|418:158|348:344|226:321|174:219,1,316.666658210755,2|0,3:0|3:0,0:0:0:0:
113,153,194065,5,2,1:2:0:0:
512,0,194323,1,0,1:0:0:0:
443,47,194452,1,0,3:0:0:0:
344,29,194581,1,0,1:0:0:0:
288,131,194710,1,0,1:0:0:0:
152,75,194839,1,0,1:0:0:0:
195,155,194968,1,0,1:0:0:0:
254,21,195097,1,0,1:0:0:0:
222,227,195227,6,0,P|341:310|531:252,1,283.333338737488,6|0,3:2|0:0,0:0:0:0:
512,66,195614,2,0,P|401:131|367:344,1,299.999990844727,2|0,3:0|3:0,0:0:0:0:
507,366,196001,2,0,B|495:277|329:250|253:383,1,316.666658210755,2|0,3:0|3:0,0:0:0:0:
36,338,196388,6,0,B|-55:321|-68:129|145:55,1,299.999990844727,2|0,1:2|0:0,0:0:0:0:
216,202,196775,2,0,P|78:194|25:16,1,283.333338737488,2|0,3:0|0:0,0:0:0:0:
203,1,197162,2,0,P|21:179|112:281,1,316.666658210755,2|0,3:0|0:0,0:0:0:0:
217,314,197549,6,0,B|328:251|209:25|38:58,1,299.999990844727,2|0,3:2|0:0,0:0:0:0:
51,347,197936,2,0,P|155:237|119:73,1,283.333338737488,2|0,3:0|3:0,0:0:0:0:
319,3,198323,2,0,P|234:121|162:320,1,316.666658210755,2|0,3:0|3:0,0:0:0:0:
369,384,198710,6,0,B|486:393|440:167|232:351,1,333.333333333333,2|0,1:2|0:0,0:0:0:0:
37,267,199097,2,0,B|-80:276|-34:50|173:234,1,333.333333333333,2|0,3:0|0:0,0:0:0:0:
181,384,199485,1,2,3:0:0:0:
506,279,199743,1,0,3:0:0:0:
388,358,199872,6,0,P|298:240|377:237,1,283.333338737488,6|0,3:2|0:0,0:0:0:0:
511,319,200259,2,0,P|356:223|298:102,1,299.999990844727,2|0,3:0|3:0,0:0:0:0:
424,0,200646,2,0,P|432:26|228:64,1,316.666658210755,2|0,3:0|3:0,0:0:0:0:
0,114,201033,6,0,P|146:144|257:270,1,299.999990844727,2|0,1:2|0:0,0:0:0:0:
102,345,201420,2,0,P|212:264|342:304,1,283.333338737488,2|0,3:0|0:0,0:0:0:0:
453,213,201807,2,0,P|375:160|422:284,1,316.666658210755,2|0,3:0|0:0,0:0:0:0:
512,142,202194,6,0,P|460:49|263:42,1,299.999990844727,2|0,3:2|0:0,0:0:0:0:
193,191,202581,2,0,P|276:120|96:15,1,283.333338737488,2|0,3:0|3:0,0:0:0:0:
0,100,202968,2,0,B|-56:4|194:-75|263:126,1,316.666658210755,2|0,3:0|3:0,0:0:0:0:
59,180,203356,5,2,1:2:0:0:
296,16,203614,1,0,1:0:0:0:
369,248,203872,1,0,1:0:0:0:
331,322,204001,1,0,1:0:0:0:
276,244,204130,1,0,1:0:0:0:
306,141,204259,1,0,1:0:0:0:
260,30,204388,1,0,1:0:0:0:
385,144,204517,6,0,B|373:241|460:225|474:320|439:373|371:382,1,283.333338737488,6|0,3:2|0:0,0:0:0:0:
261,251,204904,2,0,B|242:178|334:52|457:196|508:68,1,299.999990844727,2|0,3:0|3:0,0:0:0:0:
380,287,205291,2,0,P|334:177|424:2,1,316.666658210755,2|0,3:0|3:0,0:0:0:0:
195,0,205678,6,0,B|261:39|235:152|156:176|44:138|106:47,1,299.999990844727,2|0,1:2|0:0,0:0:0:0:
294,1,206065,2,0,P|269:78|104:263,1,283.333338737488,2|0,3:0|0:0,0:0:0:0:
273,384,206452,2,0,P|222:224|405:159,1,316.666658210755,2|0,3:0|0:0,0:0:0:0:
442,335,206839,6,0,B|382:330|433:150|510:216|540:75,1,299.999990844727,2|0,3:2|0:0,0:0:0:0:
343,0,207227,2,0,P|441:98|452:236,1,283.333338737488,2|0,3:0|3:0,0:0:0:0:
336,379,207614,2,0,P|433:293|295:271,1,316.666658210755,2|0,3:0|3:0,0:0:0:0:
128,383,208001,6,0,B|31:290|179:185|113:65|-17:111,1,333.333333333333,2|0,1:2|0:0,0:0:0:0:
214,268,208388,2,0,B|311:175|163:70|229:-50|359:-4,1,333.333333333333,2|0,3:0|0:0,0:0:0:0:
375,110,208775,1,2,3:0:0:0:
0,262,209033,1,0,3:0:0:0:
52,85,209162,6,0,B|111:12|191:17|136:118|336:139|304:62,1,283.333338737488,6|0,3:2|0:0,0:0:0:0:
475,1,209549,2,0,P|307:98|272:220,1,299.999990844727,2|0,3:0|3:0,0:0:0:0:
373,318,209936,2,0,P|379:247|191:237,1,316.666658210755,2|0,3:0|3:0,0:0:0:0:
3,141,210323,6,0,B|-57:235|-28:332|83:384|165:217|56:199|28:217,1,299.999990844727,2|0,1:2|0:0,0:0:0:0:
245,136,210710,2,0,P|163:215|91:78,1,283.333338737488,2|0,3:0|0:0,0:0:0:0:
273,49,211097,2,0,B|211:-23|76:108|241:247,1,316.666658210755,2|0,3:0|0:0,0:0:0:0:
100,382,211485,6,0,B|96:267|360:267|127:381|342:407|440:330,1,299.999990844727,2|0,3:2|0:0,0:0:0:0:
377,180,211872,2,0,P|268:159|191:309,1,283.333338737488,2|0,3:0|3:0,0:0:0:0:
416,279,212259,2,0,B|411:163|310:164|235:139|240:-6,1,316.666658210755,2|0,3:0|3:0,0:0:0:0:
82,0,212646,5,2,1:2:0:0:
137,36,212775,1,0,0:0:0:0:
156,99,212904,1,0,3:0:0:0:
137,180,213033,1,0,3:0:0:0:
155,261,213162,1,0,3:0:0:0:
219,313,213291,1,0,3:0:0:0:
134,383,213420,1,0,1:0:0:0:
512,175,213678,1,0,0:0:0:0:
367,61,213807,6,0,B|263:104|192:-6|81:72,1,283.333338737488,6|0,3:2|0:0,0:0:0:0:
241,219,214194,2,0,P|161:113|-27:117,1,299.999990844727,2|0,3:0|3:0,0:0:0:0:
100,282,214581,2,0,P|132:169|-48:186,1,316.666658210755,2|0,3:0|3:0,0:0:0:0:
88,384,214968,6,0,B|189:383|157:222|376:184|437:346,1,299.999990844727,2|0,1:2|0:0,0:0:0:0:
467,339,215356,2,0,P|334:303|199:132,1,283.333338737488,2|0,3:0|0:0,0:0:0:0:
49,244,215743,2,0,P|180:181|-4:107,1,316.666658210755,2|0,3:0|0:0,0:0:0:0:
321,1,216130,6,0,B|302:2|263:100|317:141|567:125|396:320,1,299.999990844727,2|0,3:2|0:0,0:0:0:0:
343,383,216517,2,0,P|277:272|434:158,1,283.333338737488,2|0,3:0|3:0,0:0:0:0:
459,338,216904,2,0,P|372:177|394:21,1,316.666658210755,2|0,3:0|3:0,0:0:0:0:
186,0,217291,6,0,B|171:90|22:29|-13:116|-53:209|80:246,1,333.333333333333,2|0,1:2|0:0,0:0:0:0:
288,384,217678,2,0,B|273:294|124:355|89:268|49:175|182:138,1,333.333333333333,2|0,3:0|0:0,0:0:0:0:
297,101,218065,1,2,3:0:0:0:
407,384,218323,1,0,3:0:0:0:
509,230,218452,6,0,B|457:194|472:138|469:132|549:122|446:-77|361:27|362:69,1,283.333338737488,6|0,3:2|0:0,0:0:0:0:
261,193,218839,2,0,P|377:87|241:-22,1,299.999990844727,2|0,3:0|3:0,0:0:0:0:
143,98,219227,2,0,B|98:123|98:233|262:250|298:67,1,316.666658210755,2|0,3:0|3:0,0:0:0:0:
299,384,219614,6,0,B|253:382|231:182|396:302|430:143,1,299.999990844727,2|0,1:2|0:0,0:0:0:0:
510,6,220001,2,0,P|416:154|436:304,1,283.333338737488,2|0,3:0|0:0,0:0:0:0:
512,384,220388,2,0,P|408:225|342:320,1,316.666658210755,2|0,3:0|0:0,0:0:0:0:
186,151,220775,6,0,B|214:80|279:143|313:178|223:214|137:277|176:373,1,299.999990844727,2|0,3:2|0:0,0:0:0:0:
352,330,221162,2,0,P|252:275|128:386,1,283.333338737488,2|0,3:0|3:0,0:0:0:0:
308,197,221549,2,0,P|184:212|53:65,1,316.666658210755,2|0,3:0|0:0,0:0:0:0:
0,171,221936,5,2,2:0:0:0:
32,247,222065,1,0,1:0:0:0:
382,383,222356,1,0,1:0:0:0:
202,101,222614,1,0,1:0:0:0:
245,30,222743,1,0,3:0:0:0:
274,259,222904,1,0,1:0:0:0:
253,339,223025,1,0,1:0:0:0:
372,314,223147,6,0,B|375:300|373:290|342:261|289:295|265:398|445:440|492:383|484:290|450:229|445:223|408:201|408:201|425:173|425:173|354:204|318:181|314:177|311:174|296:148|261:73|128:109|174:174|153:211|151:215|148:220|96:243|76:241|58:237|43:228|43:228|23:238|23:238|5:186|-22:167|-22:167|-20:152|-25:140|-25:140|-11:121|-10:95|-14:86|-14:86|-3:64|26:50|45:16|45:-17|11:-25|-20:0|2:28,1,1158.74997206383,4|0,3:2|0:0,0:0:0:0:
