osu file format v14

[General]
AudioFilename: Look Vibrant - Bull & Eagle - 02 Hot Iron Wheel (B-Side).mp3
AudioLeadIn: 0
PreviewTime: 54346
Countdown: 0
SampleSet: Normal
StackLeniency: 0.4
Mode: 0
LetterboxInBreaks: 0
WidescreenStoryboard: 1

[Editor]
Bookmarks: 25513,54513,76179,97513,126846,156346,188179,198846,220179
DistanceSpacing: 1
BeatDivisor: 4
GridSize: 8
TimelineZoom: 1.68

[Metadata]
Title:Hot Iron Wheel
TitleUnicode:Hot Iron Wheel
Artist:Look Vibrant
ArtistUnicode:Look Vibrant
Creator:laura-
Version:Collab Extra
Source:
Tags:-tatsuo chalwa chizu-kun kami no kotoba wafer penfifteen ji2zie germanletsplay english bull & and eagle b-side alternative drop rock experimental sounds core top pop art indie no wave post-punk progressive montreal noise avant-garde justin lazarus matthew murphy alex rand eli kaufman andrew moore
BeatmapID:2921419
BeatmapSetID:1216073

[Difficulty]
HPDrainRate:5
CircleSize:3.7
OverallDifficulty:8.2
ApproachRate:9.2
SliderMultiplier:2
SliderTickRate:0.5

[Events]
//Background and Video events
0,0,"sun-mountain-peak-ken-duffin.jpg",0,0
//Break Periods
2,140762,144943
//Storyboard Layer 0 (Background)
//Storyboard Layer 1 (Fail)
//Storyboard Layer 2 (Pass)
//Storyboard Layer 3 (Foreground)
//Storyboard Layer 4 (Overlay)
//Storyboard Sound Samples

[TimingPoints]
179,333.333333333333,4,1,1,50,1,0
4167,333.333333333333,4,1,1,50,1,0
25513,322.58064516129,4,1,1,50,1,0
25513,-100,4,1,1,50,0,0
26013,333.333333333333,4,1,1,50,1,0
26013,-125,4,1,1,50,0,0
26429,-125,4,2,0,5,0,0
26513,-125,4,1,1,50,0,0
27179,-100,4,1,1,50,0,0
28179,333.333333333333,4,1,1,50,1,0
28179,-66.6666666666667,4,1,1,50,0,0
28429,-66.6666666666667,4,2,0,5,0,0
28512,-133.333333333333,4,1,1,50,0,0
29179,-66.6666666666667,4,1,1,50,0,0
29429,-66.6666666666667,4,2,0,5,0,0
29512,-133.333333333333,4,1,1,50,0,0
30179,-66.6666666666667,4,1,1,50,0,0
33762,-66.6666666666667,4,2,0,5,0,0
33845,-66.6666666666667,4,1,1,50,0,0
35345,-200,4,1,1,50,0,0
35595,-200,4,2,0,5,0,0
35679,-50,4,1,1,50,0,0
36178,319.148936170213,4,1,1,50,1,0
36178,-100,4,1,1,50,0,0
36664,335.195530726257,4,1,1,50,1,0
37520,337.078651685393,4,1,1,50,1,0
38531,319.148936170213,4,1,1,50,1,0
38850,333.333333333333,4,1,1,50,1,0
39342,332.409972299169,4,1,1,50,1,0
40356,332.409972299169,4,1,1,50,1,0
41519,333.333333333333,4,1,1,50,1,0
42019,-125,4,1,1,50,0,0
42435,-125,4,2,0,5,0,0
42519,-125,4,1,1,50,0,0
43185,-100,4,1,1,50,0,0
44175,333.333333333333,4,1,1,50,1,0
44175,-66.6666666666667,4,1,1,50,0,0
44425,-66.6666666666667,4,2,0,5,0,0
44508,-133.333333333333,4,1,1,50,0,0
45175,-66.6666666666667,4,1,1,50,0,0
45425,-66.6666666666667,4,2,0,5,0,0
45508,-133.333333333333,4,1,1,50,0,0
46175,-66.6666666666667,4,1,1,50,0,0
49508,334.728033472803,4,1,1,50,1,0
49508,-66.6666666666667,4,1,1,50,0,0
49759,-66.6666666666667,4,2,0,5,0,0
49842,-66.6666666666667,4,1,1,50,0,0
51516,-200,4,1,1,50,0,0
51683,-50,4,1,1,50,0,0
52185,332.225913621262,4,1,1,50,1,0
52185,-100,4,1,1,50,0,0
53686,326.086956521739,4,1,1,50,1,0
54012,333.333333333333,4,1,1,50,1,0
54512,-500,4,1,1,65,0,0
54762,-500,4,2,0,5,0,0
54853,333.333333333333,4,1,1,65,1,1
54853,-62.5,4,1,1,65,0,1
55103,-62.5,4,2,0,5,0,1
55186,-62.5,4,1,1,65,0,1
55853,-83.3333333333333,4,1,1,65,0,1
56103,-83.3333333333333,4,2,0,5,0,1
56180,333.333333333333,4,1,1,65,1,1
56180,-62.5,4,1,1,65,0,1
56430,-62.5,4,2,0,5,0,1
56513,-62.5,4,1,1,65,0,1
57180,-83.3333333333333,4,1,1,65,0,1
57430,-83.3333333333333,4,2,0,5,0,1
57519,333.333333333333,4,1,1,65,1,1
57519,-83.3333333333333,4,1,1,65,0,1
59185,-100,4,1,1,65,0,1
59360,333.333333333333,4,1,1,65,1,1
59526,-100,4,1,1,65,0,0
60193,333.333333333333,4,1,1,65,1,0
60193,-66.6666666666667,4,1,1,65,0,0
60443,-66.6666666666667,4,2,0,5,0,0
60526,-66.6666666666667,4,1,1,65,0,0
61609,-66.6666666666667,4,2,0,5,0,0
61693,-66.6666666666667,4,1,1,65,0,0
63109,-66.6666666666667,4,2,0,5,0,0
63193,-66.6666666666667,4,1,1,65,0,0
64276,-66.6666666666667,4,2,0,5,0,0
64359,-66.6666666666667,4,1,1,65,0,0
65109,-66.6666666666667,4,2,0,5,0,0
65193,-66.6666666666667,4,1,1,65,0,0
65526,-62.5,4,1,1,65,0,1
65776,-62.5,4,2,0,5,0,1
65859,-62.5,4,1,1,65,0,1
66526,-83.3333333333333,4,1,1,65,0,1
66776,-83.3333333333333,4,2,0,5,0,1
66859,-62.5,4,1,1,65,0,1
67109,-62.5,4,2,0,5,0,1
67193,-62.5,4,1,1,65,0,1
67692,325.20325203252,4,1,1,65,1,1
68179,333.333333333333,4,1,1,65,1,0
68179,-62.5,4,1,1,65,0,0
70845,-66.6666666666667,4,1,1,65,0,0
71095,-66.6666666666667,4,2,0,5,0,0
71179,-66.6666666666667,4,1,1,65,0,0
72262,-66.6666666666667,4,2,0,5,0,0
72345,-66.6666666666667,4,1,1,65,0,0
73762,-66.6666666666667,4,2,0,5,0,0
73845,-66.6666666666667,4,1,1,65,0,0
74929,-66.6666666666667,4,2,0,5,0,0
75012,-66.6666666666667,4,1,1,65,0,0
76179,-62.5,4,1,1,60,0,0
76595,-62.5,4,2,0,5,0,0
76679,-62.5,4,1,1,60,0,0
79262,-62.5,4,2,0,5,0,0
79345,-62.5,4,1,1,60,0,0
80262,-62.5,4,2,0,5,0,0
80345,-62.5,4,1,1,60,0,0
82262,-62.5,4,2,0,5,0,0
82345,-62.5,4,1,1,60,0,0
84345,-55.5555555555556,4,1,1,60,0,0
86845,-62.5,4,1,1,60,0,0
87262,-62.5,4,2,0,5,0,0
87345,-62.5,4,1,1,60,0,0
89679,-133.333333333333,4,1,1,60,0,0
90012,-62.5,4,1,1,60,0,0
90262,-62.5,4,2,0,5,0,0
90345,-62.5,4,1,1,60,0,0
90929,-62.5,4,2,0,5,0,0
91012,-62.5,4,1,1,60,0,0
95012,-250,4,1,1,60,0,0
95262,-250,4,2,0,5,0,0
95345,-62.5,4,1,1,60,0,0
95595,-62.5,4,2,0,5,0,0
95679,-62.5,4,1,1,60,0,0
96012,-250,4,1,1,60,0,0
96262,-250,4,2,0,5,0,0
96345,-62.5,4,1,1,60,0,0
97679,-62.5,4,1,1,50,0,0
98012,-200,4,1,1,50,0,0
99345,-125,4,1,1,50,0,0
100179,-66.6666666666667,4,1,1,50,0,0
100429,-66.6666666666667,4,2,0,5,0,0
100512,-66.6666666666667,4,1,1,50,0,0
101762,-66.6666666666667,4,2,0,5,0,0
101845,-66.6666666666667,4,1,1,50,0,0
103095,-66.6666666666667,4,2,0,5,0,0
103179,-66.6666666666667,4,1,1,50,0,0
104429,-66.6666666666667,4,2,0,5,0,0
104512,-66.6666666666667,4,1,1,50,0,0
105762,-66.6666666666667,4,2,0,5,0,0
105845,-66.6666666666667,4,1,1,50,0,0
107095,-66.6666666666667,4,2,0,5,0,0
107179,-66.6666666666667,4,1,1,50,0,0
109762,-66.6666666666667,4,2,0,5,0,0
109845,-66.6666666666667,4,1,1,50,0,0
110262,-66.6666666666667,4,2,0,5,0,0
110345,-66.6666666666667,4,1,1,50,0,0
111095,-66.6666666666667,4,2,0,5,0,0
111179,-66.6666666666667,4,1,1,50,0,0
111429,-66.6666666666667,4,2,0,5,0,0
111512,-66.6666666666667,4,1,1,50,0,0
111762,-66.6666666666667,4,2,0,5,0,0
111845,-66.6666666666667,4,1,1,50,0,0
114012,-133.333333333333,4,1,1,50,0,0
116179,-66.6666666666667,4,1,1,50,0,0
116429,-66.6666666666667,4,2,0,5,0,0
116512,-66.6666666666667,4,1,1,50,0,0
117095,-66.6666666666667,4,2,0,5,0,0
117179,-66.6666666666667,4,1,1,50,0,0
117511,335.195530726257,4,1,1,50,1,0
117511,-66.6666666666667,4,1,1,50,0,0
117762,-66.6666666666667,4,2,0,5,0,0
117846,-66.6666666666667,4,1,1,50,0,0
118860,330.03300330033,4,1,1,50,1,0
118860,-66.6666666666667,4,1,1,50,0,0
120180,333.333333333333,4,1,1,50,1,0
120180,-66.6666666666667,4,1,1,50,0,0
120430,-66.6666666666667,4,2,0,5,0,0
120513,-66.6666666666667,4,1,1,50,0,0
121763,-66.6666666666667,4,2,0,5,0,0
121846,-66.6666666666667,4,1,1,50,0,0
123096,-66.6666666666667,4,2,0,5,0,0
123180,-66.6666666666667,4,1,1,50,0,0
124180,-100,4,1,1,50,0,0
126846,-62.5,4,1,1,65,0,1
127096,-62.5,4,2,0,5,0,1
127180,-62.5,4,1,1,65,0,1
127846,-83.3333333333333,4,1,1,65,0,1
128096,-83.3333333333333,4,2,0,5,0,1
128180,-62.5,4,1,1,65,0,1
128430,-62.5,4,2,0,5,0,1
128513,-62.5,4,1,1,65,0,1
129180,-83.3333333333333,4,1,1,65,0,1
129430,-83.3333333333333,4,2,0,5,0,1
129513,-83.3333333333333,4,1,1,65,0,1
131180,-100,4,1,1,65,0,1
131346,-100,4,2,0,5,0,1
131430,-100,4,1,1,65,0,1
131513,-100,4,1,1,65,0,0
132180,-66.6666666666667,4,1,1,65,0,0
132430,-66.6666666666667,4,2,0,5,0,0
132513,-66.6666666666667,4,1,1,65,0,0
133596,-66.6666666666667,4,2,0,5,0,0
133680,-66.6666666666667,4,1,1,65,0,0
135096,-66.6666666666667,4,2,0,5,0,0
135180,-66.6666666666667,4,1,1,65,0,0
136263,-66.6666666666667,4,2,0,5,0,0
136346,-66.6666666666667,4,1,1,65,0,0
137096,-66.6666666666667,4,2,0,5,0,0
137180,-66.6666666666667,4,1,1,65,0,0
137513,-62.5,4,1,1,65,0,1
137763,-62.5,4,2,0,5,0,1
137846,-62.5,4,1,1,65,0,1
138513,-83.3333333333333,4,1,1,65,0,1
138763,-83.3333333333333,4,2,0,5,0,1
138846,-62.5,4,1,1,65,0,1
139096,-62.5,4,2,0,5,0,1
139180,-62.5,4,1,1,65,0,1
140179,-62.5,4,1,1,65,0,0
145513,-66.6666666666667,4,1,1,65,0,0
145763,-66.6666666666667,4,2,0,5,0,0
145846,-66.6666666666667,4,1,1,65,0,0
146930,-66.6666666666667,4,2,0,5,0,0
147013,-66.6666666666667,4,1,1,65,0,0
148430,-66.6666666666667,4,2,0,5,0,0
148513,-66.6666666666667,4,1,1,65,0,0
149596,-66.6666666666667,4,2,0,5,0,0
149680,-66.6666666666667,4,1,1,65,0,0
150846,-62.5,4,1,1,70,0,0
151096,-62.5,4,2,0,5,0,0
151180,-62.5,4,1,1,70,0,0
151596,-62.5,4,2,0,5,0,0
151680,-62.5,4,1,1,70,0,0
152430,-62.5,4,2,0,5,0,0
152513,-62.5,4,1,1,70,0,0
153096,-62.5,4,2,0,5,0,0
153180,-62.5,4,1,1,70,0,0
153763,-62.5,4,2,0,5,0,0
153846,-62.5,4,1,1,70,0,0
154263,-62.5,4,2,0,5,0,0
154346,-62.5,4,1,1,70,0,0
155096,-62.5,4,2,0,5,0,0
155180,-62.5,4,1,1,70,0,0
155596,-62.5,4,2,0,5,0,0
155680,-62.5,4,1,1,70,0,0
156346,343.839541547278,4,1,1,60,1,0
156346,-55.5555555555556,4,1,1,60,0,0
157377,312.5,4,1,1,60,1,0
157377,-55.5555555555556,4,1,1,60,0,0
158002,344.827586206897,4,1,1,60,1,0
158002,-55.5555555555556,4,1,1,60,0,0
158691,324.324324324324,4,1,1,60,1,0
158691,-55.5555555555556,4,1,1,60,0,0
159339,337.078651685393,4,1,1,60,1,0
159339,-55.5555555555556,4,1,1,60,0,0
160013,330.578512396694,4,1,1,60,1,0
160013,-55.5555555555556,4,1,1,60,0,0
160260,-55.5555555555556,4,2,0,5,0,0
160343,-55.5555555555556,4,1,1,60,0,0
160674,336.605890603086,4,1,1,60,1,0
160674,-55.5555555555556,4,1,1,60,0,0
161683,332.409972299169,4,1,1,60,1,0
161683,-55.5555555555556,4,1,1,60,0,0
162347,335.195530726257,4,1,1,60,1,0
162347,-55.5555555555556,4,1,1,60,0,0
164175,331.491712707182,4,1,1,60,1,0
164175,-55.5555555555556,4,1,1,60,0,0
164837,344.827586206897,4,1,1,60,1,0
164837,-55.5555555555556,4,1,1,60,0,0
165095,-55.5555555555556,4,2,0,5,0,0
165181,-55.5555555555556,4,1,1,60,0,0
165526,328.767123287671,4,1,1,60,1,0
165526,-55.5555555555556,4,1,1,60,0,0
165854,-100,4,1,1,60,0,0
166842,333.333333333333,4,1,1,60,1,0
167008,-55.5555555555556,4,1,1,60,0,0
167592,-55.5555555555556,4,2,0,5,0,0
167675,-55.5555555555556,4,1,1,60,0,0
169508,334.261838440111,4,1,1,60,1,0
169508,-55.5555555555556,4,1,1,60,0,0
170845,-66.6666666666667,4,1,1,60,0,0
171513,333.333333333333,4,1,1,60,1,0
172179,333.333333333333,4,1,1,60,1,0
172179,-55.5555555555556,4,1,1,60,0,0
172345,-55.5555555555556,4,1,1,60,0,0
172595,-55.5555555555556,4,2,0,5,0,0
172679,-55.5555555555556,4,1,1,60,0,0
176179,-66.6666666666667,4,1,1,60,0,0
177762,-66.6666666666667,4,2,0,5,0,0
177845,-66.6666666666667,4,1,1,60,0,0
180179,-50,4,1,1,60,0,1
181512,-66.6666666666667,4,1,1,60,0,0
185512,-50,4,1,1,60,0,1
186845,-50,4,1,1,60,0,0
188012,-66.6666666666667,4,1,1,60,0,0
188178,340.909090909091,4,1,1,60,1,0
188178,-500,4,1,1,60,0,0
188859,-100,4,1,1,60,0,0
189541,320.855614973262,4,1,1,60,1,0
189781,-100,4,2,0,5,0,0
189861,-100,4,1,1,60,0,0
190846,341.880341880342,4,1,1,60,1,0
191534,329.67032967033,4,1,1,60,1,0
192193,330.578512396694,4,1,1,60,1,0
193515,333.333333333333,4,1,1,60,1,0
195515,327.868852459016,4,1,1,60,1,0
196177,331.491712707182,4,1,1,60,1,0
196757,-100,4,2,0,5,0,0
196839,-100,4,1,1,60,0,0
198512,333.333333333333,4,1,1,60,1,0
198845,332.409972299169,4,1,1,70,1,0
198845,-66.6666666666667,4,1,1,70,0,0
200167,329.67032967033,4,1,1,70,1,0
200167,-50,4,1,1,70,0,0
201492,335.195530726257,4,1,1,70,1,0
201492,-39.2156862745098,4,1,1,70,0,1
202846,333.333333333333,4,1,1,70,1,0
202846,-50,4,1,1,70,0,0
204179,332.409972299169,4,1,1,70,1,0
204179,-66.6666666666667,4,1,1,70,0,0
205508,-50,4,1,1,70,0,0
206838,335.195530726257,4,1,1,70,1,0
206838,-39.2156862745098,4,1,1,70,0,1
208178,329.851566794942,4,1,1,70,1,0
208178,-50,4,1,1,70,0,0
209497,334.261838440111,4,1,1,70,1,0
209497,-66.6666666666667,4,1,1,70,0,0
210834,-50,4,1,1,70,0,0
212179,333.333333333333,4,1,1,70,1,1
212179,-39.2156862745098,4,1,1,70,0,1
213512,-50,4,1,1,70,0,0
214845,-66.6666666666667,4,1,1,70,0,0
216179,-50,4,1,1,70,0,0
217508,333.333333333333,4,1,1,70,1,0
217508,-39.2156862745098,4,1,1,70,0,1
218758,-39.2156862745098,4,2,0,5,0,1
218844,327.868852459016,4,1,1,70,1,0
218844,-39.2156862745098,4,1,1,70,0,0
219844,334.261838440111,4,1,1,70,1,0
220178,333.333333333333,4,1,1,70,1,0

[Colours]
Combo1 : 168,168,255
Combo2 : 170,163,106
Combo3 : 181,181,181
Combo4 : 255,194,166

[HitObjects]
64,23,25513,5,0,3:2:0:0:
40,98,25674,1,0,3:2:0:0:
40,98,26013,6,0,B|119:108|119:108|142:130|142:130|265:151,1,200,12|0,1:2|0:0,1:0:0:0:
293,103,26513,1,0,2:0:0:0:
392,143,26679,1,0,2:0:0:0:
392,143,26763,1,0,2:0:0:0:
392,143,26846,2,0,L|452:131,1,40,2|0,2:0|2:0,1:0:0:0:
316,209,27013,1,0,2:0:0:0:
316,209,27096,1,0,2:0:0:0:
316,209,27179,2,0,L|376:221,1,50,2|0,2:0|2:0,1:0:0:0:
212,270,27346,1,0,2:0:0:0:
212,270,27429,1,0,2:0:0:0:
212,270,27513,2,0,L|272:258,1,50,2|0,2:0|2:0,1:0:0:0:
103,322,27679,1,0,2:0:0:0:
103,322,27763,1,0,2:0:0:0:
103,322,27846,2,0,L|163:334,1,50,2|0,2:0|2:0,1:0:0:0:
0,384,28013,1,0,2:0:0:0:
0,384,28096,1,0,2:0:0:0:
0,384,28179,6,0,P|19:296|6:155,1,225.000008583069,0|0,3:2|0:0,1:0:0:0:
110,26,28512,2,0,B|134:17|136:67|88:111|56:108|12:71,1,150.000005722046,8|0,1:0|3:0,1:0:0:0:
109,202,29012,1,0,1:2:0:0:
106,194,29095,1,0,1:0:0:0:
107,184,29179,2,0,P|224:159|342:145,1,225.000008583069,8|0,1:0|2:0,1:0:0:0:
457,135,29512,6,0,B|481:144|483:94|435:50|403:53|359:90,1,150.000005722046,0|8,3:2|1:0,1:0:0:0:
255,233,30012,1,0,1:0:0:0:
262,238,30095,1,0,1:0:0:0:
269,244,30179,2,0,P|358:231|434:225,2,150.000005722046,0|0|8,3:0|1:0|1:0,1:0:0:0:
62,95,30845,5,0,3:2:0:0:
153,133,31012,1,0,3:0:0:0:
104,211,31179,1,0,3:0:0:0:
269,244,31345,5,14,1:2:0:0:
269,244,32179,5,0,3:2:0:0:
307,148,32345,1,0,3:0:0:0:
388,202,32512,1,0,3:0:0:0:
418,37,32679,5,14,1:2:0:0:
418,37,33512,6,0,B|433:-3|348:-7|274:74|279:128|341:203,1,225.000008583069,0|0,3:2|2:0,1:0:0:0:
258,209,33845,1,8,1:2:0:0:
258,220,33929,1,0,1:0:0:0:
256,231,34012,1,0,1:2:0:0:
252,241,34095,1,0,1:0:0:0:
244,255,34179,2,0,P|139:282|29:119,2,300.000011444092,0|8|0,3:0|1:0|3:0,1:0:0:0:
397,122,35012,1,2,2:0:0:0:
397,122,35095,1,0,1:0:0:0:
397,122,35179,2,0,P|478:110|498:108,1,75.0000028610231,8|0,1:0|1:0,1:0:0:0:
343,25,35345,2,0,P|419:36|438:38,1,75,2|0,2:0|2:0,1:0:0:0:
414,204,35679,2,0,P|324:190|302:188,1,100,2|0,2:0|1:0,1:0:0:0:
221,85,35845,5,8,1:2:0:0:
197,84,35929,1,8,1:0:0:0:
174,100,36012,1,8,1:0:0:0:
172,121,36095,1,8,1:0:0:0:
131,190,36178,6,0,B|51:206|4:135|25:108|71:86|65:174,1,200,2|8,3:2|1:0,1:0:0:0:
198,236,36664,2,0,P|205:295|208:338,1,100,2|0,3:2|1:0,1:0:0:0:
128,292,36999,5,2,3:2:0:0:
284,279,37166,1,8,1:0:0:0:
361,270,37334,1,2,3:2:0:0:
361,270,37688,1,2,3:2:0:0:
444,175,37857,1,8,1:0:0:0:
388,98,38025,6,0,B|453:19|350:49|304:138|378:195,1,200,2|2,3:2|3:2,1:0:0:0:
467,274,38531,1,8,1:0:0:0:
467,274,38690,1,8,1:0:0:0:
296,222,38850,1,2,3:2:0:0:
415,335,39016,1,2,3:2:0:0:
444,175,39183,1,8,1:0:0:0:
225,121,39342,1,2,3:2:0:0:
225,121,39674,1,2,3:2:0:0:
150,186,39840,1,8,1:0:0:0:
335,107,40006,1,2,3:2:0:0:
335,107,40339,5,8,1:0:0:0:
273,57,40522,1,0,3:0:0:0:
405,69,40688,5,8,1:0:0:0:
476,103,40854,1,0,1:0:0:0:
285,170,41020,5,8,1:0:0:0:
285,170,41187,1,0,3:0:0:0:
343,24,41353,5,8,1:0:0:0:
437,204,41519,5,0,3:2:0:0:
472,286,41685,1,0,3:2:0:0:
472,286,42019,6,0,B|388:279|388:279|366:255|366:255|245:243,1,200,12|0,1:2|2:0,1:0:0:0:
217,285,42519,1,0,2:0:0:0:
120,241,42685,1,0,2:0:0:0:
120,241,42769,1,0,2:0:0:0:
120,241,42852,2,0,L|60:253,1,40,2|0,2:0|2:0,1:0:0:0:
196,175,43019,1,0,2:0:0:0:
196,175,43102,1,0,2:0:0:0:
196,175,43185,2,0,L|136:163,1,50,2|0,2:0|2:0,1:0:0:0:
300,114,43352,1,0,2:0:0:0:
300,114,43435,1,0,2:0:0:0:
300,114,43519,2,0,L|240:126,1,50,2|0,2:0|2:0,1:0:0:0:
409,62,43685,1,0,2:0:0:0:
409,62,43769,1,0,2:0:0:0:
409,62,43852,2,0,L|349:50,1,50,2|0,2:0|2:0,1:0:0:0:
512,0,44019,1,0,2:0:0:0:
512,0,44102,1,0,2:0:0:0:
512,0,44175,6,0,P|493:88|506:229,1,225.000008583069,0|0,3:2|2:0,1:0:0:0:
402,358,44508,2,0,B|378:367|376:317|424:273|456:276|500:313,1,150.000005722046,8|0,1:0|3:0,1:0:0:0:
403,182,45008,1,0,1:2:0:0:
406,190,45091,1,0,1:0:0:0:
405,200,45175,2,0,P|288:225|170:239,1,225.000008583069,8|0,1:0|0:0,1:0:0:0:
55,249,45508,6,0,B|31:240|29:290|77:334|109:331|153:294,1,150.000005722046,0|8,3:2|1:0,1:0:0:0:
257,151,46008,1,0,1:0:0:0:
250,146,46091,1,0,1:0:0:0:
243,140,46175,2,0,P|154:153|78:159,2,150.000005722046,0|0|8,3:2|1:0|1:0,1:0:0:0:
318,78,46675,1,0,1:0:0:0:
450,289,46841,5,0,3:2:0:0:
359,251,47008,1,0,3:0:0:0:
408,173,47175,1,0,3:0:0:0:
243,140,47341,5,12,1:2:0:0:
243,140,48175,5,0,3:2:0:0:
205,236,48341,1,0,3:0:0:0:
124,182,48508,1,0,3:0:0:0:
94,347,48675,5,14,1:2:0:0:
94,347,49508,6,0,B|79:387|164:391|238:310|233:256|171:181,1,225.000008583069,0|0,3:2|2:0,1:0:0:0:
254,175,49842,1,8,1:0:0:0:
254,164,49926,1,0,1:0:0:0:
256,153,50010,1,0,1:2:0:0:
260,143,50093,1,0,1:0:0:0:
269,127,50177,6,0,B|317:85|483:96|523:203|480:240|423:199,2,300.000011444092,0|8|0,3:0|1:0|3:0,1:0:0:0:
115,262,51014,1,2,1:2:0:0:
115,262,51097,1,0,1:0:0:0:
115,262,51181,2,0,P|34:274|14:276,1,75.0000028610231,8|0,1:0|1:0,1:0:0:0:
169,359,51349,2,0,P|88:347|68:345,1,75.0000028610231,2|0,1:2|1:0,1:0:0:0:
119,166,51516,2,0,P|86:170|78:171,1,25,0|0,3:0|1:0,1:0:0:0:
95,170,51683,2,0,P|185:184|207:186,1,100,2|0,1:2|1:0,1:0:0:0:
291,299,51851,5,8,1:2:0:0:
315,300,51934,1,8,1:0:0:0:
338,284,52018,1,8,1:0:0:0:
340,263,52102,1,8,1:0:0:0:
376,192,52185,6,0,B|475:172|523:338|457:295,1,200,2|8,3:2|1:0,1:0:0:0:
313,144,52683,2,0,P|321:86|329:43,1,100,2|0,3:2|1:0,1:0:0:0:
239,84,53015,5,2,3:2:0:0:
239,84,53181,1,8,1:0:0:0:
171,132,53347,6,0,B|71:151|23:-14|89:28,1,200,2|2,3:2|3:2,1:0:0:0:
239,84,53849,5,8,1:0:0:0:
131,212,54012,6,0,B|31:192|-16:358|49:315,1,200,2|0,3:2|3:0,1:0:0:0:
216,229,54512,6,0,P|216:212|211:200,1,30,12|0,1:2|2:0,1:0:0:0:
174,311,54853,2,0,B|129:204|271:206|291:86|215:49,1,240,4|0,3:2|2:0,1:0:0:0:
195,22,55186,2,0,L|233:146,1,80,8|0,1:0|1:0,1:0:0:0:
271,247,55353,1,0,3:2:0:0:
271,247,55519,1,0,1:0:0:0:
198,330,55686,1,0,3:0:0:0:
343,371,55853,2,0,B|348:405|410:373|429:286|403:250|329:222,1,179.999994506836,8|0,1:2|2:0,1:0:0:0:
490,339,56180,6,0,B|394:322|426:194|481:240|513:169|458:99,1,240,4|0,3:2|2:0,1:0:0:0:
401,81,56513,2,0,L|370:208,1,80,8|0,1:0|1:0,1:0:0:0:
352,282,56680,1,0,3:2:0:0:
352,282,56846,1,0,1:0:0:0:
275,200,57013,1,0,3:2:0:0:
156,309,57180,2,0,B|44:288|140:164|199:277,1,179.999994506836,8|0,1:0|2:0,1:0:0:0:
168,353,57519,5,12,1:2:0:0:
213,363,57685,1,0,3:0:0:0:
264,340,57852,1,4,3:0:0:0:
286,274,58019,1,0,3:2:0:0:
258,199,58185,1,4,3:0:0:0:
179,154,58352,1,0,3:0:0:0:
80,171,58519,1,4,3:0:0:0:
193,131,58685,1,8,1:0:0:0:
277,33,58852,1,8,1:0:0:0:
412,0,59019,1,8,1:0:0:0:
270,48,59185,2,0,P|171:47|142:29,1,100,8|0,1:0|2:0,2:0:0:0:
46,124,59526,5,8,1:0:0:0:
46,124,59610,1,8,1:0:0:0:
2,268,59776,1,8,1:0:0:0:
0,274,59860,1,8,1:2:0:0:
34,291,59943,1,8,1:0:0:0:
73,291,60026,1,0,3:0:0:0:
109,274,60110,1,0,3:0:0:0:
126,310,60193,6,0,B|159:261|236:251|278:338|293:383|356:319,1,225.000008583069,0|0,3:2|2:0,1:0:0:0:
392,302,60526,1,8,1:0:0:0:
258,205,60693,1,4,3:2:0:0:
230,115,60859,1,0,1:0:0:0:
346,225,61026,1,0,3:0:0:0:
228,104,61193,1,8,1:0:0:0:
20,269,61359,6,0,B|94:241|175:222|305:206,1,225.000008583069,0|0,3:2|2:0,1:0:0:0:
320,228,61693,1,0,3:0:0:0:
475,163,61859,1,8,1:0:0:0:
237,197,62026,2,0,B|226:303|401:288|388:117|225:62,1,300.000011444092,4|0,3:2|1:0,1:0:0:0:
93,13,62526,1,8,1:0:0:0:
114,155,62693,1,8,1:0:0:0:
126,233,62859,6,0,B|35:212|-41:260|-18:371|25:368,1,225.000008583069,0|0,3:2|2:0,1:0:0:0:
78,381,63193,1,8,1:0:0:0:
237,322,63359,1,4,3:2:0:0:
270,249,63526,1,0,1:0:0:0:
375,369,63693,1,0,3:0:0:0:
275,241,63859,1,8,1:0:0:0:
511,198,64026,6,0,P|419:182|253:82,1,225.000008583069,0|0,3:2|2:0,1:0:0:0:
252,57,64359,1,0,3:0:0:0:
194,196,64526,1,8,1:0:0:0:
348,42,64693,2,0,B|251:-33|100:62|161:204|-9:150|0:103,1,375.000014305115,4|0,3:2|2:0,1:0:0:0:
0,50,65193,1,8,1:0:0:0:
66,344,65526,6,0,B|100:279|221:274|224:364|318:364|320:304,1,240,4|0,3:2|2:0,1:0:0:0:
365,308,65859,2,0,L|331:190,1,80,8|0,1:0|1:0,1:0:0:0:
300,72,66026,1,0,3:2:0:0:
354,7,66193,1,0,1:0:0:0:
354,7,66359,1,0,3:0:0:0:
230,156,66526,2,0,B|212:226|347:248|385:126,1,179.999994506836,8|0,1:2|2:0,1:0:0:0:
426,242,66859,6,0,B|355:187|245:218|307:338|190:326|155:286,1,240,4|0,3:2|2:0,1:0:0:0:
134,295,67193,2,0,L|120:200,1,80,8|0,1:0|1:0,1:0:0:0:
101,52,67359,1,0,3:2:0:0:
101,52,67526,1,0,1:0:0:0:
192,16,67692,1,0,3:2:0:0:
160,193,67854,1,8,1:0:0:0:
208,263,68017,1,0,3:0:0:0:
145,332,68179,5,4,3:2:0:0:
512,276,70512,1,8,1:2:0:0:
454,116,70845,6,0,B|385:63|325:110|320:110|267:166|207:107,1,225.000008583069,0|0,3:2|2:0,1:0:0:0:
172,81,71179,1,8,1:0:0:0:
8,114,71345,1,4,3:2:0:0:
78,151,71512,1,0,1:0:0:0:
28,303,71679,1,0,3:0:0:0:
84,142,71845,1,8,1:0:0:0:
258,0,72012,6,0,P|291:87|417:241,1,225.000008583069,0|0,3:2|2:0,1:0:0:0:
437,235,72345,1,0,3:0:0:0:
394,89,72512,1,8,1:0:0:0:
433,278,72679,2,0,B|370:190|274:170|261:311|147:274,1,300.000011444092,4|0,3:2|1:0,1:0:0:0:
20,213,73179,1,8,1:0:0:0:
140,125,73345,1,8,1:0:0:0:
215,98,73512,6,0,B|135:147|116:235|210:297|239:264,1,225.000008583069,0|0,3:2|2:0,1:0:0:0:
284,231,73845,1,8,1:0:0:0:
324,384,74012,1,4,3:2:0:0:
357,311,74179,1,0,1:0:0:0:
346,150,74345,1,0,3:0:0:0:
346,309,74512,1,8,1:0:0:0:
132,382,74679,6,0,B|88:307|166:259|170:262|204:194|137:125,1,225.000008583069,0|0,3:2|2:0,1:0:0:0:
117,107,75012,1,0,3:0:0:0:
233,0,75179,1,8,1:0:0:0:
311,27,75345,1,4,3:2:0:0:
196,222,75512,1,0,3:0:0:0:
206,183,75595,1,8,1:0:0:0:
356,271,75762,1,8,1:0:0:0:
337,235,75845,1,4,3:0:0:0:
318,199,75929,1,8,1:0:0:0:
299,163,76012,1,8,1:0:0:0:
280,127,76095,1,8,1:0:0:0:
261,91,76179,6,0,L|362:136,1,80,0|0,3:2|1:0,1:0:0:0:
505,33,76345,2,0,B|516:-2|469:-22|363:66|434:190,1,240,0|0,3:2|2:0,1:0:0:0:
463,240,76679,1,0,3:2:0:0:
512,141,76845,1,0,1:0:0:0:
318,199,77012,2,0,B|246:186|246:186|236:193|236:193|157:174,1,160,0|8,3:2|1:2,1:0:0:0:
155,167,77262,1,0,1:0:0:0:
145,158,77345,1,0,3:2:0:0:
61,68,77512,5,0,3:2:0:0:
131,301,77679,1,0,3:2:0:0:
48,91,77845,1,8,1:2:0:0:
26,217,78012,1,0,3:0:0:0:
24,228,78095,1,0,1:0:0:0:
22,239,78179,5,0,3:2:0:0:
257,301,78345,1,0,3:2:0:0:
492,239,78512,1,8,1:2:0:0:
403,157,78679,1,0,3:0:0:0:
257,301,78845,6,0,P|312:326|372:327,1,80,0|0,3:2|1:0,1:0:0:0:
190,229,79012,2,0,B|209:217|247:238|226:372|61:360,1,240,0|0,3:2|2:0,1:0:0:0:
7,346,79345,2,0,B|7:306|58:285|58:285|-7:177|105:167|35:19,1,320,4|0,3:2|1:0,1:0:0:0:
0,0,79845,1,8,1:0:0:0:
223,147,80012,6,0,B|292:101|386:120|386:120|360:82|318:60,1,240,0|0,3:2|2:0,1:0:0:0:
314,68,80345,2,0,P|340:155|340:194,1,80,0|0,3:2|1:0,1:0:0:0:
201,259,80512,2,0,P|167:237|130:222,1,80,8|0,1:2|1:0,1:0:0:0:
342,384,80679,2,0,B|399:297|515:299|515:299|394:250,1,320,0|0,3:2|3:0,1:0:0:0:
466,197,81179,1,8,1:2:0:0:
74,325,81429,5,0,1:0:0:0:
43,333,81512,1,8,1:2:0:0:
10,226,81679,1,4,3:2:0:0:
107,101,81845,1,8,1:0:0:0:
262,261,82012,2,0,B|270:337|215:388|215:388|287:373|308:303,1,240,4|0,3:2|2:0,1:0:0:0:
373,349,82345,2,0,P|374:315|349:275,1,80,0|0,3:2|1:0,1:0:0:0:
262,261,82512,1,8,1:0:0:0:
26,143,82679,5,0,3:2:0:0:
107,101,82845,1,0,1:0:0:0:
132,13,83012,1,0,3:2:0:0:
150,102,83179,1,8,1:0:0:0:
229,148,83345,1,0,3:2:0:0:
245,135,83429,2,0,B|251:76|323:36|323:36|335:103|396:118,1,240,0|0,1:0|3:0,1:0:0:0:
512,105,83845,2,0,P|511:55|406:45,1,160,8|0,1:2|3:0,1:0:0:0:
431,365,84179,5,4,3:2:0:0:
484,274,84345,2,0,B|400:235|400:235|342:300,1,179.999994506836,0|8,3:2|1:0,1:0:0:0:
122,342,84679,2,0,B|77:299|4:300|4:300|110:234,1,179.999994506836,4|0,3:2|1:0,1:0:0:0:
233,173,85012,2,0,B|278:130|351:131|351:131|245:65,1,179.999994506836,0|8,3:2|1:0,1:0:0:0:
0,60,85345,6,0,B|41:96|28:159|28:159|85:98|173:104|173:104|132:141|141:187,1,359.999989013672,4|0,3:2|3:2,1:0:0:0:
233,173,85762,1,0,1:0:0:0:
233,173,85845,1,4,1:2:0:0:
84,364,86012,5,0,3:2:0:0:
189,291,86179,1,8,1:2:0:0:
313,338,86345,1,4,3:0:0:0:
384,338,86429,1,8,1:0:0:0:
433,284,86512,1,8,1:0:0:0:
390,299,86595,1,8,1:0:0:0:
345,291,86679,1,4,3:0:0:0:
361,269,86762,1,8,1:0:0:0:
369,246,86845,6,0,P|408:229|467:244,1,80,8|0,1:2|1:0,1:0:0:0:
300,65,87012,2,0,B|256:49|220:135|344:212|460:111,1,240,0|0,3:2|2:0,1:0:0:0:
497,116,87345,2,0,B|437:105|437:105|383:115|383:115|326:102|326:102|277:113|277:113|228:100|228:100|184:106,1,320,4|0,3:2|3:2,1:0:0:0:
33,347,87845,6,0,P|58:299|62:253,1,80,8|0,1:2|1:0,1:0:0:0:
131,218,88012,2,0,P|101:172|64:145,1,80,0|0,3:2|1:0,1:0:0:0:
20,97,88179,5,0,3:2:0:0:
0,198,88345,1,0,3:2:0:0:
131,218,88512,1,8,1:2:0:0:
151,117,88679,1,0,3:0:0:0:
181,353,88845,5,0,3:2:0:0:
332,282,89012,1,0,3:2:0:0:
180,102,89179,1,8,1:2:0:0:
331,31,89345,1,0,3:0:0:0:
361,267,89512,5,0,3:2:0:0:
407,181,89679,2,0,P|367:160|336:176,1,75.0000028610231,0|8,3:2|1:0,1:0:0:0:
361,267,90012,2,0,B|395:228|448:201|448:201|402:126|396:42,1,240,4|0,3:2|2:0,1:0:0:0:
479,68,90345,2,0,P|507:143|523:165,1,80,0|0,3:0|1:2,1:0:0:0:
456,295,90512,1,0,1:0:0:0:
140,311,90679,6,0,B|149:279|112:272|112:272|189:67,1,240,0|0,3:2|2:0,1:0:0:0:
56,170,91012,1,0,3:2:0:0:
276,68,91179,1,8,1:2:0:0:
24,82,91345,2,0,B|25:186|77:74|77:74|312:139,1,320,0|0,3:2|3:0,1:0:0:0:
458,56,91845,1,8,1:2:0:0:
294,356,92095,5,0,1:0:0:0:
294,356,92179,1,8,1:2:0:0:
220,188,92345,1,0,3:2:0:0:
268,359,92512,1,8,1:0:0:0:
191,192,92679,2,0,L|123:23,1,160,4|0,3:2|1:0,1:0:0:0:
0,234,93012,2,0,L|194:292,1,160,0|8,3:2|1:0,1:0:0:0:
279,185,93345,2,0,P|297:77|238:24,1,160,0|0,3:2|1:0,1:0:0:0:
40,8,93679,2,0,P|5:77|31:150,1,160,0|8,3:2|1:0,1:0:0:0:
150,96,94012,2,0,B|249:59|332:71|332:71|288:113|196:113,1,320,0|0,3:2|3:2,1:0:0:0:
458,0,94512,6,0,L|459:171,1,160,8|0,1:2|3:0,1:0:0:0:
463,383,94845,1,8,1:2:0:0:
181,252,95012,2,0,L|112:247,1,60,0|0,3:2|2:0,1:0:0:0:
66,125,95345,6,0,B|128:193|215:171|215:171|206:131|232:98,1,240,0|0,3:2|2:0,1:0:0:0:
294,156,95679,1,0,3:2:0:0:
135,48,95845,1,0,1:0:0:0:
63,375,96012,6,0,L|79:300,1,60,8|0,1:2|2:0,1:0:0:0:
151,345,96345,6,0,B|214:336|214:336|232:319|232:319|331:302,1,160,0|0,3:2|1:0,1:0:0:0:
468,150,96679,1,0,3:2:0:0:
507,286,96845,1,8,1:2:0:0:
501,303,96929,1,8,1:0:0:0:
494,323,97012,1,8,1:2:0:0:
485,344,97095,1,8,1:0:0:0:
446,353,97179,1,8,1:0:0:0:
409,336,97262,1,8,1:0:0:0:
387,302,97345,1,8,1:0:0:0:
383,252,97429,5,8,1:0:0:0:
392,247,97512,5,8,1:2:0:0:
473,153,97679,1,0,3:2:0:0:
434,69,97845,1,0,3:2:0:0:
175,178,98012,6,0,P|257:162|478:153,1,300,4|0,3:2|1:0,1:0:0:0:
411,253,99179,1,2,2:0:0:0:
411,253,99262,1,0,2:0:0:0:
411,253,99345,2,0,L|471:265,1,40,0|0,2:0|2:0,1:0:0:0:
335,187,99512,1,2,2:0:0:0:
335,187,99595,1,0,2:0:0:0:
335,187,99679,2,0,L|395:175,1,40,0|0,2:0|2:0,1:0:0:0:
231,126,99845,1,2,2:0:0:0:
231,126,99929,1,0,2:0:0:0:
231,126,100012,2,0,L|291:138,1,40,0|0,2:0|2:0,1:0:0:0:
347,16,100179,6,0,P|328:104|341:245,1,225.000008583069,0|0,3:2|2:0,1:0:0:0:
265,263,100512,2,0,B|241:254|239:304|287:348|319:345|363:308,1,150.000005722046,8|0,1:0|0:0,0:0:0:0:
419,364,100762,1,0,1:0:0:0:
417,383,100845,2,0,P|300:358|182:344,1,225.000008583069,0|0,3:0|2:0,1:0:0:0:
141,286,101179,1,8,1:0:0:0:
105,286,101262,1,8,1:0:0:0:
79,306,101345,1,0,3:2:0:0:
76,319,101429,1,0,1:0:0:0:
75,333,101512,6,0,B|115:348|124:300|149:199|76:138|45:197,1,225.000008583069,8|0,1:2|2:0,1:0:0:0:
0,128,101845,1,8,1:0:0:0:
7,123,101929,1,0,1:0:0:0:
14,117,102012,2,0,P|103:130|179:136,2,150.000005722046,2|0|0,1:2|3:0|1:2,1:0:0:0:
234,69,102512,1,8,1:2:0:0:
266,73,102595,1,8,1:0:0:0:
281,89,102679,1,0,3:0:0:0:
283,108,102762,1,0,1:0:0:0:
315,142,102845,6,0,B|393:108|456:107|528:222|487:233|421:200,1,225.000008583069,0|0,3:2|2:0,1:0:0:0:
409,263,103179,1,8,1:0:0:0:
402,277,103262,1,0,1:0:0:0:
406,292,103345,1,0,1:2:0:0:
412,301,103429,1,0,1:0:0:0:
421,312,103512,2,0,P|451:170|470:112,1,150.000005722046,0|0,3:0|1:2,1:0:0:0:
368,13,103845,1,8,1:0:0:0:
356,35,103929,1,8,1:0:0:0:
335,49,104012,1,0,3:0:0:0:
314,51,104095,1,0,1:0:0:0:
245,10,104179,6,0,B|201:-22|78:-5|6:190|133:25|158:68,1,225.000008583069,0|0,3:2|2:0,1:0:0:0:
184,112,104512,1,8,1:0:0:0:
197,125,104595,1,0,1:0:0:0:
196,152,104679,2,0,P|98:174|32:202,2,150.000005722046,0|0|0,1:2|3:0|1:2,1:0:0:0:
334,266,105179,1,8,1:0:0:0:
319,286,105262,1,8,1:0:0:0:
303,307,105345,1,0,3:0:0:0:
287,330,105429,1,0,1:0:0:0:
305,360,105512,6,0,P|288:208|265:98,1,225.000008583069,8|0,1:2|2:0,1:0:0:0:
322,78,105845,2,0,P|339:34|356:4,2,75.0000028610231,8|0|2,1:0|1:0|1:2,2:0:0:0:
205,261,106179,1,0,3:0:0:0:
366,201,106345,1,2,1:2:0:0:
181,96,106512,5,8,1:0:0:0:
162,100,106595,1,0,1:0:0:0:
151,122,106679,1,2,1:2:0:0:
295,245,106845,2,0,P|405:256|514:334,1,225.000008583069,0|0,3:0|2:0,1:0:0:0:
500,328,107179,2,0,B|431:317|442:200|481:205|519:213,1,150.000005722046,8|2,1:0|1:2,2:0:0:0:
402,32,107512,2,0,B|471:43|460:160|421:155|383:147,1,150.000005722046,0|2,3:0|1:2,1:0:0:0:
295,245,107845,1,8,1:2:0:0:
257,245,107929,1,8,1:0:0:0:
223,259,108012,1,8,1:0:0:0:
196,285,108095,1,8,1:0:0:0:
190,308,108179,6,0,B|153:315|86:333|-3:383,2,150.000005722046,0|2|8,3:2|1:2|1:0,1:0:0:0:
282,169,108679,2,0,B|245:162|178:144|89:94,3,150.000005722046,2|0|2|8,1:2|3:0|1:2|1:0,1:0:0:0:
67,30,109345,1,2,1:2:0:0:
141,121,109512,2,0,P|250:71|374:74,1,225.000008583069,0|0,3:2|2:0,1:0:0:0:
361,81,109845,1,8,1:0:0:0:
491,24,110012,2,0,P|447:96|405:292,1,225.000008583069,2|0,1:2|2:0,1:0:0:0:
403,236,110345,2,0,P|417:286|470:293,1,75.0000028610231,2|0,1:2|1:0,2:0:0:0:
443,308,110512,2,0,P|407:259|279:285,1,150.000005722046,8|2,1:0|1:2,1:0:0:0:
206,132,110845,6,0,P|131:196|-31:185,1,225.000008583069,0|0,3:0|2:0,1:0:0:0:
8,203,111179,2,0,P|123:207|204:322,1,225.000008583069,8|0,1:0|2:0,2:0:0:0:
194,283,111512,2,0,P|117:122|167:31,1,225.000008583069,0|0,3:0|2:0,2:0:0:0:
126,89,111845,2,0,P|119:163|51:208,1,150.000005722046,8|2,1:0|1:2,2:0:0:0:
80,384,112179,5,8,1:0:0:0:
81,374,112262,1,8,1:0:0:0:
82,363,112345,1,8,1:0:0:0:
83,353,112429,1,8,1:0:0:0:
84,342,112512,1,4,3:0:0:0:
145,294,112595,2,0,L|130:201,3,75.0000028610231,8|8|8|4,1:0|1:0|1:0|3:0,0:0:0:0:
227,228,112928,1,8,1:0:0:0:
248,258,113011,1,8,1:0:0:0:
280,277,113095,1,8,1:0:0:0:
317,279,113179,1,4,3:0:0:0:
354,281,113262,1,8,1:0:0:0:
386,300,113345,1,8,1:0:0:0:
407,330,113429,1,8,1:0:0:0:
412,367,113512,5,8,1:2:0:0:
473,153,113679,1,0,3:2:0:0:
434,69,113845,1,0,3:0:0:0:
175,178,114012,6,0,P|257:162|478:153,1,300.000011444092,12|0,1:2|2:0,1:0:0:0:
403,304,114845,1,2,2:0:0:0:
403,304,114929,1,0,2:0:0:0:
403,304,115012,2,0,L|463:316,1,37.5000014305115,0|0,2:0|2:0,1:0:0:0:
327,238,115179,1,8,1:0:0:0:
327,238,115262,1,0,2:0:0:0:
327,238,115345,2,0,L|387:226,1,37.5000014305115,0|0,2:0|2:0,1:0:0:0:
223,177,115512,1,2,2:0:0:0:
223,177,115595,1,0,2:0:0:0:
223,177,115679,2,0,L|283:189,1,37.5000014305115,0|0,2:0|2:0,1:0:0:0:
114,125,115845,1,2,2:0:0:0:
114,125,115929,1,0,2:0:0:0:
114,125,116012,2,0,L|174:113,1,37.5000014305115,0|0,2:0|2:0,1:0:0:0:
11,63,116179,6,0,P|30:151|17:292,1,225.000008583069,0|0,3:2|2:0,1:0:0:0:
100,303,116512,2,0,B|124:294|126:344|78:388|46:385|2:348,1,150.000005722046,8|0,1:0|1:0,2:0:0:0:
108,226,116762,1,0,1:0:0:0:
110,207,116845,2,0,P|227:232|345:246,1,225.000008583069,0|0,3:0|2:0,1:0:0:0:
411,182,117179,1,8,1:0:0:0:
447,182,117262,1,8,1:0:0:0:
473,202,117345,1,0,3:0:0:0:
476,215,117429,1,0,1:0:0:0:
478,231,117511,6,0,B|440:159|501:74|486:8,1,225.000008583069,8|0,1:2|2:0,1:0:0:0:
361,116,117846,1,8,1:0:0:0:
342,95,117929,1,0,1:0:0:0:
329,65,118013,2,0,P|240:78|164:84,2,150.000005722046,2|0|0,1:2|3:0|1:0,1:0:0:0:
38,56,118516,1,8,1:2:0:0:
70,60,118600,1,8,1:0:0:0:
85,76,118684,1,0,3:0:0:0:
87,95,118767,1,0,1:0:0:0:
119,129,118860,6,0,P|68:212|49:327,1,150.000005722046,0|0,3:2|1:0,1:0:0:0:
226,341,119190,1,8,1:0:0:0:
240,348,119272,1,0,1:0:0:0:
255,344,119355,1,0,1:2:0:0:
264,338,119437,1,0,1:0:0:0:
275,329,119520,2,0,P|153:283|75:280,1,150.000005722046,0|0,3:0|1:2,1:0:0:0:
321,263,119850,1,8,1:0:0:0:
343,275,119932,1,8,1:0:0:0:
357,296,120015,1,0,3:0:0:0:
359,317,120097,1,0,1:0:0:0:
355,332,120180,6,0,B|399:364|522:347|594:152|467:317|442:274,1,225.000008583069,0|0,3:0|2:0,1:0:0:0:
381,186,120513,1,8,1:0:0:0:
368,173,120596,1,0,1:0:0:0:
369,146,120680,2,0,P|467:124|533:96,2,150.000005722046,0|0|0,1:2|3:0|1:2,1:0:0:0:
258,30,121180,1,8,1:2:0:0:
258,30,121263,1,8,1:0:0:0:
258,30,121346,1,0,3:0:0:0:
258,30,121430,1,0,1:0:0:0:
257,29,121513,6,0,P|277:140|288:252,1,225.000008583069,8|0,1:2|2:0,1:0:0:0:
184,361,121846,2,0,P|201:317|249:322,2,75.0000028610231,8|0|2,1:0|1:0|1:2,2:0:0:0:
263,381,122180,1,0,3:0:0:0:
315,328,122346,1,2,1:2:0:0:
166,243,122513,5,8,1:0:0:0:
147,247,122596,1,0,1:0:0:0:
136,269,122680,1,2,1:2:0:0:
298,248,122846,2,0,P|408:259|517:337,1,225.000008583069,0|0,3:0|2:0,1:0:0:0:
502,333,123180,2,0,B|433:322|444:205|483:210|521:218,1,150.000005722046,8|2,1:0|1:2,2:0:0:0:
364,140,123513,2,0,B|433:129|422:12|383:17|345:25,1,150.000005722046,0|2,3:0|1:2,1:0:0:0:
285,176,123846,1,8,1:2:0:0:
247,176,123930,1,0,1:0:0:0:
213,162,124013,1,8,1:0:0:0:
186,136,124096,1,8,1:0:0:0:
180,113,124180,6,0,B|141:77|76:88|58:235,1,200,4|8,3:2|1:0,1:0:0:0:
5,274,124680,1,2,1:2:0:0:
44,343,124846,2,0,B|83:379|148:368|166:221,1,200,0|8,3:2|1:2,1:0:0:0:
331,62,125513,2,0,B|367:101|356:166|209:184,1,200,0|8,3:2|1:0,1:0:0:0:
344,285,126013,1,2,1:2:0:0:
371,305,126096,1,0,1:0:0:0:
410,296,126180,1,8,1:0:0:0:
422,284,126263,1,8,1:0:0:0:
457,258,126346,1,8,1:0:0:0:
459,208,126430,1,8,1:0:0:0:
438,190,126513,1,12,1:2:0:0:
429,199,126596,1,8,1:0:0:0:
434,218,126680,1,8,1:0:0:0:
470,246,126763,1,8,1:0:0:0:
512,319,126846,6,0,B|479:288|401:279|366:314|357:336|312:346|264:318,1,240,4|0,3:2|2:0,1:0:0:0:
202,359,127180,2,0,L|240:235,1,80,8|0,1:0|1:0,2:0:0:0:
271,160,127346,1,0,3:2:0:0:
271,160,127513,1,0,1:0:0:0:
185,186,127680,1,0,3:0:0:0:
319,249,127846,2,0,B|324:283|386:251|405:164|379:128|305:100,1,179.999994506836,8|0,1:0|2:0,1:0:0:0:
456,198,128180,6,0,P|346:153|265:22,1,240,8|0,1:2|2:0,1:0:0:0:
351,0,128513,2,0,L|320:127,1,80,8|0,1:0|1:0,2:0:0:0:
289,236,128680,1,0,3:2:0:0:
289,236,128846,1,0,1:0:0:0:
227,158,129013,1,0,3:2:0:0:
48,63,129180,2,0,P|66:157|105:116,1,179.999994506836,8|0,1:0|2:0,1:0:0:0:
150,79,129513,5,12,1:2:0:0:
195,69,129680,1,0,3:0:0:0:
246,92,129846,1,4,3:0:0:0:
268,158,130013,1,0,3:2:0:0:
240,233,130180,1,4,3:0:0:0:
161,278,130346,1,0,3:0:0:0:
62,261,130513,1,4,3:0:0:0:
175,301,130680,1,8,1:0:0:0:
106,180,130846,1,8,1:0:0:0:
0,299,131013,1,8,1:0:0:0:
114,160,131180,2,0,P|174:141|201:109,1,100,8|0,1:0|2:0,2:0:0:0:
204,85,131430,1,8,1:0:0:0:
196,48,131513,5,8,1:0:0:0:
225,97,131596,1,8,1:2:0:0:
268,119,131680,2,0,L|316:60,1,50,0|0,3:0|3:0,2:0:0:0:
322,205,131846,1,8,1:2:0:0:
325,246,131930,1,8,1:0:0:0:
305,290,132013,2,0,L|286:221,1,50,0|0,3:0|3:0,2:0:0:0:
234,384,132180,6,0,P|190:258|58:181,1,225.000008583069,0|0,3:2|2:0,1:0:0:0:
42,177,132513,1,8,1:0:0:0:
183,124,132680,1,4,3:2:0:0:
260,179,132846,1,0,1:0:0:0:
415,139,133013,1,0,3:0:0:0:
255,201,133180,1,8,1:0:0:0:
76,95,133346,6,0,B|25:128|28:208|73:232|79:288|36:333,1,225.000008583069,0|0,3:2|2:0,1:0:0:0:
8,374,133680,1,0,3:0:0:0:
151,334,133846,1,8,1:0:0:0:
284,195,134013,2,0,B|400:252|527:141|428:36,1,300.000011444092,4|0,3:2|1:0,1:0:0:0:
240,0,134513,1,8,1:0:0:0:
173,128,134680,1,8,1:0:0:0:
110,196,134846,6,0,B|196:201|226:258|211:293|252:350|335:334,1,225.000008583069,0|0,3:2|2:0,1:0:0:0:
358,322,135180,1,8,1:0:0:0:
433,174,135346,1,4,3:2:0:0:
407,97,135513,1,0,1:0:0:0:
330,238,135680,1,0,3:0:0:0:
427,81,135846,1,8,1:0:0:0:
236,231,136013,6,0,B|134:243|47:162|57:78|137:80,1,225.000008583069,0|0,3:2|2:0,1:0:0:0:
152,65,136346,1,0,3:0:0:0:
295,161,136513,1,8,1:0:0:0:
171,329,136680,2,0,B|160:363|330:417|269:275|420:180|512:250,1,375.000014305115,4|0,3:2|2:0,1:0:0:0:
511,317,137180,1,8,1:0:0:0:
0,162,137513,6,0,B|41:98|135:94|149:142|186:163|233:151,1,240,4|0,3:2|2:0,1:0:0:0:
282,212,137846,2,0,L|422:193,1,80,8|0,1:0|1:0,2:0:0:0:
512,184,138013,1,0,3:2:0:0:
461,108,138180,1,0,1:0:0:0:
461,108,138346,1,0,3:0:0:0:
393,249,138513,2,0,B|385:320|251:295|257:167,1,179.999994506836,8|0,1:2|2:0,1:0:0:0:
318,363,138846,6,0,P|243:287|78:294,1,240,4|0,3:2|2:0,1:0:0:0:
57,342,139180,2,0,L|71:247,1,80,8|0,1:0|1:0,2:0:0:0:
95,121,139346,1,0,3:2:0:0:
95,121,139513,1,0,1:0:0:0:
151,184,139680,1,0,3:2:0:0:
342,140,139846,1,8,1:0:0:0:
287,86,140013,1,0,3:0:0:0:
357,0,140179,5,4,3:2:0:0:
164,384,145513,6,0,P|195:300|101:158,1,225.000008583069,0|0,3:2|2:0,1:0:0:0:
66,149,145846,1,8,1:0:0:0:
191,62,146013,1,4,3:2:0:0:
241,0,146180,1,0,1:0:0:0:
395,42,146346,1,0,3:0:0:0:
232,0,146513,1,8,1:0:0:0:
48,102,146680,6,0,B|141:72|196:144|192:161|244:192|301:161,1,225.000008583069,0|0,3:2|2:0,1:0:0:0:
328,140,147013,1,0,3:0:0:0:
202,247,147180,1,8,1:0:0:0:
426,114,147346,2,0,B|538:248|437:378|353:318,1,300.000011444092,4|0,3:2|1:0,1:0:0:0:
253,173,147846,1,8,1:0:0:0:
348,64,148013,1,8,1:0:0:0:
414,0,148180,6,0,P|308:26|181:116,1,225.000008583069,0|0,3:2|2:0,1:0:0:0:
172,161,148513,1,8,1:0:0:0:
93,312,148680,1,4,3:2:0:0:
37,254,148846,1,0,1:0:0:0:
86,101,149013,1,0,3:0:0:0:
20,275,149180,1,8,1:0:0:0:
214,103,149346,6,0,B|289:59|337:137|334:141|402:175|471:108,1,225.000008583069,0|0,3:2|0:0,1:0:0:0:
496,100,149680,1,0,3:0:0:0:
322,3,149846,1,8,1:0:0:0:
60,164,150013,2,0,B|194:44|243:251|354:220,1,300.000011444092,4|0,3:2|3:0,1:0:0:0:
497,163,150513,1,8,0:0:0:0:
364,224,150680,1,8,1:0:0:0:
242,384,150846,6,0,B|260:298|166:323|159:284|87:238|129:168,1,240,0|0,3:2|2:0,1:0:0:0:
157,119,151180,1,8,1:0:0:0:
379,0,151346,2,0,B|308:73|442:146|280:139|303:264,1,240,4|0,3:2|2:0,1:0:0:0:
281,304,151680,1,0,3:0:0:0:
178,165,151846,2,0,L|245:-12,1,160,8|0,1:0|3:0,1:0:0:0:
82,258,152180,6,0,B|163:181|292:217|296:351,1,240,0|0,3:2|2:0,1:0:0:0:
288,377,152513,1,8,1:0:0:0:
71,276,152680,2,0,B|115:201|218:209|225:287|229:320|303:289|348:258|332:223|398:180|467:245,1,400,4|0,3:2|2:0,1:0:0:0:
485,289,153180,1,8,1:0:0:0:
320,361,153346,1,8,1:0:0:0:
407,139,153513,6,0,B|357:54|253:48|278:164|143:96,1,240,0|0,3:2|2:0,1:0:0:0:
113,84,153846,1,8,1:0:0:0:
0,275,154013,2,0,B|60:366|112:37|144:353|231:238|222:172|208:217,1,240,4|0,3:2|2:0,1:0:0:0:
246,135,154346,1,0,3:0:0:0:
396,4,154513,2,0,L|470:187,1,160,8|0,1:0|3:0,1:0:0:0:
255,317,154846,6,0,B|186:285|163:219|208:162|284:130|349:202,1,240,0|0,3:2|0:0,1:0:0:0:
365,217,155180,1,8,1:0:0:0:
196,371,155346,2,0,B|114:360|134:273|218:215|112:237|69:182|161:137|72:114,1,240,4|0,3:2|2:0,1:0:0:0:
131,77,155680,1,8,1:0:0:0:
181,54,155763,1,8,1:0:0:0:
224,70,155846,1,8,1:0:0:0:
261,38,155930,1,8,1:0:0:0:
318,22,156013,1,8,1:0:0:0:
321,12,156346,6,0,B|360:50|360:50|356:171|300:202,1,179.999994506836,12|0,1:0|1:0,1:0:0:0:
33,216,156689,2,0,B|46:268|46:268|153:325|208:292,1,179.999994506836,12|0,1:0|1:0,1:0:0:0:
403,125,157033,2,0,B|423:175|423:175|370:284|306:290,1,179.999994506836,12|0,1:0|1:0,1:0:0:0:
160,133,157377,2,0,L|207:247,1,89.9999972534181,12|0,1:0|1:0,1:0:0:0:
247,356,157533,5,0,1:0:0:0:
503,368,157689,2,0,P|452:273|420:359,1,179.999994506836,0|8,3:0|1:0,1:0:0:0:
493,21,158002,2,0,P|516:143|328:272,1,359.999989013672,4|0,3:2|3:0,1:0:0:0:
258,77,158519,2,0,P|202:105|170:135,1,89.9999972534181,8|0,1:0|1:0,1:0:0:0:
129,201,158691,2,0,P|109:260|107:304,1,89.9999972534181,8|0,1:0|1:0,1:0:0:0:
130,384,158853,5,0,3:0:0:0:
346,274,159015,1,0,3:0:0:0:
254,224,159177,1,8,1:0:0:0:
107,287,159339,1,4,3:2:0:0:
290,358,159507,5,0,1:0:0:0:
343,163,159676,1,0,3:0:0:0:
198,314,159844,5,8,1:0:0:0:
426,370,160013,2,0,B|400:337|400:337|372:247|362:152|362:152|379:101,1,269.999991760254,4|0,3:2|2:0,1:0:0:0:
457,181,160343,2,0,P|477:247|482:284,1,89.9999972534181,0|0,3:0|1:0,2:0:0:0:
249,233,160508,2,0,P|153:194|65:174,1,179.999994506836,8|4,1:0|3:2,1:0:0:0:
45,54,160842,1,0,1:0:0:0:
161,5,161010,1,0,3:0:0:0:
78,176,161178,5,8,1:0:0:0:
320,103,161347,1,8,1:0:0:0:
320,103,161683,6,0,B|349:142|349:142|352:243|296:315,1,179.999994506836,0|8,3:0|1:0,1:0:0:0:
48,82,162015,2,0,B|9:112|9:112|-19:208|16:292,1,179.999994506836,4|0,3:2|1:0,1:0:0:0:
332,68,162347,2,0,B|376:87|376:87|429:173|417:263,1,179.999994506836,0|8,3:0|1:0,1:0:0:0:
129,369,162682,1,4,3:2:0:0:
176,145,162849,6,0,B|164:162|199:215|233:262,1,89.9999972534181,0|0,1:0|1:0,1:0:0:0:
330,320,163017,2,0,P|229:309|210:379,1,179.999994506836,0|8,3:0|1:0,1:0:0:0:
8,239,163352,2,0,P|-3:152|54:87,1,179.999994506836,4|0,3:2|1:0,1:0:0:0:
225,32,163687,1,0,3:0:0:0:
311,232,163855,5,4,1:2:0:0:
403,244,164022,1,4,1:2:0:0:
508,46,164175,6,0,B|484:32|484:32|364:72|364:72|350:119,1,179.999994506836,0|0,3:0|3:0,1:0:0:0:
203,319,164506,2,0,B|179:333|179:333|59:293|59:293|45:246,1,179.999994506836,8|4,1:0|3:2,1:0:0:0:
102,28,164837,2,0,B|117:9|148:18|148:18|264:151|264:151|240:141|195:147,1,269.999991760254,0|0,1:0|2:0,1:0:0:0:
231,225,165181,1,8,1:0:0:0:
306,340,165354,2,0,L|393:288,1,89.9999972534181,4|0,1:2|1:0,1:0:0:0:
490,331,165526,5,4,3:0:0:0:
506,289,165608,1,8,1:0:0:0:
512,244,165690,1,8,1:0:0:0:
506,200,165772,1,8,1:0:0:0:
490,158,165854,2,0,P|468:123|455:107,3,50,4|8|8|8,3:0|1:0|1:0|1:0,1:0:0:0:
474,0,166183,5,4,3:0:0:0:
424,8,166265,1,8,1:0:0:0:
381,32,166347,1,8,1:0:0:0:
348,69,166430,1,8,1:0:0:0:
330,116,166512,1,4,3:0:0:0:
290,84,166594,1,8,1:0:0:0:
242,68,166676,1,8,1:0:0:0:
193,69,166758,1,8,1:0:0:0:
147,86,166842,1,12,1:0:0:0:
242,313,167008,6,0,L|344:293,1,89.9999972534181,2|0,1:2|1:0,1:0:0:0:
415,274,167175,1,8,1:0:0:0:
169,373,167342,2,0,B|218:311|199:229|199:229|128:201|71:280,1,269.999991760254,2|0,1:2|2:0,1:0:0:0:
19,287,167675,2,0,P|69:329|131:322,1,89.9999972534181,2|0,1:2|1:0,1:0:0:0:
278,199,167842,2,0,L|469:158,1,179.999994506836,8|2,1:0|1:2,1:0:0:0:
134,8,168175,5,4,3:2:0:0:
179,110,168342,2,0,L|8:112,1,89.9999972534181,2|0,1:2|1:0,1:0:0:0:
9,107,168508,1,8,1:0:0:0:
135,273,168675,2,0,B|193:186|297:177|297:177|393:228|398:333,1,359.999989013672,2|2,1:2|1:2,1:0:0:0:
476,96,169175,2,0,P|426:128|391:186,1,89.9999972534181,8|0,1:0|1:0,1:0:0:0:
272,310,169342,2,0,P|304:360|362:395,1,89.9999972534181,8|0,1:0|1:0,1:0:0:0:
504,238,169508,6,2,B|430:169|327:190|327:190|277:309|161:331|161:331|66:231|97:104|97:104|-52:144|23:321|23:321|127:326|165:425,1,1079.99996704102,4|8,3:2|1:0,1:0:0:0:
349,101,170845,6,2,B|368:81|387:16|387:16|195:-17|195:-17|184:25|200:73|200:73|279:86,1,450.000017166138,4|0,3:2|1:0,1:0:0:0:
285,278,171513,5,8,1:0:0:0:
321,271,171596,1,8,1:0:0:0:
358,264,171679,1,0,1:0:0:0:
395,257,171763,1,8,1:0:0:0:
432,250,171846,1,8,1:0:0:0:
512,130,172013,1,8,1:0:0:0:
475,121,172096,1,8,1:0:0:0:
438,116,172179,6,0,L|322:92,1,89.9999972534181,12|0,1:0|1:0,1:0:0:0:
245,0,172345,2,0,P|261:95|132:205,1,269.999991760254,2|0,1:2|2:0,1:0:0:0:
109,118,172679,2,0,P|91:43|-1:26,1,179.999994506836,2|0,1:2|3:0,2:0:0:0:
204,330,173012,2,0,B|192:259|222:240|444:265|536:361,1,359.999989013672,2|2,1:2|1:2,1:0:0:0:
388,379,173512,5,4,3:2:0:0:
351,183,173679,2,0,L|301:-15,1,179.999994506836,2|8,1:2|1:0,1:0:0:0:
512,73,174012,2,0,L|471:280,1,179.999994506836,2|0,1:2|3:0,1:0:0:0:
338,206,174345,1,2,1:2:0:0:
396,0,174512,2,0,P|426:21|402:92,1,89.9999972534181,8|0,1:0|1:0,1:0:0:0:
308,127,174679,2,0,P|264:124|239:88,1,89.9999972534181,8|0,1:0|1:0,1:0:0:0:
35,130,174845,6,2,B|36:60|74:16|148:17|155:38|155:38|159:101|93:125|83:190|117:273|117:273|105:282|25:226|25:226|16:310|53:363|53:363|171:381|286:320|286:320|284:260|258:205|258:205|210:204|149:224,1,1079.99996704102,4|8,3:2|1:0,1:0:0:0:
421,111,176179,6,2,B|263:-32|509:-11|594:193|441:311,1,450.000017166138,4|0,3:2|1:0,1:0:0:0:
331,367,176845,5,8,1:0:0:0:
331,367,176929,1,8,1:0:0:0:
331,367,177012,1,0,3:0:0:0:
331,367,177095,1,8,1:0:0:0:
331,367,177179,1,8,1:0:0:0:
206,276,177345,1,8,1:0:0:0:
194,224,177429,1,8,1:0:0:0:
181,173,177512,6,0,B|188:142|226:69|393:73,1,225.000008583069,4|0,3:2|2:0,1:0:0:0:
334,160,177845,1,8,1:0:0:0:
222,291,178012,2,0,B|132:272|80:296|36:355,1,150.000005722046,2|0,1:2|3:0,1:0:0:0:
357,375,178345,2,0,B|447:394|499:370|543:311,1,150.000005722046,2|8,1:2|1:0,1:0:0:0:
494,181,178679,1,2,1:2:0:0:
330,283,178845,6,0,B|326:221|199:198|183:378|8:239,1,300.000011444092,0|8,3:2|1:0,1:0:0:0:
0,54,179345,2,0,B|96:39|134:112|122:171,1,150.000005722046,2|0,1:2|3:0,1:0:0:0:
239,143,179679,1,2,1:2:0:0:
379,43,179845,5,8,1:0:0:0:
379,43,180012,1,8,1:0:0:0:
411,214,180179,6,2,B|393:308|364:355|364:355|325:347|301:303|301:303|305:232|364:135,3,400,4|8|0|8,3:2|1:0|3:0|1:0,1:0:0:0:
101,239,181345,1,2,1:2:0:0:
81,147,181512,6,2,B|118:219|196:201|196:201|252:295|404:310|474:202,1,450.000017166138,4|2,3:2|1:2,1:0:0:0:
306,35,182179,5,4,3:0:0:0:
266,15,182262,1,8,1:0:0:0:
222,20,182345,1,8,1:0:0:0:
187,48,182429,1,8,1:0:0:0:
174,90,182512,1,4,3:0:0:0:
368,195,182679,1,8,1:0:0:0:
353,152,182762,1,8,1:0:0:0:
318,124,182845,6,0,P|197:166|36:256,1,300.000011444092,4|8,3:2|1:0,1:0:0:0:
0,20,183345,2,0,P|52:93|131:130,1,150.000005722046,2|0,1:2|3:0,1:0:0:0:
242,114,183679,1,2,1:2:0:0:
160,363,183845,2,0,P|177:271|211:200,1,150.000005722046,8|2,1:0|1:2,1:0:0:0:
401,93,184179,6,0,B|503:110|525:206|525:206|480:279|393:259,1,300.000011444092,0|8,3:2|1:0,1:0:0:0:
324,37,184679,2,0,P|400:10|478:20,1,150.000005722046,2|0,1:2|3:0,1:0:0:0:
336,195,185012,1,2,1:2:0:0:
189,54,185179,5,8,1:0:0:0:
189,54,185345,1,8,1:0:0:0:
93,262,185512,6,2,B|187:244|234:215|234:215|226:176|182:151|182:151|111:156|14:215,3,400,4|8|0|8,3:2|1:0|3:0|1:0,1:0:0:0:
248,343,186679,1,2,1:2:0:0:
406,355,186845,5,4,3:2:0:0:
446,326,186929,1,8,1:0:0:0:
453,276,187012,1,0,1:0:0:0:
460,226,187095,1,8,1:0:0:0:
467,176,187179,1,4,3:0:0:0:
296,329,187345,1,8,1:0:0:0:
248,343,187429,1,8,1:0:0:0:
199,357,187512,5,0,3:0:0:0:
186,309,187595,1,8,1:0:0:0:
196,260,187679,1,8,1:0:0:0:
227,222,187762,1,8,1:0:0:0:
272,201,187845,1,4,3:0:0:0:
321,204,187929,1,8,1:0:0:0:
364,229,188012,2,0,P|336:244|276:246,1,75.0000028610231,0|0,3:0|3:0,1:0:0:0:
53,93,188178,6,0,L|99:98,1,40,4|2,3:2|1:2,1:0:0:0:
176,45,188689,1,0,3:2:0:0:
274,170,188859,2,0,B|197:161|180:57|240:9,1,200,4|2,1:2|1:2,1:0:0:0:
246,0,189371,1,0,1:0:0:0:
351,141,189541,6,0,P|318:181|391:208,1,150,0|0,3:2|2:0,1:0:0:0:
404,204,189861,1,2,1:2:0:0:
417,308,190022,1,0,3:2:0:0:
512,338,190182,1,4,1:2:0:0:
262,322,190343,2,0,B|249:288|204:276|170:297|196:318|158:345|103:331|87:291,1,200,8|0,1:2|1:0,1:0:0:0:
47,211,190846,6,0,B|31:146|37:120|57:93,1,100,4|0,3:2|1:0,1:0:0:0:
131,125,191102,1,2,1:2:0:0:
131,125,191187,1,2,1:2:0:0:
258,170,191358,1,0,1:0:0:0:
392,48,191534,2,0,B|377:27|359:32|372:51|348:56|338:35|319:39|330:61|308:67|298:44,1,100,4|0,1:2|1:2,1:0:0:0:
361,130,191781,1,2,1:2:0:0:
361,130,191863,1,2,1:2:0:0:
427,256,192193,5,0,3:2:0:0:
344,215,192358,1,8,1:0:0:0:
145,384,192688,6,0,B|133:367|136:346|162:288,1,100,0|4,3:2|1:2,1:0:0:0:
99,312,193019,2,0,B|110:295|107:274|81:216,1,100,8|2,1:2|1:2,1:0:0:0:
0,156,193350,1,0,3:2:0:0:
69,94,193515,1,4,3:2:0:0:
211,126,193681,2,0,P|121:85|42:24,1,200,0|0,1:2|1:0,1:0:0:0:
225,26,194181,5,4,1:2:0:0:
273,196,194348,2,0,P|264:137|322:123,1,100,0|2,1:0|1:2,1:0:0:0:
157,204,194681,1,0,3:2:0:0:
100,289,194848,1,0,3:2:0:0:
0,197,195015,1,8,1:0:0:0:
362,0,195515,5,4,1:2:0:0:
381,100,195678,1,8,1:2:0:0:
202,326,196006,1,0,3:2:0:0:
271,253,196177,5,4,3:2:0:0:
226,161,196342,1,8,1:2:0:0:
237,86,196508,2,0,B|242:28|146:49|126:155,1,150,2|0,1:2|2:0,1:0:0:0:
130,174,196839,5,6,1:2:0:0:
110,274,197005,1,0,3:2:0:0:
4,173,197171,1,4,3:0:0:0:
13,140,197254,1,8,1:0:0:0:
22,108,197337,1,4,3:2:0:0:
31,76,197420,1,8,1:0:0:0:
94,28,197502,5,8,1:2:0:0:
313,119,198512,5,8,1:0:0:0:
303,87,198595,1,8,1:0:0:0:
345,87,198678,1,8,1:0:0:0:
376,122,198762,1,8,1:0:0:0:
388,198,198845,6,2,B|320:191|265:284|310:328|451:199|519:173|572:318|525:410|403:404|346:367|329:356|329:356|309:347|263:311|130:226|95:364|94:364|-3:363|-78:258|5:204,1,900.000034332277,4|8,3:2|1:0,1:0:0:0:
28,151,200008,1,2,1:2:0:0:
358,123,200167,6,2,B|180:160|99:-16|99:-16|17:-5|-78:209|-52:358|6:436|167:438|318:444|248:234|167:189|29:214|-2:322,1,1200,4|8,3:2|1:0,1:0:0:0:
278,383,201320,6,0,P|285:331|306:277,1,100,8|0,1:0|1:0,1:0:0:0:
384,150,201492,6,2,B|333:177|242:136|258:-13|310:-68|451:-50|537:-36|570:27|542:117|466:172|362:158|297:189|272:285|272:285|266:259|266:194|187:145|111:160|37:237|-13:361|69:409|189:370|233:286|81:139|81:139|16:82|21:15|64:-11,1,1529.9999795723,4|8,3:2|1:0,1:0:0:0:
238,117,202665,1,2,1:2:0:0:
226,100,202748,1,0,1:0:0:0:
181,27,202846,6,2,B|67:7|24:61|9:144|0:234|17:256|138:275|246:263|341:269|412:264|439:161|399:51|319:23|262:23|221:34|195:67,1,800,4|8,3:2|1:0,1:0:0:0:
256,64,203596,1,8,1:0:0:0:
240,76,203679,1,0,1:0:0:0:
234,107,203762,1,8,1:0:0:0:
250,148,203846,1,4,3:0:0:0:
501,136,204012,1,8,1:0:0:0:
490,116,204096,1,8,1:0:0:0:
431,72,204179,6,2,B|367:-2|271:7|211:164|332:180|402:136|429:172|435:255|388:293|284:248|252:191|171:173|100:221|66:264|96:298|96:298|156:375|273:243|339:351,1,900.000034332277,4|8,3:2|1:0,1:0:0:0:
434,346,205342,1,2,1:2:0:0:
508,149,205508,6,2,B|455:18|552:103|568:164|555:266|497:295|442:290|267:310|286:428|217:497|-179:403|-180:209|35:72|107:83|161:-43|241:116|110:101|338:69|212:307|-15:192,1,1200,4|8,3:2|1:0,1:0:0:0:
28,56,206672,2,0,P|21:44|87:15,1,100,8|0,1:0|1:0,1:0:0:0:
250,191,206838,6,2,B|258:-92|72:18|-97:122|-83:375|-21:480|170:458|263:401|298:327|276:193|261:146|337:104|392:131|392:131|431:147|514:226|561:87|588:-77|356:-94|271:27|365:127,1,1529.9999795723,4|8,3:2|1:0,1:0:0:0:
384,250,208011,1,2,1:2:0:0:
195,218,208178,6,2,B|293:250|233:327|163:363|46:325|28:219|60:98|129:71|240:120|256:148|287:179|287:200|334:321|494:280|479:82|456:42|341:40|314:81|331:111,1,800,4|8,3:2|1:0,1:0:0:0:
340,124,208920,1,8,1:0:0:0:
361,146,209002,1,0,3:0:0:0:
396,148,209085,1,4,3:0:0:0:
448,125,209167,1,8,1:0:0:0:
256,31,209332,1,8,1:0:0:0:
221,57,209414,1,8,1:0:0:0:
147,33,209497,6,2,B|103:1|0:-17|-43:3|-47:139|54:179|103:102|238:28|226:-81|299:248|170:308|162:224|120:175|107:130|29:145|-6:246|-8:258|19:333|227:143|342:172|412:334,1,900.000034332277,4|8,3:2|1:0,1:0:0:0:
442,355,210666,1,2,1:2:0:0:
495,181,210834,6,2,B|403:112|404:2|473:-20|546:65|550:185|518:213|463:211|435:204|435:204|411:193|378:176|335:170|281:178|185:277|79:392|-69:404|-118:362|161:88|326:-4|193:237,1,1200,4|8,3:2|1:0,1:0:0:0:
425,331,212003,6,0,P|472:340|520:377,1,100,8|0,1:0|1:0,1:0:0:0:
309,285,212179,6,2,B|343:220|486:244|501:353|339:363|130:426|170:295|193:340|486:121|358:-124|-101:-124|53:123|-5:115|-73:198|-121:454|46:441|118:414|342:411|315:349|115:11|285:-49|485:-39|475:-55|600:319|286:111,1,1529.9999795723,4|8,3:2|1:0,1:0:0:0:
208,32,213345,1,2,1:2:0:0:
380,77,213512,6,2,B|435:75|520:112|474:199|447:284|372:308|354:318|214:294|310:-3|256:-1|134:27|68:94|28:182|14:278|128:303,1,800,4|8,3:2|1:0,1:0:0:0:
96,293,214262,1,8,1:0:0:0:
116,276,214345,1,0,1:0:0:0:
119,246,214429,1,8,1:0:0:0:
93,205,214512,1,4,3:0:0:0:
229,322,214679,1,8,1:0:0:0:
266,350,214762,1,8,1:0:0:0:
328,363,214845,6,2,B|405:340|502:372|518:382|554:361|522:240|416:209|384:292|342:293|317:276|307:266|307:266|302:248|283:182|304:109|376:82|427:-4|484:11|547:122|543:199|472:227|403:166|397:139,1,900.000034332277,4|8,3:2|1:0,1:0:0:0:
343,92,216012,1,2,1:2:0:0:
128,76,216179,6,2,B|230:-59|-150:35|-111:429|140:417|373:488|435:231|200:94|261:-14|335:-71|502:-33|620:74|617:184|428:354|320:188|308:187,1,1200,4|8,3:2|1:0,1:0:0:0:
252,63,217346,6,0,P|244:23|219:-3,1,100,8|0,1:0|1:0,1:0:0:0:
67,187,217508,6,2,B|36:136|65:56|234:68|327:150|262:291|142:353|90:277|90:277|40:199|-10:204|-53:256|-76:361|-29:433|46:433|99:433|168:362|180:238|245:158|440:269|448:334|448:334|525:400|622:286|511:-35|370:-4|252:116|400:226|455:312,1,1912.49997446537,4|0,3:2|2:0,1:0:0:0:
509,357,218844,5,0,3:0:0:0:
509,357,219007,1,0,3:0:0:0:
509,357,219171,1,0,3:0:0:0:
509,357,219335,1,0,3:0:0:0:
509,357,219499,1,0,3:0:0:0:
509,357,219663,1,0,3:0:0:0:
509,357,219844,1,8,1:0:0:0:
509,357,220011,1,0,3:0:0:0:
417,273,220178,5,4,1:0:0:0:
