osu file format v14

[General]
AudioFilename: audio.mp3
AudioLeadIn: 0
PreviewTime: 68318
Countdown: 0
SampleSet: Soft
StackLeniency: 0.7
Mode: 0
LetterboxInBreaks: 0
WidescreenStoryboard: 0

[Editor]
Bookmarks: 9248,16632,20324,24017,27709,31401,35094,38786,46171,53555,60940,68324,75709,83094,90478,94171,97863
DistanceSpacing: 0.9
BeatDivisor: 6
GridSize: 4
TimelineZoom: 1

[Metadata]
Title:sleep thru ur alarms
TitleUnicode:sleep thru ur alarms
Artist:Lontalius
ArtistUnicode:Lontalius
Creator:Kyreth
Version:overthinking.-
Source:
Tags:lontalius sleep thru through your ur alarms
BeatmapID:1902835
BeatmapSetID:911544

[Difficulty]
HPDrainRate:5
CircleSize:3
OverallDifficulty:7
ApproachRate:9
SliderMultiplier:1.99999990463257
SliderTickRate:1

[Events]
//Background and Video events
0,0,"sleepthruuralarms.png",0,0
//Break Periods
//Storyboard Layer 0 (Background)
//Storyboard Layer 1 (Fail)
//Storyboard Layer 2 (Pass)
//Storyboard Layer 3 (Foreground)
//Storyboard Layer 4 (Overlay)
//Storyboard Sound Samples

[TimingPoints]
9257,923.076923076923,4,2,1,100,1,0
16641,-50,4,2,1,100,0,0

[Colours]
Combo1 : 94,33,99
Combo2 : 62,34,221
Combo3 : 105,57,230
Combo4 : 94,50,148

[HitObjects]
114,105,9257,5,8,0:0:0:0:
468,202,9564,1,0,0:0:0:0:
58,231,9872,1,0,0:0:0:0:
209,358,10180,5,2,0:0:0:0:
276,26,10487,1,0,0:0:0:0:
337,306,10795,1,0,0:0:0:0:
491,149,11103,5,8,0:0:0:0:
40,185,11410,1,0,0:0:0:0:
391,232,11718,1,0,0:0:0:0:
255,22,12026,5,2,0:0:0:0:
243,347,12333,1,0,0:0:0:0:
161,93,12641,1,0,0:0:0:0:
475,164,12949,5,8,0:0:0:0:
72,258,13257,1,0,0:0:0:0:
348,91,13564,1,0,0:0:0:0:
274,342,13872,5,2,0:0:0:0:
150,23,14180,1,0,0:0:0:0:
338,231,14487,1,0,0:0:0:0:
40,153,14795,5,8,0:0:0:0:
433,147,15103,1,0,0:0:0:0:
214,224,15410,1,0,0:0:0:0:
44,147,15718,5,2,0:0:0:0:
441,141,16026,1,0,0:0:0:0:
219,219,16333,1,0,0:0:0:0:
127,273,16641,6,0,P|191:226|201:161,1,133.333333333333,8|0,0:0|0:0,0:0:0:0:
90,69,17257,1,0,0:0:0:0:
61,247,17564,6,0,P|119:298|218:298,1,133.333333333333,2|0,0:0|0:0,0:0:0:0:
313,224,18180,1,0,0:0:0:0:
248,96,18487,6,0,P|316:75|392:115,1,133.333333333333,8|0,0:0|0:0,0:0:0:0:
444,200,19103,1,0,0:0:0:0:
420,315,19410,6,0,P|361:361|281:353,1,133.333333333333,2|0,0:0|0:0,0:0:0:0:
175,294,20026,1,0,0:0:0:0:
246,96,20333,5,8,0:0:0:0:
387,61,20641,1,0,0:0:0:0:
353,197,20949,1,0,0:0:0:0:
246,96,21257,5,2,0:0:0:0:
387,61,21564,1,0,0:0:0:0:
353,197,21872,1,0,0:0:0:0:
231,94,22180,5,8,0:0:0:0:
371,34,22487,1,0,0:0:0:0:
366,179,22795,1,0,0:0:0:0:
231,122,23103,5,2,0:0:0:0:
326,29,23410,1,0,0:0:0:0:
376,148,23718,1,0,0:0:0:0:
332,39,24026,5,8,0:0:0:0:
380,155,24333,1,0,0:0:0:0:
432,278,24641,1,0,0:0:0:0:
336,49,24949,5,2,0:0:0:0:
383,163,25257,1,0,0:0:0:0:
437,284,25564,1,0,0:0:0:0:
340,57,25872,5,8,0:0:0:0:
387,170,26180,1,0,0:0:0:0:
443,292,26487,1,0,0:0:0:0:
344,64,26795,5,2,0:0:0:0:
392,178,27103,1,0,0:0:0:0:
448,300,27410,1,0,0:0:0:0:
318,334,27718,5,8,0:0:0:0:
193,258,28026,1,0,0:0:0:0:
165,116,28333,1,0,0:0:0:0:
243,338,28641,5,2,0:0:0:0:
206,208,28949,1,0,0:0:0:0:
284,81,29257,1,0,0:0:0:0:
201,300,29564,5,8,0:0:0:0:
291,187,29872,1,0,0:0:0:0:
434,161,30180,1,0,0:0:0:0:
252,275,30487,5,2,0:0:0:0:
400,268,30795,1,0,0:0:0:0:
495,368,31103,1,0,0:0:0:0:
168,238,31410,6,0,L|306:180,2,133.333333333333,8|0|0,0:0|0:0|0:0,0:0:0:0:
210,154,32333,6,0,L|371:182,2,133.333333333333,2|0|0,0:0|0:0|0:0,0:0:0:0:
281,100,33256,6,0,L|392:194,2,133.333333333333,8|0|0,0:0|0:0|0:0,0:0:0:0:
366,87,34180,6,0,L|396:232,2,133.333333333333,2|0|0,0:0|0:0|0:0,0:0:0:0:
460,131,35103,5,8,0:0:0:0:
145,106,35410,1,0,0:0:0:0:
460,131,35718,1,0,0:0:0:0:
198,226,36026,5,2,0:0:0:0:
446,105,36334,1,0,0:0:0:0:
198,226,36641,1,0,0:0:0:0:
420,87,36949,5,8,0:0:0:0:
299,306,37256,1,0,0:0:0:0:
420,87,37564,1,0,0:0:0:0:
421,312,37872,5,2,0:0:0:0:
392,84,38180,1,0,0:0:0:0:
421,312,38487,1,0,0:0:0:0:
451,165,38795,6,0,P|421:175|303:126,1,133.333333333333,12|0,0:0|0:0,0:0:0:0:
325,70,39256,2,0,P|240:130|267:203,1,133.333326975505
327,207,39718,2,0,P|279:108|222:88,1,133.333333333333,2|0,0:0|0:0,0:0:0:0:
177,109,40180,2,0,P|201:40|279:18,1,133.333326975505
321,140,40641,2,0,P|312:182|223:222,1,133.333333333333,8|0,0:0|0:0,0:0:0:0:
173,158,41103,2,0,P|141:204|162:291,1,133.333333333333
173,308,41564,6,0,P|215:272|199:229,1,66.6666666666667,4|0,0:0|0:0,0:0:0:0:
221,223,41872,2,0,P|208:181|218:151,1,66.6666666666667
246,116,42180,2,0,P|263:151|316:172,1,66.6666666666667
298,207,42487,6,0,P|325:144|292:74,1,133.333333333333,8|0,0:0|0:0,0:0:0:0:
245,92,42949,2,0,P|314:101|377:58,1,133.333333333333
346,60,43410,2,0,P|335:131|392:181,1,133.333326975505,6|0,0:0|0:0,0:0:0:0:
387,131,43872,2,0,P|319:149|278:204,1,133.333333333333
269,228,44333,2,0,P|223:287|135:295,1,133.333333333333,8|0,0:0|0:0,0:0:0:0:
130,384,44795,2,0,P|77:330|86:256,1,133.333326975505
134,120,45256,5,4,0:0:0:0:
189,226,45564,1,0,0:0:0:0:
304,259,45872,1,0,0:0:0:0:
450,104,46180,6,0,P|398:112|359:157,1,66.6666666666667,8|0,0:0|0:0,0:0:0:0:
302,183,46487,1,0,0:0:0:0:
344,317,46641,1,0,0:0:0:0:
449,218,46795,1,0,0:0:0:0:
136,179,47103,5,2,0:0:0:0:
120,77,47410,1,0,0:0:0:0:
196,9,47718,1,0,0:0:0:0:
278,171,48026,5,8,0:0:0:0:
359,327,48180,1,0,0:0:0:0:
390,154,48333,1,0,0:0:0:0:
254,277,48487,1,0,0:0:0:0:
443,252,48641,1,0,0:0:0:0:
196,9,48949,5,2,0:0:0:0:
120,77,49257,1,0,0:0:0:0:
136,179,49564,1,0,0:0:0:0:
219,285,49872,5,8,0:0:0:0:
411,186,50026,1,0,0:0:0:0:
270,179,50180,1,0,0:0:0:0:
348,285,50333,1,0,0:0:0:0:
417,182,50487,1,0,0:0:0:0:
343,72,50795,5,2,0:0:0:0:
213,44,51103,1,0,0:0:0:0:
111,91,51410,1,0,0:0:0:0:
65,225,51718,5,8,0:0:0:0:
221,115,51872,1,0,0:0:0:0:
157,228,52026,1,0,0:0:0:0:
220,126,52180,1,0,0:0:0:0:
331,96,52333,1,0,0:0:0:0:
334,251,52641,5,2,0:0:0:0:
204,319,52949,2,0,L|196:230,1,66.6666666666667
175,281,53256,2,0,L|132:210,1,66.6666666666667
138,268,53564,6,0,L|18:186,1,133.333333333333,12|0,0:0|0:0,0:0:0:0:
61,186,54026,2,0,L|178:266,1,133.333333333333
173,287,54487,2,0,L|164:172,1,66.6666666666667,2|0,0:0|0:0,0:0:0:0:
165,167,54795,1,0,0:0:0:0:
256,69,54949,1,0,0:0:0:0:
348,52,55410,6,0,P|335:119|366:203,1,133.333326975505,8|0,0:0|0:0,0:0:0:0:
384,179,55872,2,0,P|392:149|331:170,1,133.333333333333
335,211,56333,2,0,L|266:148,1,66.6666666666667,4|0,0:0|0:0,0:0:0:0:
294,143,56641,2,0,L|345:82,1,66.6666666666667
338,284,56949,1,0,0:0:0:0:
392,197,57256,6,0,L|481:65,1,133.333333333333,8|0,0:0|0:0,0:0:0:0:
432,312,57718,2,0,L|346:173,1,133.333333333333
245,321,58180,2,0,L|394:317,1,133.333333333333,6|0,0:0|0:0,0:0:0:0:
323,160,58641,2,0,L|242:292,1,133.333333333333
369,326,59103,2,0,L|302:290,1,66.6666666666667,8|0,0:0|0:0,0:0:0:0:
283,270,59410,5,0,0:0:0:0:
428,340,59718,1,0,0:0:0:0:
254,128,60026,1,4,0:0:0:0:
125,114,60333,1,0,0:0:0:0:
22,183,60641,1,0,0:0:0:0:
0,295,60949,6,0,L|67:283,1,66.6666666666667,8|0,0:0|0:0,0:0:0:0:
155,344,61256,1,0,0:0:0:0:
330,341,61564,1,0,0:0:0:0:
436,283,61872,6,0,P|427:214|354:162,1,133.333326975505,2|0,0:0|0:0,0:0:0:0:
434,85,62487,1,0,0:0:0:0:
320,44,62795,6,0,L|243:55,1,66.6666666666667,8|0,0:0|0:0,0:0:0:0:
229,157,63103,1,0,0:0:0:0:
81,169,63410,1,0,0:0:0:0:
61,285,63718,6,0,P|129:239|217:251,1,133.333326975505,2|0,0:0|0:0,0:0:0:0:
403,214,64333,1,0,0:0:0:0:
290,61,64641,6,0,L|263:132,1,66.6666666666667,8|0,0:0|0:0,0:0:0:0:
234,241,64949,1,0,0:0:0:0:
186,364,65257,1,0,0:0:0:0:
346,338,65564,5,2,0:0:0:0:
248,241,65718,1,0,0:0:0:0:
196,368,65872,1,0,0:0:0:0:
327,343,66026,1,0,0:0:0:0:
250,258,66180,1,0,0:0:0:0:
232,144,66487,5,8,0:0:0:0:
216,37,66795,1,0,0:0:0:0:
232,144,67103,1,0,0:0:0:0:
359,224,67410,6,0,P|393:177|408:89,1,133.333333333333,2|0,0:0|0:0,0:0:0:0:
356,273,67872,2,0,P|403:188|457:154,1,133.333333333333
332,293,68333,6,0,P|303:210|241:181,1,133.333333333333,12|0,0:0|0:0,0:0:0:0:
266,223,68795,2,0,P|326:236|309:177,1,133.333333333333
234,179,69257,2,0,P|263:111|327:74,1,133.333333333333,2|0,0:0|0:0,0:0:0:0:
404,78,69718,2,0,P|336:96|276:51,1,133.333333333333
300,53,70180,2,0,P|348:55|308:99,1,133.333333333333,8|0,0:0|0:0,0:0:0:0:
253,88,70641,2,0,P|235:155|292:220,1,133.333333333333
333,268,71103,6,0,P|371:205|370:142,2,133.333326975505,4|0|0,0:0|0:0|0:0,0:0:0:0:
255,151,72026,6,0,P|330:176|363:244,1,133.333333333333,8|0,0:0|0:0,0:0:0:0:
252,285,72487,2,0,P|239:210|270:149,1,133.333326975505
362,196,72949,2,0,P|309:272|247:292,1,133.333326975505,6|0,0:0|0:0,0:0:0:0:
226,167,73410,2,0,P|300:156|363:188,1,133.333326975505
290,287,73872,2,0,P|235:237|218:163,2,133.333326975505,8|0|0,0:0|0:0|0:0,0:0:0:0:
395,270,74795,5,4,0:0:0:0:
441,175,75103,1,0,0:0:0:0:
416,74,75410,1,0,0:0:0:0:
238,171,75718,2,0,L|112:245,2,133.333326975505,2|0|0,0:0|0:0|0:0,0:0:0:0:
238,171,76641,2,0,L|112:245,2,133.333326975505,2|0|0,0:0|0:0|0:0,0:0:0:0:
238,171,77564,2,0,L|112:245,2,133.333326975505,2|0|0,0:0|0:0|0:0,0:0:0:0:
238,171,78487,2,0,L|112:245,2,133.333326975505,2|0|0,0:0|0:0|0:0,0:0:0:0:
325,116,79410,2,0,L|439:48,2,133.333326975505,2|0|0,0:0|0:0|0:0,0:0:0:0:
238,171,80333,2,0,L|112:245,2,133.333326975505,2|0|0,0:0|0:0|0:0,0:0:0:0:
325,116,81257,2,0,L|439:48,2,133.333326975505,2|0|0,0:0|0:0|0:0,0:0:0:0:
238,171,82180,1,2,0:0:0:0:
337,169,82487,6,0,P|333:113|300:78,1,66.6666666666667
287,128,82795,2,0,P|268:95|235:82,1,66.6666666666667
252,157,83103,2,0,P|348:186|397:162,1,133.333333333333,12|0,0:0|0:0,0:0:0:0:
372,125,83564,2,0,P|445:189|449:247,1,133.333333333333
396,209,84026,2,0,P|368:219|338:261,1,66.6666666666667,2|0,0:0|0:0,0:0:0:0:
432,317,84334,1,0,0:0:0:0:
481,214,84487,1,0,0:0:0:0:
425,108,84949,6,0,P|323:152|290:214,1,133.333333333333,8|0,0:0|0:0,0:0:0:0:
341,209,85410,2,0,P|278:156|207:158,1,133.333333333333
241,197,85872,2,0,P|258:163|249:135,1,66.6666666666667,4|0,0:0|0:0,0:0:0:0:
190,126,86180,2,0,P|227:143|254:135,1,66.6666666666667
355,82,86487,1,0,0:0:0:0:
414,207,86795,6,0,P|334:184|332:54,2,199.999990463257,8|0|6,0:0|0:0|0:0,0:0:0:0:
403,117,88180,1,0,0:0:0:0:
345,287,88641,5,8,0:0:0:0:
198,248,88949,2,0,P|201:207|248:177,1,66.6666666666667
346,87,89257,2,0,P|300:121|266:118,1,66.6666666666667
133,67,89564,2,0,P|178:88|190:111,1,66.6666666666667,4|0,0:0|0:0,0:0:0:0:
203,211,89872,1,0,0:0:0:0:
170,304,90180,1,0,0:0:0:0:
83,358,90487,5,8,0:0:0:0:
170,304,90795,1,0,0:0:0:0:
252,255,91103,1,0,0:0:0:0:
92,354,91410,5,2,0:0:0:0:
179,300,91718,1,0,0:0:0:0:
261,251,92026,1,0,0:0:0:0:
103,351,92333,5,8,0:0:0:0:
190,297,92641,1,0,0:0:0:0:
272,248,92949,1,0,0:0:0:0:
116,350,93257,5,2,0:0:0:0:
203,296,93565,1,0,0:0:0:0:
285,247,93873,1,0,0:0:0:0:
285,58,94180,5,8,0:0:0:0:
393,127,94487,1,0,0:0:0:0:
432,249,94795,1,0,0:0:0:0:
293,64,95103,5,2,0:0:0:0:
401,133,95410,1,0,0:0:0:0:
440,255,95718,1,0,0:0:0:0:
300,70,96026,5,8,0:0:0:0:
408,139,96333,1,0,0:0:0:0:
447,261,96641,1,0,0:0:0:0:
307,75,96949,5,2,0:0:0:0:
415,144,97256,1,0,0:0:0:0:
454,266,97564,1,0,0:0:0:0:
434,380,97872,1,8,0:0:0:0:
