osu file format v14

[General]
AudioFilename: audio.mp3
AudioLeadIn: 0
PreviewTime: 66690
Countdown: 1
SampleSet: Normal
StackLeniency: 0.7
Mode: 0
LetterboxInBreaks: 0
WidescreenStoryboard: 0

[Editor]
DistanceSpacing: 0.8
BeatDivisor: 4
GridSize: 4
TimelineZoom: 1

[Metadata]
Title:Ano Hi Time Machine
TitleUnicode:Ano Hi Time Machine
Artist:Long Short Party
ArtistUnicode:Long Short Party
Creator:Aginagala
Version:Extra
Source:Zoku Natsume Yuujinchou
Tags:
BeatmapID:997815
BeatmapSetID:466200

[Difficulty]
HPDrainRate:7
CircleSize:4
OverallDifficulty:8.5
ApproachRate:9.2
SliderMultiplier:2.79999990463257
SliderTickRate:1

[Events]
//Background and Video events
0,0,"Ano Hi Time Machine.jpg",0,0
//Break Periods
//Storyboard Layer 0 (Background)
//Storyboard Layer 1 (Fail)
//Storyboard Layer 2 (Pass)
//Storyboard Layer 3 (Foreground)
//Storyboard Sound Samples

[TimingPoints]
1416,659.340659340659,4,1,0,40,1,0
1435,-100,4,1,0,60,0,0
67350,-100,4,1,0,100,0,1
88448,-100,4,1,0,100,0,0

[HitObjects]
128,40,1416,6,0,P|160:72|168:112,1,70
136,264,1745,5,8,0:0:0:0:
304,264,1910,1,0,0:0:0:0:
208,128,2075,1,0,0:0:0:0:
152,272,2240,1,0,0:0:0:0:
384,184,2405,6,0,P|368:144|352:120,1,70
288,56,2734,1,8,0:0:0:0:
212,168,2899,1,0,0:0:0:0:
56,208,3064,6,0,P|72:256|96:280,1,70
136,64,3393,2,0,P|120:32|96:0,1,70
48,280,3723,2,8,P|24:240|24:208,1,70
92,84,4053,1,0,0:0:0:0:
328,176,4218,1,0,0:0:0:0:
232,332,4383,1,0,0:0:0:0:
136,72,4547,5,0,0:0:0:0:
112,280,4712,1,0,0:0:0:0:
296,200,4877,1,0,0:0:0:0:
164,72,5042,1,0,0:0:0:0:
288,244,5207,5,0,0:0:0:0:
116,72,5372,1,8,0:0:0:0:
352,200,5536,1,0,0:0:0:0:
112,112,5701,1,0,0:0:0:0:
352,144,5866,5,0,0:0:0:0:
252,292,6031,2,0,P|196:284|172:260,1,70
64,116,6361,2,0,P|64:76|104:44,1,70
248,144,6690,1,0,0:0:0:0:
384,268,6855,1,0,0:0:0:0:
448,104,7020,1,0,0:0:0:0:
112,224,7185,1,0,0:0:0:0:
144,112,7350,1,0,0:0:0:0:
296,232,7514,1,0,0:0:0:0:
184,264,7679,5,0,0:0:0:0:
240,112,7844,1,0,0:0:0:0:
392,200,8009,1,8,0:0:0:0:
120,208,8174,1,0,0:0:0:0:
256,320,8339,1,0,0:0:0:0:
268,52,8503,5,0,0:0:0:0:
136,112,8668,2,0,L|200:160,1,70
356,124,8998,1,0,0:0:0:0:
204,252,9163,1,0,0:0:0:0:
384,152,9328,1,8,0:0:0:0:
156,152,9492,1,0,0:0:0:0:
248,136,9657,5,0,0:0:0:0:
344,304,9822,1,0,0:0:0:0:
104,256,9987,1,0,0:0:0:0:
352,168,10152,1,0,0:0:0:0:
232,304,10317,1,0,0:0:0:0:
184,80,10481,1,0,0:0:0:0:
368,256,10646,5,8,0:0:0:0:
128,232,10811,1,0,0:0:0:0:
368,128,10976,1,0,0:0:0:0:
296,336,11141,1,0,0:0:0:0:
328,52,11306,6,0,P|376:68|392:92,1,70
448,208,11635,1,0,0:0:0:0:
376,328,11800,1,0,0:0:0:0:
348,336,11883,1,0,0:0:0:0:
312,340,11965,1,0,0:0:0:0:
188,332,12130,1,0,0:0:0:0:
100,264,12295,1,0,0:0:0:0:
236,192,12459,5,0,0:0:0:0:
36,108,12624,1,0,0:0:0:0:
320,52,12789,1,0,0:0:0:0:
256,208,12954,2,8,P|224:224|168:232,1,70
104,140,13283,6,0,P|72:100|80:60,1,70
192,212,13613,1,0,0:0:0:0:
128,16,13778,1,0,0:0:0:0:
288,152,13943,1,0,0:0:0:0:
112,224,14108,1,0,0:0:0:0:
192,112,14273,1,0,0:0:0:0:
276,252,14437,5,0,0:0:0:0:
424,48,14602,1,8,0:0:0:0:
264,300,14767,2,0,P|208:324|192:324,1,70
56,232,15097,1,0,0:0:0:0:
208,304,15262,1,0,0:0:0:0:
144,144,15426,5,0,0:0:0:0:
256,40,15591,1,0,0:0:0:0:
344,176,15756,1,0,0:0:0:0:
312,316,15921,1,8,0:0:0:0:
184,232,16086,1,0,0:0:0:0:
304,88,16251,2,0,P|368:80|384:88,1,70
384,280,16580,6,0,P|336:288|312:280,1,70
76,200,16910,1,0,0:0:0:0:
208,264,17075,1,0,0:0:0:0:
380,120,17240,1,8,0:0:0:0:
280,336,17405,1,0,0:0:0:0:
216,112,17569,1,0,0:0:0:0:
488,120,17734,5,0,0:0:0:0:
424,256,17899,1,0,0:0:0:0:
304,152,18064,1,0,0:0:0:0:
456,112,18229,1,0,0:0:0:0:
424,256,18394,5,0,0:0:0:0:
384,112,18558,1,8,0:0:0:0:
400,320,18723,1,0,0:0:0:0:
376,336,18806,1,0,0:0:0:0:
344,336,18888,2,0,B|280:328|232:304|208:280,1,140
152,216,19383,5,0,0:0:0:0:
216,104,19547,1,0,0:0:0:0:
312,192,19712,1,0,0:0:0:0:
416,32,19877,1,8,0:0:0:0:
240,80,20042,1,0,0:0:0:0:
384,264,20207,1,0,0:0:0:0:
200,288,20372,1,0,0:0:0:0:
192,140,20536,5,0,0:0:0:0:
368,120,20701,1,0,0:0:0:0:
376,312,20866,1,0,0:0:0:0:
192,224,21031,1,0,0:0:0:0:
392,64,21196,1,8,0:0:0:0:
120,160,21361,1,0,0:0:0:0:
344,88,21525,5,0,0:0:0:0:
80,192,21690,1,0,0:0:0:0:
296,112,21855,1,0,0:0:0:0:
40,240,22020,1,0,0:0:0:0:
164,348,22185,1,0,0:0:0:0:
328,288,22350,1,0,0:0:0:0:
400,120,22514,2,0,P|244:48|140:68,1,280
128,144,23339,5,0,0:0:0:0:
104,224,23503,1,0,0:0:0:0:
184,264,23668,1,0,0:0:0:0:
264,208,23833,1,0,0:0:0:0:
288,288,23998,1,0,0:0:0:0:
184,192,24163,1,0,0:0:0:0:
208,336,24328,1,0,0:0:0:0:
320,232,24492,5,0,0:0:0:0:
144,272,24657,1,0,0:0:0:0:
312,304,24822,1,0,0:0:0:0:
240,192,24987,1,0,0:0:0:0:
320,72,25152,2,4,B|256:40|136:64|68:148,1,280
24,304,25976,5,0,0:0:0:0:
216,160,26141,1,0,0:0:0:0:
56,168,26306,1,0,0:0:0:0:
56,192,26388,1,0,0:0:0:0:
56,216,26470,2,0,B|80:264|144:296|256:312|328:288,1,280
408,232,27295,5,0,0:0:0:0:
352,120,27459,1,0,0:0:0:0:
344,112,27542,1,0,0:0:0:0:
336,104,27624,1,0,0:0:0:0:
248,40,27789,2,4,P|176:72|104:248,1,280
140,316,28613,1,0,0:0:0:0:
416,248,28778,1,0,0:0:0:0:
408,176,28943,6,0,P|320:88|168:64,1,280
272,208,29767,2,0,P|192:192|152:224,1,105
168,192,30097,2,0,P|216:176|272:192,1,105
360,264,30426,2,4,B|344:312|272:352|176:312|136:236,1,210
96,176,31086,1,0,0:0:0:0:
84,144,31168,1,0,0:0:0:0:
78,110,31250,1,0,0:0:0:0:
96,80,31333,1,0,0:0:0:0:
124,64,31415,1,0,0:0:0:0:
164,56,31498,5,0,0:0:0:0:
197,55,31580,1,0,0:0:0:0:
232,60,31663,1,0,0:0:0:0:
267,62,31745,1,0,0:0:0:0:
300,72,31828,1,0,0:0:0:0:
334,82,31910,1,0,0:0:0:0:
360,100,31992,1,0,0:0:0:0:
393,119,32075,1,0,0:0:0:0:
412,144,32157,1,0,0:0:0:0:
430,178,32239,1,0,0:0:0:0:
440,216,32322,1,0,0:0:0:0:
405,227,32404,5,0,0:0:0:0:
368,236,32487,1,0,0:0:0:0:
336,234,32569,1,0,0:0:0:0:
308,216,32652,1,0,0:0:0:0:
286,193,32734,1,0,0:0:0:0:
288,156,32817,1,0,0:0:0:0:
292,124,32899,1,0,0:0:0:0:
304,92,32981,5,0,0:0:0:0:
324,64,33064,1,0,0:0:0:0:
428,20,33229,1,0,0:0:0:0:
468,148,33394,1,0,0:0:0:0:
364,44,33558,1,0,0:0:0:0:
256,112,33723,2,0,P|208:156|200:300,1,210
344,304,34383,5,0,0:0:0:0:
432,200,34547,1,0,0:0:0:0:
424,184,34630,1,0,0:0:0:0:
416,168,34712,1,0,0:0:0:0:
344,80,34877,1,0,0:0:0:0:
240,40,35042,2,0,P|152:40|56:112,1,210
56,224,35701,5,0,0:0:0:0:
128,128,35866,1,0,0:0:0:0:
184,224,36031,1,0,0:0:0:0:
248,112,36196,1,0,0:0:0:0:
312,228,36361,1,0,0:0:0:0:
184,152,36525,1,0,0:0:0:0:
304,160,36690,1,0,0:0:0:0:
228,256,36855,6,0,P|428:252|392:120,1,350
320,48,37844,1,0,0:0:0:0:
264,208,38009,1,0,0:0:0:0:
112,128,38174,1,0,0:0:0:0:
136,288,38339,2,0,P|256:336|352:320,1,210
352,320,38915,1,0,0:0:0:0:
376,304,38998,1,0,0:0:0:0:
456,200,39163,5,0,0:0:0:0:
320,104,39328,1,0,0:0:0:0:
288,272,39492,1,0,0:0:0:0:
432,144,39657,1,0,0:0:0:0:
272,120,39822,1,0,0:0:0:0:
432,272,39987,1,0,0:0:0:0:
488,104,40152,1,0,0:0:0:0:
312,72,40317,2,0,P|200:56|88:104,1,210
56,176,40976,5,0,0:0:0:0:
264,168,41141,1,0,0:0:0:0:
152,64,41306,2,0,L|176:288,1,210
176,296,41883,1,0,0:0:0:0:
184,320,41965,1,0,0:0:0:0:
136,120,42130,1,0,0:0:0:0:
248,176,42295,1,0,0:0:0:0:
120,240,42459,1,0,0:0:0:0:
168,104,42624,5,0,0:0:0:0:
240,224,42789,1,0,0:0:0:0:
104,200,42954,1,0,0:0:0:0:
240,152,43119,1,0,0:0:0:0:
192,272,43284,1,0,0:0:0:0:
128,136,43448,1,0,0:0:0:0:
128,248,43613,2,0,B|96:176|168:104|320:104,1,280
424,96,44437,5,0,0:0:0:0:
496,184,44602,1,0,0:0:0:0:
424,288,44767,1,0,0:0:0:0:
344,192,44932,1,0,0:0:0:0:
424,96,45097,2,0,P|464:128|480:168,1,70
344,264,45426,5,0,0:0:0:0:
208,176,45591,1,0,0:0:0:0:
360,96,45756,1,0,0:0:0:0:
184,280,45921,1,0,0:0:0:0:
320,176,46086,1,0,0:0:0:0:
88,128,46251,2,0,P|192:64|232:56,1,140
240,56,46663,1,0,0:0:0:0:
272,64,46745,1,0,0:0:0:0:
352,152,46910,5,0,0:0:0:0:
288,320,47075,1,0,0:0:0:0:
152,208,47240,1,0,0:0:0:0:
456,224,47405,1,0,0:0:0:0:
208,280,47569,1,0,0:0:0:0:
336,88,47734,1,0,0:0:0:0:
336,280,47899,1,0,0:0:0:0:
136,160,48064,1,0,0:0:0:0:
264,112,48229,5,0,0:0:0:0:
156,228,48394,1,0,0:0:0:0:
304,276,48558,1,0,0:0:0:0:
168,140,48723,1,0,0:0:0:0:
288,48,48888,2,0,P|120:56|72:96,1,210
80,168,49547,1,0,0:0:0:0:
208,280,49712,1,0,0:0:0:0:
368,208,49877,1,0,0:0:0:0:
384,80,50042,6,0,P|264:48|176:72,1,210
120,96,50701,1,0,0:0:0:0:
56,184,50866,1,0,0:0:0:0:
108,284,51031,1,0,0:0:0:0:
224,280,51196,1,0,0:0:0:0:
320,220,51361,1,0,0:0:0:0:
332,196,51443,1,0,0:0:0:0:
336,176,51525,2,0,B|344:96|256:80|168:80|152:112,1,210
96,140,52185,5,0,0:0:0:0:
44,224,52350,1,0,0:0:0:0:
80,328,52514,1,0,0:0:0:0:
152,352,52679,1,0,0:0:0:0:
224,352,52844,5,0,0:0:0:0:
320,288,53009,1,0,0:0:0:0:
192,208,53174,1,0,0:0:0:0:
320,144,53339,1,0,0:0:0:0:
200,32,53503,1,0,0:0:0:0:
320,216,53668,1,0,0:0:0:0:
336,240,53751,1,0,0:0:0:0:
328,264,53833,1,0,0:0:0:0:
240,328,53998,5,0,0:0:0:0:
120,312,54163,2,0,B|32:232|40:120|96:56,1,280
200,0,54987,1,0,0:0:0:0:
304,56,55317,1,0,0:0:0:0:
376,168,55646,1,0,0:0:0:0:
432,304,55976,1,0,0:0:0:0:
320,280,56141,6,0,B|272:272|216:248|184:216,1,140
120,160,56800,1,0,0:0:0:0:
272,104,57130,1,0,0:0:0:0:
312,216,57459,1,0,0:0:0:0:
168,120,57789,5,0,0:0:0:0:
240,40,57954,1,0,0:0:0:0:
268,148,58119,1,0,0:0:0:0:
368,88,58284,1,0,0:0:0:0:
400,196,58448,1,0,0:0:0:0:
492,136,58613,1,0,0:0:0:0:
328,136,58778,6,0,P|264:72|220:52,1,140
132,32,59273,1,0,0:0:0:0:
80,132,59437,2,0,P|104:196|172:216,1,140
288,224,59932,1,0,0:0:0:0:
392,176,60262,5,0,0:0:0:0:
352,80,60591,1,0,0:0:0:0:
336,240,60921,2,0,P|304:280|264:288,1,70
176,216,61415,1,0,0:0:0:0:
312,208,61745,2,0,L|256:264,1,70
176,340,62075,1,0,0:0:0:0:
152,208,62240,5,0,0:0:0:0:
208,136,62405,1,0,0:0:0:0:
312,128,62569,1,0,0:0:0:0:
420,196,62734,1,0,0:0:0:0:
368,328,62899,1,0,0:0:0:0:
204,304,63064,1,0,0:0:0:0:
80,216,63229,2,0,B|120:168|152:128|264:120,1,210
304,112,63888,5,0,0:0:0:0:
336,104,64053,1,0,0:0:0:0:
376,112,64218,1,0,0:0:0:0:
400,144,64383,1,0,0:0:0:0:
408,184,64547,1,0,0:0:0:0:
400,224,64712,1,0,0:0:0:0:
256,192,64877,12,0,66525,0:0:0:0:
216,112,66690,5,8,0:0:0:0:
288,264,66855,1,0,0:0:0:0:
272,72,67020,1,8,0:0:0:0:
248,320,67185,1,0,0:0:0:0:
232,32,67350,2,0,P|344:80|352:96,1,140
360,120,67762,1,0,0:0:0:0:
352,160,67844,1,0,0:0:0:0:
272,232,68009,5,8,0:0:0:0:
112,120,68174,1,0,0:0:0:0:
312,56,68339,1,0,0:0:0:0:
152,304,68503,1,0,0:0:0:0:
364,220,68668,2,0,P|364:132|244:60,1,210
244,52,69245,1,0,0:0:0:0:
216,48,69328,1,0,0:0:0:0:
184,60,69410,1,0,0:0:0:0:
164,84,69492,1,0,0:0:0:0:
152,112,69575,5,0,0:0:0:0:
156,144,69657,1,0,0:0:0:0:
164,172,69740,1,0,0:0:0:0:
184,200,69822,1,0,0:0:0:0:
216,220,69905,1,0,0:0:0:0:
256,232,69987,1,0,0:0:0:0:
404,224,70152,1,0,0:0:0:0:
444,40,70317,5,0,0:0:0:0:
232,56,70481,1,0,0:0:0:0:
460,176,70646,1,8,0:0:0:0:
200,340,70811,2,0,P|248:340|272:316,1,70
320,208,71141,2,0,P|296:176|256:160,1,70
280,72,71470,1,0,0:0:0:0:
176,232,71635,1,0,0:0:0:0:
232,24,71800,1,0,0:0:0:0:
240,272,71965,1,8,0:0:0:0:
120,104,72130,1,0,0:0:0:0:
344,168,72295,1,0,0:0:0:0:
136,240,72459,5,0,0:0:0:0:
232,64,72624,2,0,P|288:72|304:80,1,70
120,112,72954,1,0,0:0:0:0:
408,104,73119,1,0,0:0:0:0:
192,272,73284,1,8,0:0:0:0:
152,64,73448,1,0,0:0:0:0:
328,208,73613,5,0,0:0:0:0:
304,72,73778,2,0,P|336:96|352:128,1,70
400,272,74108,1,0,0:0:0:0:
144,296,74273,1,0,0:0:0:0:
64,80,74437,1,0,0:0:0:0:
280,80,74602,1,8,0:0:0:0:
240,208,74767,5,0,0:0:0:0:
376,208,74932,1,0,0:0:0:0:
160,112,75097,1,0,0:0:0:0:
176,296,75262,1,8,0:0:0:0:
320,152,75426,1,0,0:0:0:0:
304,272,75591,1,0,0:0:0:0:
104,152,75756,1,0,0:0:0:0:
352,208,75921,5,8,0:0:0:0:
184,64,76086,1,0,0:0:0:0:
144,296,76251,1,0,0:0:0:0:
56,96,76415,1,0,0:0:0:0:
224,280,76580,1,8,0:0:0:0:
128,80,76745,1,0,0:0:0:0:
296,264,76910,1,0,0:0:0:0:
224,104,77075,5,0,0:0:0:0:
368,248,77240,1,8,0:0:0:0:
416,80,77405,1,0,0:0:0:0:
240,208,77569,1,0,0:0:0:0:
72,96,77734,1,0,0:0:0:0:
280,224,77899,2,4,P|168:296|128:280,1,175
100,260,78394,1,0,0:0:0:0:
64,216,78476,1,0,0:0:0:0:
64,160,78558,1,0,0:0:0:0:
136,4,78723,5,0,0:0:0:0:
244,128,78888,1,0,0:0:0:0:
360,248,79053,1,0,0:0:0:0:
120,304,79218,1,8,0:0:0:0:
360,96,79383,1,0,0:0:0:0:
104,88,79547,1,0,0:0:0:0:
296,200,79712,1,0,0:0:0:0:
160,312,79877,1,0,0:0:0:0:
232,72,80042,1,0,0:0:0:0:
272,304,80207,5,0,0:0:0:0:
160,48,80372,1,0,0:0:0:0:
408,192,80536,1,8,0:0:0:0:
96,232,80701,1,0,0:0:0:0:
240,120,80866,2,0,P|296:144|296:160,1,70
224,256,81196,2,0,P|176:240|160:208,1,70
104,112,81525,1,0,0:0:0:0:
208,32,81690,5,0,0:0:0:0:
224,152,81855,1,8,0:0:0:0:
208,32,82020,1,0,0:0:0:0:
248,216,82185,1,0,0:0:0:0:
208,32,82350,1,0,0:0:0:0:
272,288,82514,1,0,0:0:0:0:
208,32,82679,1,0,0:0:0:0:
248,216,82844,1,0,0:0:0:0:
208,32,83009,5,0,0:0:0:0:
296,192,83174,1,8,0:0:0:0:
208,32,83339,1,0,0:0:0:0:
168,104,83503,2,0,P|216:112|256:104,1,70
312,64,83833,1,0,0:0:0:0:
400,32,83998,2,0,P|432:72|432:104,1,70
416,192,84328,1,0,0:0:0:0:
336,240,84492,2,4,P|264:232|208:192,1,140
136,112,84987,5,0,0:0:0:0:
320,240,85152,1,0,0:0:0:0:
128,80,85317,1,4,0:0:0:0:
344,272,85481,1,0,0:0:0:0:
96,64,85646,1,0,0:0:0:0:
352,304,85811,1,4,0:0:0:0:
256,192,85976,12,0,88448,0:0:0:0:
