osu file format v14

[General]
AudioFilename: audio.mp3
AudioLeadIn: 0
PreviewTime: 67
Countdown: 0
SampleSet: Soft
StackLeniency: 0.7
Mode: 0
LetterboxInBreaks: 0
WidescreenStoryboard: 1

[Editor]
Bookmarks: 1175,3902,9356,12084,17538,22993,25720,31175,33902,42084,50265
DistanceSpacing: 1.1
BeatDivisor: 4
GridSize: 16
TimelineZoom: 1.5

[Metadata]
Title:Marlboro Nights
TitleUnicode:Marlboro Nights
Artist:Lonely God
ArtistUnicode:Lonely God
Creator:Shime
Version:Ryxliee's Normal
Source:
Tags:hip hop hip-hop hiphop indie english short alternative alt version ver tik tok tiktok tik-tok [-evil-] ryxliee le mirai sirmirai cacturne le_mirai
BeatmapID:3173104
BeatmapSetID:1552275

[Difficulty]
HPDrainRate:3.2
CircleSize:3.4
OverallDifficulty:4
ApproachRate:5.2
SliderMultiplier:1.06
SliderTickRate:1

[Events]
//Background and Video events
0,0,"iwantarankedmap.jpg",0,0
//Break Periods
//Storyboard Layer 0 (Background)
//Storyboard Layer 1 (Fail)
//Storyboard Layer 2 (Pass)
//Storyboard Layer 3 (Foreground)
//Storyboard Layer 4 (Overlay)
//Storyboard Sound Samples

[TimingPoints]
1175,340.909090909091,4,2,27,60,1,0
1175,-111.111111111111,4,2,27,60,0,0
1515,-111.111111111111,4,2,27,20,0,0
3902,-111.111111111111,4,2,27,60,0,0
9697,-111.111111111111,4,2,27,20,0,0
12084,-111.111111111111,4,2,27,60,0,0
16856,-111.111111111111,4,2,27,50,0,0
17197,-111.111111111111,4,2,27,60,0,0
17538,-100,4,2,27,75,0,1
33220,-100,4,2,27,40,0,1
33902,-125,4,2,27,40,0,0
42084,-111.111111111111,4,2,27,70,0,0
50351,-111.111111111111,4,2,27,60,0,0
50436,-111.111111111111,4,2,27,50,0,0
50521,-111.111111111111,4,2,27,40,0,0
50606,-111.111111111111,4,2,27,30,0,0
50692,-111.111111111111,4,2,27,20,0,0
50777,-111.111111111111,4,2,27,10,0,0
50862,-111.111111111111,4,2,27,5,0,0

[Colours]
Combo1 : 94,130,162
Combo2 : 125,181,158
Combo3 : 111,154,162
Combo4 : 57,186,208

[HitObjects]
481,63,1175,5,0,1:2:0:0:
481,63,3902,6,0,L|463:156,1,95.3999970886231,2|10,1:2|0:0,0:0:0:0:
393,222,4584,2,0,L|401:268,1,47.6999985443116,2|2,1:2|1:2,0:0:0:0:
423,317,4924,1,8,0:0:0:0:
423,317,5095,2,0,B|383:306|351:329|367:337|335:361|290:351,1,143.099995632935,2|8,1:2|0:0,0:0:0:0:
208,304,5947,2,0,L|216:257,2,47.6999985443116,0|0|10,1:2|1:2|0:0,0:0:0:0:
143,374,6629,5,2,1:2:0:0:
54,338,6970,1,10,0:0:0:0:
70,244,7311,2,0,L|116:235,1,47.6999985443116,2|2,1:2|1:2,0:0:0:0:
162,263,7652,1,8,0:0:0:0:
162,263,7822,2,0,P|205:208|195:139,1,143.099995632935,2|8,1:2|0:0,0:0:0:0:
176,45,8675,2,0,L|129:53,1,47.6999985443116,0|0,1:2|1:2,0:0:0:0:
87,76,9015,1,8,0:0:0:0:
2,33,9356,1,0,1:2:0:0:
2,33,12084,6,0,P|47:20|93:32,1,95.3999970886231,2|10,1:2|0:0,0:0:0:0:
145,112,12765,2,0,L|191:103,1,47.6999985443116,2|2,1:2|1:2,0:0:0:0:
232,75,13107,1,8,0:0:0:0:
232,75,13277,2,0,B|270:110|270:110|239:196,1,143.099995632935,2|8,1:2|0:0,0:0:0:0:
174,267,14129,2,0,L|126:259,2,47.6999985443116,0|0|10,1:2|1:2|0:0,0:0:0:0:
234,341,14811,5,2,1:2:0:0:
321,301,15152,1,10,0:0:0:0:
399,356,15493,2,0,L|445:347,1,47.6999985443116,2|2,1:2|1:2,0:0:0:0:
488,322,15834,1,8,0:0:0:0:
488,322,16004,2,0,L|512:181,1,143.099995632935,2|8,1:2|0:0,0:0:0:0:
465,97,16856,2,0,L|418:88,1,47.6999985443116,8|0,0:0|1:2,0:0:0:0:
385,53,17197,2,0,L|338:62,1,47.6999985443116,8|0,0:0|1:2,0:0:0:0:
294,32,17538,6,0,P|244:16|194:31,1,106,4|8,1:2|0:0,0:0:0:0:
101,81,18220,2,0,L|110:133,1,53,2|0,1:2|1:2,0:0:0:0:
156,170,18561,1,8,0:0:0:0:
156,170,18731,2,0,L|137:274,1,106,0|0,1:2|0:0,0:0:0:0:
111,321,19243,1,8,0:0:0:0:
197,383,19584,2,0,L|249:373,1,53,2|0,1:2|1:2,0:0:0:0:
302,365,19925,1,8,0:0:0:0:
383,297,20265,5,0,1:2:0:0:
321,210,20606,1,10,0:0:0:0:
394,128,20947,2,0,L|448:137,1,53,0|0,1:2|1:2,0:0:0:0:
495,169,21288,1,10,0:0:0:0:
495,169,21459,2,0,P|510:119|495:69,1,106,2|0,1:2|0:0,0:0:0:0:
481,17,21970,2,0,L|376:35,1,106,8|0,0:0|1:2,0:0:0:0:
334,65,22481,1,0,1:2:0:0:
334,65,22652,1,8,0:0:0:0:
240,13,22993,5,2,1:2:0:0:
159,81,23334,2,0,L|177:185,1,106,10|2,0:0|1:2,0:0:0:0:
206,236,23845,1,2,1:2:0:0:
206,236,24015,2,0,L|258:245,2,53,10|2|2,0:0|1:2|0:0,0:0:0:0:
127,307,24697,2,0,P|77:322|27:307,1,106,10|2,0:0|1:2,0:0:0:0:
0,267,25209,1,2,1:2:0:0:
0,267,25379,1,10,0:0:0:0:
32,166,25720,6,0,L|136:147,1,106,0|8,1:2|0:0,0:0:0:0:
225,89,26402,2,0,L|277:98,1,53,2|0,1:2|1:2,0:0:0:0:
322,136,26743,1,8,0:0:0:0:
322,136,26913,2,0,P|372:121|422:136,1,106,0|0,1:2|0:0,0:0:0:0:
467,166,27425,1,8,0:0:0:0:
512,262,27766,2,0,L|502:314,1,53,2|0,1:2|1:2,0:0:0:0:
498,366,28107,1,8,0:0:0:0:
410,306,28447,5,0,1:2:0:0:
323,366,28788,1,10,0:0:0:0:
230,314,29129,2,0,L|220:261,1,53,0|0,1:2|1:2,0:0:0:0:
183,231,29470,1,10,0:0:0:0:
183,231,29640,2,0,P|133:216|83:231,1,106,2|0,1:2|0:0,0:0:0:0:
46,270,30152,2,0,L|27:165,1,106,8|0,0:0|1:2,0:0:0:0:
1,126,30663,1,0,1:2:0:0:
1,126,30834,1,8,0:0:0:0:
64,40,31175,5,2,1:2:0:0:
167,63,31515,2,0,P|182:113|167:163,1,106,10|2,0:0|1:2,0:0:0:0:
142,212,32027,1,2,1:2:0:0:
142,212,32197,2,0,L|89:221,2,53,10|2|2,0:0|1:2|0:0,0:0:0:0:
216,288,32879,2,0,L|320:306,1,106,10|2,0:0|0:0,0:0:0:0:
497,366,33902,6,0,L|482:282,1,84.8,2|2,0:0|0:0,0:0:0:0:
407,242,34584,2,0,L|414:200,1,42.4,2|2,0:0|0:0,0:0:0:0:
465,132,35095,1,2,0:0:0:0:
427,56,35436,1,2,0:0:0:0:
346,81,35777,2,0,P|305:91|264:81,1,84.8,2|2,0:0|0:0,0:0:0:0:
236,49,36288,1,2,0:0:0:0:
160,10,36629,6,0,L|145:93,1,84.8,2|2,0:0|3:2,0:0:0:0:
76,144,37311,2,0,L|83:185,1,42.4,2|2,0:0|0:0,0:0:0:0:
130,256,37822,2,0,P|109:292|109:334,2,84.8,2|2|2,3:2|0:0|0:0,0:0:0:0:
210,222,38845,1,2,0:0:0:0:
210,222,39015,1,2,0:0:0:0:
265,287,39356,6,0,L|348:301,1,84.8,2|2,0:0|3:2,0:0:0:0:
416,353,40038,2,0,L|457:345,1,42.4,2|2,0:0|0:0,0:0:0:0:
512,279,40550,1,2,3:2:0:0:
482,199,40890,1,2,0:0:0:0:
406,159,41231,2,0,L|322:173,1,84.8,2|2,0:0|0:0,0:0:0:0:
295,206,41742,1,10,0:0:0:0:
272,299,42084,6,0,P|227:312|181:300,1,95.3999970886231,6|10,1:2|0:0,0:0:0:0:
91,286,42765,1,2,1:2:0:0:
91,286,42936,1,2,1:2:0:0:
87,190,43277,1,2,1:2:0:0:
14,127,43618,2,0,P|1:82|13:36,1,95.3999970886231,2|2,0:0|0:0,0:0:0:0:
56,16,44129,2,0,L|102:24,1,47.6999985443116,0|2,1:2|1:2,0:0:0:0:
129,64,44470,1,8,0:0:0:0:
191,136,44811,6,0,L|284:119,1,95.3999970886231,2|10,1:2|0:0,0:0:0:0:
349,48,45493,1,2,1:2:0:0:
349,48,45663,1,2,1:2:0:0:
438,80,46004,2,0,L|454:173,1,95.3999970886231,2|2,1:2|0:0,0:0:0:0:
512,250,46686,2,0,L|503:296,1,47.6999985443116,2|0,0:0|1:2,0:0:0:0:
484,343,47027,1,2,1:2:0:0:
484,343,47197,1,8,0:0:0:0:
406,287,47538,6,0,P|361:274|315:286,1,95.3999970886231,2|10,1:2|0:0,0:0:0:0:
237,340,48220,1,2,1:2:0:0:
237,340,48390,1,2,1:2:0:0:
164,278,48731,1,2,1:2:0:0:
208,193,49072,2,0,L|301:176,1,95.3999970886231,2|2,0:0|0:0,0:0:0:0:
335,141,49583,2,0,L|381:149,1,47.6999985443116,0|2,1:2|1:2,0:0:0:0:
426,166,49924,1,10,0:0:0:0:
496,101,50265,2,0,P|475:23|399:1,1,166.94999490509,0|0,1:2|0:0,0:0:0:0:
