osu file format v14

[General]
AudioFilename: audio.mp3
AudioLeadIn: 0
PreviewTime: 67
Countdown: 0
SampleSet: Soft
StackLeniency: 0.5
Mode: 0
LetterboxInBreaks: 0
WidescreenStoryboard: 1

[Editor]
Bookmarks: 1175,3902,9356,12084,17538,33902,42084,50265
DistanceSpacing: 0.6
BeatDivisor: 4
GridSize: 16
TimelineZoom: 2.699999

[Metadata]
Title:Marlboro Nights
TitleUnicode:Marlboro Nights
Artist:Lonely God
ArtistUnicode:Lonely God
Creator:Shime
Version:Mirai's Insane
Source:
Tags:hip hop hip-hop hiphop indie english short alternative alt version ver tik tok tiktok tik-tok [-evil-] ryxliee le mirai sirmirai cacturne le_mirai
BeatmapID:3173269
BeatmapSetID:1552275

[Difficulty]
HPDrainRate:5.2
CircleSize:4
OverallDifficulty:8.2
ApproachRate:8.8
SliderMultiplier:1.6
SliderTickRate:1

[Events]
//Background and Video events
0,0,"iwantarankedmap.jpg",0,0
//Break Periods
//Storyboard Layer 0 (Background)
//Storyboard Layer 1 (Fail)
//Storyboard Layer 2 (Pass)
//Storyboard Layer 3 (Foreground)
//Storyboard Layer 4 (Overlay)
//Storyboard Sound Samples

[TimingPoints]
1175,340.909090909091,4,2,27,60,1,0
1175,-181.818181818182,4,2,27,60,0,0
1515,-181.818181818182,4,2,27,40,0,0
3902,-133.333333333333,4,2,27,60,0,0
9356,-181.818181818182,4,2,27,60,0,0
9697,-181.818181818182,4,2,27,40,0,0
12084,-133.333333333333,4,2,27,60,0,0
16515,-105.263157894737,4,2,27,60,0,0
16856,-105.263157894737,4,2,27,50,0,0
17197,-105.263157894737,4,2,27,60,0,0
17538,-95.2380952380952,4,2,27,75,0,0
17794,-95.2380952380952,4,2,27,5,0,0
17879,-105.263157894737,4,2,27,75,0,0
18220,-105.263157894737,4,2,27,75,0,0
18305,-105.263157894737,4,2,27,5,0,0
18390,-105.263157894737,4,2,27,75,0,0
18476,-105.263157894737,4,2,27,75,0,0
18561,-105.263157894737,4,2,27,75,0,0
19584,-105.263157894737,4,2,27,75,0,0
19669,-105.263157894737,4,2,27,5,0,0
19754,-105.263157894737,4,2,27,75,0,0
19839,-105.263157894737,4,2,27,75,0,0
19925,-105.263157894737,4,2,27,75,0,0
20521,-105.263157894737,4,2,27,5,0,0
20606,-105.263157894737,4,2,27,75,0,0
20947,-105.263157894737,4,2,27,75,0,0
21032,-105.263157894737,4,2,27,5,0,0
21118,-105.263157894737,4,2,27,75,0,0
21203,-105.263157894737,4,2,27,75,0,0
21288,-105.263157894737,4,2,27,75,0,0
22311,-105.263157894737,4,2,27,75,0,0
22396,-105.263157894737,4,2,27,5,0,0
22481,-105.263157894737,4,2,27,75,0,0
22567,-105.263157894737,4,2,27,75,0,0
22652,-105.263157894737,4,2,27,75,0,0
23675,-105.263157894737,4,2,27,75,0,0
23760,-105.263157894737,4,2,27,5,0,0
23845,-105.263157894737,4,2,27,75,0,0
23930,-105.263157894737,4,2,27,75,0,0
24015,-105.263157894737,4,2,27,75,0,0
25038,-105.263157894737,4,2,27,75,0,0
25123,-105.263157894737,4,2,27,5,0,0
25209,-105.263157894737,4,2,27,75,0,0
25294,-105.263157894737,4,2,27,75,0,0
25379,-105.263157894737,4,2,27,75,0,0
25976,-105.263157894737,4,2,27,5,0,0
26061,-105.263157894737,4,2,27,75,0,0
26402,-105.263157894737,4,2,27,75,0,0
26487,-105.263157894737,4,2,27,5,0,0
26572,-105.263157894737,4,2,27,75,0,0
26657,-105.263157894737,4,2,27,75,0,0
26743,-105.263157894737,4,2,27,75,0,0
27765,-105.263157894737,4,2,27,75,0,0
27851,-105.263157894737,4,2,27,5,0,0
27936,-105.263157894737,4,2,27,75,0,0
28021,-105.263157894737,4,2,27,75,0,0
28106,-105.263157894737,4,2,27,75,0,0
29129,-105.263157894737,4,2,27,75,0,0
29214,-105.263157894737,4,2,27,5,0,0
29300,-105.263157894737,4,2,27,75,0,0
29385,-105.263157894737,4,2,27,75,0,0
29470,-105.263157894737,4,2,27,75,0,0
30493,-105.263157894737,4,2,27,75,0,0
30578,-105.263157894737,4,2,27,5,0,0
30663,-105.263157894737,4,2,27,75,0,0
30748,-105.263157894737,4,2,27,75,0,0
30834,-105.263157894737,4,2,27,75,0,0
31856,-105.263157894737,4,2,27,75,0,0
31942,-105.263157894737,4,2,27,5,0,0
32027,-105.263157894737,4,2,27,75,0,0
32112,-105.263157894737,4,2,27,75,0,0
32197,-105.263157894737,4,2,27,75,0,0
33220,-105.263157894737,4,2,27,40,0,0
33902,-133.333333333333,4,2,27,40,0,0
36629,-142.857142857143,4,2,27,40,0,0
36970,-125,4,2,27,40,0,0
37311,-133.333333333333,4,2,27,40,0,0
42084,-105.263157894737,4,2,27,70,0,0
42339,-105.263157894737,4,2,27,70,0,0
42425,-105.263157894737,4,2,27,70,0,0
42765,-105.263157894737,4,2,27,70,0,0
42851,-105.263157894737,4,2,27,70,0,0
42936,-105.263157894737,4,2,27,70,0,0
43021,-105.263157894737,4,2,27,70,0,0
43106,-105.263157894737,4,2,27,70,0,0
44214,-105.263157894737,4,2,27,70,0,0
44300,-105.263157894737,4,2,27,70,0,0
44385,-105.263157894737,4,2,27,70,0,0
44470,-105.263157894737,4,2,27,70,0,0
45067,-105.263157894737,4,2,27,70,0,0
45152,-105.263157894737,4,2,27,70,0,0
45493,-105.263157894737,4,2,27,70,0,0
45578,-105.263157894737,4,2,27,70,0,0
45663,-105.263157894737,4,2,27,70,0,0
45748,-105.263157894737,4,2,27,70,0,0
45834,-105.263157894737,4,2,27,70,0,0
46942,-105.263157894737,4,2,27,70,0,0
47027,-105.263157894737,4,2,27,70,0,0
47112,-105.263157894737,4,2,27,70,0,0
47197,-105.263157894737,4,2,27,70,0,0
47794,-105.263157894737,4,2,27,70,0,0
47879,-105.263157894737,4,2,27,70,0,0
48220,-105.263157894737,4,2,27,70,0,0
48305,-105.263157894737,4,2,27,70,0,0
48390,-105.263157894737,4,2,27,70,0,0
48476,-105.263157894737,4,2,27,70,0,0
48561,-105.263157894737,4,2,27,70,0,0
49584,-105.263157894737,4,2,27,70,0,0
49669,-105.263157894737,4,2,27,70,0,0
49754,-105.263157894737,4,2,27,70,0,0
49839,-105.263157894737,4,2,27,70,0,0
49925,-105.263157894737,4,2,27,70,0,0
50265,-200,4,2,27,70,0,0
50351,-200,4,2,27,60,0,0
50436,-200,4,2,27,50,0,0
50521,-200,4,2,27,40,0,0
50606,-200,4,2,27,30,0,0
50692,-200,4,2,27,20,0,0
50777,-200,4,2,27,10,0,0
50862,-200,4,2,27,5,0,0

[Colours]
Combo1 : 94,130,162
Combo2 : 125,181,158
Combo3 : 111,154,162
Combo4 : 57,186,208

[HitObjects]
82,73,1175,5,0,1:2:0:0:
10,141,1515,2,0,P|3:105|-5:81,1,44.0000013427735,2|2,0:0|0:0,0:0:0:0:
95,164,1856,2,0,P|84:206|80:267,1,88.000002685547,2|2,0:0|0:0,0:0:0:0:
129,315,2368,1,2,0:0:0:0:
248,252,2538,6,0,B|303:236|278:211|341:204,1,88.000002685547,2|2,0:0|0:0,0:0:0:0:
392,252,3050,1,2,0:0:0:0:
462,205,3220,2,0,P|476:173|470:149,1,44.0000013427735,2|2,0:0|0:0,0:0:0:0:
422,105,3561,2,0,P|412:85|395:72,1,44.0000013427735,2|2,0:0|0:0,0:0:0:0:
184,1,3902,6,0,P|192:32|204:77,1,60.0000022888184,2|0,1:2|0:0,0:0:0:0:
106,189,4243,2,0,P|105:158|121:130,1,60.0000022888184,10|0,0:0|0:0,0:0:0:0:
231,292,4584,1,2,1:2:0:0:
231,292,4754,2,0,P|197:284|164:282,1,60.0000022888184,2|8,1:2|0:0,0:0:0:0:
326,353,5095,6,0,B|381:338|364:305|453:296,1,120.000004577637,2|0,1:2|0:0,0:0:0:0:
499,194,5606,2,0,P|506:160|514:127,1,60.0000022888184,8|0,0:0|0:0,0:0:0:0:
376,15,5947,1,0,1:2:0:0:
423,106,6118,1,0,1:2:0:0:
512,20,6288,2,0,P|473:13|435:4,1,60.0000022888184,10|2,0:0|0:0,0:0:0:0:
302,140,6629,6,0,P|293:92|284:58,1,60.0000022888184,2|0,1:2|0:0,0:0:0:0:
408,216,6970,2,0,P|401:245|396:274,1,60.0000022888184,10|0,0:0|0:0,0:0:0:0:
248,339,7311,1,2,1:2:0:0:
248,339,7481,2,0,P|231:297|239:279,1,60.0000022888184,2|8,1:2|0:0,0:0:0:0:
393,122,7822,6,0,P|432:130|471:139,1,60.0000022888184,2|0,1:2|0:0,0:0:0:0:
245,207,8163,2,0,P|215:212|186:219,1,60.0000022888184,2|8,0:0|0:0,0:0:0:0:
66,173,8504,1,2,0:0:0:0:
77,308,8675,2,0,P|98:287|102:258,1,60.0000022888184,0|0,1:2|1:2,0:0:0:0:
28,39,9015,6,0,B|26:22|11:11|11:11|44:1|74:35,1,90.0000034332277,8|0,0:0|0:0,0:0:0:0:
79,48,9356,1,0,1:2:0:0:
172,98,9697,2,0,P|179:62|187:38,1,44.0000013427735,2|2,0:0|0:0,0:0:0:0:
84,146,10038,2,0,P|95:188|99:249,1,88.000002685547,2|2,0:0|0:0,0:0:0:0:
173,311,10550,1,2,0:0:0:0:
263,259,10720,6,0,B|287:266|299:282|299:282|313:269|339:266,1,88.000002685547,2|2,0:0|0:0,0:0:0:0:
436,304,11232,1,2,0:0:0:0:
473,215,11402,2,0,L|475:157,1,44.0000013427735,2|2,0:0|0:0,0:0:0:0:
415,97,11743,1,2,0:0:0:0:
495,67,11913,1,2,0:0:0:0:
378,184,12084,6,0,P|360:157|313:143,1,60.0000022888184,2|0,1:2|0:0,0:0:0:0:
211,65,12425,2,0,P|217:106|223:148,1,60.0000022888184,10|0,0:0|0:0,0:0:0:0:
139,311,12765,1,2,1:2:0:0:
139,311,12936,2,0,P|127:276|142:238,1,60.0000022888184,2|8,1:2|0:0,0:0:0:0:
245,197,13277,6,0,P|304:204|363:217,1,120.000004577637,2|0,1:2|0:0,0:0:0:0:
480,186,13788,2,0,P|461:219|470:253,1,60.0000022888184,8|0,0:0|0:0,0:0:0:0:
512,384,14129,1,0,1:2:0:0:
467,317,14300,1,0,1:2:0:0:
320,338,14470,6,0,P|278:349|240:365,1,60.0000022888184,10|2,0:0|0:0,0:0:0:0:
192,161,14811,6,0,P|199:198|186:230,1,60.0000022888184,2|0,1:2|0:0,0:0:0:0:
100,217,15152,2,0,P|93:187|100:159,1,60.0000022888184,10|0,0:0|0:0,0:0:0:0:
241,283,15493,1,2,1:2:0:0:
241,283,15663,2,0,P|276:273|317:265,1,60.0000022888184,2|8,1:2|0:0,0:0:0:0:
473,119,16004,6,0,P|480:82|467:50,1,60.0000022888184,2|0,1:2|0:0,0:0:0:0:
381,63,16345,2,0,P|374:92|381:120,1,60.0000022888184,2|8,0:0|0:0,0:0:0:0:
494,247,16686,1,2,0:0:0:0:
379,141,16856,5,8,0:0:0:0:
373,151,16942,1,8,0:0:0:0:
366,161,17027,2,0,L|308:147,1,37.9999989852906,0|0,1:2|1:2,0:0:0:0:
250,74,17197,5,8,0:0:0:0:
244,64,17283,1,0,1:2:0:0:
237,54,17368,2,0,L|179:68,1,37.9999989852906,0|0,1:2|1:2,0:0:0:0:
127,177,17538,6,0,P|116:115|101:19,1,125.999996154785,4|0,1:2|0:0,0:0:0:0:
105,52,17879,2,0,P|72:33|35:39,1,75.9999979705811,8|0,0:0|0:0,0:0:0:0:
27,225,18220,2,0,P|42:208|68:204,1,37.9999989852906,2|0,1:2|0:0,0:0:0:0:
114,250,18390,1,0,1:2:0:0:
233,92,18561,1,8,0:0:0:0:
317,290,18731,6,0,P|307:240|403:194,1,151.999995941162,0|0,1:2|0:0,0:0:0:0:
478,345,19243,2,0,P|422:332|375:328,1,75.9999979705811,8|0,0:0|0:0,0:0:0:0:
461,139,19584,2,0,P|472:157|478:183,1,37.9999989852906,2|0,1:2|0:0,0:0:0:0:
441,245,19754,1,0,1:2:0:0:
325,86,19925,1,8,0:0:0:0:
248,191,20095,1,2,0:0:0:0:
438,104,20265,6,0,P|370:92|290:83,1,113.999996955872,0|0,1:2|0:0,0:0:0:0:
325,86,20606,2,0,P|326:57|291:16,1,75.9999979705811,10|0,0:0|0:0,0:0:0:0:
144,53,20947,2,0,P|161:41|202:52,1,37.9999989852906,0|0,1:2|0:0,0:0:0:0:
241,75,21118,1,0,1:2:0:0:
417,9,21288,1,10,0:0:0:0:
249,203,21459,6,0,B|163:191|209:142|92:137,1,151.999995941162,2|0,1:2|0:0,0:0:0:0:
30,265,21970,2,0,P|15:230|22:193,1,75.9999979705811,8|0,0:0|0:0,0:0:0:0:
232,324,22311,2,0,P|206:315|181:314,1,37.9999989852906,0|0,1:2|0:0,0:0:0:0:
124,334,22481,1,0,1:2:0:0:
340,281,22652,2,0,P|354:246|347:209,1,75.9999979705811,8|2,0:0|0:0,0:0:0:0:
276,42,22993,6,0,P|243:14|198:17,1,75.9999979705811,2|2,1:2|0:0,0:0:0:0:
391,120,23334,2,0,P|424:93|469:95,1,75.9999979705811,10|2,0:0|0:0,0:0:0:0:
348,210,23675,2,0,L|309:198,1,37.9999989852906,2|0,1:2|0:0,0:0:0:0:
241,176,23845,1,2,1:2:0:0:
452,163,24015,1,10,0:0:0:0:
281,74,24186,1,2,1:2:0:0:
336,285,24356,6,0,P|343:237|350:191,1,75.9999979705811,2|2,0:0|0:0,0:0:0:0:
160,117,24697,2,0,P|165:154|171:192,1,75.9999979705811,10|2,0:0|0:0,0:0:0:0:
76,329,25038,2,0,L|63:285,1,37.9999989852906,2|0,1:2|0:0,0:0:0:0:
39,220,25209,1,2,1:2:0:0:
213,353,25379,2,0,P|219:303|228:249,1,75.9999979705811,10|0,0:0|0:0,0:0:0:0:
324,78,25720,6,0,B|376:95|369:125|453:153,1,113.999996955872,0|0,1:2|0:0,0:0:0:0:
419,139,26061,2,0,P|456:118|490:108,1,75.9999979705811,8|0,0:0|0:0,0:0:0:0:
490,275,26402,2,0,P|457:256|427:247,1,37.9999989852906,2|0,1:2|0:0,0:0:0:0:
390,291,26572,1,0,1:2:0:0:
318,120,26743,1,8,0:0:0:0:
272,306,26913,6,0,B|262:233|205:245|217:134,1,151.999995941162,0|0,1:2|0:0,0:0:0:0:
239,58,27425,2,0,P|283:49|327:43,1,75.9999979705811,8|0,0:0|0:0,0:0:0:0:
130,110,27765,2,0,L|122:64,1,37.9999989852906,2|0,1:2|0:0,0:0:0:0:
81,13,27936,1,0,1:2:0:0:
143,194,28106,1,8,0:0:0:0:
61,163,28277,1,2,0:0:0:0:
266,96,28447,6,0,P|304:94|337:113,1,75.9999979705811,0|0,1:2|0:0,0:0:0:0:
470,196,28788,2,0,P|432:194|400:213,1,75.9999979705811,10|0,0:0|0:0,0:0:0:0:
316,278,29129,2,0,P|312:250|307:230,1,37.9999989852906,0|0,1:2|0:0,0:0:0:0:
286,172,29300,1,0,1:2:0:0:
412,358,29470,1,10,0:0:0:0:
512,144,29640,6,0,P|493:215|479:314,1,151.999995941162,2|0,1:2|0:0,0:0:0:0:
309,240,30152,2,0,P|349:220|390:236,1,75.9999979705811,8|0,0:0|0:0,0:0:0:0:
213,344,30493,2,0,L|204:298,1,37.9999989852906,0|0,1:2|0:0,0:0:0:0:
191,234,30663,1,0,1:2:0:0:
37,357,30834,2,0,P|23:323|40:272,1,75.9999979705811,8|2,0:0|0:0,0:0:0:0:
124,108,31175,6,0,P|90:134|57:131,1,75.9999979705811,2|2,1:2|0:0,0:0:0:0:
215,13,31515,2,0,P|252:12|280:36,1,75.9999979705811,10|2,0:0|0:0,0:0:0:0:
369,189,31856,2,0,L|382:133,1,37.9999989852906,2|0,1:2|0:0,0:0:0:0:
392,79,32027,1,2,1:2:0:0:
283,267,32197,1,10,0:0:0:0:
443,222,32368,1,2,1:2:0:0:
285,155,32538,6,0,P|237:138|197:150,1,75.9999979705811,2|2,0:0|0:0,0:0:0:0:
371,237,32879,2,0,P|419:220|461:230,1,75.9999979705811,10|2,0:0|0:0,0:0:0:0:
498,306,33220,2,0,P|413:335|340:318,1,151.999995941162,2|2,0:0|0:0,0:0:0:0:
285,155,33902,6,0,L|304:36,2,120.000004577637,2|2|2,0:0|0:0|0:0,0:0:0:0:
224,207,34754,2,0,P|194:193|160:187,1,60.0000022888184,2|0,0:0|0:0,0:0:0:0:
80,295,35095,6,0,P|100:234|75:177,1,120.000004577637,2|2,0:0|0:0,0:0:0:0:
30,119,35606,1,2,0:0:0:0:
66,41,35777,2,0,P|101:22|134:27,1,60.0000022888184,2|0,0:0|0:0,0:0:0:0:
192,81,36118,2,0,B|249:58|232:26|304:11,1,120.000004577637,2|2,0:0|0:0,0:0:0:0:
387,95,36629,6,0,L|365:215,2,111.999996582031,2|2|2,0:0|3:2|0:0,0:0:0:0:
450,48,37481,2,0,P|483:44|512:70,1,60.0000022888184,2|0,0:0|0:0,0:0:0:0:
425,164,37822,6,0,P|372:167|310:122,1,120.000004577637,2|2,3:2|0:0,0:0:0:0:
251,96,38333,1,2,0:0:0:0:
195,157,38504,2,0,P|205:192|212:220,1,60.0000022888184,2|0,0:0|0:0,0:0:0:0:
250,281,38845,2,0,P|201:247|142:249,1,120.000004577637,2|2,0:0|0:0,0:0:0:0:
59,330,39356,5,2,0:0:0:0:
59,330,39697,1,2,3:2:0:0:
59,330,40038,2,0,P|52:300|40:260,1,60.0000022888184,2|2,0:0|0:0,0:0:0:0:
63,183,40379,1,0,0:0:0:0:
9,90,40550,6,0,P|67:140|123:122,1,120.000004577637,2|2,3:2|0:0,0:0:0:0:
165,72,41061,1,2,0:0:0:0:
228,134,41231,2,0,P|216:165|225:207,1,60.0000022888184,2|0,0:0|0:0,0:0:0:0:
285,238,41572,1,2,0:0:0:0:
400,196,41743,5,10,0:0:0:0:
429,267,41913,1,2,0:0:0:0:
473,160,42084,2,0,P|477:114|480:65,1,75.9999979705811,6|0,1:2|0:0,0:0:0:0:
330,233,42425,2,0,P|323:274|346:309,1,75.9999979705811,10|0,0:0|0:0,0:0:0:0:
373,81,42765,1,2,1:2:0:0:
373,81,42936,2,0,P|320:73|281:66,1,75.9999979705811,2|8,1:2|0:0,0:0:0:0:
30,13,43277,6,0,P|41:49|52:85,1,75.9999979705811,2|0,1:2|0:0,0:0:0:0:
199,221,43618,2,0,P|209:186|226:134,1,75.9999979705811,2|8,0:0|0:0,0:0:0:0:
46,268,43959,2,0,P|40:304|57:337,1,75.9999979705811,2|0,0:0|1:2,0:0:0:0:
261,292,44300,1,2,1:2:0:0:
76,337,44470,1,8,0:0:0:0:
180,363,44640,1,0,0:0:0:0:
63,214,44811,6,0,P|84:186|126:181,1,75.9999979705811,2|0,1:2|0:0,0:0:0:0:
218,74,45152,2,0,P|254:78|277:107,1,75.9999979705811,10|0,0:0|0:0,0:0:0:0:
410,168,45493,1,2,1:2:0:0:
410,168,45663,2,0,P|419:203|402:236,1,75.9999979705811,2|8,1:2|0:0,0:0:0:0:
219,346,46004,6,0,P|225:294|232:244,1,75.9999979705811,2|0,1:2|0:0,0:0:0:0:
340,58,46345,2,0,P|360:94|349:133,1,75.9999979705811,2|8,0:0|0:0,0:0:0:0:
138,280,46686,2,0,P|132:243|151:211,1,75.9999979705811,2|0,0:0|1:2,0:0:0:0:
338,134,47027,1,2,1:2:0:0:
228,270,47197,1,8,0:0:0:0:
225,186,47368,1,0,0:0:0:0:
131,52,47538,6,0,P|98:29|39:34,1,75.9999979705811,2|0,1:2|0:0,0:0:0:0:
225,186,47879,2,0,P|258:163|317:168,1,75.9999979705811,10|0,0:0|0:0,0:0:0:0:
102,300,48220,1,2,1:2:0:0:
102,300,48390,2,0,P|93:253|81:197,1,75.9999979705811,2|8,1:2|0:0,0:0:0:0:
342,315,48731,6,0,P|298:338|271:329,1,75.9999979705811,2|0,1:2|0:0,0:0:0:0:
433,148,49072,2,0,P|426:192|418:232,1,75.9999979705811,2|8,0:0|0:0,0:0:0:0:
279,114,49413,2,0,P|271:76|265:39,1,75.9999979705811,2|0,0:0|1:2,0:0:0:0:
117,182,49754,1,2,1:2:0:0:
167,0,49925,1,10,0:0:0:0:
183,112,50095,1,0,0:0:0:0:
10,23,50265,6,0,P|17:60|26:115,1,80,0|0,1:2|0:0,0:0:0:0:
